osu file format v14

[General]
AudioFilename: Everlasting Message NOFX.mp3
AudioLeadIn: 0
PreviewTime: 44783
Countdown: 0
SampleSet: None
StackLeniency: 0.7
Mode: 3
LetterboxInBreaks: 0
SpecialStyle: 0
WidescreenStoryboard: 0

[Editor]
DistanceSpacing: 1
BeatDivisor: 4
GridSize: 8
TimelineZoom: 2.6

[Metadata]
Title:__M A S__ Vol. 3
TitleUnicode:__M A S__ Vol. 3
Artist:Various
ArtistUnicode:Various
Creator:[ C r a c k ]
Version:penoreri - Everlasting Message 7K GRAVITY
Source:
Tags:
BeatmapID:1144932
BeatmapSetID:539892

[Difficulty]
HPDrainRate:8
CircleSize:7
OverallDifficulty:5
ApproachRate:5
SliderMultiplier:1.4
SliderTickRate:1

[Events]
//Background and Video events
0,0,"everlast.jpg",0,0
//Break Periods
//Storyboard Layer 0 (Background)
//Storyboard Layer 1 (Fail)
//Storyboard Layer 2 (Pass)
//Storyboard Layer 3 (Foreground)
//Storyboard Sound Samples

[TimingPoints]
1850,260.869565217391,4,3,1,0,1,0
33415,-50,4,3,1,0,0,0
33545,-166.666666666667,4,3,1,0,0,0
33676,-142.857142857143,4,3,1,0,0,0
33708,-125,4,3,1,0,0,0
33741,-111.111111111111,4,3,1,0,0,0
33773,-100,4,3,1,0,0,0
67849,-166.666666666667,4,3,1,0,0,0
68632,-142.857142857143,4,3,1,0,0,0
68763,-125,4,3,1,0,0,0
68795,-111.111111111111,4,3,1,0,0,0
68828,-99.9999999999999,4,3,1,0,0,0
78284,-50,4,3,1,0,0,0
78415,-166.666666666667,4,3,1,0,0,0
78545,-142.857142857143,4,3,1,0,0,0
78578,-125,4,3,1,0,0,0
78610,-111.111111111111,4,3,1,0,0,0
78643,-100,4,3,1,0,0,0
82458,-50,4,3,1,0,0,0
82589,-166.666666666667,4,3,1,0,0,0
82719,-142.857142857143,4,3,1,0,0,0
82752,-125,4,3,1,0,0,0
82784,-111.111111111111,4,3,1,0,0,0
82817,-100,4,3,1,0,0,0
88784,260.869565217391,4,3,1,0,1,0
89566,260.869565217391,4,3,1,0,1,0
89697,260.869565217391,4,3,1,0,1,0
99088,-66.6666666666667,4,3,1,0,0,0
99218,-133.333333333333,4,3,1,0,0,0
99349,-200,4,3,1,0,0,0
99479,-66.6666666666667,4,3,1,0,0,0
99610,-200,4,3,1,0,0,0
99707,-66.6666666666667,4,3,1,0,0,0
99805,-200,4,3,1,0,0,0
99903,-66.6666666666667,4,3,1,0,0,0
100001,-100,4,3,1,0,0,0
108479,-111.111111111111,4,3,1,0,0,0
109523,-100,4,3,1,0,0,0

[HitObjects]
182,192,1850,5,0,0:0:0:0:
36,192,1850,1,0,0:0:0:0:
329,192,1850,1,0,0:0:0:0:
109,192,1850,1,0,0:0:0:0:
256,192,1850,1,0,0:0:0:0:
329,192,2110,1,0,0:0:0:0:
475,192,2110,1,0,0:0:0:0:
182,192,2110,1,0,0:0:0:0:
402,192,2110,1,0,0:0:0:0:
256,192,2110,1,0,0:0:0:0:
256,192,2371,1,0,0:0:0:0:
475,192,2371,1,0,0:0:0:0:
36,192,2371,1,0,0:0:0:0:
182,192,2502,1,0,0:0:0:0:
402,192,2502,1,0,0:0:0:0:
109,192,2632,1,0,0:0:0:0:
329,192,2632,1,0,0:0:0:0:
36,192,2893,1,0,0:0:0:0:
475,192,2893,1,0,0:0:0:0:
182,192,2893,1,0,0:0:0:0:
109,192,3023,1,0,0:0:0:0:
256,192,3023,1,0,0:0:0:0:
182,192,3154,1,0,0:0:0:0:
329,192,3154,1,0,0:0:0:0:
256,192,3284,1,0,0:0:0:0:
402,192,3284,1,0,0:0:0:0:
109,192,3415,1,0,0:0:0:0:
329,192,3415,1,0,0:0:0:0:
182,192,3545,1,0,0:0:0:0:
402,192,3545,1,0,0:0:0:0:
256,192,3676,1,0,0:0:0:0:
475,192,3676,1,0,0:0:0:0:
36,192,3806,1,0,0:0:0:0:
329,192,3806,1,0,0:0:0:0:
109,192,3936,1,0,0:0:0:0:
402,192,3936,1,0,0:0:0:0:
182,192,4067,1,0,0:0:0:0:
475,192,4067,1,0,0:0:0:0:
109,192,4197,1,0,0:0:0:0:
256,192,4197,1,0,0:0:0:0:
36,192,4197,1,0,0:0:0:0:
182,192,4328,1,0,0:0:0:0:
329,192,4328,1,0,0:0:0:0:
256,192,4458,1,0,0:0:0:0:
36,192,4458,1,0,0:0:0:0:
402,192,4458,1,0,0:0:0:0:
329,192,4589,1,0,0:0:0:0:
475,192,4589,1,0,0:0:0:0:
36,192,4719,1,0,0:0:0:0:
402,192,4719,1,0,0:0:0:0:
256,192,4719,1,0,0:0:0:0:
475,192,4849,1,0,0:0:0:0:
329,192,4849,1,0,0:0:0:0:
36,192,4980,1,0,0:0:0:0:
402,192,4980,1,0,0:0:0:0:
256,192,4980,1,0,0:0:0:0:
329,192,5110,1,0,0:0:0:0:
182,192,5110,1,0,0:0:0:0:
256,192,5241,1,0,0:0:0:0:
402,192,5241,1,0,0:0:0:0:
475,192,5241,1,0,0:0:0:0:
109,192,5241,1,0,0:0:0:0:
36,192,5241,1,0,0:0:0:0:
36,192,5371,1,0,0:0:0:0:
182,192,5371,1,0,0:0:0:0:
329,192,5371,1,0,0:0:0:0:
475,192,5371,1,0,0:0:0:0:
109,192,5436,1,0,0:0:0:0:
256,192,5436,1,0,0:0:0:0:
182,192,5502,1,0,0:0:0:0:
329,192,5502,1,0,0:0:0:0:
256,192,5567,1,0,0:0:0:0:
402,192,5567,1,0,0:0:0:0:
329,192,5632,1,0,0:0:0:0:
475,192,5632,1,0,0:0:0:0:
256,192,5697,1,0,0:0:0:0:
402,192,5697,1,0,0:0:0:0:
182,192,5763,1,0,0:0:0:0:
329,192,5763,1,0,0:0:0:0:
109,192,5828,1,0,0:0:0:0:
256,192,5828,1,0,0:0:0:0:
182,192,5893,1,0,0:0:0:0:
36,192,5893,1,0,0:0:0:0:
475,192,5893,1,0,0:0:0:0:
402,192,5958,1,0,0:0:0:0:
329,192,6023,1,0,0:0:0:0:
36,192,6023,1,0,0:0:0:0:
182,192,6023,1,0,0:0:0:0:
109,192,6154,1,0,0:0:0:0:
256,192,6154,1,0,0:0:0:0:
402,192,6154,1,0,0:0:0:0:
182,192,6284,1,0,0:0:0:0:
329,192,6284,1,0,0:0:0:0:
475,192,6284,1,0,0:0:0:0:
109,192,6415,1,0,0:0:0:0:
256,192,6415,1,0,0:0:0:0:
402,192,6415,1,0,0:0:0:0:
36,192,6545,1,0,0:0:0:0:
329,192,6545,1,0,0:0:0:0:
109,192,6676,1,0,0:0:0:0:
402,192,6676,1,0,0:0:0:0:
182,192,6806,1,0,0:0:0:0:
475,192,6806,1,0,0:0:0:0:
329,192,6806,1,0,0:0:0:0:
109,192,7067,1,0,0:0:0:0:
256,192,7067,1,0,0:0:0:0:
402,192,7067,1,0,0:0:0:0:
36,192,7328,1,0,0:0:0:0:
329,192,7328,1,0,0:0:0:0:
475,192,7328,1,0,0:0:0:0:
256,192,7458,1,0,0:0:0:0:
182,192,7589,1,0,0:0:0:0:
36,192,7719,1,0,0:0:0:0:
475,192,7719,1,0,0:0:0:0:
402,192,7719,1,0,0:0:0:0:
109,192,7719,1,0,0:0:0:0:
329,192,7849,1,0,0:0:0:0:
256,192,7980,1,0,0:0:0:0:
182,192,8110,1,0,0:0:0:0:
475,192,8110,1,0,0:0:0:0:
36,192,8110,1,0,0:0:0:0:
256,192,8241,1,0,0:0:0:0:
329,192,8371,1,0,0:0:0:0:
402,192,8502,1,0,0:0:0:0:
36,192,8502,1,0,0:0:0:0:
475,192,8632,1,0,0:0:0:0:
109,192,8632,1,0,0:0:0:0:
182,192,8763,1,0,0:0:0:0:
402,192,8763,1,0,0:0:0:0:
109,192,8893,1,0,0:0:0:0:
329,192,8893,1,0,0:0:0:0:
256,192,9023,1,0,0:0:0:0:
36,192,9023,1,0,0:0:0:0:
182,192,9089,1,0,0:0:0:0:
109,192,9154,1,0,0:0:0:0:
329,192,9154,1,0,0:0:0:0:
256,192,9219,1,0,0:0:0:0:
182,192,9284,1,0,0:0:0:0:
402,192,9284,1,0,0:0:0:0:
329,192,9349,1,0,0:0:0:0:
256,192,9415,1,0,0:0:0:0:
475,192,9415,1,0,0:0:0:0:
182,192,9415,1,0,0:0:0:0:
36,192,9415,1,0,0:0:0:0:
36,192,9545,1,0,0:0:0:0:
182,192,9545,1,0,0:0:0:0:
182,192,9676,1,0,0:0:0:0:
36,192,9676,1,0,0:0:0:0:
36,192,9806,1,0,0:0:0:0:
182,192,9806,1,0,0:0:0:0:
182,192,9936,1,0,0:0:0:0:
36,192,9936,1,0,0:0:0:0:
329,192,9936,1,0,0:0:0:0:
475,192,9936,1,0,0:0:0:0:
182,192,10067,1,0,0:0:0:0:
36,192,10067,1,0,0:0:0:0:
36,192,10197,1,0,0:0:0:0:
182,192,10197,1,0,0:0:0:0:
182,192,10328,1,0,0:0:0:0:
36,192,10328,1,0,0:0:0:0:
36,192,10458,1,0,0:0:0:0:
182,192,10458,1,0,0:0:0:0:
475,192,10458,1,0,0:0:0:0:
402,192,10458,1,0,0:0:0:0:
182,192,10589,1,0,0:0:0:0:
36,192,10589,1,0,0:0:0:0:
36,192,10719,1,0,0:0:0:0:
182,192,10719,1,0,0:0:0:0:
182,192,10849,1,0,0:0:0:0:
36,192,10849,1,0,0:0:0:0:
36,192,10980,1,0,0:0:0:0:
182,192,10980,1,0,0:0:0:0:
329,192,10980,1,0,0:0:0:0:
402,192,10980,1,0,0:0:0:0:
182,192,11110,1,0,0:0:0:0:
36,192,11110,1,0,0:0:0:0:
36,192,11241,1,0,0:0:0:0:
182,192,11241,1,0,0:0:0:0:
182,192,11371,1,0,0:0:0:0:
36,192,11371,1,0,0:0:0:0:
36,192,11502,1,0,0:0:0:0:
182,192,11502,1,0,0:0:0:0:
402,192,11502,1,0,0:0:0:0:
475,192,11502,1,0,0:0:0:0:
182,192,11632,1,0,0:0:0:0:
36,192,11632,1,0,0:0:0:0:
329,192,11632,1,0,0:0:0:0:
402,192,11763,1,0,0:0:0:0:
36,192,11763,1,0,0:0:0:0:
182,192,11763,1,0,0:0:0:0:
475,192,11893,1,0,0:0:0:0:
182,192,11893,1,0,0:0:0:0:
36,192,11893,1,0,0:0:0:0:
402,192,12023,1,0,0:0:0:0:
182,192,12023,1,0,0:0:0:0:
36,192,12023,1,0,0:0:0:0:
329,192,12089,1,0,0:0:0:0:
475,192,12154,1,0,0:0:0:0:
182,192,12154,1,0,0:0:0:0:
36,192,12154,1,0,0:0:0:0:
402,192,12219,1,0,0:0:0:0:
329,192,12284,1,0,0:0:0:0:
182,192,12284,1,0,0:0:0:0:
36,192,12284,1,0,0:0:0:0:
475,192,12349,1,0,0:0:0:0:
402,192,12415,1,0,0:0:0:0:
182,192,12415,1,0,0:0:0:0:
36,192,12415,1,0,0:0:0:0:
329,192,12480,1,0,0:0:0:0:
402,192,12545,1,0,0:0:0:0:
475,192,12545,1,0,0:0:0:0:
182,192,12545,1,0,0:0:0:0:
36,192,12545,1,0,0:0:0:0:
402,192,12676,1,0,0:0:0:0:
256,192,12676,1,0,0:0:0:0:
329,192,12806,1,0,0:0:0:0:
182,192,12806,1,0,0:0:0:0:
256,192,12936,1,0,0:0:0:0:
109,192,12936,1,0,0:0:0:0:
182,192,13067,1,0,0:0:0:0:
36,192,13067,1,0,0:0:0:0:
256,192,13197,1,0,0:0:0:0:
36,192,13197,1,0,0:0:0:0:
109,192,13328,1,0,0:0:0:0:
329,192,13328,1,0,0:0:0:0:
182,192,13458,1,0,0:0:0:0:
402,192,13458,1,0,0:0:0:0:
256,192,13589,1,0,0:0:0:0:
329,192,13589,1,0,0:0:0:0:
475,192,13589,1,0,0:0:0:0:
36,192,13589,1,0,0:0:0:0:
329,192,13719,1,0,0:0:0:0:
475,192,13719,1,0,0:0:0:0:
329,192,13849,1,0,0:0:0:0:
475,192,13849,1,0,0:0:0:0:
475,192,13980,1,0,0:0:0:0:
329,192,13980,1,0,0:0:0:0:
329,192,14110,1,0,0:0:0:0:
475,192,14110,1,0,0:0:0:0:
475,192,14241,1,0,0:0:0:0:
329,192,14241,1,0,0:0:0:0:
329,192,14371,1,0,0:0:0:0:
475,192,14371,1,0,0:0:0:0:
475,192,14502,1,0,0:0:0:0:
329,192,14502,1,0,0:0:0:0:
329,192,14632,1,0,0:0:0:0:
475,192,14632,1,0,0:0:0:0:
36,192,14632,1,0,0:0:0:0:
182,192,14632,1,0,0:0:0:0:
109,192,14632,1,0,0:0:0:0:
475,192,14763,1,0,0:0:0:0:
329,192,14763,1,0,0:0:0:0:
329,192,14893,1,0,0:0:0:0:
475,192,14893,1,0,0:0:0:0:
475,192,15023,1,0,0:0:0:0:
329,192,15023,1,0,0:0:0:0:
329,192,15154,1,0,0:0:0:0:
475,192,15154,1,0,0:0:0:0:
36,192,15154,1,0,0:0:0:0:
109,192,15154,1,0,0:0:0:0:
475,192,15284,1,0,0:0:0:0:
329,192,15284,1,0,0:0:0:0:
329,192,15415,1,0,0:0:0:0:
475,192,15415,1,0,0:0:0:0:
475,192,15545,1,0,0:0:0:0:
329,192,15545,1,0,0:0:0:0:
329,192,15676,1,0,0:0:0:0:
475,192,15676,1,0,0:0:0:0:
182,192,15676,1,0,0:0:0:0:
109,192,15676,1,0,0:0:0:0:
36,192,15936,1,0,0:0:0:0:
109,192,15936,1,0,0:0:0:0:
402,192,15936,1,0,0:0:0:0:
329,192,15936,1,0,0:0:0:0:
256,192,16067,1,0,0:0:0:0:
475,192,16067,1,0,0:0:0:0:
36,192,16067,1,0,0:0:0:0:
109,192,16067,1,0,0:0:0:0:
402,192,16067,1,0,0:0:0:0:
329,192,16067,1,0,0:0:0:0:
402,192,16328,1,0,0:0:0:0:
475,192,16328,1,0,0:0:0:0:
109,192,16328,1,0,0:0:0:0:
182,192,16328,1,0,0:0:0:0:
475,192,16458,1,0,0:0:0:0:
402,192,16458,1,0,0:0:0:0:
256,192,16458,1,0,0:0:0:0:
182,192,16458,1,0,0:0:0:0:
109,192,16458,1,0,0:0:0:0:
36,192,16458,1,0,0:0:0:0:
182,192,16719,1,0,0:0:0:0:
256,192,16719,1,0,0:0:0:0:
329,192,16719,1,0,0:0:0:0:
109,192,16719,1,0,0:0:0:0:
402,192,16719,1,0,0:0:0:0:
402,192,16849,1,0,0:0:0:0:
36,192,16849,1,0,0:0:0:0:
256,192,16849,1,0,0:0:0:0:
109,192,16849,1,0,0:0:0:0:
475,192,16849,1,0,0:0:0:0:
36,192,17110,1,0,0:0:0:0:
182,192,17110,1,0,0:0:0:0:
329,192,17110,1,0,0:0:0:0:
475,192,17110,1,0,0:0:0:0:
256,192,17110,1,0,0:0:0:0:
402,192,17241,1,0,0:0:0:0:
182,192,17241,1,0,0:0:0:0:
109,192,17241,1,0,0:0:0:0:
36,192,17241,1,0,0:0:0:0:
475,192,17241,1,0,0:0:0:0:
256,192,17273,1,0,0:0:0:0:
329,192,17306,1,0,0:0:0:0:
402,192,17339,1,0,0:0:0:0:
475,192,17371,1,0,0:0:0:0:
36,192,17404,1,0,0:0:0:0:
109,192,17436,1,0,0:0:0:0:
182,192,17469,1,0,0:0:0:0:
256,192,17502,1,0,0:0:0:0:
329,192,17534,1,0,0:0:0:0:
402,192,17567,1,0,0:0:0:0:
475,192,17599,1,0,0:0:0:0:
36,192,17632,1,0,0:0:0:0:
109,192,17665,1,0,0:0:0:0:
182,192,17697,1,0,0:0:0:0:
256,192,17730,1,0,0:0:0:0:
329,192,17763,1,0,0:0:0:0:
475,192,17763,1,0,0:0:0:0:
256,192,17893,1,0,0:0:0:0:
402,192,17893,1,0,0:0:0:0:
36,192,18023,1,0,0:0:0:0:
182,192,18023,1,0,0:0:0:0:
329,192,18023,1,0,0:0:0:0:
256,192,18154,1,0,0:0:0:0:
109,192,18154,1,0,0:0:0:0:
182,192,18284,1,0,0:0:0:0:
329,192,18284,1,0,0:0:0:0:
475,192,18284,1,0,0:0:0:0:
402,192,18415,1,0,0:0:0:0:
256,192,18415,1,0,0:0:0:0:
109,192,18415,1,0,0:0:0:0:
36,192,18545,1,0,0:0:0:0:
182,192,18545,1,0,0:0:0:0:
329,192,18545,1,0,0:0:0:0:
256,192,18676,1,0,0:0:0:0:
109,192,18676,1,0,0:0:0:0:
36,192,18806,1,0,0:0:0:0:
182,192,18806,1,0,0:0:0:0:
329,192,18806,1,0,0:0:0:0:
256,192,18936,1,0,0:0:0:0:
109,192,18936,1,0,0:0:0:0:
329,192,19067,1,0,0:0:0:0:
182,192,19067,1,0,0:0:0:0:
402,192,19197,1,0,0:0:0:0:
256,192,19197,1,0,0:0:0:0:
36,192,19328,1,0,0:0:0:0:
256,192,19328,1,0,0:0:0:0:
329,192,19328,1,0,0:0:0:0:
182,192,19328,1,0,0:0:0:0:
475,192,19328,1,0,0:0:0:0:
402,192,19458,1,0,0:0:0:0:
256,192,19458,1,0,0:0:0:0:
329,192,19589,1,0,0:0:0:0:
182,192,19589,1,0,0:0:0:0:
256,192,19719,1,0,0:0:0:0:
109,192,19719,1,0,0:0:0:0:
36,192,19849,1,0,0:0:0:0:
182,192,19849,1,0,0:0:0:0:
329,192,19849,1,0,0:0:0:0:
475,192,19849,1,0,0:0:0:0:
256,192,19980,1,0,0:0:0:0:
402,192,19980,1,0,0:0:0:0:
329,192,20110,1,0,0:0:0:0:
182,192,20110,1,0,0:0:0:0:
109,192,20241,1,0,0:0:0:0:
256,192,20241,1,0,0:0:0:0:
256,192,20371,1,0,0:0:0:0:
402,192,20371,1,0,0:0:0:0:
36,192,20371,1,0,0:0:0:0:
182,192,20371,1,0,0:0:0:0:
109,192,20502,1,0,0:0:0:0:
329,192,20502,1,0,0:0:0:0:
182,192,20632,1,0,0:0:0:0:
402,192,20632,1,0,0:0:0:0:
256,192,20763,1,0,0:0:0:0:
475,192,20763,1,0,0:0:0:0:
182,192,20893,1,0,0:0:0:0:
329,192,20893,1,0,0:0:0:0:
402,192,20893,1,0,0:0:0:0:
475,192,20893,1,0,0:0:0:0:
109,192,20893,1,0,0:0:0:0:
36,192,21023,1,0,0:0:0:0:
256,192,21023,1,0,0:0:0:0:
256,192,21154,1,0,0:0:0:0:
475,192,21154,1,0,0:0:0:0:
256,192,21284,1,0,0:0:0:0:
36,192,21284,1,0,0:0:0:0:
36,192,21415,1,0,0:0:0:0:
109,192,21415,1,0,0:0:0:0:
182,192,21415,1,0,0:0:0:0:
329,192,21415,1,0,0:0:0:0:
402,192,21415,1,0,0:0:0:0:
256,192,21545,1,0,0:0:0:0:
475,192,21545,1,0,0:0:0:0:
36,192,21545,1,0,0:0:0:0:
402,192,21676,1,0,0:0:0:0:
182,192,21676,1,0,0:0:0:0:
109,192,21741,1,0,0:0:0:0:
329,192,21741,1,0,0:0:0:0:
36,192,21806,1,0,0:0:0:0:
256,192,21806,1,0,0:0:0:0:
109,192,21871,1,0,0:0:0:0:
329,192,21871,1,0,0:0:0:0:
182,192,21936,1,0,0:0:0:0:
402,192,21936,1,0,0:0:0:0:
256,192,21936,1,0,0:0:0:0:
475,192,21936,1,0,0:0:0:0:
329,192,22067,1,0,0:0:0:0:
109,192,22067,1,0,0:0:0:0:
256,192,22197,1,0,0:0:0:0:
36,192,22197,1,0,0:0:0:0:
109,192,22328,1,0,0:0:0:0:
182,192,22328,1,0,0:0:0:0:
329,192,22328,1,0,0:0:0:0:
402,192,22328,1,0,0:0:0:0:
36,192,22458,1,0,0:0:0:0:
256,192,22458,1,0,0:0:0:0:
109,192,22589,1,0,0:0:0:0:
329,192,22589,1,0,0:0:0:0:
182,192,22719,1,0,0:0:0:0:
256,192,22719,1,0,0:0:0:0:
402,192,22719,1,0,0:0:0:0:
475,192,22719,1,0,0:0:0:0:
329,192,22849,1,0,0:0:0:0:
109,192,22849,1,0,0:0:0:0:
182,192,22980,1,0,0:0:0:0:
402,192,22980,1,0,0:0:0:0:
36,192,23110,1,0,0:0:0:0:
109,192,23110,1,0,0:0:0:0:
256,192,23110,1,0,0:0:0:0:
329,192,23110,1,0,0:0:0:0:
182,192,23241,1,0,0:0:0:0:
402,192,23241,1,0,0:0:0:0:
256,192,23371,1,0,0:0:0:0:
475,192,23371,1,0,0:0:0:0:
109,192,23502,1,0,0:0:0:0:
182,192,23502,1,0,0:0:0:0:
329,192,23502,1,0,0:0:0:0:
402,192,23502,1,0,0:0:0:0:
256,192,23589,1,0,0:0:0:0:
36,192,23589,1,0,0:0:0:0:
329,192,23676,1,0,0:0:0:0:
109,192,23676,1,0,0:0:0:0:
182,192,23763,1,0,0:0:0:0:
402,192,23763,1,0,0:0:0:0:
475,192,23763,1,0,0:0:0:0:
36,192,23849,1,0,0:0:0:0:
256,192,23849,1,0,0:0:0:0:
109,192,23936,1,0,0:0:0:0:
329,192,23936,1,0,0:0:0:0:
256,192,24023,1,0,0:0:0:0:
475,192,24023,1,0,0:0:0:0:
36,192,24023,1,0,0:0:0:0:
402,192,24110,1,0,0:0:0:0:
182,192,24110,1,0,0:0:0:0:
329,192,24197,1,0,0:0:0:0:
109,192,24197,1,0,0:0:0:0:
256,192,24284,1,0,0:0:0:0:
36,192,24284,1,0,0:0:0:0:
329,192,24371,1,0,0:0:0:0:
109,192,24371,1,0,0:0:0:0:
402,192,24458,1,0,0:0:0:0:
182,192,24458,1,0,0:0:0:0:
475,192,24545,1,0,0:0:0:0:
256,192,24545,1,0,0:0:0:0:
36,192,24545,1,0,0:0:0:0:
402,192,24632,1,0,0:0:0:0:
182,192,24632,1,0,0:0:0:0:
329,192,24719,1,0,0:0:0:0:
109,192,24719,1,0,0:0:0:0:
256,192,24806,1,0,0:0:0:0:
36,192,24806,1,0,0:0:0:0:
329,192,24893,1,0,0:0:0:0:
109,192,24893,1,0,0:0:0:0:
182,192,24980,1,0,0:0:0:0:
402,192,24980,1,0,0:0:0:0:
256,192,25067,1,0,0:0:0:0:
475,192,25067,1,0,0:0:0:0:
36,192,25067,1,0,0:0:0:0:
109,192,25154,1,0,0:0:0:0:
329,192,25154,1,0,0:0:0:0:
402,192,25241,1,0,0:0:0:0:
182,192,25241,1,0,0:0:0:0:
475,192,25328,1,0,0:0:0:0:
256,192,25328,1,0,0:0:0:0:
402,192,25415,1,0,0:0:0:0:
182,192,25415,1,0,0:0:0:0:
329,192,25502,1,0,0:0:0:0:
109,192,25502,1,0,0:0:0:0:
256,192,25589,1,0,0:0:0:0:
475,192,25589,1,0,0:0:0:0:
36,192,25589,1,0,0:0:0:0:
329,192,25632,1,0,0:0:0:0:
109,192,25632,1,0,0:0:0:0:
402,192,25676,1,0,0:0:0:0:
182,192,25676,1,0,0:0:0:0:
475,192,25719,1,0,0:0:0:0:
256,192,25719,1,0,0:0:0:0:
36,192,25719,1,0,0:0:0:0:
329,192,25763,1,0,0:0:0:0:
109,192,25763,1,0,0:0:0:0:
402,192,25806,1,0,0:0:0:0:
182,192,25806,1,0,0:0:0:0:
475,192,25849,1,0,0:0:0:0:
256,192,25849,1,0,0:0:0:0:
36,192,25849,1,0,0:0:0:0:
329,192,25893,1,0,0:0:0:0:
109,192,25893,1,0,0:0:0:0:
402,192,25936,1,0,0:0:0:0:
182,192,25936,1,0,0:0:0:0:
475,192,25980,1,0,0:0:0:0:
256,192,25980,1,0,0:0:0:0:
36,192,25980,1,0,0:0:0:0:
329,192,26023,1,0,0:0:0:0:
109,192,26023,1,0,0:0:0:0:
402,192,26067,1,0,0:0:0:0:
182,192,26067,1,0,0:0:0:0:
36,192,26110,1,0,0:0:0:0:
475,192,26110,1,0,0:0:0:0:
256,192,26110,1,0,0:0:0:0:
109,192,26632,1,0,0:0:0:0:
329,192,26632,1,0,0:0:0:0:
182,192,26893,1,0,0:0:0:0:
402,192,26893,1,0,0:0:0:0:
256,192,27154,1,0,0:0:0:0:
475,192,27154,1,0,0:0:0:0:
182,192,27415,1,0,0:0:0:0:
36,192,27676,1,0,0:0:0:0:
256,192,27676,1,0,0:0:0:0:
329,192,27936,1,0,0:0:0:0:
36,192,28197,1,0,0:0:0:0:
475,192,28197,1,0,0:0:0:0:
402,192,28719,1,0,0:0:0:0:
182,192,28719,1,0,0:0:0:0:
329,192,28980,1,0,0:0:0:0:
109,192,28980,1,0,0:0:0:0:
256,192,29241,1,0,0:0:0:0:
36,192,29241,1,0,0:0:0:0:
182,192,29502,1,0,0:0:0:0:
475,192,29763,1,0,0:0:0:0:
256,192,29763,1,0,0:0:0:0:
329,192,30023,1,0,0:0:0:0:
475,192,30284,1,0,0:0:0:0:
36,192,30284,1,0,0:0:0:0:
109,192,30806,1,0,0:0:0:0:
329,192,30806,1,0,0:0:0:0:
182,192,31067,1,0,0:0:0:0:
402,192,31067,1,0,0:0:0:0:
256,192,31328,1,0,0:0:0:0:
475,192,31328,1,0,0:0:0:0:
109,192,31589,1,0,0:0:0:0:
182,192,31849,1,0,0:0:0:0:
329,192,31849,1,0,0:0:0:0:
402,192,32110,1,0,0:0:0:0:
329,192,32371,1,0,0:0:0:0:
475,192,32371,1,0,0:0:0:0:
109,192,32893,1,0,0:0:0:0:
36,192,32893,1,0,0:0:0:0:
182,192,32893,1,0,0:0:0:0:
475,192,33154,1,0,0:0:0:0:
402,192,33154,1,0,0:0:0:0:
329,192,33154,1,0,0:0:0:0:
256,192,33415,1,0,0:0:0:0:
475,192,33415,1,0,0:0:0:0:
109,192,33415,1,0,0:0:0:0:
36,192,33415,1,0,0:0:0:0:
402,192,33415,1,0,0:0:0:0:
36,192,33806,1,0,0:0:0:0:
475,192,33806,1,0,0:0:0:0:
329,192,33806,1,0,0:0:0:0:
402,192,33806,1,0,0:0:0:0:
109,192,33806,1,0,0:0:0:0:
109,192,33936,1,0,0:0:0:0:
256,192,33936,1,0,0:0:0:0:
36,192,33936,1,0,0:0:0:0:
182,192,33936,1,0,0:0:0:0:
475,192,34002,1,0,0:0:0:0:
182,192,34067,1,0,0:0:0:0:
402,192,34132,1,0,0:0:0:0:
109,192,34197,1,0,0:0:0:0:
329,192,34263,1,0,0:0:0:0:
36,192,34328,1,0,0:0:0:0:
256,192,34393,1,0,0:0:0:0:
109,192,34458,1,0,0:0:0:0:
475,192,34458,1,0,0:0:0:0:
182,192,34458,1,0,0:0:0:0:
402,192,34458,1,0,0:0:0:0:
36,192,34523,1,0,0:0:0:0:
329,192,34523,1,0,0:0:0:0:
402,192,34589,1,0,0:0:0:0:
182,192,34589,1,0,0:0:0:0:
475,192,34654,1,0,0:0:0:0:
109,192,34654,1,0,0:0:0:0:
402,192,34719,1,0,0:0:0:0:
36,192,34719,1,0,0:0:0:0:
256,192,34719,1,0,0:0:0:0:
182,192,34784,1,0,0:0:0:0:
475,192,34784,1,0,0:0:0:0:
109,192,34849,1,0,0:0:0:0:
402,192,34849,1,0,0:0:0:0:
329,192,34915,1,0,0:0:0:0:
36,192,34915,1,0,0:0:0:0:
256,192,34980,1,0,0:0:0:0:
475,192,34980,1,0,0:0:0:0:
109,192,34980,1,0,0:0:0:0:
402,192,34980,1,0,0:0:0:0:
36,192,35045,1,0,0:0:0:0:
182,192,35045,1,0,0:0:0:0:
329,192,35110,1,0,0:0:0:0:
109,192,35110,1,0,0:0:0:0:
475,192,35176,1,0,0:0:0:0:
182,192,35176,1,0,0:0:0:0:
256,192,35241,1,0,0:0:0:0:
402,192,35241,1,0,0:0:0:0:
36,192,35241,1,0,0:0:0:0:
182,192,35306,1,0,0:0:0:0:
475,192,35306,1,0,0:0:0:0:
109,192,35371,1,0,0:0:0:0:
329,192,35371,1,0,0:0:0:0:
402,192,35436,1,0,0:0:0:0:
36,192,35436,1,0,0:0:0:0:
329,192,35502,1,0,0:0:0:0:
109,192,35502,1,0,0:0:0:0:
256,192,35502,1,0,0:0:0:0:
475,192,35502,1,0,0:0:0:0:
182,192,35567,1,0,0:0:0:0:
402,192,35567,1,0,0:0:0:0:
36,192,35632,1,0,0:0:0:0:
329,192,35632,1,0,0:0:0:0:
402,192,35697,1,0,0:0:0:0:
109,192,35697,1,0,0:0:0:0:
475,192,35763,1,0,0:0:0:0:
256,192,35763,1,0,0:0:0:0:
182,192,35828,1,0,0:0:0:0:
402,192,35828,1,0,0:0:0:0:
109,192,35893,1,0,0:0:0:0:
329,192,35893,1,0,0:0:0:0:
402,192,35958,1,0,0:0:0:0:
256,192,35958,1,0,0:0:0:0:
329,192,36023,1,0,0:0:0:0:
475,192,36023,1,0,0:0:0:0:
36,192,36023,1,0,0:0:0:0:
182,192,36023,1,0,0:0:0:0:
109,192,36089,1,0,0:0:0:0:
256,192,36089,1,0,0:0:0:0:
402,192,36154,1,0,0:0:0:0:
182,192,36154,1,0,0:0:0:0:
475,192,36219,1,0,0:0:0:0:
256,192,36219,1,0,0:0:0:0:
182,192,36284,1,0,0:0:0:0:
402,192,36284,1,0,0:0:0:0:
109,192,36349,1,0,0:0:0:0:
329,192,36349,1,0,0:0:0:0:
182,192,36415,1,0,0:0:0:0:
475,192,36415,1,0,0:0:0:0:
402,192,36480,1,0,0:0:0:0:
109,192,36480,1,0,0:0:0:0:
329,192,36545,1,0,0:0:0:0:
36,192,36545,1,0,0:0:0:0:
256,192,36545,1,0,0:0:0:0:
182,192,36545,1,0,0:0:0:0:
475,192,36610,1,0,0:0:0:0:
109,192,36610,1,0,0:0:0:0:
182,192,36676,1,0,0:0:0:0:
402,192,36676,1,0,0:0:0:0:
329,192,36741,1,0,0:0:0:0:
109,192,36741,1,0,0:0:0:0:
36,192,36806,1,0,0:0:0:0:
256,192,36806,1,0,0:0:0:0:
329,192,36871,1,0,0:0:0:0:
109,192,36871,1,0,0:0:0:0:
402,192,36936,1,0,0:0:0:0:
182,192,36936,1,0,0:0:0:0:
475,192,37002,1,0,0:0:0:0:
36,192,37002,1,0,0:0:0:0:
109,192,37067,1,0,0:0:0:0:
256,192,37067,1,0,0:0:0:0:
329,192,37067,1,0,0:0:0:0:
402,192,37067,1,0,0:0:0:0:
182,192,37132,1,0,0:0:0:0:
475,192,37132,1,0,0:0:0:0:
256,192,37197,1,0,0:0:0:0:
402,192,37197,1,0,0:0:0:0:
36,192,37263,1,0,0:0:0:0:
329,192,37263,1,0,0:0:0:0:
402,192,37328,1,0,0:0:0:0:
109,192,37328,1,0,0:0:0:0:
182,192,37328,1,0,0:0:0:0:
256,192,37393,1,0,0:0:0:0:
475,192,37393,1,0,0:0:0:0:
182,192,37458,1,0,0:0:0:0:
402,192,37458,1,0,0:0:0:0:
329,192,37523,1,0,0:0:0:0:
36,192,37523,1,0,0:0:0:0:
109,192,37589,1,0,0:0:0:0:
475,192,37589,1,0,0:0:0:0:
256,192,37589,1,0,0:0:0:0:
402,192,37589,1,0,0:0:0:0:
182,192,37654,1,0,0:0:0:0:
329,192,37654,1,0,0:0:0:0:
402,192,37719,1,0,0:0:0:0:
256,192,37719,1,0,0:0:0:0:
475,192,37784,1,0,0:0:0:0:
182,192,37784,1,0,0:0:0:0:
109,192,37849,1,0,0:0:0:0:
402,192,37849,1,0,0:0:0:0:
329,192,37915,1,0,0:0:0:0:
182,192,37915,1,0,0:0:0:0:
475,192,37980,1,0,0:0:0:0:
109,192,37980,1,0,0:0:0:0:
36,192,38045,1,0,0:0:0:0:
402,192,38045,1,0,0:0:0:0:
256,192,38110,1,0,0:0:0:0:
182,192,38110,1,0,0:0:0:0:
109,192,38110,1,0,0:0:0:0:
329,192,38110,1,0,0:0:0:0:
402,192,38176,1,0,0:0:0:0:
36,192,38176,1,0,0:0:0:0:
109,192,38241,1,0,0:0:0:0:
475,192,38241,1,0,0:0:0:0:
182,192,38306,1,0,0:0:0:0:
402,192,38306,1,0,0:0:0:0:
256,192,38371,1,0,0:0:0:0:
329,192,38371,1,0,0:0:0:0:
402,192,38436,1,0,0:0:0:0:
182,192,38436,1,0,0:0:0:0:
109,192,38502,1,0,0:0:0:0:
475,192,38502,1,0,0:0:0:0:
36,192,38567,1,0,0:0:0:0:
329,192,38567,1,0,0:0:0:0:
475,192,38632,1,0,0:0:0:0:
256,192,38632,1,0,0:0:0:0:
402,192,38632,1,0,0:0:0:0:
182,192,38632,1,0,0:0:0:0:
109,192,38632,1,0,0:0:0:0:
329,192,38893,1,0,0:0:0:0:
256,192,38893,1,0,0:0:0:0:
402,192,38893,1,0,0:0:0:0:
182,192,38893,1,0,0:0:0:0:
329,192,39023,1,0,0:0:0:0:
182,192,39023,1,0,0:0:0:0:
36,192,39023,1,0,0:0:0:0:
109,192,39023,1,0,0:0:0:0:
402,192,39023,1,0,0:0:0:0:
475,192,39023,1,0,0:0:0:0:
256,192,39023,1,0,0:0:0:0:
256,192,39284,1,0,0:0:0:0:
182,192,39284,1,0,0:0:0:0:
329,192,39284,1,0,0:0:0:0:
109,192,39284,1,0,0:0:0:0:
36,192,39415,1,0,0:0:0:0:
182,192,39415,1,0,0:0:0:0:
109,192,39415,1,0,0:0:0:0:
256,192,39415,1,0,0:0:0:0:
329,192,39415,1,0,0:0:0:0:
402,192,39415,1,0,0:0:0:0:
475,192,39415,1,0,0:0:0:0:
36,192,39676,1,0,0:0:0:0:
182,192,39676,1,0,0:0:0:0:
109,192,39676,1,0,0:0:0:0:
256,192,39676,1,0,0:0:0:0:
475,192,39741,1,0,0:0:0:0:
329,192,39741,1,0,0:0:0:0:
36,192,39806,1,0,0:0:0:0:
109,192,39806,1,0,0:0:0:0:
475,192,39871,1,0,0:0:0:0:
402,192,39871,1,0,0:0:0:0:
182,192,39936,1,0,0:0:0:0:
256,192,39936,1,0,0:0:0:0:
329,192,39936,1,0,0:0:0:0:
109,192,39936,1,0,0:0:0:0:
475,192,40002,1,0,0:0:0:0:
402,192,40002,1,0,0:0:0:0:
256,192,40067,1,0,0:0:0:0:
182,192,40067,1,0,0:0:0:0:
329,192,40067,1,0,0:0:0:0:
109,192,40132,1,0,0:0:0:0:
36,192,40132,1,0,0:0:0:0:
256,192,40197,1,0,0:0:0:0:
329,192,40197,1,0,0:0:0:0:
182,192,40197,1,0,0:0:0:0:
402,192,40197,1,0,0:0:0:0:
36,192,40263,1,0,0:0:0:0:
109,192,40263,1,0,0:0:0:0:
329,192,40328,1,0,0:0:0:0:
475,192,40328,1,0,0:0:0:0:
182,192,40393,1,0,0:0:0:0:
36,192,40393,1,0,0:0:0:0:
256,192,40458,1,0,0:0:0:0:
329,192,40458,1,0,0:0:0:0:
402,192,40458,1,0,0:0:0:0:
475,192,40458,1,0,0:0:0:0:
109,192,40523,1,0,0:0:0:0:
182,192,40523,1,0,0:0:0:0:
329,192,40589,1,0,0:0:0:0:
475,192,40589,1,0,0:0:0:0:
36,192,40654,1,0,0:0:0:0:
182,192,40654,1,0,0:0:0:0:
256,192,40719,1,0,0:0:0:0:
475,192,40719,1,0,0:0:0:0:
109,192,40719,1,0,0:0:0:0:
329,192,40719,1,0,0:0:0:0:
36,192,40849,1,0,0:0:0:0:
182,192,40849,1,0,0:0:0:0:
256,192,40849,1,0,0:0:0:0:
402,192,40849,1,0,0:0:0:0:
475,192,40849,1,0,0:0:0:0:
256,192,40980,1,0,0:0:0:0:
256,192,41110,1,0,0:0:0:0:
36,192,41110,1,0,0:0:0:0:
182,192,41110,1,0,0:0:0:0:
402,192,41110,1,0,0:0:0:0:
329,192,41110,1,0,0:0:0:0:
256,192,41241,1,0,0:0:0:0:
109,192,41241,1,0,0:0:0:0:
329,192,41241,1,0,0:0:0:0:
475,192,41241,1,0,0:0:0:0:
256,192,41371,1,0,0:0:0:0:
256,192,41502,1,0,0:0:0:0:
475,192,41502,1,0,0:0:0:0:
109,192,41502,1,0,0:0:0:0:
329,192,41502,1,0,0:0:0:0:
182,192,41502,1,0,0:0:0:0:
256,192,41632,1,0,0:0:0:0:
36,192,41632,1,0,0:0:0:0:
182,192,41632,1,0,0:0:0:0:
402,192,41632,1,0,0:0:0:0:
256,192,41763,1,0,0:0:0:0:
36,192,41893,1,0,0:0:0:0:
182,192,41893,1,0,0:0:0:0:
402,192,41893,1,0,0:0:0:0:
256,192,41893,1,0,0:0:0:0:
109,192,42023,1,0,0:0:0:0:
329,192,42023,1,0,0:0:0:0:
475,192,42023,1,0,0:0:0:0:
256,192,42023,1,0,0:0:0:0:
36,192,42023,1,0,0:0:0:0:
256,192,42154,1,0,0:0:0:0:
256,192,42284,1,0,0:0:0:0:
109,192,42284,1,0,0:0:0:0:
36,192,42284,1,0,0:0:0:0:
402,192,42284,1,0,0:0:0:0:
475,192,42284,1,0,0:0:0:0:
256,192,42415,1,0,0:0:0:0:
109,192,42545,1,0,0:0:0:0:
182,192,42545,1,0,0:0:0:0:
256,192,42545,1,0,0:0:0:0:
329,192,42545,1,0,0:0:0:0:
402,192,42545,1,0,0:0:0:0:
256,192,42676,1,0,0:0:0:0:
36,192,42806,1,0,0:0:0:0:
182,192,42806,1,0,0:0:0:0:
402,192,42806,1,0,0:0:0:0:
329,192,42806,1,0,0:0:0:0:
36,192,42936,1,0,0:0:0:0:
329,192,42936,1,0,0:0:0:0:
402,192,42936,1,0,0:0:0:0:
475,192,42936,1,0,0:0:0:0:
109,192,42936,1,0,0:0:0:0:
256,192,43067,1,0,0:0:0:0:
36,192,43197,1,0,0:0:0:0:
182,192,43197,1,0,0:0:0:0:
475,192,43197,1,0,0:0:0:0:
402,192,43197,1,0,0:0:0:0:
329,192,43328,1,0,0:0:0:0:
475,192,43328,1,0,0:0:0:0:
109,192,43328,1,0,0:0:0:0:
36,192,43328,1,0,0:0:0:0:
182,192,43328,1,0,0:0:0:0:
256,192,43458,1,0,0:0:0:0:
182,192,43589,1,0,0:0:0:0:
36,192,43589,1,0,0:0:0:0:
329,192,43589,1,0,0:0:0:0:
402,192,43589,1,0,0:0:0:0:
475,192,43719,1,0,0:0:0:0:
402,192,43719,1,0,0:0:0:0:
182,192,43719,1,0,0:0:0:0:
109,192,43719,1,0,0:0:0:0:
329,192,43719,1,0,0:0:0:0:
402,192,43980,128,0,44061:0:0:0:0:
475,192,43980,128,0,44078:0:0:0:0:
329,192,43980,128,0,44045:0:0:0:0:
256,192,43980,128,0,44029:0:0:0:0:
182,192,43980,128,0,44013:0:0:0:0:
109,192,43980,128,0,43996:0:0:0:0:
36,192,43980,1,0,0:0:0:0:
402,192,44110,128,0,44208:0:0:0:0:
329,192,44110,128,0,44192:0:0:0:0:
256,192,44110,128,0,44176:0:0:0:0:
182,192,44110,128,0,44159:0:0:0:0:
109,192,44110,128,0,44143:0:0:0:0:
36,192,44110,128,0,44127:0:0:0:0:
329,192,44241,128,0,44339:0:0:0:0:
256,192,44241,128,0,44322:0:0:0:0:
182,192,44241,128,0,44306:0:0:0:0:
109,192,44241,128,0,44290:0:0:0:0:
36,192,44241,128,0,44273:0:0:0:0:
475,192,44241,128,0,44257:0:0:0:0:
402,192,44371,128,0,44388:0:0:0:0:
256,192,44371,128,0,44469:0:0:0:0:
182,192,44371,128,0,44453:0:0:0:0:
109,192,44371,128,0,44436:0:0:0:0:
36,192,44371,128,0,44420:0:0:0:0:
475,192,44371,128,0,44404:0:0:0:0:
329,192,44502,128,0,44518:0:0:0:0:
402,192,44502,128,0,44534:0:0:0:0:
475,192,44502,128,0,44551:0:0:0:0:
182,192,44502,128,0,44599:0:0:0:0:
109,192,44502,128,0,44583:0:0:0:0:
36,192,44502,128,0,44567:0:0:0:0:
256,192,44632,128,0,44648:0:0:0:0:
329,192,44632,128,0,44665:0:0:0:0:
402,192,44632,128,0,44681:0:0:0:0:
475,192,44632,128,0,44697:0:0:0:0:
109,192,44632,128,0,44730:0:0:0:0:
36,192,44632,128,0,44714:0:0:0:0:
182,192,44763,128,0,44779:0:0:0:0:
256,192,44763,128,0,44795:0:0:0:0:
329,192,44763,128,0,44811:0:0:0:0:
402,192,44763,128,0,44828:0:0:0:0:
475,192,44763,128,0,44844:0:0:0:0:
36,192,44763,128,0,44860:0:0:0:0:
182,192,44893,128,0,44926:0:0:0:0:
256,192,44893,128,0,44942:0:0:0:0:
109,192,44893,128,0,44909:0:0:0:0:
329,192,44893,128,0,44958:0:0:0:0:
402,192,44893,128,0,44974:0:0:0:0:
475,192,44893,128,0,45219:0:0:0:0:
36,192,45023,1,0,0:0:0:0:
329,192,45023,1,0,0:0:0:0:
182,192,45023,1,0,0:0:0:0:
256,192,45154,1,0,0:0:0:0:
109,192,45154,1,0,0:0:0:0:
182,192,45154,1,0,0:0:0:0:
402,192,45154,1,0,0:0:0:0:
36,192,45284,128,0,45349:0:0:0:0:
109,192,45284,128,0,45349:0:0:0:0:
182,192,45284,128,0,45349:0:0:0:0:
256,192,45284,128,0,45349:0:0:0:0:
329,192,45284,128,0,45349:0:0:0:0:
402,192,45284,128,0,45349:0:0:0:0:
475,192,45284,128,0,45349:0:0:0:0:
109,192,45415,1,0,0:0:0:0:
256,192,45415,1,0,0:0:0:0:
402,192,45415,1,0,0:0:0:0:
36,192,45415,128,0,45610:0:0:0:0:
475,192,45415,1,0,0:0:0:0:
109,192,45545,1,0,0:0:0:0:
329,192,45545,1,0,0:0:0:0:
182,192,45545,1,0,0:0:0:0:
182,192,45676,128,0,45741:0:0:0:0:
329,192,45676,128,0,45741:0:0:0:0:
36,192,45676,128,0,45741:0:0:0:0:
109,192,45676,128,0,45741:0:0:0:0:
256,192,45676,128,0,45741:0:0:0:0:
402,192,45676,128,0,45741:0:0:0:0:
475,192,45676,128,0,45741:0:0:0:0:
109,192,45806,1,0,0:0:0:0:
256,192,45806,1,0,0:0:0:0:
329,192,45806,1,0,0:0:0:0:
475,192,45806,128,0,46197:0:0:0:0:
36,192,45936,1,0,0:0:0:0:
182,192,45936,1,0,0:0:0:0:
329,192,45936,1,0,0:0:0:0:
402,192,45936,1,0,0:0:0:0:
109,192,46067,1,0,0:0:0:0:
256,192,46067,1,0,0:0:0:0:
182,192,46067,1,0,0:0:0:0:
402,192,46197,128,0,46458:0:0:0:0:
256,192,46197,1,0,0:0:0:0:
329,192,46197,1,0,0:0:0:0:
36,192,46197,1,0,0:0:0:0:
109,192,46197,1,0,0:0:0:0:
475,192,46328,1,0,0:0:0:0:
256,192,46328,1,0,0:0:0:0:
36,192,46328,1,0,0:0:0:0:
329,192,46458,128,0,46719:0:0:0:0:
109,192,46458,1,0,0:0:0:0:
182,192,46458,1,0,0:0:0:0:
475,192,46458,1,0,0:0:0:0:
36,192,46458,1,0,0:0:0:0:
182,192,46589,1,0,0:0:0:0:
402,192,46589,1,0,0:0:0:0:
109,192,46589,1,0,0:0:0:0:
256,192,46719,128,0,46980:0:0:0:0:
475,192,46719,1,0,0:0:0:0:
182,192,46719,1,0,0:0:0:0:
36,192,46719,1,0,0:0:0:0:
402,192,46719,1,0,0:0:0:0:
109,192,46849,1,0,0:0:0:0:
36,192,46849,1,0,0:0:0:0:
329,192,46849,1,0,0:0:0:0:
182,192,46980,128,0,47371:0:0:0:0:
109,192,46980,1,0,0:0:0:0:
402,192,46980,1,0,0:0:0:0:
475,192,46980,1,0,0:0:0:0:
329,192,46980,1,0,0:0:0:0:
256,192,47110,1,0,0:0:0:0:
329,192,47110,1,0,0:0:0:0:
36,192,47110,1,0,0:0:0:0:
256,192,47241,1,0,0:0:0:0:
402,192,47241,1,0,0:0:0:0:
475,192,47241,1,0,0:0:0:0:
36,192,47241,1,0,0:0:0:0:
109,192,47371,128,0,47763:0:0:0:0:
329,192,47371,1,0,0:0:0:0:
402,192,47371,1,0,0:0:0:0:
475,192,47371,1,0,0:0:0:0:
182,192,47502,1,0,0:0:0:0:
329,192,47502,1,0,0:0:0:0:
475,192,47502,1,0,0:0:0:0:
256,192,47502,1,0,0:0:0:0:
256,192,47632,1,0,0:0:0:0:
402,192,47632,1,0,0:0:0:0:
182,192,47632,1,0,0:0:0:0:
36,192,47763,128,0,48023:0:0:0:0:
329,192,47763,1,0,0:0:0:0:
475,192,47763,1,0,0:0:0:0:
256,192,47763,1,0,0:0:0:0:
402,192,47763,1,0,0:0:0:0:
109,192,47893,1,0,0:0:0:0:
182,192,47893,1,0,0:0:0:0:
329,192,47893,1,0,0:0:0:0:
475,192,48023,128,0,48349:0:0:0:0:
256,192,48023,1,0,0:0:0:0:
329,192,48023,1,0,0:0:0:0:
402,192,48023,1,0,0:0:0:0:
182,192,48023,1,0,0:0:0:0:
182,192,48154,1,0,0:0:0:0:
256,192,48154,1,0,0:0:0:0:
329,192,48154,1,0,0:0:0:0:
109,192,48154,1,0,0:0:0:0:
256,192,48284,1,0,0:0:0:0:
182,192,48284,1,0,0:0:0:0:
109,192,48284,1,0,0:0:0:0:
36,192,48284,1,0,0:0:0:0:
36,192,48415,128,0,48480:0:0:0:0:
475,192,48415,128,0,48480:0:0:0:0:
109,192,48415,128,0,48480:0:0:0:0:
256,192,48415,128,0,48480:0:0:0:0:
329,192,48415,128,0,48480:0:0:0:0:
402,192,48415,128,0,48480:0:0:0:0:
182,192,48415,128,0,48480:0:0:0:0:
36,192,48545,128,0,49067:0:0:0:0:
182,192,48545,1,0,0:0:0:0:
256,192,48545,1,0,0:0:0:0:
329,192,48545,1,0,0:0:0:0:
402,192,48545,1,0,0:0:0:0:
109,192,48676,1,0,0:0:0:0:
182,192,48676,1,0,0:0:0:0:
256,192,48676,1,0,0:0:0:0:
329,192,48676,1,0,0:0:0:0:
256,192,48806,1,0,0:0:0:0:
329,192,48806,1,0,0:0:0:0:
402,192,48806,1,0,0:0:0:0:
475,192,48806,1,0,0:0:0:0:
402,192,48936,1,0,0:0:0:0:
329,192,48936,1,0,0:0:0:0:
256,192,48936,1,0,0:0:0:0:
182,192,48936,1,0,0:0:0:0:
475,192,49067,128,0,49393:0:0:0:0:
329,192,49067,1,0,0:0:0:0:
182,192,49067,1,0,0:0:0:0:
109,192,49067,1,0,0:0:0:0:
256,192,49067,1,0,0:0:0:0:
256,192,49197,1,0,0:0:0:0:
109,192,49197,1,0,0:0:0:0:
182,192,49197,1,0,0:0:0:0:
36,192,49197,1,0,0:0:0:0:
182,192,49328,1,0,0:0:0:0:
256,192,49328,1,0,0:0:0:0:
402,192,49328,1,0,0:0:0:0:
329,192,49328,1,0,0:0:0:0:
36,192,49458,128,0,49523:0:0:0:0:
109,192,49458,128,0,49523:0:0:0:0:
182,192,49458,128,0,49523:0:0:0:0:
256,192,49458,128,0,49523:0:0:0:0:
329,192,49458,128,0,49523:0:0:0:0:
402,192,49458,128,0,49523:0:0:0:0:
475,192,49458,128,0,49523:0:0:0:0:
36,192,49589,128,0,50110:0:0:0:0:
256,192,49589,1,0,0:0:0:0:
329,192,49589,1,0,0:0:0:0:
402,192,49589,1,0,0:0:0:0:
475,192,49589,1,0,0:0:0:0:
109,192,49719,1,0,0:0:0:0:
182,192,49719,1,0,0:0:0:0:
256,192,49719,1,0,0:0:0:0:
329,192,49719,1,0,0:0:0:0:
182,192,49849,1,0,0:0:0:0:
256,192,49849,1,0,0:0:0:0:
329,192,49849,1,0,0:0:0:0:
402,192,49849,1,0,0:0:0:0:
256,192,49980,1,0,0:0:0:0:
329,192,49980,1,0,0:0:0:0:
402,192,49980,1,0,0:0:0:0:
475,192,49980,1,0,0:0:0:0:
475,192,50110,128,0,50436:0:0:0:0:
402,192,50110,1,0,0:0:0:0:
329,192,50110,1,0,0:0:0:0:
256,192,50110,1,0,0:0:0:0:
182,192,50110,1,0,0:0:0:0:
182,192,50241,1,0,0:0:0:0:
256,192,50241,1,0,0:0:0:0:
329,192,50241,1,0,0:0:0:0:
109,192,50241,1,0,0:0:0:0:
36,192,50371,1,0,0:0:0:0:
109,192,50371,1,0,0:0:0:0:
182,192,50371,1,0,0:0:0:0:
256,192,50371,1,0,0:0:0:0:
475,192,50502,128,0,50567:0:0:0:0:
402,192,50502,128,0,50567:0:0:0:0:
329,192,50502,128,0,50567:0:0:0:0:
256,192,50502,128,0,50567:0:0:0:0:
182,192,50502,128,0,50567:0:0:0:0:
109,192,50502,128,0,50567:0:0:0:0:
36,192,50502,128,0,50567:0:0:0:0:
36,192,50632,128,0,50893:0:0:0:0:
109,192,50632,1,0,0:0:0:0:
182,192,50632,1,0,0:0:0:0:
256,192,50632,1,0,0:0:0:0:
329,192,50632,1,0,0:0:0:0:
402,192,50632,1,0,0:0:0:0:
256,192,50763,1,0,0:0:0:0:
109,192,50893,128,0,51154:0:0:0:0:
182,192,50893,1,0,0:0:0:0:
256,192,50893,1,0,0:0:0:0:
329,192,50893,1,0,0:0:0:0:
402,192,50893,1,0,0:0:0:0:
475,192,50893,1,0,0:0:0:0:
329,192,51023,1,0,0:0:0:0:
182,192,51154,128,0,51480:0:0:0:0:
256,192,51154,1,0,0:0:0:0:
329,192,51154,1,0,0:0:0:0:
402,192,51154,1,0,0:0:0:0:
475,192,51154,1,0,0:0:0:0:
36,192,51154,1,0,0:0:0:0:
256,192,51284,1,0,0:0:0:0:
256,192,51415,1,0,0:0:0:0:
329,192,51415,1,0,0:0:0:0:
402,192,51415,1,0,0:0:0:0:
36,192,51415,1,0,0:0:0:0:
109,192,51415,1,0,0:0:0:0:
36,192,51545,128,0,51610:0:0:0:0:
109,192,51545,128,0,51610:0:0:0:0:
182,192,51545,128,0,51610:0:0:0:0:
256,192,51545,128,0,51610:0:0:0:0:
329,192,51545,128,0,51610:0:0:0:0:
402,192,51545,128,0,51610:0:0:0:0:
475,192,51545,128,0,51610:0:0:0:0:
329,192,51676,128,0,52002:0:0:0:0:
36,192,51676,1,0,0:0:0:0:
109,192,51676,1,0,0:0:0:0:
182,192,51676,1,0,0:0:0:0:
256,192,51676,1,0,0:0:0:0:
402,192,51676,1,0,0:0:0:0:
109,192,51806,1,0,0:0:0:0:
109,192,51936,1,0,0:0:0:0:
182,192,51936,1,0,0:0:0:0:
256,192,51936,1,0,0:0:0:0:
402,192,51936,1,0,0:0:0:0:
475,192,51936,1,0,0:0:0:0:
36,192,52067,128,0,52132:0:0:0:0:
109,192,52067,128,0,52132:0:0:0:0:
182,192,52067,128,0,52132:0:0:0:0:
256,192,52067,128,0,52132:0:0:0:0:
329,192,52067,128,0,52132:0:0:0:0:
402,192,52067,128,0,52132:0:0:0:0:
475,192,52067,128,0,52132:0:0:0:0:
109,192,52197,128,0,52523:0:0:0:0:
256,192,52197,1,0,0:0:0:0:
182,192,52197,1,0,0:0:0:0:
329,192,52197,1,0,0:0:0:0:
402,192,52197,1,0,0:0:0:0:
475,192,52197,1,0,0:0:0:0:
329,192,52328,1,0,0:0:0:0:
182,192,52458,1,0,0:0:0:0:
256,192,52458,1,0,0:0:0:0:
329,192,52458,1,0,0:0:0:0:
402,192,52458,1,0,0:0:0:0:
475,192,52458,1,0,0:0:0:0:
36,192,52589,128,0,52654:0:0:0:0:
109,192,52589,128,0,52654:0:0:0:0:
182,192,52589,128,0,52654:0:0:0:0:
256,192,52589,128,0,52654:0:0:0:0:
329,192,52589,128,0,52654:0:0:0:0:
402,192,52589,128,0,52654:0:0:0:0:
475,192,52589,128,0,52654:0:0:0:0:
402,192,52719,128,0,53241:0:0:0:0:
36,192,52719,1,0,0:0:0:0:
475,192,52719,128,0,53241:0:0:0:0:
109,192,52752,1,0,0:0:0:0:
182,192,52784,1,0,0:0:0:0:
256,192,52817,1,0,0:0:0:0:
329,192,52849,1,0,0:0:0:0:
256,192,52882,1,0,0:0:0:0:
182,192,52915,1,0,0:0:0:0:
109,192,52947,1,0,0:0:0:0:
36,192,52980,1,0,0:0:0:0:
329,192,52980,1,0,0:0:0:0:
256,192,53013,1,0,0:0:0:0:
182,192,53045,1,0,0:0:0:0:
109,192,53078,1,0,0:0:0:0:
36,192,53110,1,0,0:0:0:0:
109,192,53143,1,0,0:0:0:0:
182,192,53176,1,0,0:0:0:0:
256,192,53208,1,0,0:0:0:0:
329,192,53241,1,0,0:0:0:0:
36,192,53241,128,0,53567:0:0:0:0:
182,192,53371,1,0,0:0:0:0:
329,192,53371,1,0,0:0:0:0:
475,192,53371,1,0,0:0:0:0:
109,192,53502,1,0,0:0:0:0:
256,192,53502,1,0,0:0:0:0:
182,192,53502,1,0,0:0:0:0:
329,192,53502,1,0,0:0:0:0:
402,192,53502,1,0,0:0:0:0:
36,192,53632,128,0,53697:0:0:0:0:
109,192,53632,128,0,53697:0:0:0:0:
182,192,53632,128,0,53697:0:0:0:0:
256,192,53632,128,0,53697:0:0:0:0:
329,192,53632,128,0,53697:0:0:0:0:
402,192,53632,128,0,53697:0:0:0:0:
475,192,53632,128,0,53697:0:0:0:0:
475,192,53763,128,0,53958:0:0:0:0:
329,192,53763,1,0,0:0:0:0:
182,192,53763,1,0,0:0:0:0:
36,192,53763,1,0,0:0:0:0:
36,192,53893,1,0,0:0:0:0:
109,192,53893,1,0,0:0:0:0:
182,192,53893,1,0,0:0:0:0:
256,192,53893,1,0,0:0:0:0:
329,192,53893,1,0,0:0:0:0:
36,192,54023,128,0,54089:0:0:0:0:
109,192,54023,128,0,54089:0:0:0:0:
182,192,54023,128,0,54089:0:0:0:0:
329,192,54023,128,0,54089:0:0:0:0:
256,192,54023,128,0,54089:0:0:0:0:
402,192,54023,128,0,54089:0:0:0:0:
475,192,54023,128,0,54089:0:0:0:0:
36,192,54154,128,0,54545:0:0:0:0:
182,192,54154,1,0,0:0:0:0:
329,192,54154,1,0,0:0:0:0:
475,192,54154,1,0,0:0:0:0:
256,192,54154,1,0,0:0:0:0:
109,192,54154,1,0,0:0:0:0:
256,192,54284,1,0,0:0:0:0:
402,192,54284,1,0,0:0:0:0:
109,192,54284,1,0,0:0:0:0:
182,192,54415,1,0,0:0:0:0:
256,192,54415,1,0,0:0:0:0:
329,192,54415,1,0,0:0:0:0:
402,192,54415,1,0,0:0:0:0:
475,192,54415,1,0,0:0:0:0:
109,192,54545,128,0,54806:0:0:0:0:
182,192,54545,1,0,0:0:0:0:
329,192,54545,1,0,0:0:0:0:
475,192,54545,1,0,0:0:0:0:
182,192,54676,1,0,0:0:0:0:
256,192,54676,1,0,0:0:0:0:
329,192,54676,1,0,0:0:0:0:
402,192,54676,1,0,0:0:0:0:
475,192,54676,1,0,0:0:0:0:
182,192,54806,128,0,55067:0:0:0:0:
256,192,54806,1,0,0:0:0:0:
329,192,54806,1,0,0:0:0:0:
402,192,54806,1,0,0:0:0:0:
475,192,54936,1,0,0:0:0:0:
402,192,54936,1,0,0:0:0:0:
36,192,54936,1,0,0:0:0:0:
109,192,54936,1,0,0:0:0:0:
256,192,54936,1,0,0:0:0:0:
109,192,55067,128,0,55328:0:0:0:0:
329,192,55067,1,0,0:0:0:0:
475,192,55067,1,0,0:0:0:0:
402,192,55067,1,0,0:0:0:0:
182,192,55197,1,0,0:0:0:0:
256,192,55197,1,0,0:0:0:0:
329,192,55197,1,0,0:0:0:0:
402,192,55197,1,0,0:0:0:0:
475,192,55197,1,0,0:0:0:0:
36,192,55328,128,0,55589:0:0:0:0:
182,192,55328,1,0,0:0:0:0:
329,192,55328,1,0,0:0:0:0:
475,192,55328,1,0,0:0:0:0:
475,192,55458,1,0,0:0:0:0:
402,192,55458,1,0,0:0:0:0:
329,192,55458,1,0,0:0:0:0:
256,192,55458,1,0,0:0:0:0:
182,192,55458,1,0,0:0:0:0:
475,192,55589,128,0,55849:0:0:0:0:
109,192,55589,1,0,0:0:0:0:
256,192,55589,1,0,0:0:0:0:
402,192,55589,1,0,0:0:0:0:
36,192,55719,1,0,0:0:0:0:
109,192,55719,1,0,0:0:0:0:
182,192,55719,1,0,0:0:0:0:
329,192,55719,1,0,0:0:0:0:
256,192,55719,1,0,0:0:0:0:
36,192,55849,128,0,56045:0:0:0:0:
109,192,55849,1,0,0:0:0:0:
256,192,55849,1,0,0:0:0:0:
402,192,55849,1,0,0:0:0:0:
329,192,55980,1,0,0:0:0:0:
402,192,55980,1,0,0:0:0:0:
475,192,55980,1,0,0:0:0:0:
182,192,55980,1,0,0:0:0:0:
256,192,55980,1,0,0:0:0:0:
182,192,56045,128,0,56241:0:0:0:0:
475,192,56110,1,0,0:0:0:0:
36,192,56110,1,0,0:0:0:0:
256,192,56110,1,0,0:0:0:0:
329,192,56241,128,0,56371:0:0:0:0:
256,192,56241,1,0,0:0:0:0:
109,192,56241,1,0,0:0:0:0:
36,192,56241,1,0,0:0:0:0:
402,192,56241,1,0,0:0:0:0:
475,192,56241,1,0,0:0:0:0:
475,192,56371,128,0,56632:0:0:0:0:
109,192,56371,1,0,0:0:0:0:
256,192,56371,1,0,0:0:0:0:
402,192,56371,1,0,0:0:0:0:
36,192,56502,1,0,0:0:0:0:
182,192,56502,1,0,0:0:0:0:
109,192,56502,1,0,0:0:0:0:
256,192,56502,1,0,0:0:0:0:
329,192,56502,1,0,0:0:0:0:
36,192,56632,128,0,56763:0:0:0:0:
182,192,56632,1,0,0:0:0:0:
256,192,56632,1,0,0:0:0:0:
329,192,56632,1,0,0:0:0:0:
475,192,56763,128,0,57154:0:0:0:0:
109,192,56763,1,0,0:0:0:0:
182,192,56763,1,0,0:0:0:0:
256,192,56763,1,0,0:0:0:0:
329,192,56763,1,0,0:0:0:0:
402,192,56763,1,0,0:0:0:0:
36,192,56893,1,0,0:0:0:0:
182,192,56893,1,0,0:0:0:0:
329,192,56893,1,0,0:0:0:0:
36,192,57023,1,0,0:0:0:0:
109,192,57023,1,0,0:0:0:0:
182,192,57023,1,0,0:0:0:0:
256,192,57023,1,0,0:0:0:0:
329,192,57023,1,0,0:0:0:0:
256,192,57154,128,0,57415:0:0:0:0:
109,192,57154,1,0,0:0:0:0:
402,192,57154,1,0,0:0:0:0:
329,192,57284,1,0,0:0:0:0:
475,192,57284,1,0,0:0:0:0:
36,192,57284,1,0,0:0:0:0:
182,192,57284,1,0,0:0:0:0:
36,192,57415,128,0,57806:0:0:0:0:
182,192,57415,1,0,0:0:0:0:
475,192,57415,1,0,0:0:0:0:
329,192,57415,1,0,0:0:0:0:
402,192,57415,1,0,0:0:0:0:
109,192,57415,1,0,0:0:0:0:
256,192,57545,1,0,0:0:0:0:
329,192,57545,1,0,0:0:0:0:
109,192,57676,1,0,0:0:0:0:
182,192,57676,1,0,0:0:0:0:
256,192,57676,1,0,0:0:0:0:
329,192,57676,1,0,0:0:0:0:
402,192,57676,1,0,0:0:0:0:
475,192,57676,1,0,0:0:0:0:
109,192,57806,128,0,58197:0:0:0:0:
329,192,57806,1,0,0:0:0:0:
402,192,57806,1,0,0:0:0:0:
182,192,57936,1,0,0:0:0:0:
256,192,57936,1,0,0:0:0:0:
329,192,57936,1,0,0:0:0:0:
402,192,57936,1,0,0:0:0:0:
475,192,57936,1,0,0:0:0:0:
36,192,57936,1,0,0:0:0:0:
402,192,58067,1,0,0:0:0:0:
475,192,58067,1,0,0:0:0:0:
182,192,58197,128,0,58458:0:0:0:0:
475,192,58197,1,0,0:0:0:0:
402,192,58197,1,0,0:0:0:0:
329,192,58197,1,0,0:0:0:0:
256,192,58197,1,0,0:0:0:0:
36,192,58197,1,0,0:0:0:0:
402,192,58328,1,0,0:0:0:0:
329,192,58328,1,0,0:0:0:0:
475,192,58458,128,0,58719:0:0:0:0:
402,192,58458,1,0,0:0:0:0:
329,192,58458,1,0,0:0:0:0:
256,192,58458,1,0,0:0:0:0:
109,192,58458,1,0,0:0:0:0:
36,192,58458,1,0,0:0:0:0:
256,192,58589,1,0,0:0:0:0:
182,192,58589,1,0,0:0:0:0:
329,192,58719,128,0,58980:0:0:0:0:
402,192,58719,1,0,0:0:0:0:
256,192,58719,1,0,0:0:0:0:
182,192,58719,1,0,0:0:0:0:
109,192,58719,1,0,0:0:0:0:
36,192,58719,1,0,0:0:0:0:
109,192,58849,1,0,0:0:0:0:
36,192,58849,1,0,0:0:0:0:
182,192,58980,128,0,59241:0:0:0:0:
36,192,58980,1,0,0:0:0:0:
109,192,58980,1,0,0:0:0:0:
256,192,58980,1,0,0:0:0:0:
402,192,58980,1,0,0:0:0:0:
475,192,58980,1,0,0:0:0:0:
402,192,59110,1,0,0:0:0:0:
475,192,59110,1,0,0:0:0:0:
36,192,59241,128,0,59502:0:0:0:0:
109,192,59241,1,0,0:0:0:0:
256,192,59241,1,0,0:0:0:0:
329,192,59241,1,0,0:0:0:0:
402,192,59241,1,0,0:0:0:0:
475,192,59241,1,0,0:0:0:0:
256,192,59371,1,0,0:0:0:0:
329,192,59371,1,0,0:0:0:0:
182,192,59371,1,0,0:0:0:0:
475,192,59502,128,0,59763:0:0:0:0:
109,192,59502,1,0,0:0:0:0:
182,192,59502,1,0,0:0:0:0:
256,192,59502,1,0,0:0:0:0:
329,192,59502,1,0,0:0:0:0:
402,192,59502,1,0,0:0:0:0:
256,192,59632,1,0,0:0:0:0:
36,192,59763,1,0,0:0:0:0:
402,192,59763,1,0,0:0:0:0:
182,192,59763,1,0,0:0:0:0:
329,192,59763,1,0,0:0:0:0:
256,192,59828,1,0,0:0:0:0:
109,192,59828,1,0,0:0:0:0:
329,192,59893,1,0,0:0:0:0:
182,192,59893,1,0,0:0:0:0:
402,192,59958,1,0,0:0:0:0:
256,192,59958,1,0,0:0:0:0:
36,192,60023,128,0,60284:0:0:0:0:
475,192,60023,1,0,0:0:0:0:
329,192,60023,1,0,0:0:0:0:
182,192,60023,1,0,0:0:0:0:
109,192,60023,1,0,0:0:0:0:
256,192,60154,1,0,0:0:0:0:
182,192,60284,1,0,0:0:0:0:
109,192,60284,1,0,0:0:0:0:
329,192,60284,1,0,0:0:0:0:
475,192,60284,1,0,0:0:0:0:
256,192,60349,1,0,0:0:0:0:
402,192,60349,1,0,0:0:0:0:
329,192,60415,1,0,0:0:0:0:
182,192,60415,1,0,0:0:0:0:
109,192,60480,1,0,0:0:0:0:
256,192,60480,1,0,0:0:0:0:
182,192,60545,1,0,0:0:0:0:
36,192,60545,1,0,0:0:0:0:
475,192,60545,128,0,60806:0:0:0:0:
329,192,60545,1,0,0:0:0:0:
402,192,60545,1,0,0:0:0:0:
109,192,60676,1,0,0:0:0:0:
256,192,60676,1,0,0:0:0:0:
402,192,60676,1,0,0:0:0:0:
36,192,60806,1,0,0:0:0:0:
182,192,60806,1,0,0:0:0:0:
329,192,60806,1,0,0:0:0:0:
402,192,60806,1,0,0:0:0:0:
109,192,60871,1,0,0:0:0:0:
256,192,60871,1,0,0:0:0:0:
182,192,60936,1,0,0:0:0:0:
329,192,60936,1,0,0:0:0:0:
256,192,61002,1,0,0:0:0:0:
402,192,61002,1,0,0:0:0:0:
329,192,61067,1,0,0:0:0:0:
475,192,61067,1,0,0:0:0:0:
36,192,61067,1,0,0:0:0:0:
182,192,61067,1,0,0:0:0:0:
109,192,61132,1,0,0:0:0:0:
256,192,61132,1,0,0:0:0:0:
182,192,61197,1,0,0:0:0:0:
329,192,61197,1,0,0:0:0:0:
256,192,61263,1,0,0:0:0:0:
402,192,61263,1,0,0:0:0:0:
329,192,61328,1,0,0:0:0:0:
475,192,61328,1,0,0:0:0:0:
36,192,61328,1,0,0:0:0:0:
182,192,61328,1,0,0:0:0:0:
109,192,61393,1,0,0:0:0:0:
256,192,61393,1,0,0:0:0:0:
182,192,61458,1,0,0:0:0:0:
329,192,61458,1,0,0:0:0:0:
256,192,61523,1,0,0:0:0:0:
402,192,61523,1,0,0:0:0:0:
329,192,61589,1,0,0:0:0:0:
182,192,61589,1,0,0:0:0:0:
36,192,61589,128,0,61849:0:0:0:0:
475,192,61589,128,0,61849:0:0:0:0:
329,192,61849,1,0,0:0:0:0:
109,192,61849,1,0,0:0:0:0:
36,192,61980,1,0,0:0:0:0:
256,192,61980,1,0,0:0:0:0:
109,192,62110,1,0,0:0:0:0:
329,192,62110,1,0,0:0:0:0:
182,192,62241,1,0,0:0:0:0:
402,192,62241,1,0,0:0:0:0:
256,192,62371,1,0,0:0:0:0:
475,192,62371,1,0,0:0:0:0:
182,192,62502,1,0,0:0:0:0:
402,192,62502,1,0,0:0:0:0:
329,192,62632,1,0,0:0:0:0:
109,192,62632,1,0,0:0:0:0:
475,192,62763,1,0,0:0:0:0:
36,192,62763,1,0,0:0:0:0:
256,192,62763,1,0,0:0:0:0:
402,192,62893,1,0,0:0:0:0:
182,192,62893,1,0,0:0:0:0:
329,192,63023,1,0,0:0:0:0:
109,192,63023,1,0,0:0:0:0:
256,192,63154,1,0,0:0:0:0:
36,192,63154,1,0,0:0:0:0:
182,192,63284,1,0,0:0:0:0:
475,192,63284,1,0,0:0:0:0:
109,192,63415,1,0,0:0:0:0:
402,192,63415,1,0,0:0:0:0:
36,192,63545,1,0,0:0:0:0:
329,192,63545,1,0,0:0:0:0:
475,192,63676,1,0,0:0:0:0:
182,192,63676,1,0,0:0:0:0:
36,192,63806,1,0,0:0:0:0:
109,192,63806,1,0,0:0:0:0:
182,192,63806,1,0,0:0:0:0:
256,192,63806,1,0,0:0:0:0:
329,192,63806,1,0,0:0:0:0:
402,192,63806,1,0,0:0:0:0:
475,192,63806,1,0,0:0:0:0:
109,192,64067,1,0,0:0:0:0:
402,192,64067,1,0,0:0:0:0:
36,192,64197,1,0,0:0:0:0:
182,192,64197,1,0,0:0:0:0:
109,192,64197,1,0,0:0:0:0:
256,192,64197,1,0,0:0:0:0:
329,192,64197,1,0,0:0:0:0:
402,192,64197,1,0,0:0:0:0:
475,192,64197,1,0,0:0:0:0:
36,192,64458,1,0,0:0:0:0:
329,192,64458,1,0,0:0:0:0:
36,192,64589,1,0,0:0:0:0:
182,192,64589,1,0,0:0:0:0:
109,192,64589,1,0,0:0:0:0:
256,192,64589,1,0,0:0:0:0:
329,192,64589,1,0,0:0:0:0:
402,192,64589,1,0,0:0:0:0:
475,192,64589,1,0,0:0:0:0:
109,192,64849,1,0,0:0:0:0:
402,192,64849,1,0,0:0:0:0:
36,192,64980,1,0,0:0:0:0:
109,192,64980,1,0,0:0:0:0:
182,192,64980,1,0,0:0:0:0:
256,192,64980,1,0,0:0:0:0:
329,192,64980,1,0,0:0:0:0:
402,192,64980,1,0,0:0:0:0:
475,192,64980,1,0,0:0:0:0:
36,192,65241,1,0,0:0:0:0:
109,192,65241,1,0,0:0:0:0:
182,192,65241,1,0,0:0:0:0:
256,192,65241,1,0,0:0:0:0:
329,192,65241,1,0,0:0:0:0:
402,192,65241,1,0,0:0:0:0:
475,192,65306,1,0,0:0:0:0:
402,192,65371,1,0,0:0:0:0:
329,192,65436,1,0,0:0:0:0:
256,192,65502,1,0,0:0:0:0:
402,192,65502,1,0,0:0:0:0:
475,192,65502,1,0,0:0:0:0:
182,192,65502,1,0,0:0:0:0:
109,192,65502,1,0,0:0:0:0:
36,192,65567,1,0,0:0:0:0:
109,192,65632,1,0,0:0:0:0:
182,192,65697,1,0,0:0:0:0:
256,192,65763,1,0,0:0:0:0:
36,192,65763,1,0,0:0:0:0:
109,192,65763,1,0,0:0:0:0:
329,192,65763,1,0,0:0:0:0:
402,192,65763,1,0,0:0:0:0:
475,192,65763,1,0,0:0:0:0:
36,192,66023,1,0,0:0:0:0:
109,192,66023,1,0,0:0:0:0:
109,192,66154,1,0,0:0:0:0:
182,192,66154,1,0,0:0:0:0:
182,192,66284,1,0,0:0:0:0:
256,192,66284,1,0,0:0:0:0:
256,192,66415,1,0,0:0:0:0:
329,192,66415,1,0,0:0:0:0:
329,192,66545,1,0,0:0:0:0:
402,192,66545,1,0,0:0:0:0:
475,192,66676,1,0,0:0:0:0:
402,192,66676,1,0,0:0:0:0:
402,192,66806,1,0,0:0:0:0:
329,192,66806,1,0,0:0:0:0:
475,192,66806,1,0,0:0:0:0:
256,192,66936,1,0,0:0:0:0:
329,192,66936,1,0,0:0:0:0:
402,192,66936,1,0,0:0:0:0:
329,192,67067,1,0,0:0:0:0:
256,192,67067,1,0,0:0:0:0:
182,192,67067,1,0,0:0:0:0:
109,192,67197,1,0,0:0:0:0:
182,192,67197,1,0,0:0:0:0:
256,192,67197,1,0,0:0:0:0:
109,192,67328,1,0,0:0:0:0:
182,192,67328,1,0,0:0:0:0:
36,192,67328,1,0,0:0:0:0:
475,192,67458,1,0,0:0:0:0:
402,192,67458,1,0,0:0:0:0:
329,192,67458,1,0,0:0:0:0:
256,192,67458,1,0,0:0:0:0:
256,192,67589,1,0,0:0:0:0:
182,192,67589,1,0,0:0:0:0:
109,192,67589,1,0,0:0:0:0:
36,192,67589,1,0,0:0:0:0:
475,192,67654,1,0,0:0:0:0:
402,192,67686,1,0,0:0:0:0:
329,192,67719,1,0,0:0:0:0:
256,192,67752,1,0,0:0:0:0:
182,192,67784,1,0,0:0:0:0:
109,192,67817,1,0,0:0:0:0:
36,192,67849,1,0,0:0:0:0:
182,192,68893,1,0,0:0:0:0:
256,192,68893,1,0,0:0:0:0:
329,192,68893,1,0,0:0:0:0:
402,192,68893,1,0,0:0:0:0:
36,192,69284,1,0,0:0:0:0:
109,192,69284,1,0,0:0:0:0:
182,192,69284,1,0,0:0:0:0:
256,192,69284,1,0,0:0:0:0:
402,192,69349,1,0,0:0:0:0:
329,192,69349,1,0,0:0:0:0:
109,192,69415,1,0,0:0:0:0:
182,192,69415,1,0,0:0:0:0:
402,192,69480,1,0,0:0:0:0:
475,192,69480,1,0,0:0:0:0:
36,192,69545,1,0,0:0:0:0:
109,192,69545,1,0,0:0:0:0:
329,192,69610,1,0,0:0:0:0:
402,192,69610,1,0,0:0:0:0:
109,192,69676,1,0,0:0:0:0:
182,192,69676,1,0,0:0:0:0:
402,192,69741,1,0,0:0:0:0:
475,192,69741,1,0,0:0:0:0:
109,192,69806,1,0,0:0:0:0:
36,192,69806,1,0,0:0:0:0:
329,192,69871,1,0,0:0:0:0:
402,192,69871,1,0,0:0:0:0:
475,192,69871,1,0,0:0:0:0:
182,192,69936,1,0,0:0:0:0:
36,192,69936,1,0,0:0:0:0:
109,192,69936,1,0,0:0:0:0:
329,192,70002,1,0,0:0:0:0:
256,192,70067,1,0,0:0:0:0:
402,192,70132,1,0,0:0:0:0:
329,192,70197,1,0,0:0:0:0:
475,192,70263,1,0,0:0:0:0:
256,192,70328,1,0,0:0:0:0:
402,192,70393,1,0,0:0:0:0:
182,192,70458,1,0,0:0:0:0:
329,192,70523,1,0,0:0:0:0:
109,192,70589,1,0,0:0:0:0:
256,192,70654,1,0,0:0:0:0:
36,192,70719,1,0,0:0:0:0:
182,192,70784,1,0,0:0:0:0:
109,192,70849,1,0,0:0:0:0:
256,192,70915,1,0,0:0:0:0:
182,192,70980,1,0,0:0:0:0:
329,192,71045,1,0,0:0:0:0:
256,192,71110,1,0,0:0:0:0:
402,192,71176,1,0,0:0:0:0:
329,192,71241,1,0,0:0:0:0:
475,192,71306,1,0,0:0:0:0:
256,192,71371,1,0,0:0:0:0:
402,192,71436,1,0,0:0:0:0:
182,192,71502,1,0,0:0:0:0:
329,192,71567,1,0,0:0:0:0:
109,192,71632,1,0,0:0:0:0:
256,192,71697,1,0,0:0:0:0:
36,192,71763,1,0,0:0:0:0:
182,192,71828,1,0,0:0:0:0:
109,192,71893,1,0,0:0:0:0:
256,192,71958,1,0,0:0:0:0:
182,192,72023,1,0,0:0:0:0:
109,192,72023,1,0,0:0:0:0:
36,192,72023,1,0,0:0:0:0:
329,192,72023,1,0,0:0:0:0:
402,192,72023,1,0,0:0:0:0:
475,192,72023,1,0,0:0:0:0:
256,192,72089,1,0,0:0:0:0:
109,192,72154,1,0,0:0:0:0:
182,192,72219,1,0,0:0:0:0:
36,192,72284,1,0,0:0:0:0:
256,192,72349,1,0,0:0:0:0:
109,192,72415,1,0,0:0:0:0:
329,192,72480,1,0,0:0:0:0:
182,192,72545,1,0,0:0:0:0:
402,192,72610,1,0,0:0:0:0:
256,192,72676,1,0,0:0:0:0:
475,192,72741,1,0,0:0:0:0:
329,192,72806,1,0,0:0:0:0:
402,192,72871,1,0,0:0:0:0:
256,192,72936,1,0,0:0:0:0:
329,192,73002,1,0,0:0:0:0:
182,192,73067,1,0,0:0:0:0:
256,192,73132,1,0,0:0:0:0:
109,192,73197,1,0,0:0:0:0:
182,192,73263,1,0,0:0:0:0:
36,192,73328,1,0,0:0:0:0:
256,192,73393,1,0,0:0:0:0:
109,192,73458,1,0,0:0:0:0:
329,192,73523,1,0,0:0:0:0:
182,192,73589,1,0,0:0:0:0:
402,192,73654,1,0,0:0:0:0:
256,192,73719,1,0,0:0:0:0:
475,192,73784,1,0,0:0:0:0:
329,192,73849,1,0,0:0:0:0:
402,192,73915,1,0,0:0:0:0:
256,192,73980,1,0,0:0:0:0:
329,192,74045,1,0,0:0:0:0:
402,192,74110,1,0,0:0:0:0:
475,192,74110,1,0,0:0:0:0:
109,192,74110,1,0,0:0:0:0:
36,192,74110,1,0,0:0:0:0:
182,192,74110,1,0,0:0:0:0:
329,192,74241,1,0,0:0:0:0:
402,192,74241,1,0,0:0:0:0:
182,192,74241,1,0,0:0:0:0:
109,192,74241,1,0,0:0:0:0:
36,192,74241,1,0,0:0:0:0:
256,192,74241,1,0,0:0:0:0:
475,192,74241,1,0,0:0:0:0:
109,192,74502,1,0,0:0:0:0:
402,192,74502,1,0,0:0:0:0:
36,192,74567,1,0,0:0:0:0:
329,192,74567,1,0,0:0:0:0:
182,192,74632,1,0,0:0:0:0:
475,192,74632,1,0,0:0:0:0:
329,192,74763,1,0,0:0:0:0:
256,192,74763,1,0,0:0:0:0:
182,192,74763,1,0,0:0:0:0:
109,192,74893,1,0,0:0:0:0:
36,192,74893,1,0,0:0:0:0:
256,192,74893,1,0,0:0:0:0:
329,192,74893,1,0,0:0:0:0:
182,192,75023,1,0,0:0:0:0:
402,192,75023,1,0,0:0:0:0:
109,192,75023,1,0,0:0:0:0:
329,192,75023,1,0,0:0:0:0:
256,192,75154,1,0,0:0:0:0:
36,192,75154,1,0,0:0:0:0:
182,192,75219,1,0,0:0:0:0:
402,192,75219,1,0,0:0:0:0:
329,192,75284,1,0,0:0:0:0:
109,192,75284,1,0,0:0:0:0:
256,192,75349,1,0,0:0:0:0:
36,192,75349,1,0,0:0:0:0:
402,192,75415,1,0,0:0:0:0:
182,192,75415,1,0,0:0:0:0:
329,192,75480,1,0,0:0:0:0:
109,192,75480,1,0,0:0:0:0:
475,192,75545,1,0,0:0:0:0:
256,192,75545,1,0,0:0:0:0:
402,192,75610,1,0,0:0:0:0:
182,192,75610,1,0,0:0:0:0:
329,192,75676,1,0,0:0:0:0:
109,192,75676,1,0,0:0:0:0:
256,192,75741,1,0,0:0:0:0:
36,192,75741,1,0,0:0:0:0:
182,192,75806,1,0,0:0:0:0:
475,192,75806,1,0,0:0:0:0:
109,192,75871,1,0,0:0:0:0:
402,192,75871,1,0,0:0:0:0:
36,192,75936,1,0,0:0:0:0:
182,192,75936,1,0,0:0:0:0:
329,192,75936,1,0,0:0:0:0:
109,192,76002,1,0,0:0:0:0:
256,192,76002,1,0,0:0:0:0:
182,192,76067,1,0,0:0:0:0:
329,192,76067,1,0,0:0:0:0:
256,192,76132,1,0,0:0:0:0:
402,192,76132,1,0,0:0:0:0:
36,192,76197,1,0,0:0:0:0:
329,192,76197,1,0,0:0:0:0:
182,192,76197,1,0,0:0:0:0:
402,192,76284,1,0,0:0:0:0:
109,192,76284,1,0,0:0:0:0:
256,192,76284,1,0,0:0:0:0:
475,192,76371,1,0,0:0:0:0:
329,192,76371,1,0,0:0:0:0:
182,192,76371,1,0,0:0:0:0:
256,192,76458,1,0,0:0:0:0:
402,192,76458,1,0,0:0:0:0:
36,192,76458,1,0,0:0:0:0:
182,192,76545,1,0,0:0:0:0:
109,192,76545,1,0,0:0:0:0:
329,192,76545,1,0,0:0:0:0:
36,192,76632,1,0,0:0:0:0:
256,192,76632,1,0,0:0:0:0:
475,192,76632,1,0,0:0:0:0:
329,192,76719,1,0,0:0:0:0:
402,192,76719,1,0,0:0:0:0:
182,192,76719,1,0,0:0:0:0:
109,192,76806,1,0,0:0:0:0:
256,192,76806,1,0,0:0:0:0:
475,192,76806,1,0,0:0:0:0:
36,192,76893,1,0,0:0:0:0:
329,192,76893,1,0,0:0:0:0:
475,192,76980,1,0,0:0:0:0:
109,192,76980,1,0,0:0:0:0:
256,192,76980,1,0,0:0:0:0:
329,192,77067,1,0,0:0:0:0:
402,192,77067,1,0,0:0:0:0:
182,192,77067,1,0,0:0:0:0:
256,192,77154,1,0,0:0:0:0:
109,192,77154,1,0,0:0:0:0:
36,192,77154,1,0,0:0:0:0:
402,192,77241,1,0,0:0:0:0:
182,192,77241,1,0,0:0:0:0:
475,192,77241,1,0,0:0:0:0:
36,192,77328,1,0,0:0:0:0:
256,192,77328,1,0,0:0:0:0:
329,192,77328,1,0,0:0:0:0:
182,192,77415,1,0,0:0:0:0:
475,192,77415,1,0,0:0:0:0:
109,192,77415,1,0,0:0:0:0:
256,192,77502,1,0,0:0:0:0:
402,192,77502,1,0,0:0:0:0:
36,192,77502,1,0,0:0:0:0:
109,192,77589,1,0,0:0:0:0:
329,192,77589,1,0,0:0:0:0:
475,192,77589,1,0,0:0:0:0:
402,192,77676,1,0,0:0:0:0:
182,192,77676,1,0,0:0:0:0:
36,192,77676,1,0,0:0:0:0:
329,192,77763,1,0,0:0:0:0:
475,192,77763,1,0,0:0:0:0:
109,192,77763,1,0,0:0:0:0:
256,192,77849,1,0,0:0:0:0:
402,192,77849,1,0,0:0:0:0:
36,192,77849,1,0,0:0:0:0:
329,192,77936,1,0,0:0:0:0:
182,192,77936,1,0,0:0:0:0:
109,192,77936,1,0,0:0:0:0:
256,192,78023,1,0,0:0:0:0:
402,192,78023,1,0,0:0:0:0:
36,192,78023,1,0,0:0:0:0:
182,192,78110,1,0,0:0:0:0:
329,192,78110,1,0,0:0:0:0:
475,192,78110,1,0,0:0:0:0:
256,192,78197,1,0,0:0:0:0:
109,192,78197,1,0,0:0:0:0:
402,192,78197,1,0,0:0:0:0:
182,192,78284,1,0,0:0:0:0:
36,192,78284,1,0,0:0:0:0:
329,192,78284,1,0,0:0:0:0:
475,192,78284,1,0,0:0:0:0:
36,192,78676,128,0,79002:0:0:0:0:
182,192,78676,128,0,79002:0:0:0:0:
329,192,78676,128,0,79002:0:0:0:0:
402,192,78676,128,0,79002:0:0:0:0:
109,192,79067,1,0,0:0:0:0:
329,192,79067,1,0,0:0:0:0:
475,192,79067,1,0,0:0:0:0:
256,192,79067,1,0,0:0:0:0:
36,192,79328,128,0,79523:0:0:0:0:
182,192,79328,128,0,79523:0:0:0:0:
256,192,79328,128,0,79523:0:0:0:0:
475,192,79328,128,0,79523:0:0:0:0:
329,192,79328,128,0,79523:0:0:0:0:
329,192,79589,1,0,0:0:0:0:
402,192,79589,1,0,0:0:0:0:
109,192,79589,1,0,0:0:0:0:
182,192,79589,1,0,0:0:0:0:
109,192,79849,128,0,80045:0:0:0:0:
475,192,79849,128,0,80045:0:0:0:0:
182,192,79849,128,0,80045:0:0:0:0:
256,192,79849,128,0,80045:0:0:0:0:
402,192,79849,128,0,80045:0:0:0:0:
36,192,80110,1,0,0:0:0:0:
109,192,80110,1,0,0:0:0:0:
182,192,80110,1,0,0:0:0:0:
402,192,80110,1,0,0:0:0:0:
329,192,80110,1,0,0:0:0:0:
36,192,80371,1,0,0:0:0:0:
109,192,80371,1,0,0:0:0:0:
182,192,80371,1,0,0:0:0:0:
329,192,80371,1,0,0:0:0:0:
402,192,80371,1,0,0:0:0:0:
475,192,80371,1,0,0:0:0:0:
256,192,80436,1,0,0:0:0:0:
329,192,80502,1,0,0:0:0:0:
402,192,80567,1,0,0:0:0:0:
36,192,80632,1,0,0:0:0:0:
182,192,80632,1,0,0:0:0:0:
256,192,80632,1,0,0:0:0:0:
329,192,80632,1,0,0:0:0:0:
475,192,80632,1,0,0:0:0:0:
109,192,80697,1,0,0:0:0:0:
182,192,80763,1,0,0:0:0:0:
256,192,80828,1,0,0:0:0:0:
329,192,80893,1,0,0:0:0:0:
402,192,80893,1,0,0:0:0:0:
475,192,80893,1,0,0:0:0:0:
109,192,80893,1,0,0:0:0:0:
36,192,80893,1,0,0:0:0:0:
256,192,80958,1,0,0:0:0:0:
182,192,81023,1,0,0:0:0:0:
109,192,81089,1,0,0:0:0:0:
36,192,81154,1,0,0:0:0:0:
182,192,81154,1,0,0:0:0:0:
256,192,81154,1,0,0:0:0:0:
329,192,81154,1,0,0:0:0:0:
475,192,81154,1,0,0:0:0:0:
402,192,81219,1,0,0:0:0:0:
329,192,81284,1,0,0:0:0:0:
256,192,81349,1,0,0:0:0:0:
182,192,81415,1,0,0:0:0:0:
402,192,81415,1,0,0:0:0:0:
475,192,81415,1,0,0:0:0:0:
109,192,81415,1,0,0:0:0:0:
36,192,81415,1,0,0:0:0:0:
329,192,81415,1,0,0:0:0:0:
256,192,81480,1,0,0:0:0:0:
329,192,81545,1,0,0:0:0:0:
402,192,81610,1,0,0:0:0:0:
475,192,81676,1,0,0:0:0:0:
329,192,81676,1,0,0:0:0:0:
256,192,81676,1,0,0:0:0:0:
109,192,81676,1,0,0:0:0:0:
36,192,81676,1,0,0:0:0:0:
182,192,81741,1,0,0:0:0:0:
256,192,81806,1,0,0:0:0:0:
329,192,81871,1,0,0:0:0:0:
36,192,81936,1,0,0:0:0:0:
182,192,81936,1,0,0:0:0:0:
256,192,81936,1,0,0:0:0:0:
402,192,81936,1,0,0:0:0:0:
475,192,81936,1,0,0:0:0:0:
109,192,82002,1,0,0:0:0:0:
182,192,82067,1,0,0:0:0:0:
256,192,82132,1,0,0:0:0:0:
36,192,82197,1,0,0:0:0:0:
182,192,82197,1,0,0:0:0:0:
329,192,82197,1,0,0:0:0:0:
475,192,82197,1,0,0:0:0:0:
109,192,82197,1,0,0:0:0:0:
402,192,82263,1,0,0:0:0:0:
329,192,82328,1,0,0:0:0:0:
256,192,82393,1,0,0:0:0:0:
36,192,82458,1,0,0:0:0:0:
182,192,82458,1,0,0:0:0:0:
329,192,82458,1,0,0:0:0:0:
475,192,82458,1,0,0:0:0:0:
402,192,82458,1,0,0:0:0:0:
109,192,82458,1,0,0:0:0:0:
256,192,82849,128,0,83176:0:0:0:0:
109,192,82849,128,0,83176:0:0:0:0:
475,192,82849,128,0,83176:0:0:0:0:
329,192,82849,128,0,83176:0:0:0:0:
109,192,83241,1,0,0:0:0:0:
182,192,83241,1,0,0:0:0:0:
329,192,83241,1,0,0:0:0:0:
402,192,83241,1,0,0:0:0:0:
36,192,83502,128,0,83697:0:0:0:0:
182,192,83502,128,0,83697:0:0:0:0:
329,192,83502,128,0,83697:0:0:0:0:
402,192,83502,128,0,83697:0:0:0:0:
109,192,83763,1,0,0:0:0:0:
256,192,83763,1,0,0:0:0:0:
402,192,83763,1,0,0:0:0:0:
329,192,83763,1,0,0:0:0:0:
329,192,84023,128,0,84219:0:0:0:0:
475,192,84023,128,0,84219:0:0:0:0:
182,192,84023,128,0,84219:0:0:0:0:
109,192,84023,128,0,84219:0:0:0:0:
256,192,84284,1,0,0:0:0:0:
402,192,84284,1,0,0:0:0:0:
109,192,84284,1,0,0:0:0:0:
182,192,84284,1,0,0:0:0:0:
182,192,84545,128,0,84561:0:0:0:0:
256,192,84545,128,0,84567:0:0:0:0:
329,192,84545,128,0,84578:0:0:0:0:
402,192,84545,128,0,84578:0:0:0:0:
475,192,84545,128,0,84589:0:0:0:0:
109,192,84545,128,0,84545:0:0:0:0:
36,192,84545,1,0,0:0:0:0:
402,192,84676,128,0,84676:0:0:0:0:
256,192,84676,128,0,84697:0:0:0:0:
109,192,84676,128,0,84708:0:0:0:0:
182,192,84676,128,0,84708:0:0:0:0:
36,192,84676,128,0,84719:0:0:0:0:
329,192,84676,128,0,84692:0:0:0:0:
475,192,84676,1,0,0:0:0:0:
329,192,84936,128,0,84969:0:0:0:0:
475,192,84936,128,0,84980:0:0:0:0:
109,192,84936,128,0,84936:0:0:0:0:
256,192,84936,128,0,84958:0:0:0:0:
36,192,84936,1,0,0:0:0:0:
402,192,84936,128,0,84969:0:0:0:0:
182,192,84936,128,0,84953:0:0:0:0:
402,192,85067,128,0,85067:0:0:0:0:
182,192,85067,128,0,85099:0:0:0:0:
329,192,85067,128,0,85083:0:0:0:0:
109,192,85067,128,0,85099:0:0:0:0:
36,192,85067,128,0,85110:0:0:0:0:
256,192,85067,128,0,85089:0:0:0:0:
475,192,85067,1,0,0:0:0:0:
36,192,85328,1,0,0:0:0:0:
402,192,85328,128,0,85360:0:0:0:0:
182,192,85328,128,0,85344:0:0:0:0:
256,192,85328,128,0,85349:0:0:0:0:
329,192,85328,128,0,85360:0:0:0:0:
475,192,85328,128,0,85371:0:0:0:0:
109,192,85328,128,0,85328:0:0:0:0:
36,192,85458,128,0,85502:0:0:0:0:
256,192,85458,128,0,85480:0:0:0:0:
475,192,85458,1,0,0:0:0:0:
109,192,85458,128,0,85491:0:0:0:0:
402,192,85458,128,0,85474:0:0:0:0:
182,192,85458,128,0,85491:0:0:0:0:
329,192,85458,128,0,85474:0:0:0:0:
329,192,85719,128,0,85752:0:0:0:0:
475,192,85719,128,0,85763:0:0:0:0:
109,192,85719,128,0,85719:0:0:0:0:
256,192,85719,128,0,85741:0:0:0:0:
36,192,85719,1,0,0:0:0:0:
402,192,85719,128,0,85752:0:0:0:0:
182,192,85719,128,0,85735:0:0:0:0:
402,192,85849,128,0,85849:0:0:0:0:
182,192,85849,128,0,85882:0:0:0:0:
329,192,85849,128,0,85866:0:0:0:0:
109,192,85849,128,0,85882:0:0:0:0:
36,192,85849,128,0,85893:0:0:0:0:
256,192,85849,128,0,85871:0:0:0:0:
475,192,85849,1,0,0:0:0:0:
36,192,86110,1,0,0:0:0:0:
402,192,86110,128,0,86143:0:0:0:0:
182,192,86110,128,0,86127:0:0:0:0:
256,192,86110,128,0,86132:0:0:0:0:
329,192,86110,128,0,86143:0:0:0:0:
475,192,86110,128,0,86154:0:0:0:0:
109,192,86110,128,0,86110:0:0:0:0:
36,192,86371,128,0,86415:0:0:0:0:
256,192,86371,128,0,86393:0:0:0:0:
475,192,86371,1,0,0:0:0:0:
109,192,86371,128,0,86404:0:0:0:0:
402,192,86371,128,0,86371:0:0:0:0:
182,192,86371,128,0,86404:0:0:0:0:
329,192,86371,128,0,86388:0:0:0:0:
256,192,86763,1,0,0:0:0:0:
182,192,86763,1,0,0:0:0:0:
109,192,86763,1,0,0:0:0:0:
475,192,86763,128,0,86828:0:0:0:0:
329,192,86763,1,0,0:0:0:0:
402,192,86763,1,0,0:0:0:0:
36,192,86763,128,0,86828:0:0:0:0:
182,192,86893,1,0,0:0:0:0:
36,192,86893,1,0,0:0:0:0:
475,192,86893,1,0,0:0:0:0:
402,192,86893,128,0,86958:0:0:0:0:
256,192,86893,1,0,0:0:0:0:
109,192,86893,128,0,86958:0:0:0:0:
329,192,86893,1,0,0:0:0:0:
402,192,87023,1,0,0:0:0:0:
109,192,87023,1,0,0:0:0:0:
36,192,87023,1,0,0:0:0:0:
475,192,87023,1,0,0:0:0:0:
329,192,87023,128,0,87089:0:0:0:0:
182,192,87023,128,0,87089:0:0:0:0:
256,192,87023,1,0,0:0:0:0:
475,192,87154,1,0,0:0:0:0:
402,192,87154,1,0,0:0:0:0:
329,192,87154,1,0,0:0:0:0:
36,192,87154,1,0,0:0:0:0:
256,192,87154,128,0,87219:0:0:0:0:
109,192,87154,1,0,0:0:0:0:
182,192,87154,1,0,0:0:0:0:
256,192,87284,1,0,0:0:0:0:
402,192,87284,1,0,0:0:0:0:
475,192,87284,1,0,0:0:0:0:
182,192,87284,128,0,87349:0:0:0:0:
36,192,87284,1,0,0:0:0:0:
109,192,87284,1,0,0:0:0:0:
329,192,87284,128,0,87349:0:0:0:0:
475,192,87415,1,0,0:0:0:0:
109,192,87415,128,0,87480:0:0:0:0:
329,192,87415,1,0,0:0:0:0:
182,192,87415,1,0,0:0:0:0:
256,192,87415,1,0,0:0:0:0:
36,192,87415,1,0,0:0:0:0:
402,192,87415,128,0,87480:0:0:0:0:
402,192,87545,1,0,0:0:0:0:
109,192,87545,1,0,0:0:0:0:
36,192,87545,128,0,87610:0:0:0:0:
182,192,87545,1,0,0:0:0:0:
256,192,87545,1,0,0:0:0:0:
329,192,87545,1,0,0:0:0:0:
475,192,87545,128,0,87610:0:0:0:0:
329,192,87676,1,0,0:0:0:0:
475,192,87676,1,0,0:0:0:0:
36,192,87741,1,0,0:0:0:0:
182,192,87741,1,0,0:0:0:0:
329,192,87806,1,0,0:0:0:0:
475,192,87806,1,0,0:0:0:0:
182,192,87871,1,0,0:0:0:0:
36,192,87871,1,0,0:0:0:0:
475,192,87936,1,0,0:0:0:0:
329,192,87936,1,0,0:0:0:0:
182,192,87980,1,0,0:0:0:0:
36,192,87980,1,0,0:0:0:0:
329,192,88023,1,0,0:0:0:0:
475,192,88023,1,0,0:0:0:0:
182,192,88067,1,0,0:0:0:0:
36,192,88067,1,0,0:0:0:0:
329,192,88110,1,0,0:0:0:0:
475,192,88110,1,0,0:0:0:0:
36,192,88154,1,0,0:0:0:0:
182,192,88154,1,0,0:0:0:0:
329,192,88197,1,0,0:0:0:0:
475,192,88197,1,0,0:0:0:0:
36,192,88241,1,0,0:0:0:0:
182,192,88241,1,0,0:0:0:0:
475,192,88284,1,0,0:0:0:0:
329,192,88284,1,0,0:0:0:0:
182,192,88328,1,0,0:0:0:0:
36,192,88328,1,0,0:0:0:0:
475,192,88371,1,0,0:0:0:0:
329,192,88371,1,0,0:0:0:0:
36,192,88415,1,0,0:0:0:0:
182,192,88415,1,0,0:0:0:0:
475,192,88458,1,0,0:0:0:0:
329,192,88458,1,0,0:0:0:0:
182,192,88502,1,0,0:0:0:0:
36,192,88502,1,0,0:0:0:0:
475,192,88545,1,0,0:0:0:0:
329,192,88545,1,0,0:0:0:0:
182,192,88589,1,0,0:0:0:0:
36,192,88589,1,0,0:0:0:0:
329,192,88632,1,0,0:0:0:0:
475,192,88632,1,0,0:0:0:0:
36,192,88676,1,0,0:0:0:0:
182,192,88676,1,0,0:0:0:0:
329,192,88719,128,0,88914:0:0:0:0:
475,192,88719,128,0,88914:0:0:0:0:
36,192,88979,128,0,89044:0:0:0:0:
109,192,88979,128,0,89044:0:0:0:0:
182,192,88979,128,0,89044:0:0:0:0:
256,192,88979,128,0,89044:0:0:0:0:
329,192,88979,128,0,89044:0:0:0:0:
402,192,88979,128,0,89044:0:0:0:0:
475,192,88979,128,0,89044:0:0:0:0:
36,192,89110,128,0,89305:0:0:0:0:
182,192,89110,128,0,89305:0:0:0:0:
402,192,89110,128,0,89305:0:0:0:0:
36,192,89370,128,0,89436:0:0:0:0:
109,192,89370,128,0,89436:0:0:0:0:
182,192,89370,128,0,89436:0:0:0:0:
256,192,89370,128,0,89436:0:0:0:0:
329,192,89370,128,0,89436:0:0:0:0:
402,192,89370,128,0,89436:0:0:0:0:
475,192,89370,128,0,89436:0:0:0:0:
475,192,89501,128,0,89957:0:0:0:0:
329,192,89501,128,0,89957:0:0:0:0:
109,192,89501,128,0,89957:0:0:0:0:
402,192,89957,128,0,90218:0:0:0:0:
36,192,89957,1,0,0:0:0:0:
256,192,89957,1,0,0:0:0:0:
182,192,89957,1,0,0:0:0:0:
109,192,90088,1,0,0:0:0:0:
256,192,90088,1,0,0:0:0:0:
475,192,90088,1,0,0:0:0:0:
182,192,90088,1,0,0:0:0:0:
36,192,90088,1,0,0:0:0:0:
329,192,90218,128,0,90479:0:0:0:0:
182,192,90218,1,0,0:0:0:0:
109,192,90218,1,0,0:0:0:0:
256,192,90218,1,0,0:0:0:0:
36,192,90349,1,0,0:0:0:0:
402,192,90349,1,0,0:0:0:0:
182,192,90349,1,0,0:0:0:0:
475,192,90349,1,0,0:0:0:0:
109,192,90349,1,0,0:0:0:0:
256,192,90479,128,0,90740:0:0:0:0:
475,192,90479,1,0,0:0:0:0:
36,192,90479,1,0,0:0:0:0:
182,192,90479,1,0,0:0:0:0:
109,192,90610,1,0,0:0:0:0:
182,192,90610,1,0,0:0:0:0:
329,192,90610,1,0,0:0:0:0:
402,192,90610,1,0,0:0:0:0:
475,192,90610,1,0,0:0:0:0:
36,192,90740,128,0,91131:0:0:0:0:
109,192,90740,1,0,0:0:0:0:
475,192,90740,1,0,0:0:0:0:
329,192,90740,1,0,0:0:0:0:
182,192,90870,1,0,0:0:0:0:
256,192,90870,1,0,0:0:0:0:
329,192,90870,1,0,0:0:0:0:
402,192,90870,1,0,0:0:0:0:
109,192,90870,1,0,0:0:0:0:
109,192,91001,1,0,0:0:0:0:
475,192,91001,1,0,0:0:0:0:
256,192,91001,1,0,0:0:0:0:
182,192,91131,128,0,91523:0:0:0:0:
256,192,91131,1,0,0:0:0:0:
329,192,91131,1,0,0:0:0:0:
402,192,91131,1,0,0:0:0:0:
475,192,91131,1,0,0:0:0:0:
109,192,91262,1,0,0:0:0:0:
475,192,91262,1,0,0:0:0:0:
329,192,91262,1,0,0:0:0:0:
329,192,91392,1,0,0:0:0:0:
36,192,91392,1,0,0:0:0:0:
402,192,91392,1,0,0:0:0:0:
256,192,91392,1,0,0:0:0:0:
475,192,91392,1,0,0:0:0:0:
475,192,91523,128,0,91783:0:0:0:0:
329,192,91523,1,0,0:0:0:0:
109,192,91523,1,0,0:0:0:0:
36,192,91523,1,0,0:0:0:0:
36,192,91653,1,0,0:0:0:0:
182,192,91653,1,0,0:0:0:0:
256,192,91653,1,0,0:0:0:0:
329,192,91653,1,0,0:0:0:0:
402,192,91653,1,0,0:0:0:0:
329,192,91783,128,0,92110:0:0:0:0:
402,192,91783,1,0,0:0:0:0:
109,192,91783,1,0,0:0:0:0:
256,192,91783,1,0,0:0:0:0:
36,192,91914,1,0,0:0:0:0:
109,192,91914,1,0,0:0:0:0:
182,192,91914,1,0,0:0:0:0:
402,192,91914,1,0,0:0:0:0:
475,192,91914,1,0,0:0:0:0:
182,192,92044,1,0,0:0:0:0:
36,192,92044,1,0,0:0:0:0:
475,192,92044,1,0,0:0:0:0:
36,192,92175,128,0,92240:0:0:0:0:
182,192,92175,128,0,92240:0:0:0:0:
109,192,92175,128,0,92240:0:0:0:0:
256,192,92175,128,0,92240:0:0:0:0:
329,192,92175,128,0,92240:0:0:0:0:
402,192,92175,128,0,92240:0:0:0:0:
475,192,92175,128,0,92240:0:0:0:0:
182,192,92305,128,0,92827:0:0:0:0:
256,192,92305,1,0,0:0:0:0:
329,192,92305,1,0,0:0:0:0:
475,192,92305,1,0,0:0:0:0:
402,192,92305,1,0,0:0:0:0:
36,192,92436,1,0,0:0:0:0:
109,192,92436,1,0,0:0:0:0:
256,192,92436,1,0,0:0:0:0:
329,192,92436,1,0,0:0:0:0:
256,192,92566,1,0,0:0:0:0:
329,192,92566,1,0,0:0:0:0:
402,192,92566,1,0,0:0:0:0:
475,192,92566,1,0,0:0:0:0:
329,192,92697,1,0,0:0:0:0:
256,192,92697,1,0,0:0:0:0:
109,192,92697,1,0,0:0:0:0:
36,192,92697,1,0,0:0:0:0:
475,192,92827,128,0,93153:0:0:0:0:
256,192,92827,1,0,0:0:0:0:
402,192,92827,1,0,0:0:0:0:
109,192,92827,1,0,0:0:0:0:
329,192,92827,1,0,0:0:0:0:
36,192,92957,1,0,0:0:0:0:
109,192,92957,1,0,0:0:0:0:
182,192,92957,1,0,0:0:0:0:
256,192,92957,1,0,0:0:0:0:
182,192,93088,1,0,0:0:0:0:
256,192,93088,1,0,0:0:0:0:
329,192,93088,1,0,0:0:0:0:
402,192,93088,1,0,0:0:0:0:
36,192,93218,128,0,93283:0:0:0:0:
109,192,93218,128,0,93283:0:0:0:0:
182,192,93218,128,0,93283:0:0:0:0:
256,192,93218,128,0,93283:0:0:0:0:
329,192,93218,128,0,93283:0:0:0:0:
402,192,93218,128,0,93283:0:0:0:0:
475,192,93218,128,0,93283:0:0:0:0:
36,192,93349,128,0,93870:0:0:0:0:
256,192,93349,1,0,0:0:0:0:
329,192,93349,1,0,0:0:0:0:
402,192,93349,1,0,0:0:0:0:
475,192,93349,1,0,0:0:0:0:
109,192,93479,1,0,0:0:0:0:
182,192,93479,1,0,0:0:0:0:
256,192,93479,1,0,0:0:0:0:
329,192,93479,1,0,0:0:0:0:
256,192,93610,1,0,0:0:0:0:
329,192,93610,1,0,0:0:0:0:
402,192,93610,1,0,0:0:0:0:
475,192,93610,1,0,0:0:0:0:
329,192,93740,1,0,0:0:0:0:
256,192,93740,1,0,0:0:0:0:
182,192,93740,1,0,0:0:0:0:
402,192,93740,1,0,0:0:0:0:
402,192,93870,128,0,94197:0:0:0:0:
256,192,93870,1,0,0:0:0:0:
182,192,93870,1,0,0:0:0:0:
329,192,93870,1,0,0:0:0:0:
109,192,93870,1,0,0:0:0:0:
36,192,94001,1,0,0:0:0:0:
109,192,94001,1,0,0:0:0:0:
182,192,94001,1,0,0:0:0:0:
256,192,94001,1,0,0:0:0:0:
256,192,94131,1,0,0:0:0:0:
329,192,94131,1,0,0:0:0:0:
182,192,94131,1,0,0:0:0:0:
109,192,94131,1,0,0:0:0:0:
36,192,94262,128,0,94327:0:0:0:0:
109,192,94262,128,0,94327:0:0:0:0:
182,192,94262,128,0,94327:0:0:0:0:
256,192,94262,128,0,94327:0:0:0:0:
402,192,94262,128,0,94327:0:0:0:0:
329,192,94262,128,0,94327:0:0:0:0:
475,192,94262,128,0,94327:0:0:0:0:
109,192,94392,128,0,94653:0:0:0:0:
256,192,94392,1,0,0:0:0:0:
329,192,94392,1,0,0:0:0:0:
402,192,94392,1,0,0:0:0:0:
475,192,94392,1,0,0:0:0:0:
182,192,94392,1,0,0:0:0:0:
256,192,94523,1,0,0:0:0:0:
329,192,94523,1,0,0:0:0:0:
182,192,94523,1,0,0:0:0:0:
475,192,94653,128,0,94914:0:0:0:0:
36,192,94653,1,0,0:0:0:0:
182,192,94653,1,0,0:0:0:0:
256,192,94653,1,0,0:0:0:0:
329,192,94653,1,0,0:0:0:0:
402,192,94653,1,0,0:0:0:0:
329,192,94783,1,0,0:0:0:0:
256,192,94783,1,0,0:0:0:0:
182,192,94783,1,0,0:0:0:0:
329,192,94914,128,0,95240:0:0:0:0:
36,192,94914,1,0,0:0:0:0:
109,192,94914,1,0,0:0:0:0:
182,192,94914,1,0,0:0:0:0:
256,192,94914,1,0,0:0:0:0:
182,192,95044,1,0,0:0:0:0:
256,192,95044,1,0,0:0:0:0:
402,192,95044,1,0,0:0:0:0:
475,192,95044,1,0,0:0:0:0:
182,192,95175,1,0,0:0:0:0:
109,192,95175,1,0,0:0:0:0:
36,192,95175,1,0,0:0:0:0:
256,192,95175,1,0,0:0:0:0:
36,192,95305,128,0,95370:0:0:0:0:
182,192,95305,128,0,95370:0:0:0:0:
109,192,95305,128,0,95370:0:0:0:0:
256,192,95305,128,0,95370:0:0:0:0:
329,192,95305,128,0,95370:0:0:0:0:
402,192,95305,128,0,95370:0:0:0:0:
475,192,95305,128,0,95370:0:0:0:0:
256,192,95436,128,0,95762:0:0:0:0:
329,192,95436,1,0,0:0:0:0:
402,192,95436,1,0,0:0:0:0:
475,192,95436,1,0,0:0:0:0:
109,192,95436,1,0,0:0:0:0:
36,192,95436,1,0,0:0:0:0:
329,192,95566,1,0,0:0:0:0:
402,192,95566,1,0,0:0:0:0:
109,192,95566,1,0,0:0:0:0:
182,192,95566,1,0,0:0:0:0:
402,192,95697,1,0,0:0:0:0:
475,192,95697,1,0,0:0:0:0:
109,192,95697,1,0,0:0:0:0:
36,192,95697,1,0,0:0:0:0:
36,192,95827,128,0,95892:0:0:0:0:
109,192,95827,128,0,95892:0:0:0:0:
182,192,95827,128,0,95892:0:0:0:0:
256,192,95827,128,0,95892:0:0:0:0:
329,192,95827,128,0,95892:0:0:0:0:
402,192,95827,128,0,95892:0:0:0:0:
475,192,95827,128,0,95892:0:0:0:0:
182,192,95957,128,0,96283:0:0:0:0:
329,192,95957,1,0,0:0:0:0:
402,192,95957,1,0,0:0:0:0:
475,192,95957,1,0,0:0:0:0:
36,192,95957,1,0,0:0:0:0:
109,192,95957,1,0,0:0:0:0:
329,192,96088,1,0,0:0:0:0:
256,192,96088,1,0,0:0:0:0:
402,192,96088,1,0,0:0:0:0:
329,192,96218,1,0,0:0:0:0:
402,192,96218,1,0,0:0:0:0:
475,192,96218,1,0,0:0:0:0:
109,192,96218,1,0,0:0:0:0:
36,192,96218,1,0,0:0:0:0:
36,192,96349,128,0,96414:0:0:0:0:
109,192,96349,128,0,96414:0:0:0:0:
182,192,96349,128,0,96414:0:0:0:0:
256,192,96349,128,0,96414:0:0:0:0:
329,192,96349,128,0,96414:0:0:0:0:
402,192,96349,128,0,96414:0:0:0:0:
475,192,96349,128,0,96414:0:0:0:0:
109,192,96479,128,0,97001:0:0:0:0:
36,192,96479,128,0,97001:0:0:0:0:
475,192,96479,1,0,0:0:0:0:
402,192,96512,1,0,0:0:0:0:
329,192,96544,1,0,0:0:0:0:
256,192,96577,1,0,0:0:0:0:
182,192,96610,1,0,0:0:0:0:
256,192,96642,1,0,0:0:0:0:
329,192,96675,1,0,0:0:0:0:
402,192,96707,1,0,0:0:0:0:
475,192,96740,1,0,0:0:0:0:
182,192,96740,1,0,0:0:0:0:
256,192,96773,1,0,0:0:0:0:
329,192,96805,1,0,0:0:0:0:
402,192,96838,1,0,0:0:0:0:
475,192,96870,1,0,0:0:0:0:
402,192,96903,1,0,0:0:0:0:
329,192,96936,1,0,0:0:0:0:
256,192,96968,1,0,0:0:0:0:
182,192,97001,1,0,0:0:0:0:
475,192,97001,128,0,97327:0:0:0:0:
36,192,97131,1,0,0:0:0:0:
329,192,97131,1,0,0:0:0:0:
182,192,97131,1,0,0:0:0:0:
329,192,97262,1,0,0:0:0:0:
256,192,97262,1,0,0:0:0:0:
109,192,97262,1,0,0:0:0:0:
182,192,97262,1,0,0:0:0:0:
402,192,97262,1,0,0:0:0:0:
256,192,97392,128,0,97457:0:0:0:0:
182,192,97392,128,0,97457:0:0:0:0:
329,192,97392,128,0,97457:0:0:0:0:
475,192,97392,128,0,97457:0:0:0:0:
109,192,97392,128,0,97457:0:0:0:0:
36,192,97392,128,0,97457:0:0:0:0:
402,192,97392,128,0,97457:0:0:0:0:
475,192,97523,1,0,0:0:0:0:
36,192,97523,128,0,97718:0:0:0:0:
182,192,97523,1,0,0:0:0:0:
329,192,97523,1,0,0:0:0:0:
475,192,97653,1,0,0:0:0:0:
182,192,97653,1,0,0:0:0:0:
329,192,97653,1,0,0:0:0:0:
402,192,97653,1,0,0:0:0:0:
256,192,97653,1,0,0:0:0:0:
256,192,97783,128,0,97849:0:0:0:0:
402,192,97783,128,0,97849:0:0:0:0:
36,192,97783,128,0,97849:0:0:0:0:
109,192,97783,128,0,97849:0:0:0:0:
475,192,97783,128,0,97849:0:0:0:0:
329,192,97783,128,0,97849:0:0:0:0:
182,192,97783,128,0,97849:0:0:0:0:
329,192,97914,1,0,0:0:0:0:
256,192,97914,1,0,0:0:0:0:
36,192,97914,1,0,0:0:0:0:
475,192,97914,128,0,98305:0:0:0:0:
182,192,97914,1,0,0:0:0:0:
402,192,97914,1,0,0:0:0:0:
256,192,98044,1,0,0:0:0:0:
402,192,98044,1,0,0:0:0:0:
109,192,98044,1,0,0:0:0:0:
109,192,98175,1,0,0:0:0:0:
256,192,98175,1,0,0:0:0:0:
329,192,98175,1,0,0:0:0:0:
36,192,98175,1,0,0:0:0:0:
182,192,98175,1,0,0:0:0:0:
36,192,98305,1,0,0:0:0:0:
329,192,98305,1,0,0:0:0:0:
402,192,98305,128,0,98566:0:0:0:0:
182,192,98305,1,0,0:0:0:0:
329,192,98436,1,0,0:0:0:0:
256,192,98436,1,0,0:0:0:0:
182,192,98436,1,0,0:0:0:0:
109,192,98436,1,0,0:0:0:0:
36,192,98436,1,0,0:0:0:0:
256,192,98566,1,0,0:0:0:0:
329,192,98566,128,0,98827:0:0:0:0:
182,192,98566,1,0,0:0:0:0:
109,192,98566,1,0,0:0:0:0:
109,192,98696,1,0,0:0:0:0:
36,192,98696,1,0,0:0:0:0:
256,192,98696,1,0,0:0:0:0:
402,192,98696,1,0,0:0:0:0:
475,192,98696,1,0,0:0:0:0:
402,192,98827,128,0,99088:0:0:0:0:
182,192,98827,1,0,0:0:0:0:
109,192,98827,1,0,0:0:0:0:
36,192,98827,1,0,0:0:0:0:
109,192,98957,1,0,0:0:0:0:
182,192,98957,1,0,0:0:0:0:
329,192,98957,1,0,0:0:0:0:
36,192,98957,1,0,0:0:0:0:
256,192,98957,1,0,0:0:0:0:
329,192,99088,1,0,0:0:0:0:
182,192,99088,1,0,0:0:0:0:
475,192,99088,128,0,99349:0:0:0:0:
36,192,99088,1,0,0:0:0:0:
36,192,99349,1,0,0:0:0:0:
109,192,99349,1,0,0:0:0:0:
182,192,99349,1,0,0:0:0:0:
256,192,99349,1,0,0:0:0:0:
329,192,99349,1,0,0:0:0:0:
402,192,99349,1,0,0:0:0:0:
182,192,99610,1,0,0:0:0:0:
329,192,99610,1,0,0:0:0:0:
475,192,99610,1,0,0:0:0:0:
109,192,99805,1,0,0:0:0:0:
256,192,99805,1,0,0:0:0:0:
402,192,99805,1,0,0:0:0:0:
329,192,100001,1,0,0:0:0:0:
182,192,100001,1,0,0:0:0:0:
36,192,100001,1,0,0:0:0:0:
36,192,100131,1,0,0:0:0:0:
109,192,100131,1,0,0:0:0:0:
182,192,100131,1,0,0:0:0:0:
256,192,100131,1,0,0:0:0:0:
329,192,100131,1,0,0:0:0:0:
402,192,100131,1,0,0:0:0:0:
475,192,100131,1,0,0:0:0:0:
36,192,100392,128,0,100457:0:0:0:0:
109,192,100392,128,0,100457:0:0:0:0:
182,192,100392,128,0,100457:0:0:0:0:
256,192,100392,128,0,100457:0:0:0:0:
329,192,100392,128,0,100457:0:0:0:0:
402,192,100392,128,0,100457:0:0:0:0:
475,192,100392,128,0,100457:0:0:0:0:
475,192,100523,128,0,100783:0:0:0:0:
36,192,100523,128,0,100783:0:0:0:0:
182,192,100783,1,0,0:0:0:0:
402,192,100783,1,0,0:0:0:0:
109,192,100849,1,0,0:0:0:0:
329,192,100849,1,0,0:0:0:0:
36,192,100914,1,0,0:0:0:0:
256,192,100914,1,0,0:0:0:0:
109,192,100979,1,0,0:0:0:0:
329,192,100979,1,0,0:0:0:0:
182,192,101044,1,0,0:0:0:0:
402,192,101044,1,0,0:0:0:0:
256,192,101110,1,0,0:0:0:0:
475,192,101110,1,0,0:0:0:0:
329,192,101175,1,0,0:0:0:0:
182,192,101175,1,0,0:0:0:0:
36,192,101175,128,0,101566:0:0:0:0:
109,192,101175,1,0,0:0:0:0:
402,192,101175,1,0,0:0:0:0:
182,192,101305,1,0,0:0:0:0:
256,192,101305,1,0,0:0:0:0:
329,192,101305,1,0,0:0:0:0:
402,192,101305,1,0,0:0:0:0:
475,192,101305,1,0,0:0:0:0:
182,192,101436,1,0,0:0:0:0:
256,192,101436,1,0,0:0:0:0:
402,192,101436,1,0,0:0:0:0:
475,192,101436,1,0,0:0:0:0:
109,192,101566,128,0,101957:0:0:0:0:
182,192,101566,1,0,0:0:0:0:
329,192,101566,1,0,0:0:0:0:
475,192,101566,1,0,0:0:0:0:
256,192,101696,1,0,0:0:0:0:
402,192,101696,1,0,0:0:0:0:
329,192,101696,1,0,0:0:0:0:
475,192,101696,1,0,0:0:0:0:
182,192,101827,1,0,0:0:0:0:
256,192,101827,1,0,0:0:0:0:
329,192,101827,1,0,0:0:0:0:
402,192,101827,1,0,0:0:0:0:
475,192,101827,1,0,0:0:0:0:
182,192,101957,128,0,102218:0:0:0:0:
329,192,101957,1,0,0:0:0:0:
402,192,101957,1,0,0:0:0:0:
475,192,101957,1,0,0:0:0:0:
36,192,101957,1,0,0:0:0:0:
256,192,102088,1,0,0:0:0:0:
329,192,102088,1,0,0:0:0:0:
402,192,102088,1,0,0:0:0:0:
475,192,102218,128,0,102479:0:0:0:0:
36,192,102218,1,0,0:0:0:0:
109,192,102218,1,0,0:0:0:0:
329,192,102218,1,0,0:0:0:0:
402,192,102218,1,0,0:0:0:0:
256,192,102349,1,0,0:0:0:0:
109,192,102349,1,0,0:0:0:0:
402,192,102349,1,0,0:0:0:0:
182,192,102479,128,0,102740:0:0:0:0:
36,192,102479,1,0,0:0:0:0:
329,192,102479,1,0,0:0:0:0:
402,192,102479,1,0,0:0:0:0:
109,192,102479,1,0,0:0:0:0:
109,192,102610,1,0,0:0:0:0:
256,192,102610,1,0,0:0:0:0:
402,192,102610,1,0,0:0:0:0:
329,192,102740,128,0,103001:0:0:0:0:
475,192,102740,1,0,0:0:0:0:
36,192,102740,1,0,0:0:0:0:
256,192,102740,1,0,0:0:0:0:
109,192,102740,1,0,0:0:0:0:
402,192,102740,1,0,0:0:0:0:
36,192,102870,1,0,0:0:0:0:
182,192,102870,1,0,0:0:0:0:
475,192,102870,1,0,0:0:0:0:
475,192,103001,128,0,103262:0:0:0:0:
256,192,103001,1,0,0:0:0:0:
182,192,103001,1,0,0:0:0:0:
109,192,103001,1,0,0:0:0:0:
402,192,103001,1,0,0:0:0:0:
36,192,103001,1,0,0:0:0:0:
109,192,103131,1,0,0:0:0:0:
256,192,103131,1,0,0:0:0:0:
402,192,103131,1,0,0:0:0:0:
109,192,103262,128,0,103523:0:0:0:0:
182,192,103262,1,0,0:0:0:0:
256,192,103262,1,0,0:0:0:0:
329,192,103262,1,0,0:0:0:0:
402,192,103262,1,0,0:0:0:0:
36,192,103262,1,0,0:0:0:0:
329,192,103392,1,0,0:0:0:0:
475,192,103392,1,0,0:0:0:0:
182,192,103392,1,0,0:0:0:0:
402,192,103523,128,0,103783:0:0:0:0:
36,192,103523,1,0,0:0:0:0:
182,192,103523,1,0,0:0:0:0:
256,192,103523,1,0,0:0:0:0:
329,192,103523,1,0,0:0:0:0:
475,192,103523,1,0,0:0:0:0:
36,192,103653,1,0,0:0:0:0:
182,192,103653,1,0,0:0:0:0:
329,192,103653,1,0,0:0:0:0:
36,192,103783,128,0,104044:0:0:0:0:
475,192,103783,1,0,0:0:0:0:
329,192,103783,1,0,0:0:0:0:
256,192,103783,1,0,0:0:0:0:
182,192,103783,1,0,0:0:0:0:
109,192,103783,1,0,0:0:0:0:
109,192,103914,1,0,0:0:0:0:
256,192,103914,1,0,0:0:0:0:
402,192,103914,1,0,0:0:0:0:
475,192,104044,128,0,104305:0:0:0:0:
109,192,104044,1,0,0:0:0:0:
182,192,104044,1,0,0:0:0:0:
256,192,104044,1,0,0:0:0:0:
329,192,104044,1,0,0:0:0:0:
402,192,104044,1,0,0:0:0:0:
36,192,104175,1,0,0:0:0:0:
182,192,104175,1,0,0:0:0:0:
329,192,104175,1,0,0:0:0:0:
329,192,104305,128,0,104387:0:0:0:0:
36,192,104305,128,0,104321:0:0:0:0:
109,192,104305,128,0,104338:0:0:0:0:
256,192,104305,128,0,104370:0:0:0:0:
182,192,104305,128,0,104354:0:0:0:0:
402,192,104305,128,0,104403:0:0:0:0:
36,192,104436,128,0,104468:0:0:0:0:
475,192,104436,128,0,104452:0:0:0:0:
329,192,104436,128,0,104533:0:0:0:0:
256,192,104436,128,0,104517:0:0:0:0:
182,192,104436,128,0,104501:0:0:0:0:
109,192,104436,128,0,104485:0:0:0:0:
475,192,104566,128,0,104599:0:0:0:0:
109,192,104566,128,0,104631:0:0:0:0:
182,192,104566,128,0,104648:0:0:0:0:
36,192,104566,128,0,104615:0:0:0:0:
402,192,104566,128,0,104582:0:0:0:0:
256,192,104566,128,0,104664:0:0:0:0:
402,192,104696,128,0,104729:0:0:0:0:
475,192,104696,128,0,104745:0:0:0:0:
329,192,104696,128,0,104713:0:0:0:0:
182,192,104696,128,0,104794:0:0:0:0:
109,192,104696,128,0,104778:0:0:0:0:
36,192,104696,128,0,104762:0:0:0:0:
109,192,104827,128,0,104925:0:0:0:0:
402,192,104827,128,0,104876:0:0:0:0:
475,192,104827,128,0,104892:0:0:0:0:
329,192,104827,128,0,104860:0:0:0:0:
256,192,104827,128,0,104843:0:0:0:0:
36,192,104827,128,0,104908:0:0:0:0:
182,192,104957,128,0,104974:0:0:0:0:
402,192,104957,128,0,105023:0:0:0:0:
475,192,104957,128,0,105039:0:0:0:0:
36,192,104957,128,0,105055:0:0:0:0:
329,192,104957,128,0,105006:0:0:0:0:
256,192,104957,128,0,104990:0:0:0:0:
402,192,105088,128,0,105169:0:0:0:0:
475,192,105088,128,0,105349:0:0:0:0:
329,192,105088,128,0,105153:0:0:0:0:
182,192,105088,128,0,105120:0:0:0:0:
256,192,105088,128,0,105137:0:0:0:0:
109,192,105088,128,0,105104:0:0:0:0:
36,192,105153,1,0,0:0:0:0:
109,192,105186,1,0,0:0:0:0:
182,192,105218,1,0,0:0:0:0:
256,192,105251,1,0,0:0:0:0:
329,192,105283,1,0,0:0:0:0:
402,192,105316,1,0,0:0:0:0:
109,192,105349,1,0,0:0:0:0:
36,192,105349,1,0,0:0:0:0:
182,192,105349,1,0,0:0:0:0:
475,192,105414,1,0,0:0:0:0:
402,192,105446,1,0,0:0:0:0:
329,192,105479,1,0,0:0:0:0:
256,192,105512,1,0,0:0:0:0:
182,192,105544,1,0,0:0:0:0:
109,192,105577,1,0,0:0:0:0:
36,192,105610,1,0,0:0:0:0:
329,192,105642,1,0,0:0:0:0:
402,192,105675,1,0,0:0:0:0:
475,192,105707,1,0,0:0:0:0:
256,192,105740,1,0,0:0:0:0:
182,192,105740,1,0,0:0:0:0:
109,192,105740,1,0,0:0:0:0:
475,192,105805,1,0,0:0:0:0:
402,192,105838,1,0,0:0:0:0:
329,192,105870,1,0,0:0:0:0:
256,192,105903,1,0,0:0:0:0:
182,192,105936,1,0,0:0:0:0:
109,192,105968,1,0,0:0:0:0:
36,192,106001,1,0,0:0:0:0:
329,192,106033,1,0,0:0:0:0:
402,192,106066,1,0,0:0:0:0:
475,192,106099,1,0,0:0:0:0:
256,192,106131,1,0,0:0:0:0:
182,192,106131,1,0,0:0:0:0:
329,192,106131,1,0,0:0:0:0:
36,192,106196,1,0,0:0:0:0:
109,192,106229,1,0,0:0:0:0:
182,192,106262,1,0,0:0:0:0:
475,192,106294,1,0,0:0:0:0:
402,192,106327,1,0,0:0:0:0:
329,192,106360,1,0,0:0:0:0:
182,192,106392,1,0,0:0:0:0:
109,192,106392,1,0,0:0:0:0:
256,192,106392,1,0,0:0:0:0:
36,192,106457,1,0,0:0:0:0:
182,192,106523,1,0,0:0:0:0:
109,192,106588,1,0,0:0:0:0:
256,192,106653,1,0,0:0:0:0:
329,192,106653,1,0,0:0:0:0:
402,192,106653,1,0,0:0:0:0:
475,192,106653,1,0,0:0:0:0:
182,192,106718,1,0,0:0:0:0:
329,192,106783,1,0,0:0:0:0:
256,192,106849,1,0,0:0:0:0:
402,192,106914,1,0,0:0:0:0:
109,192,106914,1,0,0:0:0:0:
36,192,106914,1,0,0:0:0:0:
182,192,106914,1,0,0:0:0:0:
329,192,106979,1,0,0:0:0:0:
475,192,107044,1,0,0:0:0:0:
402,192,107110,1,0,0:0:0:0:
329,192,107175,1,0,0:0:0:0:
256,192,107175,1,0,0:0:0:0:
182,192,107175,1,0,0:0:0:0:
109,192,107175,1,0,0:0:0:0:
36,192,107175,1,0,0:0:0:0:
475,192,107240,1,0,0:0:0:0:
256,192,107305,1,0,0:0:0:0:
402,192,107370,1,0,0:0:0:0:
182,192,107436,1,0,0:0:0:0:
109,192,107436,1,0,0:0:0:0:
36,192,107436,1,0,0:0:0:0:
329,192,107501,1,0,0:0:0:0:
109,192,107566,1,0,0:0:0:0:
256,192,107631,1,0,0:0:0:0:
36,192,107696,1,0,0:0:0:0:
182,192,107762,1,0,0:0:0:0:
109,192,107827,1,0,0:0:0:0:
256,192,107892,1,0,0:0:0:0:
182,192,107957,1,0,0:0:0:0:
475,192,107957,1,0,0:0:0:0:
402,192,107957,1,0,0:0:0:0:
36,192,107957,1,0,0:0:0:0:
109,192,107957,1,0,0:0:0:0:
329,192,108023,1,0,0:0:0:0:
256,192,108088,1,0,0:0:0:0:
402,192,108153,1,0,0:0:0:0:
329,192,108218,1,0,0:0:0:0:
475,192,108283,1,0,0:0:0:0:
402,192,108349,1,0,0:0:0:0:
329,192,108414,1,0,0:0:0:0:
182,192,108479,1,0,0:0:0:0:
109,192,108479,1,0,0:0:0:0:
36,192,108479,1,0,0:0:0:0:
256,192,108479,128,0,108936:0:0:0:0:
475,192,109001,1,0,0:0:0:0:
402,192,109001,1,0,0:0:0:0:
329,192,109001,1,0,0:0:0:0:
256,192,109001,128,0,109523:0:0:0:0:
182,192,109523,1,0,0:0:0:0:
36,192,109523,1,0,0:0:0:0:
109,192,109523,1,0,0:0:0:0:
329,192,109523,1,0,0:0:0:0:
402,192,109523,1,0,0:0:0:0:
475,192,109523,1,0,0:0:0:0:
475,192,109653,128,0,109696:0:0:0:0:
182,192,109653,128,0,109669:0:0:0:0:
36,192,109653,1,0,0:0:0:0:
402,192,109653,128,0,109686:0:0:0:0:
109,192,109653,128,0,109653:0:0:0:0:
256,192,109653,128,0,109675:0:0:0:0:
329,192,109653,128,0,109686:0:0:0:0:
36,192,109914,1,0,0:0:0:0:
109,192,109914,1,0,0:0:0:0:
182,192,109914,1,0,0:0:0:0:
329,192,109914,1,0,0:0:0:0:
402,192,109914,1,0,0:0:0:0:
256,192,109914,1,0,0:0:0:0:
402,192,110044,128,0,110044:0:0:0:0:
182,192,110044,128,0,110077:0:0:0:0:
329,192,110044,128,0,110061:0:0:0:0:
109,192,110044,128,0,110077:0:0:0:0:
36,192,110044,128,0,110088:0:0:0:0:
256,192,110044,128,0,110066:0:0:0:0:
475,192,110044,1,0,0:0:0:0:
109,192,110305,1,0,0:0:0:0:
182,192,110305,1,0,0:0:0:0:
256,192,110305,1,0,0:0:0:0:
329,192,110305,1,0,0:0:0:0:
402,192,110305,1,0,0:0:0:0:
475,192,110305,1,0,0:0:0:0:
475,192,110436,128,0,110479:0:0:0:0:
182,192,110436,128,0,110452:0:0:0:0:
36,192,110436,1,0,0:0:0:0:
402,192,110436,128,0,110468:0:0:0:0:
109,192,110436,128,0,110436:0:0:0:0:
256,192,110436,128,0,110457:0:0:0:0:
329,192,110436,128,0,110468:0:0:0:0:
109,192,110696,1,0,0:0:0:0:
36,192,110696,1,0,0:0:0:0:
182,192,110696,1,0,0:0:0:0:
329,192,110696,1,0,0:0:0:0:
402,192,110696,1,0,0:0:0:0:
475,192,110696,1,0,0:0:0:0:
329,192,110827,128,0,110843:0:0:0:0:
36,192,110827,128,0,110876:0:0:0:0:
256,192,110827,128,0,110849:0:0:0:0:
109,192,110827,128,0,110860:0:0:0:0:
182,192,110827,128,0,110860:0:0:0:0:
402,192,110827,128,0,110843:0:0:0:0:
475,192,110827,1,0,0:0:0:0:
109,192,111088,1,0,0:0:0:0:
182,192,111088,1,0,0:0:0:0:
256,192,111088,1,0,0:0:0:0:
329,192,111088,1,0,0:0:0:0:
402,192,111088,1,0,0:0:0:0:
109,192,111218,128,0,111218:0:0:0:0:
256,192,111218,128,0,111240:0:0:0:0:
402,192,111218,128,0,111251:0:0:0:0:
329,192,111218,128,0,111251:0:0:0:0:
182,192,111218,128,0,111235:0:0:0:0:
475,192,111218,128,0,111262:0:0:0:0:
36,192,111218,1,0,0:0:0:0:
109,192,111349,1,0,0:0:0:0:
182,192,111349,1,0,0:0:0:0:
256,192,111349,1,0,0:0:0:0:
329,192,111349,1,0,0:0:0:0:
402,192,111349,1,0,0:0:0:0:
256,192,111479,128,0,111501:0:0:0:0:
182,192,111479,128,0,111512:0:0:0:0:
402,192,111479,128,0,111495:0:0:0:0:
109,192,111479,128,0,111512:0:0:0:0:
36,192,111479,128,0,111523:0:0:0:0:
329,192,111479,128,0,111495:0:0:0:0:
475,192,111479,1,0,0:0:0:0:
36,192,111610,1,0,0:0:0:0:
475,192,111610,1,0,0:0:0:0:
182,192,111740,128,0,111756:0:0:0:0:
256,192,111740,128,0,111762:0:0:0:0:
475,192,111740,128,0,111783:0:0:0:0:
329,192,111740,128,0,111773:0:0:0:0:
402,192,111740,128,0,111773:0:0:0:0:
109,192,111740,128,0,111740:0:0:0:0:
36,192,111740,1,0,0:0:0:0:
109,192,112001,1,0,0:0:0:0:
402,192,112001,1,0,0:0:0:0:
36,192,112131,128,0,112175:0:0:0:0:
182,192,112131,128,0,112164:0:0:0:0:
329,192,112131,128,0,112148:0:0:0:0:
109,192,112131,128,0,112164:0:0:0:0:
402,192,112131,128,0,112131:0:0:0:0:
256,192,112131,128,0,112153:0:0:0:0:
475,192,112131,1,0,0:0:0:0:
182,192,112392,1,0,0:0:0:0:
329,192,112392,1,0,0:0:0:0:
475,192,112523,128,0,112566:0:0:0:0:
329,192,112523,128,0,112555:0:0:0:0:
402,192,112523,128,0,112555:0:0:0:0:
109,192,112523,128,0,112523:0:0:0:0:
182,192,112523,128,0,112539:0:0:0:0:
256,192,112523,128,0,112544:0:0:0:0:
36,192,112523,1,0,0:0:0:0:
109,192,112783,1,0,0:0:0:0:
402,192,112783,1,0,0:0:0:0:
182,192,112914,128,0,112946:0:0:0:0:
256,192,112914,128,0,112936:0:0:0:0:
109,192,112914,128,0,112957:0:0:0:0:
329,192,112914,128,0,112930:0:0:0:0:
402,192,112914,128,0,112930:0:0:0:0:
36,192,112914,128,0,112963:0:0:0:0:
475,192,112914,1,0,0:0:0:0:
36,192,113175,1,0,0:0:0:0:
475,192,113175,1,0,0:0:0:0:
256,192,113175,1,0,0:0:0:0:
329,192,113175,1,0,0:0:0:0:
109,192,113175,1,0,0:0:0:0:
402,192,113240,1,0,0:0:0:0:
182,192,113240,1,0,0:0:0:0:
109,192,113305,1,0,0:0:0:0:
329,192,113305,1,0,0:0:0:0:
256,192,113370,1,0,0:0:0:0:
36,192,113370,1,0,0:0:0:0:
109,192,113436,1,0,0:0:0:0:
182,192,113436,1,0,0:0:0:0:
475,192,113436,1,0,0:0:0:0:
402,192,113436,1,0,0:0:0:0:
329,192,113436,1,0,0:0:0:0:
36,192,113501,1,0,0:0:0:0:
256,192,113501,1,0,0:0:0:0:
109,192,113566,1,0,0:0:0:0:
329,192,113566,1,0,0:0:0:0:
182,192,113631,1,0,0:0:0:0:
402,192,113631,1,0,0:0:0:0:
256,192,113696,1,0,0:0:0:0:
329,192,113696,1,0,0:0:0:0:
475,192,113696,1,0,0:0:0:0:
109,192,113696,1,0,0:0:0:0:
36,192,113696,1,0,0:0:0:0:
256,192,113827,128,0,113849:0:0:0:0:
329,192,113827,128,0,113860:0:0:0:0:
109,192,113827,128,0,113827:0:0:0:0:
402,192,113827,128,0,113860:0:0:0:0:
182,192,113827,128,0,113843:0:0:0:0:
475,192,113827,128,0,113870:0:0:0:0:
36,192,113827,1,0,0:0:0:0:
182,192,114088,1,0,0:0:0:0:
36,192,114088,1,0,0:0:0:0:
402,192,114088,1,0,0:0:0:0:
475,192,114088,1,0,0:0:0:0:
256,192,114088,1,0,0:0:0:0:
36,192,114218,128,0,114262:0:0:0:0:
256,192,114218,128,0,114240:0:0:0:0:
329,192,114218,128,0,114235:0:0:0:0:
109,192,114218,128,0,114251:0:0:0:0:
402,192,114218,128,0,114218:0:0:0:0:
182,192,114218,128,0,114251:0:0:0:0:
475,192,114218,1,0,0:0:0:0:
329,192,114479,1,0,0:0:0:0:
475,192,114479,1,0,0:0:0:0:
109,192,114479,1,0,0:0:0:0:
36,192,114479,1,0,0:0:0:0:
256,192,114479,1,0,0:0:0:0:
329,192,114610,128,0,114642:0:0:0:0:
402,192,114610,128,0,114642:0:0:0:0:
182,192,114610,128,0,114626:0:0:0:0:
475,192,114610,128,0,114653:0:0:0:0:
109,192,114610,128,0,114610:0:0:0:0:
256,192,114610,128,0,114631:0:0:0:0:
36,192,114610,1,0,0:0:0:0:
475,192,114870,1,0,0:0:0:0:
256,192,114870,1,0,0:0:0:0:
402,192,114870,1,0,0:0:0:0:
36,192,114870,1,0,0:0:0:0:
182,192,114870,1,0,0:0:0:0:
402,192,115001,128,0,115017:0:0:0:0:
256,192,115001,128,0,115023:0:0:0:0:
182,192,115001,128,0,115033:0:0:0:0:
109,192,115001,128,0,115044:0:0:0:0:
329,192,115001,128,0,115017:0:0:0:0:
36,192,115001,128,0,115050:0:0:0:0:
475,192,115001,1,0,0:0:0:0:
36,192,115262,1,0,0:0:0:0:
109,192,115262,1,0,0:0:0:0:
256,192,115262,1,0,0:0:0:0:
402,192,115262,1,0,0:0:0:0:
475,192,115262,1,0,0:0:0:0:
109,192,115392,128,0,115392:0:0:0:0:
402,192,115392,128,0,115425:0:0:0:0:
256,192,115392,128,0,115414:0:0:0:0:
475,192,115392,128,0,115436:0:0:0:0:
182,192,115392,128,0,115408:0:0:0:0:
329,192,115392,128,0,115425:0:0:0:0:
36,192,115392,1,0,0:0:0:0:
36,192,115523,1,0,0:0:0:0:
109,192,115523,1,0,0:0:0:0:
256,192,115523,1,0,0:0:0:0:
402,192,115523,1,0,0:0:0:0:
475,192,115523,1,0,0:0:0:0:
182,192,115653,128,0,115686:0:0:0:0:
402,192,115653,128,0,115669:0:0:0:0:
475,192,115653,1,0,0:0:0:0:
109,192,115653,128,0,115686:0:0:0:0:
329,192,115653,128,0,115669:0:0:0:0:
256,192,115653,128,0,115675:0:0:0:0:
36,192,115653,128,0,115702:0:0:0:0:
256,192,115783,1,0,0:0:0:0:
329,192,115783,1,0,0:0:0:0:
402,192,115783,1,0,0:0:0:0:
475,192,115783,1,0,0:0:0:0:
182,192,115783,1,0,0:0:0:0:
182,192,115914,128,0,115930:0:0:0:0:
402,192,115914,128,0,115946:0:0:0:0:
329,192,115914,128,0,115946:0:0:0:0:
475,192,115914,128,0,115957:0:0:0:0:
256,192,115914,128,0,115936:0:0:0:0:
109,192,115914,128,0,115914:0:0:0:0:
36,192,115914,1,0,0:0:0:0:
256,192,116175,1,0,0:0:0:0:
182,192,116175,1,0,0:0:0:0:
109,192,116175,1,0,0:0:0:0:
36,192,116175,1,0,0:0:0:0:
329,192,116175,1,0,0:0:0:0:
109,192,116305,128,0,116338:0:0:0:0:
256,192,116305,128,0,116327:0:0:0:0:
36,192,116305,128,0,116349:0:0:0:0:
329,192,116305,128,0,116321:0:0:0:0:
402,192,116305,128,0,116321:0:0:0:0:
182,192,116305,128,0,116338:0:0:0:0:
475,192,116305,1,0,0:0:0:0:
109,192,116566,1,0,0:0:0:0:
182,192,116566,1,0,0:0:0:0:
256,192,116566,1,0,0:0:0:0:
329,192,116566,1,0,0:0:0:0:
402,192,116566,1,0,0:0:0:0:
256,192,116696,128,0,116718:0:0:0:0:
402,192,116696,128,0,116729:0:0:0:0:
109,192,116696,128,0,116696:0:0:0:0:
475,192,116696,128,0,116740:0:0:0:0:
329,192,116696,128,0,116729:0:0:0:0:
182,192,116696,128,0,116713:0:0:0:0:
36,192,116696,1,0,0:0:0:0:
36,192,116957,1,0,0:0:0:0:
475,192,116957,1,0,0:0:0:0:
36,192,117088,1,0,0:0:0:0:
475,192,117088,1,0,0:0:0:0:
36,192,117218,1,0,0:0:0:0:
475,192,117218,1,0,0:0:0:0:
475,192,117349,1,0,0:0:0:0:
36,192,117349,1,0,0:0:0:0:
36,192,117479,1,0,0:0:0:0:
475,192,117479,1,0,0:0:0:0:
36,192,117610,1,0,0:0:0:0:
475,192,117610,1,0,0:0:0:0:
36,192,117740,1,0,0:0:0:0:
475,192,117740,1,0,0:0:0:0:
109,192,117740,1,0,0:0:0:0:
182,192,117740,1,0,0:0:0:0:
256,192,117740,1,0,0:0:0:0:
329,192,117740,1,0,0:0:0:0:
402,192,117740,1,0,0:0:0:0:
