osu file format v14

[General]
AudioFilename: Be-Music Primary.mp3
AudioLeadIn: 0
PreviewTime: 16403
Countdown: 1
SampleSet: None
StackLeniency: 0.7
Mode: 3
LetterboxInBreaks: 0
SpecialStyle: 0
WidescreenStoryboard: 0

[Editor]
DistanceSpacing: 1
BeatDivisor: 4
GridSize: 8
TimelineZoom: 2.1

[Metadata]
Title:__M A S__ Vol. 3
TitleUnicode:__M A S__ Vol. 3
Artist:Various
ArtistUnicode:Various
Creator:[ C r a c k ]
Version:eFeL - Be-Music Primary - 7K MX
Source:
Tags:
BeatmapID:1144925
BeatmapSetID:539892

[Difficulty]
HPDrainRate:8
CircleSize:7
OverallDifficulty:5
ApproachRate:5
SliderMultiplier:1.40000000596046
SliderTickRate:1

[Events]
//Background and Video events
0,0,"Be-music-primary.jpg",0,0
//Break Periods
//Storyboard Layer 0 (Background)
//Storyboard Layer 1 (Fail)
//Storyboard Layer 2 (Pass)
//Storyboard Layer 3 (Foreground)
//Storyboard Sound Samples

[TimingPoints]
1865,461.538461538462,4,1,0,0,1,0
30480,-66.6666666666667,4,1,0,0,0,0
30826,-133.333333333333,4,1,0,0,0,0
30941,-100,4,1,0,0,0,0
34172,-50,4,1,0,0,0,0
34518,-1000,4,1,0,0,0,0
34634,-100,4,1,0,0,0,0
37865,-66.6666666666667,4,1,0,0,0,0
38211,-133.333333333333,4,1,0,0,0,0
38326,-100,4,1,0,0,0,0
45249,-66.6666666666667,4,1,0,0,0,0
45595,-133.333333333333,4,1,0,0,0,0
45711,-100,4,1,0,0,0,0
48941,-66.6666666666667,4,1,0,0,0,0
49288,-133.333333333333,4,1,0,0,0,0
49403,-100,4,1,0,0,0,0
56326,-66.6666666666667,4,1,0,0,0,0
56672,-133.333333333333,4,1,0,0,0,0
56788,-100,4,1,0,0,0,0
63711,-66.6666666666667,4,1,0,0,0,0
64057,-133.333333333333,4,1,0,0,0,0
64172,-100,4,1,0,0,0,0
114480,-66.6666666666667,4,1,0,0,0,0
114538,-200,4,1,0,0,0,0
114595,-66.6666666666667,4,1,0,0,0,0
114653,-200,4,1,0,0,0,0
114711,-66.6666666666667,4,1,0,0,0,0
114768,-200,4,1,0,0,0,0
114826,-66.6666666666667,4,1,0,0,0,0
114884,-200,4,1,0,0,0,0
114941,-66.6666666666667,4,1,0,0,0,0
114999,-200,4,1,0,0,0,0
115057,-66.6666666666667,4,1,0,0,0,0
115115,-200,4,1,0,0,0,0
115172,-66.6666666666667,4,1,0,0,0,0
115230,-200,4,1,0,0,0,0
115288,-66.6666666666667,4,1,0,0,0,0
115345,-200,4,1,0,0,0,0
115403,-66.6666666666667,4,1,0,0,0,0
115461,-200,4,1,0,0,0,0
115518,-66.6666666666667,4,1,0,0,0,0
115576,-200,4,1,0,0,0,0
115634,-66.6666666666667,4,1,0,0,0,0
115691,-200,4,1,0,0,0,0
115749,-66.6666666666667,4,1,0,0,0,0
115807,-200,4,1,0,0,0,0
115865,-66.6666666666667,4,1,0,0,0,0
115922,-200,4,1,0,0,0,0
115980,-66.6666666666667,4,1,0,0,0,0
116038,-200,4,1,0,0,0,0
116095,-66.6666666666667,4,1,0,0,0,0
116153,-200,4,1,0,0,0,0
116211,-66.6666666666667,4,1,0,0,0,0
116268,-200,4,1,0,0,0,0
116326,-100,4,1,0,0,0,0

[HitObjects]
64,192,1865,5,0,0:0:0:0:
475,192,1865,1,0,0:0:0:0:
109,192,1980,1,0,0:0:0:0:
182,192,2095,1,0,0:0:0:0:
256,192,2211,1,0,0:0:0:0:
475,192,2326,1,0,0:0:0:0:
329,192,2441,1,0,0:0:0:0:
182,192,2557,1,0,0:0:0:0:
36,192,2672,1,0,0:0:0:0:
109,192,2788,1,0,0:0:0:0:
475,192,2788,1,0,0:0:0:0:
182,192,2903,1,0,0:0:0:0:
256,192,3018,1,0,0:0:0:0:
329,192,3134,1,0,0:0:0:0:
36,192,3249,1,0,0:0:0:0:
182,192,3365,1,0,0:0:0:0:
329,192,3480,1,0,0:0:0:0:
475,192,3595,1,0,0:0:0:0:
402,192,3711,1,0,0:0:0:0:
36,192,3711,1,0,0:0:0:0:
329,192,3826,1,0,0:0:0:0:
256,192,3941,1,0,0:0:0:0:
182,192,4057,1,0,0:0:0:0:
36,192,4172,1,0,0:0:0:0:
182,192,4288,1,0,0:0:0:0:
329,192,4403,1,0,0:0:0:0:
182,192,4518,1,0,0:0:0:0:
256,192,4634,1,0,0:0:0:0:
475,192,4634,1,0,0:0:0:0:
182,192,4749,1,0,0:0:0:0:
402,192,4749,1,0,0:0:0:0:
109,192,4865,1,0,0:0:0:0:
329,192,4865,1,0,0:0:0:0:
64,192,4980,1,0,0:0:0:0:
256,192,4980,1,0,0:0:0:0:
475,192,5095,1,0,0:0:0:0:
329,192,5211,1,0,0:0:0:0:
36,192,5326,1,0,0:0:0:0:
182,192,5441,1,0,0:0:0:0:
329,192,5557,1,0,0:0:0:0:
109,192,5557,1,0,0:0:0:0:
402,192,5672,1,0,0:0:0:0:
329,192,5788,1,0,0:0:0:0:
256,192,5903,1,0,0:0:0:0:
475,192,6018,1,0,0:0:0:0:
256,192,6134,1,0,0:0:0:0:
36,192,6249,1,0,0:0:0:0:
256,192,6365,1,0,0:0:0:0:
475,192,6480,1,0,0:0:0:0:
109,192,6480,1,0,0:0:0:0:
182,192,6595,1,0,0:0:0:0:
256,192,6711,1,0,0:0:0:0:
329,192,6826,1,0,0:0:0:0:
402,192,6941,1,0,0:0:0:0:
329,192,7057,1,0,0:0:0:0:
256,192,7172,1,0,0:0:0:0:
182,192,7288,1,0,0:0:0:0:
109,192,7403,1,0,0:0:0:0:
36,192,7403,1,0,0:0:0:0:
182,192,7518,1,0,0:0:0:0:
256,192,7634,1,0,0:0:0:0:
329,192,7749,1,0,0:0:0:0:
402,192,7865,1,0,0:0:0:0:
329,192,7980,1,0,0:0:0:0:
256,192,8095,1,0,0:0:0:0:
182,192,8211,1,0,0:0:0:0:
36,192,8326,1,0,0:0:0:0:
256,192,8326,1,0,0:0:0:0:
329,192,8441,1,0,0:0:0:0:
109,192,8441,1,0,0:0:0:0:
402,192,8557,1,0,0:0:0:0:
182,192,8557,1,0,0:0:0:0:
448,192,8672,1,0,0:0:0:0:
256,192,8672,1,0,0:0:0:0:
402,192,8788,1,0,0:0:0:0:
329,192,8903,1,0,0:0:0:0:
256,192,9018,1,0,0:0:0:0:
182,192,9134,1,0,0:0:0:0:
64,192,9249,1,0,0:0:0:0:
192,192,9365,1,0,0:0:0:0:
320,192,9480,1,0,0:0:0:0:
448,192,9595,1,0,0:0:0:0:
36,192,9711,1,0,0:0:0:0:
182,192,9826,1,0,0:0:0:0:
329,192,9941,1,0,0:0:0:0:
475,192,10057,1,0,0:0:0:0:
448,192,10172,1,0,0:0:0:0:
320,192,10288,1,0,0:0:0:0:
192,192,10403,1,0,0:0:0:0:
64,192,10518,1,0,0:0:0:0:
475,192,10634,1,0,0:0:0:0:
329,192,10749,1,0,0:0:0:0:
182,192,10865,1,0,0:0:0:0:
36,192,10980,1,0,0:0:0:0:
64,192,11095,1,0,0:0:0:0:
256,192,11095,1,0,0:0:0:0:
448,192,11211,1,0,0:0:0:0:
182,192,11211,1,0,0:0:0:0:
320,192,11326,1,0,0:0:0:0:
109,192,11326,1,0,0:0:0:0:
448,192,11441,1,0,0:0:0:0:
64,192,11441,1,0,0:0:0:0:
475,192,11557,1,0,0:0:0:0:
329,192,11672,1,0,0:0:0:0:
182,192,11788,1,0,0:0:0:0:
36,192,11903,1,0,0:0:0:0:
448,192,12018,1,0,0:0:0:0:
256,192,12018,1,0,0:0:0:0:
64,192,12134,1,0,0:0:0:0:
320,192,12134,1,0,0:0:0:0:
192,192,12249,1,0,0:0:0:0:
402,192,12249,1,0,0:0:0:0:
64,192,12365,1,0,0:0:0:0:
448,192,12365,1,0,0:0:0:0:
36,192,12480,1,0,0:0:0:0:
182,192,12595,1,0,0:0:0:0:
329,192,12711,1,0,0:0:0:0:
475,192,12826,1,0,0:0:0:0:
64,192,12941,1,0,0:0:0:0:
402,192,12941,1,0,0:0:0:0:
109,192,13057,1,0,0:0:0:0:
329,192,13172,1,0,0:0:0:0:
256,192,13288,1,0,0:0:0:0:
109,192,13403,1,0,0:0:0:0:
182,192,13518,1,0,0:0:0:0:
402,192,13634,1,0,0:0:0:0:
329,192,13749,1,0,0:0:0:0:
182,192,13865,1,0,0:0:0:0:
475,192,13865,1,0,0:0:0:0:
256,192,13980,1,0,0:0:0:0:
402,192,14095,1,0,0:0:0:0:
329,192,14211,1,0,0:0:0:0:
109,192,14326,1,0,0:0:0:0:
182,192,14441,1,0,0:0:0:0:
329,192,14557,1,0,0:0:0:0:
256,192,14672,1,0,0:0:0:0:
64,192,14788,1,0,0:0:0:0:
402,192,14788,1,0,0:0:0:0:
109,192,14903,1,0,0:0:0:0:
475,192,15018,1,0,0:0:0:0:
402,192,15134,1,0,0:0:0:0:
109,192,15249,1,0,0:0:0:0:
36,192,15365,1,0,0:0:0:0:
402,192,15480,1,0,0:0:0:0:
475,192,15595,1,0,0:0:0:0:
182,192,15711,1,0,0:0:0:0:
329,192,15711,1,0,0:0:0:0:
402,192,15711,128,0,16634:0:0:0:0:
256,192,15826,1,0,0:0:0:0:
109,192,15826,1,0,0:0:0:0:
192,192,15941,1,0,0:0:0:0:
64,192,15941,1,0,0:0:0:0:
109,192,16057,1,0,0:0:0:0:
256,192,16057,1,0,0:0:0:0:
36,192,16172,1,0,0:0:0:0:
256,192,16172,1,0,0:0:0:0:
109,192,16288,1,0,0:0:0:0:
329,192,16288,1,0,0:0:0:0:
36,192,16403,1,0,0:0:0:0:
256,192,16403,1,0,0:0:0:0:
109,192,16518,1,0,0:0:0:0:
329,192,16518,1,0,0:0:0:0:
448,192,16634,1,0,0:0:0:0:
182,192,16634,1,0,0:0:0:0:
402,192,16865,1,0,0:0:0:0:
109,192,16865,1,0,0:0:0:0:
329,192,16980,1,0,0:0:0:0:
36,192,16980,1,0,0:0:0:0:
64,192,17211,1,0,0:0:0:0:
448,192,17211,1,0,0:0:0:0:
109,192,17211,1,0,0:0:0:0:
64,192,17557,1,0,0:0:0:0:
182,192,17672,1,0,0:0:0:0:
402,192,17788,1,0,0:0:0:0:
256,192,17903,1,0,0:0:0:0:
448,192,18134,1,0,0:0:0:0:
64,192,18134,1,0,0:0:0:0:
256,192,18134,1,0,0:0:0:0:
448,192,18480,1,0,0:0:0:0:
192,192,18480,1,0,0:0:0:0:
256,192,18480,128,0,18826:0:0:0:0:
64,192,18826,1,0,0:0:0:0:
192,192,18826,1,0,0:0:0:0:
329,192,18826,128,0,19172:0:0:0:0:
192,192,19172,1,0,0:0:0:0:
448,192,19172,1,0,0:0:0:0:
402,192,19172,128,0,19403:0:0:0:0:
329,192,19403,128,0,19865:0:0:0:0:
36,192,19403,1,0,0:0:0:0:
64,192,19749,1,0,0:0:0:0:
256,192,19865,128,0,20095:0:0:0:0:
192,192,20095,1,0,0:0:0:0:
329,192,20095,128,0,20211:0:0:0:0:
402,192,20211,128,0,20326:0:0:0:0:
64,192,20326,1,0,0:0:0:0:
475,192,20326,128,0,20557:0:0:0:0:
256,192,20557,128,0,20672:0:0:0:0:
329,192,20672,128,0,20903:0:0:0:0:
64,192,20903,1,0,0:0:0:0:
448,192,20903,1,0,0:0:0:0:
402,192,20903,128,0,21249:0:0:0:0:
36,192,21249,128,0,21365:0:0:0:0:
329,192,21249,1,0,0:0:0:0:
109,192,21365,128,0,21480:0:0:0:0:
402,192,21365,1,0,0:0:0:0:
182,192,21480,128,0,21595:0:0:0:0:
475,192,21480,1,0,0:0:0:0:
402,192,21595,1,0,0:0:0:0:
256,192,21595,128,0,21826:0:0:0:0:
402,192,21826,1,0,0:0:0:0:
109,192,21826,128,0,22172:0:0:0:0:
320,192,22172,1,0,0:0:0:0:
402,192,22172,1,0,0:0:0:0:
36,192,22172,128,0,22518:0:0:0:0:
256,192,22518,1,0,0:0:0:0:
329,192,22518,1,0,0:0:0:0:
109,192,22518,128,0,22865:0:0:0:0:
329,192,22865,1,0,0:0:0:0:
402,192,22865,1,0,0:0:0:0:
182,192,22865,128,0,23095:0:0:0:0:
402,192,23095,1,0,0:0:0:0:
475,192,23095,1,0,0:0:0:0:
256,192,23095,128,0,23557:0:0:0:0:
329,192,23557,128,0,24018:0:0:0:0:
109,192,23788,1,0,0:0:0:0:
182,192,23903,1,0,0:0:0:0:
109,192,24018,1,0,0:0:0:0:
256,192,24249,1,0,0:0:0:0:
109,192,24365,1,0,0:0:0:0:
192,192,24595,1,0,0:0:0:0:
448,192,24595,1,0,0:0:0:0:
256,192,24826,1,0,0:0:0:0:
402,192,24941,1,0,0:0:0:0:
320,192,25057,1,0,0:0:0:0:
256,192,25172,1,0,0:0:0:0:
448,192,25288,1,0,0:0:0:0:
182,192,25288,1,0,0:0:0:0:
64,192,25518,1,0,0:0:0:0:
448,192,25518,1,0,0:0:0:0:
64,192,25865,1,0,0:0:0:0:
64,192,26095,1,0,0:0:0:0:
320,192,26095,1,0,0:0:0:0:
448,192,26211,1,0,0:0:0:0:
192,192,26211,1,0,0:0:0:0:
256,192,26557,1,0,0:0:0:0:
109,192,26557,1,0,0:0:0:0:
64,192,26788,1,0,0:0:0:0:
402,192,26788,1,0,0:0:0:0:
402,192,27249,1,0,0:0:0:0:
109,192,27249,1,0,0:0:0:0:
329,192,27480,1,0,0:0:0:0:
182,192,27595,1,0,0:0:0:0:
64,192,27711,1,0,0:0:0:0:
448,192,27711,1,0,0:0:0:0:
192,192,27941,1,0,0:0:0:0:
320,192,28057,1,0,0:0:0:0:
64,192,28288,1,0,0:0:0:0:
192,192,28288,1,0,0:0:0:0:
448,192,28634,1,0,0:0:0:0:
192,192,28634,1,0,0:0:0:0:
109,192,28634,1,0,0:0:0:0:
256,192,28749,1,0,0:0:0:0:
329,192,28865,1,0,0:0:0:0:
402,192,28980,1,0,0:0:0:0:
475,192,28980,1,0,0:0:0:0:
256,192,29211,1,0,0:0:0:0:
64,192,29557,1,0,0:0:0:0:
320,192,29557,1,0,0:0:0:0:
402,192,29557,1,0,0:0:0:0:
109,192,29557,1,0,0:0:0:0:
192,192,29788,1,0,0:0:0:0:
256,192,29903,1,0,0:0:0:0:
475,192,29903,1,0,0:0:0:0:
36,192,29903,1,0,0:0:0:0:
329,192,30134,1,0,0:0:0:0:
402,192,30134,1,0,0:0:0:0:
192,192,30365,1,0,0:0:0:0:
109,192,30365,1,0,0:0:0:0:
402,192,30365,1,0,0:0:0:0:
475,192,30365,1,0,0:0:0:0:
256,192,30480,128,0,30941:0:0:0:0:
109,192,30941,128,0,31403:0:0:0:0:
475,192,31172,1,0,0:0:0:0:
402,192,31288,1,0,0:0:0:0:
64,192,31403,1,0,0:0:0:0:
320,192,31403,1,0,0:0:0:0:
64,192,31634,1,0,0:0:0:0:
402,192,31634,1,0,0:0:0:0:
109,192,31749,1,0,0:0:0:0:
475,192,31749,1,0,0:0:0:0:
182,192,31980,1,0,0:0:0:0:
402,192,31980,1,0,0:0:0:0:
64,192,32326,1,0,0:0:0:0:
448,192,32326,1,0,0:0:0:0:
402,192,32441,1,0,0:0:0:0:
109,192,32441,1,0,0:0:0:0:
182,192,32557,1,0,0:0:0:0:
329,192,32557,1,0,0:0:0:0:
256,192,32672,1,0,0:0:0:0:
192,192,32903,1,0,0:0:0:0:
448,192,32903,1,0,0:0:0:0:
64,192,33249,1,0,0:0:0:0:
256,192,33249,1,0,0:0:0:0:
109,192,33249,1,0,0:0:0:0:
64,192,33595,1,0,0:0:0:0:
109,192,33595,1,0,0:0:0:0:
329,192,33595,1,0,0:0:0:0:
64,192,33941,1,0,0:0:0:0:
402,192,33941,1,0,0:0:0:0:
109,192,33941,1,0,0:0:0:0:
64,192,34172,1,0,0:0:0:0:
109,192,34172,1,0,0:0:0:0:
475,192,34172,1,0,0:0:0:0:
329,192,34172,128,0,34634:0:0:0:0:
256,192,34634,128,0,35095:0:0:0:0:
475,192,34865,1,0,0:0:0:0:
36,192,34865,1,0,0:0:0:0:
109,192,34980,1,0,0:0:0:0:
182,192,35095,1,0,0:0:0:0:
64,192,35326,1,0,0:0:0:0:
402,192,35326,1,0,0:0:0:0:
182,192,35326,1,0,0:0:0:0:
475,192,35441,1,0,0:0:0:0:
256,192,35441,1,0,0:0:0:0:
192,192,35672,1,0,0:0:0:0:
329,192,35672,1,0,0:0:0:0:
475,192,35672,1,0,0:0:0:0:
36,192,35672,1,0,0:0:0:0:
64,192,36018,1,0,0:0:0:0:
109,192,36018,1,0,0:0:0:0:
256,192,36134,1,0,0:0:0:0:
182,192,36134,1,0,0:0:0:0:
402,192,36249,1,0,0:0:0:0:
475,192,36249,1,0,0:0:0:0:
329,192,36365,1,0,0:0:0:0:
256,192,36365,1,0,0:0:0:0:
36,192,36595,1,0,0:0:0:0:
475,192,36595,1,0,0:0:0:0:
256,192,36941,1,0,0:0:0:0:
329,192,36941,1,0,0:0:0:0:
192,192,37288,1,0,0:0:0:0:
256,192,37288,1,0,0:0:0:0:
256,192,37634,1,0,0:0:0:0:
329,192,37634,1,0,0:0:0:0:
448,192,37865,1,0,0:0:0:0:
402,192,37865,1,0,0:0:0:0:
36,192,37865,1,0,0:0:0:0:
109,192,37865,128,0,38326:0:0:0:0:
448,192,38326,1,0,0:0:0:0:
182,192,38326,128,0,38788:0:0:0:0:
256,192,38557,1,0,0:0:0:0:
329,192,38672,1,0,0:0:0:0:
402,192,38788,1,0,0:0:0:0:
475,192,38788,1,0,0:0:0:0:
192,192,39018,1,0,0:0:0:0:
256,192,39018,1,0,0:0:0:0:
64,192,39134,1,0,0:0:0:0:
109,192,39134,1,0,0:0:0:0:
320,192,39365,1,0,0:0:0:0:
448,192,39365,1,0,0:0:0:0:
182,192,39365,1,0,0:0:0:0:
256,192,39595,1,0,0:0:0:0:
64,192,39711,1,0,0:0:0:0:
192,192,39711,1,0,0:0:0:0:
109,192,39826,1,0,0:0:0:0:
256,192,39826,1,0,0:0:0:0:
320,192,39941,1,0,0:0:0:0:
448,192,39941,1,0,0:0:0:0:
256,192,40057,1,0,0:0:0:0:
402,192,40057,1,0,0:0:0:0:
329,192,40288,1,0,0:0:0:0:
182,192,40288,1,0,0:0:0:0:
109,192,40288,1,0,0:0:0:0:
36,192,40634,1,0,0:0:0:0:
256,192,40634,1,0,0:0:0:0:
320,192,40980,1,0,0:0:0:0:
109,192,40980,1,0,0:0:0:0:
448,192,41326,1,0,0:0:0:0:
256,192,41326,1,0,0:0:0:0:
192,192,41557,1,0,0:0:0:0:
36,192,41557,1,0,0:0:0:0:
402,192,41557,1,0,0:0:0:0:
320,192,41672,1,0,0:0:0:0:
109,192,41672,1,0,0:0:0:0:
256,192,41788,1,0,0:0:0:0:
475,192,41788,1,0,0:0:0:0:
182,192,41903,1,0,0:0:0:0:
402,192,41903,1,0,0:0:0:0:
109,192,42018,1,0,0:0:0:0:
475,192,42018,1,0,0:0:0:0:
182,192,42134,1,0,0:0:0:0:
402,192,42134,1,0,0:0:0:0:
256,192,42249,1,0,0:0:0:0:
36,192,42249,1,0,0:0:0:0:
329,192,42365,1,0,0:0:0:0:
109,192,42365,1,0,0:0:0:0:
192,192,42480,1,0,0:0:0:0:
402,192,42480,1,0,0:0:0:0:
475,192,42711,1,0,0:0:0:0:
256,192,42711,1,0,0:0:0:0:
182,192,42826,1,0,0:0:0:0:
402,192,42826,1,0,0:0:0:0:
64,192,43057,1,0,0:0:0:0:
182,192,43057,1,0,0:0:0:0:
402,192,43057,1,0,0:0:0:0:
402,192,43403,1,0,0:0:0:0:
475,192,43403,1,0,0:0:0:0:
329,192,43518,1,0,0:0:0:0:
402,192,43518,1,0,0:0:0:0:
64,192,43634,1,0,0:0:0:0:
109,192,43634,1,0,0:0:0:0:
192,192,43749,1,0,0:0:0:0:
109,192,43749,1,0,0:0:0:0:
64,192,43980,1,0,0:0:0:0:
448,192,43980,1,0,0:0:0:0:
109,192,43980,1,0,0:0:0:0:
402,192,43980,1,0,0:0:0:0:
448,192,44326,1,0,0:0:0:0:
192,192,44326,1,0,0:0:0:0:
256,192,44326,1,0,0:0:0:0:
64,192,44557,1,0,0:0:0:0:
109,192,44557,1,0,0:0:0:0:
329,192,44557,1,0,0:0:0:0:
109,192,44672,1,0,0:0:0:0:
182,192,44672,1,0,0:0:0:0:
402,192,44672,1,0,0:0:0:0:
192,192,44903,1,0,0:0:0:0:
256,192,44903,1,0,0:0:0:0:
329,192,44903,1,0,0:0:0:0:
448,192,45134,1,0,0:0:0:0:
36,192,45134,1,0,0:0:0:0:
36,192,45249,128,0,45711:0:0:0:0:
256,192,45711,128,0,46172:0:0:0:0:
36,192,45941,1,0,0:0:0:0:
109,192,46057,1,0,0:0:0:0:
192,192,46172,1,0,0:0:0:0:
320,192,46172,1,0,0:0:0:0:
448,192,46172,128,0,47095:0:0:0:0:
256,192,46403,1,0,0:0:0:0:
182,192,46518,1,0,0:0:0:0:
109,192,46749,1,0,0:0:0:0:
402,192,47095,128,0,48018:0:0:0:0:
36,192,47095,1,0,0:0:0:0:
109,192,47211,1,0,0:0:0:0:
182,192,47326,1,0,0:0:0:0:
256,192,47441,1,0,0:0:0:0:
36,192,47672,1,0,0:0:0:0:
329,192,47672,1,0,0:0:0:0:
448,192,48018,1,0,0:0:0:0:
192,192,48018,1,0,0:0:0:0:
64,192,48018,128,0,48941:0:0:0:0:
402,192,48365,1,0,0:0:0:0:
109,192,48365,1,0,0:0:0:0:
192,192,48711,1,0,0:0:0:0:
448,192,48711,1,0,0:0:0:0:
320,192,48941,1,0,0:0:0:0:
182,192,48941,128,0,49403:0:0:0:0:
402,192,48941,1,0,0:0:0:0:
64,192,49403,1,0,0:0:0:0:
320,192,49403,1,0,0:0:0:0:
256,192,49403,128,0,49865:0:0:0:0:
475,192,49634,1,0,0:0:0:0:
402,192,49749,1,0,0:0:0:0:
64,192,49865,128,0,50788:0:0:0:0:
320,192,49865,1,0,0:0:0:0:
192,192,50095,1,0,0:0:0:0:
109,192,50095,1,0,0:0:0:0:
256,192,50211,1,0,0:0:0:0:
329,192,50211,1,0,0:0:0:0:
320,192,50441,1,0,0:0:0:0:
402,192,50441,1,0,0:0:0:0:
448,192,50788,128,0,51249:0:0:0:0:
192,192,50788,1,0,0:0:0:0:
109,192,50788,1,0,0:0:0:0:
320,192,50903,1,0,0:0:0:0:
256,192,50903,1,0,0:0:0:0:
182,192,51018,1,0,0:0:0:0:
109,192,51018,1,0,0:0:0:0:
64,192,51134,1,0,0:0:0:0:
109,192,51134,1,0,0:0:0:0:
320,192,51249,128,0,51711:0:0:0:0:
256,192,51365,1,0,0:0:0:0:
64,192,51711,1,0,0:0:0:0:
448,192,51711,128,0,52634:0:0:0:0:
109,192,51711,1,0,0:0:0:0:
192,192,52057,1,0,0:0:0:0:
320,192,52057,1,0,0:0:0:0:
256,192,52057,1,0,0:0:0:0:
64,192,52403,1,0,0:0:0:0:
192,192,52403,1,0,0:0:0:0:
109,192,52403,1,0,0:0:0:0:
320,192,52634,1,0,0:0:0:0:
109,192,52634,128,0,52865:0:0:0:0:
36,192,52634,1,0,0:0:0:0:
182,192,52865,128,0,53095:0:0:0:0:
402,192,52865,1,0,0:0:0:0:
256,192,53095,128,0,53326:0:0:0:0:
475,192,53095,1,0,0:0:0:0:
402,192,53326,128,0,53441:0:0:0:0:
182,192,53326,1,0,0:0:0:0:
329,192,53441,128,0,53557:0:0:0:0:
109,192,53441,1,0,0:0:0:0:
448,192,53557,1,0,0:0:0:0:
256,192,53557,128,0,54480:0:0:0:0:
36,192,53557,1,0,0:0:0:0:
64,192,53788,1,0,0:0:0:0:
320,192,53903,1,0,0:0:0:0:
64,192,54134,1,0,0:0:0:0:
448,192,54134,1,0,0:0:0:0:
64,192,54365,1,0,0:0:0:0:
320,192,54365,1,0,0:0:0:0:
329,192,54480,128,0,55403:0:0:0:0:
448,192,54480,1,0,0:0:0:0:
402,192,54595,1,0,0:0:0:0:
256,192,54711,1,0,0:0:0:0:
192,192,54826,1,0,0:0:0:0:
448,192,54826,1,0,0:0:0:0:
475,192,55057,1,0,0:0:0:0:
192,192,55057,1,0,0:0:0:0:
109,192,55057,1,0,0:0:0:0:
402,192,55403,128,0,56326:0:0:0:0:
448,192,55403,1,0,0:0:0:0:
109,192,55403,1,0,0:0:0:0:
64,192,55749,1,0,0:0:0:0:
192,192,55749,1,0,0:0:0:0:
192,192,56095,1,0,0:0:0:0:
448,192,56095,1,0,0:0:0:0:
256,192,56095,1,0,0:0:0:0:
448,192,56326,128,0,56788:0:0:0:0:
64,192,56326,1,0,0:0:0:0:
329,192,56326,1,0,0:0:0:0:
109,192,56788,128,0,57249:0:0:0:0:
192,192,57018,1,0,0:0:0:0:
320,192,57134,1,0,0:0:0:0:
448,192,57249,1,0,0:0:0:0:
256,192,57249,128,0,58172:0:0:0:0:
64,192,57480,1,0,0:0:0:0:
192,192,57595,1,0,0:0:0:0:
192,192,57826,1,0,0:0:0:0:
448,192,57826,1,0,0:0:0:0:
192,192,58172,128,0,59095:0:0:0:0:
64,192,58172,1,0,0:0:0:0:
448,192,58288,1,0,0:0:0:0:
256,192,58403,1,0,0:0:0:0:
320,192,58518,1,0,0:0:0:0:
64,192,58518,1,0,0:0:0:0:
448,192,58749,1,0,0:0:0:0:
320,192,58749,1,0,0:0:0:0:
109,192,59095,128,0,60941:0:0:0:0:
64,192,59095,1,0,0:0:0:0:
64,192,59326,1,0,0:0:0:0:
192,192,59326,1,0,0:0:0:0:
192,192,59441,1,0,0:0:0:0:
320,192,59441,1,0,0:0:0:0:
64,192,59672,1,0,0:0:0:0:
320,192,59672,1,0,0:0:0:0:
192,192,59903,1,0,0:0:0:0:
64,192,60018,1,0,0:0:0:0:
192,192,60134,1,0,0:0:0:0:
475,192,60134,1,0,0:0:0:0:
320,192,60249,1,0,0:0:0:0:
192,192,60365,1,0,0:0:0:0:
320,192,60480,1,0,0:0:0:0:
36,192,60480,1,0,0:0:0:0:
182,192,60595,1,0,0:0:0:0:
329,192,60711,1,0,0:0:0:0:
475,192,60826,1,0,0:0:0:0:
64,192,60941,1,0,0:0:0:0:
402,192,60941,128,0,61865:0:0:0:0:
64,192,61172,1,0,0:0:0:0:
192,192,61288,1,0,0:0:0:0:
448,192,61288,1,0,0:0:0:0:
192,192,61518,1,0,0:0:0:0:
64,192,61518,1,0,0:0:0:0:
448,192,61865,1,0,0:0:0:0:
256,192,61865,128,0,62788:0:0:0:0:
36,192,61865,1,0,0:0:0:0:
192,192,61980,1,0,0:0:0:0:
320,192,61980,1,0,0:0:0:0:
109,192,62095,1,0,0:0:0:0:
192,192,62211,1,0,0:0:0:0:
402,192,62211,1,0,0:0:0:0:
320,192,62441,1,0,0:0:0:0:
109,192,62441,1,0,0:0:0:0:
109,192,62788,128,0,63711:0:0:0:0:
448,192,62788,1,0,0:0:0:0:
320,192,62788,1,0,0:0:0:0:
402,192,62788,1,0,0:0:0:0:
320,192,63134,1,0,0:0:0:0:
64,192,63134,1,0,0:0:0:0:
256,192,63134,1,0,0:0:0:0:
448,192,63480,1,0,0:0:0:0:
64,192,63480,1,0,0:0:0:0:
182,192,63480,1,0,0:0:0:0:
402,192,63480,1,0,0:0:0:0:
320,192,63711,1,0,0:0:0:0:
64,192,63711,128,0,64172:0:0:0:0:
402,192,63711,1,0,0:0:0:0:
448,192,64172,128,0,64634:0:0:0:0:
320,192,64403,1,0,0:0:0:0:
64,192,64403,1,0,0:0:0:0:
192,192,64518,1,0,0:0:0:0:
256,192,64634,128,0,65557:0:0:0:0:
64,192,64634,1,0,0:0:0:0:
320,192,64865,1,0,0:0:0:0:
448,192,64980,1,0,0:0:0:0:
64,192,65211,1,0,0:0:0:0:
320,192,65211,1,0,0:0:0:0:
182,192,65557,128,0,66018:0:0:0:0:
320,192,65557,1,0,0:0:0:0:
36,192,65557,1,0,0:0:0:0:
402,192,65672,1,0,0:0:0:0:
475,192,65788,1,0,0:0:0:0:
402,192,65903,1,0,0:0:0:0:
109,192,66018,128,0,66480:0:0:0:0:
182,192,66134,1,0,0:0:0:0:
256,192,66134,1,0,0:0:0:0:
36,192,66480,128,0,67403:0:0:0:0:
192,192,66480,1,0,0:0:0:0:
448,192,66480,1,0,0:0:0:0:
320,192,66826,1,0,0:0:0:0:
192,192,66826,1,0,0:0:0:0:
320,192,67172,1,0,0:0:0:0:
448,192,67172,1,0,0:0:0:0:
192,192,67403,1,0,0:0:0:0:
320,192,67403,1,0,0:0:0:0:
402,192,67403,128,0,67634:0:0:0:0:
329,192,67634,128,0,67865:0:0:0:0:
109,192,67634,1,0,0:0:0:0:
256,192,67634,1,0,0:0:0:0:
192,192,67865,1,0,0:0:0:0:
448,192,67865,1,0,0:0:0:0:
256,192,67865,128,0,68095:0:0:0:0:
36,192,67865,1,0,0:0:0:0:
64,192,68095,1,0,0:0:0:0:
320,192,68095,1,0,0:0:0:0:
448,192,68095,1,0,0:0:0:0:
109,192,68095,128,0,68211:0:0:0:0:
182,192,68211,128,0,68326:0:0:0:0:
64,192,68326,1,0,0:0:0:0:
256,192,68326,128,0,69249:0:0:0:0:
320,192,68557,1,0,0:0:0:0:
192,192,68672,1,0,0:0:0:0:
64,192,68672,1,0,0:0:0:0:
320,192,68903,1,0,0:0:0:0:
64,192,68903,1,0,0:0:0:0:
192,192,69134,1,0,0:0:0:0:
64,192,69249,1,0,0:0:0:0:
402,192,69249,128,0,70172:0:0:0:0:
475,192,69249,1,0,0:0:0:0:
320,192,69365,1,0,0:0:0:0:
448,192,69480,1,0,0:0:0:0:
64,192,69595,1,0,0:0:0:0:
320,192,69595,1,0,0:0:0:0:
64,192,69826,1,0,0:0:0:0:
448,192,69826,1,0,0:0:0:0:
475,192,70172,128,0,71095:0:0:0:0:
320,192,70172,1,0,0:0:0:0:
192,192,70518,1,0,0:0:0:0:
329,192,70518,1,0,0:0:0:0:
192,192,70865,1,0,0:0:0:0:
320,192,70865,1,0,0:0:0:0:
320,192,71095,1,0,0:0:0:0:
402,192,71095,1,0,0:0:0:0:
109,192,71095,128,0,71557:0:0:0:0:
64,192,71211,1,0,0:0:0:0:
448,192,71326,1,0,0:0:0:0:
64,192,71441,1,0,0:0:0:0:
402,192,71557,128,0,72018:0:0:0:0:
448,192,71557,1,0,0:0:0:0:
64,192,71672,1,0,0:0:0:0:
448,192,71788,1,0,0:0:0:0:
192,192,71903,1,0,0:0:0:0:
64,192,71903,1,0,0:0:0:0:
64,192,72018,128,0,72941:0:0:0:0:
448,192,72018,1,0,0:0:0:0:
256,192,72018,1,0,0:0:0:0:
402,192,72134,1,0,0:0:0:0:
256,192,72249,1,0,0:0:0:0:
402,192,72365,1,0,0:0:0:0:
256,192,72480,1,0,0:0:0:0:
402,192,72595,1,0,0:0:0:0:
256,192,72711,1,0,0:0:0:0:
402,192,72826,1,0,0:0:0:0:
320,192,72941,1,0,0:0:0:0:
448,192,72941,128,0,75711:0:0:0:0:
192,192,73057,1,0,0:0:0:0:
329,192,73172,1,0,0:0:0:0:
182,192,73288,1,0,0:0:0:0:
329,192,73403,1,0,0:0:0:0:
192,192,73518,1,0,0:0:0:0:
329,192,73634,1,0,0:0:0:0:
182,192,73749,1,0,0:0:0:0:
64,192,73865,128,0,75711:0:0:0:0:
109,192,73865,1,0,0:0:0:0:
182,192,73922,1,0,0:0:0:0:
256,192,73980,1,0,0:0:0:0:
329,192,74038,1,0,0:0:0:0:
402,192,74095,1,0,0:0:0:0:
329,192,74153,1,0,0:0:0:0:
256,192,74211,1,0,0:0:0:0:
182,192,74268,1,0,0:0:0:0:
109,192,74326,1,0,0:0:0:0:
182,192,74384,1,0,0:0:0:0:
256,192,74441,1,0,0:0:0:0:
329,192,74499,1,0,0:0:0:0:
402,192,74557,1,0,0:0:0:0:
329,192,74615,1,0,0:0:0:0:
256,192,74672,1,0,0:0:0:0:
182,192,74730,1,0,0:0:0:0:
109,192,74788,1,0,0:0:0:0:
182,192,74845,1,0,0:0:0:0:
256,192,74903,1,0,0:0:0:0:
329,192,74961,1,0,0:0:0:0:
402,192,75018,1,0,0:0:0:0:
329,192,75076,1,0,0:0:0:0:
256,192,75134,1,0,0:0:0:0:
182,192,75191,1,0,0:0:0:0:
109,192,75249,1,0,0:0:0:0:
182,192,75307,1,0,0:0:0:0:
256,192,75365,1,0,0:0:0:0:
329,192,75422,1,0,0:0:0:0:
402,192,75480,1,0,0:0:0:0:
109,192,75480,1,0,0:0:0:0:
182,192,75538,1,0,0:0:0:0:
329,192,75538,1,0,0:0:0:0:
256,192,75595,1,0,0:0:0:0:
182,192,75653,1,0,0:0:0:0:
329,192,75653,1,0,0:0:0:0:
109,192,75711,1,0,0:0:0:0:
402,192,75711,1,0,0:0:0:0:
64,192,75941,1,0,0:0:0:0:
320,192,75941,1,0,0:0:0:0:
192,192,76172,1,0,0:0:0:0:
448,192,76172,1,0,0:0:0:0:
64,192,76403,1,0,0:0:0:0:
320,192,76403,1,0,0:0:0:0:
448,192,76634,1,0,0:0:0:0:
36,192,76634,1,0,0:0:0:0:
320,192,76691,1,0,0:0:0:0:
192,192,76749,1,0,0:0:0:0:
64,192,76807,1,0,0:0:0:0:
475,192,76807,1,0,0:0:0:0:
192,192,77095,1,0,0:0:0:0:
320,192,77095,1,0,0:0:0:0:
402,192,77095,1,0,0:0:0:0:
109,192,77095,1,0,0:0:0:0:
64,192,77326,1,0,0:0:0:0:
448,192,77326,1,0,0:0:0:0:
402,192,77326,1,0,0:0:0:0:
109,192,77326,1,0,0:0:0:0:
64,192,77557,1,0,0:0:0:0:
109,192,77557,1,0,0:0:0:0:
448,192,77672,1,0,0:0:0:0:
402,192,77672,1,0,0:0:0:0:
192,192,77788,1,0,0:0:0:0:
109,192,77788,1,0,0:0:0:0:
320,192,77903,1,0,0:0:0:0:
402,192,77903,1,0,0:0:0:0:
64,192,78249,1,0,0:0:0:0:
192,192,78249,1,0,0:0:0:0:
320,192,78249,1,0,0:0:0:0:
109,192,78249,1,0,0:0:0:0:
192,192,78595,1,0,0:0:0:0:
329,192,78595,1,0,0:0:0:0:
256,192,78595,1,0,0:0:0:0:
475,192,78595,1,0,0:0:0:0:
192,192,78826,1,0,0:0:0:0:
448,192,78826,1,0,0:0:0:0:
329,192,78826,1,0,0:0:0:0:
402,192,78826,1,0,0:0:0:0:
64,192,79172,1,0,0:0:0:0:
448,192,79172,1,0,0:0:0:0:
402,192,79172,1,0,0:0:0:0:
109,192,79172,1,0,0:0:0:0:
64,192,79403,1,0,0:0:0:0:
256,192,79403,1,0,0:0:0:0:
320,192,79518,1,0,0:0:0:0:
109,192,79518,1,0,0:0:0:0:
64,192,79749,1,0,0:0:0:0:
256,192,79749,1,0,0:0:0:0:
448,192,80095,1,0,0:0:0:0:
402,192,80095,1,0,0:0:0:0:
109,192,80095,1,0,0:0:0:0:
182,192,80095,1,0,0:0:0:0:
448,192,80326,1,0,0:0:0:0:
256,192,80326,1,0,0:0:0:0:
192,192,80441,1,0,0:0:0:0:
402,192,80441,1,0,0:0:0:0:
475,192,80672,1,0,0:0:0:0:
256,192,80672,128,0,80903:0:0:0:0:
36,192,80672,1,0,0:0:0:0:
320,192,80903,128,0,81134:0:0:0:0:
109,192,80903,1,0,0:0:0:0:
448,192,81134,1,0,0:0:0:0:
402,192,81134,128,0,81249:0:0:0:0:
182,192,81134,1,0,0:0:0:0:
64,192,81249,1,0,0:0:0:0:
182,192,81307,1,0,0:0:0:0:
329,192,81365,1,0,0:0:0:0:
64,192,81480,1,0,0:0:0:0:
320,192,81595,1,0,0:0:0:0:
109,192,81711,1,0,0:0:0:0:
402,192,81826,1,0,0:0:0:0:
192,192,81941,1,0,0:0:0:0:
448,192,81941,1,0,0:0:0:0:
109,192,82172,1,0,0:0:0:0:
402,192,82172,1,0,0:0:0:0:
64,192,82288,1,0,0:0:0:0:
109,192,82403,1,0,0:0:0:0:
182,192,82518,1,0,0:0:0:0:
448,192,82634,1,0,0:0:0:0:
256,192,82634,1,0,0:0:0:0:
402,192,82749,1,0,0:0:0:0:
329,192,82865,1,0,0:0:0:0:
256,192,82980,1,0,0:0:0:0:
109,192,83095,1,0,0:0:0:0:
402,192,83095,1,0,0:0:0:0:
64,192,83211,1,0,0:0:0:0:
448,192,83211,1,0,0:0:0:0:
320,192,83441,1,0,0:0:0:0:
192,192,83441,1,0,0:0:0:0:
64,192,83672,1,0,0:0:0:0:
256,192,83672,1,0,0:0:0:0:
192,192,83903,1,0,0:0:0:0:
448,192,83903,1,0,0:0:0:0:
256,192,83903,1,0,0:0:0:0:
320,192,84018,1,0,0:0:0:0:
109,192,84018,1,0,0:0:0:0:
64,192,84134,1,0,0:0:0:0:
192,192,84134,1,0,0:0:0:0:
256,192,84134,1,0,0:0:0:0:
192,192,84365,1,0,0:0:0:0:
320,192,84365,1,0,0:0:0:0:
256,192,84365,1,0,0:0:0:0:
320,192,84595,1,0,0:0:0:0:
448,192,84595,1,0,0:0:0:0:
402,192,84595,1,0,0:0:0:0:
109,192,84826,1,0,0:0:0:0:
182,192,84826,1,0,0:0:0:0:
320,192,84941,1,0,0:0:0:0:
402,192,84941,1,0,0:0:0:0:
192,192,85057,1,0,0:0:0:0:
256,192,85057,1,0,0:0:0:0:
64,192,85288,1,0,0:0:0:0:
109,192,85288,1,0,0:0:0:0:
320,192,85518,1,0,0:0:0:0:
256,192,85518,1,0,0:0:0:0:
320,192,85749,1,0,0:0:0:0:
448,192,85749,1,0,0:0:0:0:
402,192,85749,1,0,0:0:0:0:
64,192,85865,1,0,0:0:0:0:
256,192,85865,1,0,0:0:0:0:
109,192,85980,1,0,0:0:0:0:
329,192,85980,1,0,0:0:0:0:
182,192,86095,1,0,0:0:0:0:
402,192,86095,1,0,0:0:0:0:
256,192,86211,1,0,0:0:0:0:
475,192,86211,1,0,0:0:0:0:
256,192,86326,1,0,0:0:0:0:
475,192,86326,1,0,0:0:0:0:
182,192,86441,1,0,0:0:0:0:
402,192,86441,1,0,0:0:0:0:
320,192,86557,1,0,0:0:0:0:
109,192,86557,1,0,0:0:0:0:
36,192,86672,1,0,0:0:0:0:
256,192,86672,1,0,0:0:0:0:
402,192,86788,128,0,87134:0:0:0:0:
36,192,86788,1,0,0:0:0:0:
109,192,86845,1,0,0:0:0:0:
182,192,86903,1,0,0:0:0:0:
256,192,86961,1,0,0:0:0:0:
329,192,87018,1,0,0:0:0:0:
256,192,87076,1,0,0:0:0:0:
329,192,87134,128,0,87480:0:0:0:0:
182,192,87134,1,0,0:0:0:0:
109,192,87191,1,0,0:0:0:0:
36,192,87249,1,0,0:0:0:0:
109,192,87307,1,0,0:0:0:0:
182,192,87365,1,0,0:0:0:0:
256,192,87422,1,0,0:0:0:0:
256,192,87480,128,0,87826:0:0:0:0:
182,192,87480,1,0,0:0:0:0:
109,192,87538,1,0,0:0:0:0:
36,192,87595,1,0,0:0:0:0:
109,192,87653,1,0,0:0:0:0:
182,192,87711,1,0,0:0:0:0:
329,192,87768,1,0,0:0:0:0:
182,192,87826,128,0,88172:0:0:0:0:
402,192,87826,1,0,0:0:0:0:
475,192,87884,1,0,0:0:0:0:
402,192,87941,1,0,0:0:0:0:
329,192,87999,1,0,0:0:0:0:
256,192,88057,1,0,0:0:0:0:
329,192,88115,1,0,0:0:0:0:
109,192,88172,128,0,88518:0:0:0:0:
402,192,88172,1,0,0:0:0:0:
475,192,88230,1,0,0:0:0:0:
402,192,88288,1,0,0:0:0:0:
329,192,88345,1,0,0:0:0:0:
256,192,88403,1,0,0:0:0:0:
182,192,88461,1,0,0:0:0:0:
36,192,88518,128,0,88634:0:0:0:0:
256,192,88518,1,0,0:0:0:0:
329,192,88576,1,0,0:0:0:0:
192,192,88634,1,0,0:0:0:0:
402,192,88634,1,0,0:0:0:0:
320,192,88749,1,0,0:0:0:0:
109,192,88749,1,0,0:0:0:0:
256,192,88865,1,0,0:0:0:0:
36,192,88865,1,0,0:0:0:0:
320,192,88980,1,0,0:0:0:0:
109,192,88980,1,0,0:0:0:0:
475,192,89095,1,0,0:0:0:0:
36,192,89095,1,0,0:0:0:0:
109,192,89211,1,0,0:0:0:0:
402,192,89211,1,0,0:0:0:0:
320,192,89326,1,0,0:0:0:0:
182,192,89326,1,0,0:0:0:0:
256,192,89441,1,0,0:0:0:0:
448,192,89557,1,0,0:0:0:0:
320,192,89557,1,0,0:0:0:0:
36,192,89672,1,0,0:0:0:0:
182,192,89672,1,0,0:0:0:0:
402,192,89788,1,0,0:0:0:0:
256,192,89788,1,0,0:0:0:0:
182,192,89903,1,0,0:0:0:0:
36,192,89903,1,0,0:0:0:0:
329,192,90018,1,0,0:0:0:0:
475,192,90018,1,0,0:0:0:0:
36,192,90134,1,0,0:0:0:0:
182,192,90134,1,0,0:0:0:0:
256,192,90249,1,0,0:0:0:0:
402,192,90249,1,0,0:0:0:0:
64,192,90365,1,0,0:0:0:0:
182,192,90365,1,0,0:0:0:0:
109,192,90480,1,0,0:0:0:0:
402,192,90480,1,0,0:0:0:0:
329,192,90480,1,0,0:0:0:0:
36,192,90480,1,0,0:0:0:0:
182,192,90595,1,0,0:0:0:0:
256,192,90595,1,0,0:0:0:0:
475,192,90595,1,0,0:0:0:0:
109,192,90711,1,0,0:0:0:0:
36,192,90711,1,0,0:0:0:0:
329,192,90711,1,0,0:0:0:0:
448,192,90826,1,0,0:0:0:0:
182,192,90826,1,0,0:0:0:0:
256,192,90826,1,0,0:0:0:0:
329,192,90941,1,0,0:0:0:0:
402,192,90941,1,0,0:0:0:0:
109,192,90941,1,0,0:0:0:0:
36,192,90941,1,0,0:0:0:0:
192,192,91057,1,0,0:0:0:0:
256,192,91057,1,0,0:0:0:0:
475,192,91057,1,0,0:0:0:0:
64,192,91172,1,0,0:0:0:0:
329,192,91172,1,0,0:0:0:0:
402,192,91172,1,0,0:0:0:0:
109,192,91288,1,0,0:0:0:0:
182,192,91288,1,0,0:0:0:0:
475,192,91288,1,0,0:0:0:0:
64,192,91403,1,0,0:0:0:0:
256,192,91403,1,0,0:0:0:0:
329,192,91403,1,0,0:0:0:0:
402,192,91403,1,0,0:0:0:0:
402,192,91518,1,0,0:0:0:0:
475,192,91518,1,0,0:0:0:0:
182,192,91518,1,0,0:0:0:0:
64,192,91634,1,0,0:0:0:0:
256,192,91634,1,0,0:0:0:0:
329,192,91634,1,0,0:0:0:0:
448,192,91749,1,0,0:0:0:0:
402,192,91749,1,0,0:0:0:0:
109,192,91749,1,0,0:0:0:0:
256,192,91865,1,0,0:0:0:0:
329,192,91865,1,0,0:0:0:0:
36,192,91865,1,0,0:0:0:0:
182,192,91865,1,0,0:0:0:0:
109,192,91980,1,0,0:0:0:0:
182,192,91980,1,0,0:0:0:0:
402,192,91980,1,0,0:0:0:0:
64,192,92095,1,0,0:0:0:0:
256,192,92095,1,0,0:0:0:0:
329,192,92095,1,0,0:0:0:0:
192,192,92211,1,0,0:0:0:0:
402,192,92211,1,0,0:0:0:0:
475,192,92211,1,0,0:0:0:0:
64,192,92326,1,0,0:0:0:0:
329,192,92326,1,0,0:0:0:0:
256,192,92326,1,0,0:0:0:0:
109,192,92326,1,0,0:0:0:0:
192,192,92441,1,0,0:0:0:0:
402,192,92441,1,0,0:0:0:0:
475,192,92441,1,0,0:0:0:0:
36,192,92557,1,0,0:0:0:0:
109,192,92557,1,0,0:0:0:0:
329,192,92557,1,0,0:0:0:0:
475,192,92672,1,0,0:0:0:0:
182,192,92672,1,0,0:0:0:0:
256,192,92672,1,0,0:0:0:0:
64,192,92788,1,0,0:0:0:0:
109,192,92788,1,0,0:0:0:0:
402,192,92788,1,0,0:0:0:0:
329,192,92788,1,0,0:0:0:0:
182,192,92903,1,0,0:0:0:0:
329,192,92903,1,0,0:0:0:0:
256,192,92903,1,0,0:0:0:0:
36,192,93018,1,0,0:0:0:0:
109,192,93018,1,0,0:0:0:0:
402,192,93018,1,0,0:0:0:0:
475,192,93018,1,0,0:0:0:0:
329,192,93134,1,0,0:0:0:0:
182,192,93134,1,0,0:0:0:0:
256,192,93134,1,0,0:0:0:0:
109,192,93249,1,0,0:0:0:0:
402,192,93249,1,0,0:0:0:0:
475,192,93249,1,0,0:0:0:0:
192,192,93365,1,0,0:0:0:0:
448,192,93365,1,0,0:0:0:0:
329,192,93365,1,0,0:0:0:0:
402,192,93480,1,0,0:0:0:0:
109,192,93480,1,0,0:0:0:0:
256,192,93480,1,0,0:0:0:0:
192,192,93595,1,0,0:0:0:0:
36,192,93595,1,0,0:0:0:0:
109,192,93711,1,0,0:0:0:0:
329,192,93711,1,0,0:0:0:0:
475,192,93711,1,0,0:0:0:0:
402,192,93711,1,0,0:0:0:0:
64,192,93826,1,0,0:0:0:0:
182,192,93826,1,0,0:0:0:0:
402,192,93826,1,0,0:0:0:0:
329,192,93941,1,0,0:0:0:0:
109,192,93941,1,0,0:0:0:0:
256,192,93941,1,0,0:0:0:0:
182,192,94057,1,0,0:0:0:0:
402,192,94057,1,0,0:0:0:0:
475,192,94057,1,0,0:0:0:0:
329,192,94172,1,0,0:0:0:0:
36,192,94172,1,0,0:0:0:0:
256,192,94172,1,0,0:0:0:0:
448,192,94288,1,0,0:0:0:0:
109,192,94288,1,0,0:0:0:0:
256,192,94288,1,0,0:0:0:0:
64,192,94403,1,0,0:0:0:0:
402,192,94403,1,0,0:0:0:0:
182,192,94403,1,0,0:0:0:0:
320,192,94518,1,0,0:0:0:0:
256,192,94518,1,0,0:0:0:0:
109,192,94518,1,0,0:0:0:0:
448,192,94634,1,0,0:0:0:0:
182,192,94634,1,0,0:0:0:0:
402,192,94634,1,0,0:0:0:0:
448,192,94749,1,0,0:0:0:0:
109,192,94749,1,0,0:0:0:0:
329,192,94749,1,0,0:0:0:0:
64,192,94865,1,0,0:0:0:0:
256,192,94865,1,0,0:0:0:0:
402,192,94865,1,0,0:0:0:0:
192,192,94980,1,0,0:0:0:0:
475,192,94980,1,0,0:0:0:0:
109,192,94980,1,0,0:0:0:0:
256,192,95095,1,0,0:0:0:0:
36,192,95095,1,0,0:0:0:0:
402,192,95095,1,0,0:0:0:0:
36,192,95211,1,0,0:0:0:0:
182,192,95211,1,0,0:0:0:0:
329,192,95211,1,0,0:0:0:0:
256,192,95326,1,0,0:0:0:0:
402,192,95326,1,0,0:0:0:0:
109,192,95326,1,0,0:0:0:0:
448,192,95441,1,0,0:0:0:0:
182,192,95441,1,0,0:0:0:0:
36,192,95441,1,0,0:0:0:0:
256,192,95557,1,0,0:0:0:0:
402,192,95557,1,0,0:0:0:0:
109,192,95557,1,0,0:0:0:0:
64,192,95672,1,0,0:0:0:0:
256,192,95672,1,0,0:0:0:0:
475,192,95672,1,0,0:0:0:0:
329,192,95788,1,0,0:0:0:0:
402,192,95788,1,0,0:0:0:0:
109,192,95788,1,0,0:0:0:0:
192,192,95903,1,0,0:0:0:0:
475,192,95903,1,0,0:0:0:0:
36,192,95903,1,0,0:0:0:0:
320,192,96018,1,0,0:0:0:0:
109,192,96018,1,0,0:0:0:0:
402,192,96018,1,0,0:0:0:0:
64,192,96134,1,0,0:0:0:0:
256,192,96134,1,0,0:0:0:0:
109,192,96249,1,0,0:0:0:0:
329,192,96249,1,0,0:0:0:0:
192,192,96365,1,0,0:0:0:0:
402,192,96365,1,0,0:0:0:0:
256,192,96480,1,0,0:0:0:0:
329,192,96480,1,0,0:0:0:0:
36,192,96480,1,0,0:0:0:0:
109,192,96595,1,0,0:0:0:0:
329,192,96595,1,0,0:0:0:0:
402,192,96711,1,0,0:0:0:0:
182,192,96711,1,0,0:0:0:0:
256,192,96826,1,0,0:0:0:0:
475,192,96826,1,0,0:0:0:0:
64,192,96941,1,0,0:0:0:0:
402,192,96941,1,0,0:0:0:0:
329,192,97057,1,0,0:0:0:0:
36,192,97057,1,0,0:0:0:0:
36,192,97172,1,0,0:0:0:0:
256,192,97172,1,0,0:0:0:0:
64,192,97288,1,0,0:0:0:0:
182,192,97288,1,0,0:0:0:0:
109,192,97403,1,0,0:0:0:0:
256,192,97403,1,0,0:0:0:0:
109,192,97518,1,0,0:0:0:0:
329,192,97518,1,0,0:0:0:0:
109,192,97634,1,0,0:0:0:0:
402,192,97634,1,0,0:0:0:0:
109,192,97749,1,0,0:0:0:0:
475,192,97749,1,0,0:0:0:0:
64,192,97865,1,0,0:0:0:0:
448,192,97865,1,0,0:0:0:0:
36,192,97980,1,0,0:0:0:0:
402,192,97980,1,0,0:0:0:0:
448,192,98095,1,0,0:0:0:0:
109,192,98095,1,0,0:0:0:0:
448,192,98211,1,0,0:0:0:0:
192,192,98211,1,0,0:0:0:0:
402,192,98326,1,0,0:0:0:0:
109,192,98326,1,0,0:0:0:0:
402,192,98441,1,0,0:0:0:0:
182,192,98441,1,0,0:0:0:0:
109,192,98557,1,0,0:0:0:0:
329,192,98557,1,0,0:0:0:0:
109,192,98672,1,0,0:0:0:0:
256,192,98672,1,0,0:0:0:0:
448,192,98788,1,0,0:0:0:0:
64,192,98788,1,0,0:0:0:0:
182,192,98788,1,0,0:0:0:0:
109,192,98903,1,0,0:0:0:0:
256,192,98903,1,0,0:0:0:0:
475,192,98903,1,0,0:0:0:0:
320,192,99018,1,0,0:0:0:0:
448,192,99018,1,0,0:0:0:0:
182,192,99018,1,0,0:0:0:0:
256,192,99134,1,0,0:0:0:0:
109,192,99134,1,0,0:0:0:0:
36,192,99249,1,0,0:0:0:0:
475,192,99249,1,0,0:0:0:0:
329,192,99249,1,0,0:0:0:0:
36,192,99365,1,0,0:0:0:0:
402,192,99365,1,0,0:0:0:0:
256,192,99365,1,0,0:0:0:0:
36,192,99480,1,0,0:0:0:0:
182,192,99480,1,0,0:0:0:0:
329,192,99480,1,0,0:0:0:0:
64,192,99595,1,0,0:0:0:0:
256,192,99595,1,0,0:0:0:0:
402,192,99595,1,0,0:0:0:0:
109,192,99711,1,0,0:0:0:0:
475,192,99711,1,0,0:0:0:0:
192,192,99826,1,0,0:0:0:0:
402,192,99826,1,0,0:0:0:0:
256,192,99941,1,0,0:0:0:0:
329,192,99941,1,0,0:0:0:0:
192,192,100057,1,0,0:0:0:0:
402,192,100057,1,0,0:0:0:0:
64,192,100172,1,0,0:0:0:0:
329,192,100172,1,0,0:0:0:0:
109,192,100288,1,0,0:0:0:0:
256,192,100288,1,0,0:0:0:0:
182,192,100403,1,0,0:0:0:0:
109,192,100518,1,0,0:0:0:0:
256,192,100518,1,0,0:0:0:0:
36,192,100634,1,0,0:0:0:0:
475,192,100634,1,0,0:0:0:0:
109,192,100749,1,0,0:0:0:0:
402,192,100749,1,0,0:0:0:0:
320,192,100865,1,0,0:0:0:0:
182,192,100865,1,0,0:0:0:0:
256,192,100980,1,0,0:0:0:0:
109,192,101095,1,0,0:0:0:0:
402,192,101095,1,0,0:0:0:0:
182,192,101211,1,0,0:0:0:0:
329,192,101211,1,0,0:0:0:0:
256,192,101326,1,0,0:0:0:0:
192,192,101441,1,0,0:0:0:0:
329,192,101441,1,0,0:0:0:0:
64,192,101557,1,0,0:0:0:0:
192,192,101672,1,0,0:0:0:0:
320,192,101672,1,0,0:0:0:0:
448,192,101788,1,0,0:0:0:0:
320,192,101903,1,0,0:0:0:0:
182,192,101903,1,0,0:0:0:0:
109,192,102018,1,0,0:0:0:0:
320,192,102134,1,0,0:0:0:0:
182,192,102134,1,0,0:0:0:0:
402,192,102249,1,0,0:0:0:0:
192,192,102365,1,0,0:0:0:0:
320,192,102365,1,0,0:0:0:0:
64,192,102480,1,0,0:0:0:0:
475,192,102480,1,0,0:0:0:0:
192,192,102595,1,0,0:0:0:0:
329,192,102595,1,0,0:0:0:0:
109,192,102711,1,0,0:0:0:0:
402,192,102711,1,0,0:0:0:0:
320,192,102826,1,0,0:0:0:0:
192,192,102826,1,0,0:0:0:0:
64,192,102941,1,0,0:0:0:0:
475,192,102941,1,0,0:0:0:0:
109,192,103057,1,0,0:0:0:0:
402,192,103057,1,0,0:0:0:0:
36,192,103172,1,0,0:0:0:0:
475,192,103172,1,0,0:0:0:0:
182,192,103288,1,0,0:0:0:0:
329,192,103288,1,0,0:0:0:0:
36,192,103403,1,0,0:0:0:0:
64,192,103518,1,0,0:0:0:0:
109,192,103518,1,0,0:0:0:0:
36,192,103634,1,0,0:0:0:0:
109,192,103634,1,0,0:0:0:0:
182,192,103634,1,0,0:0:0:0:
36,192,103749,1,0,0:0:0:0:
109,192,103749,1,0,0:0:0:0:
182,192,103749,1,0,0:0:0:0:
256,192,103749,1,0,0:0:0:0:
192,192,103865,1,0,0:0:0:0:
320,192,103865,1,0,0:0:0:0:
256,192,103865,1,0,0:0:0:0:
109,192,103865,1,0,0:0:0:0:
36,192,103865,1,0,0:0:0:0:
475,192,103865,1,0,0:0:0:0:
475,192,103980,1,0,0:0:0:0:
402,192,103980,1,0,0:0:0:0:
448,192,104095,1,0,0:0:0:0:
329,192,104095,1,0,0:0:0:0:
402,192,104095,1,0,0:0:0:0:
329,192,104211,1,0,0:0:0:0:
402,192,104211,1,0,0:0:0:0:
475,192,104211,1,0,0:0:0:0:
256,192,104211,1,0,0:0:0:0:
36,192,104326,1,0,0:0:0:0:
36,192,104441,1,0,0:0:0:0:
109,192,104441,1,0,0:0:0:0:
192,192,104557,1,0,0:0:0:0:
64,192,104557,1,0,0:0:0:0:
109,192,104557,1,0,0:0:0:0:
192,192,104672,1,0,0:0:0:0:
36,192,104672,1,0,0:0:0:0:
109,192,104672,1,0,0:0:0:0:
256,192,104672,1,0,0:0:0:0:
402,192,104788,1,0,0:0:0:0:
402,192,104903,1,0,0:0:0:0:
329,192,104903,1,0,0:0:0:0:
256,192,105018,1,0,0:0:0:0:
329,192,105018,1,0,0:0:0:0:
402,192,105018,1,0,0:0:0:0:
192,192,105134,1,0,0:0:0:0:
256,192,105134,1,0,0:0:0:0:
329,192,105134,1,0,0:0:0:0:
402,192,105134,1,0,0:0:0:0:
109,192,105249,1,0,0:0:0:0:
109,192,105365,1,0,0:0:0:0:
182,192,105365,1,0,0:0:0:0:
109,192,105480,1,0,0:0:0:0:
256,192,105480,1,0,0:0:0:0:
182,192,105480,1,0,0:0:0:0:
320,192,105595,1,0,0:0:0:0:
192,192,105595,1,0,0:0:0:0:
256,192,105595,1,0,0:0:0:0:
109,192,105595,1,0,0:0:0:0:
64,192,105711,1,0,0:0:0:0:
475,192,105711,1,0,0:0:0:0:
109,192,105826,1,0,0:0:0:0:
402,192,105826,1,0,0:0:0:0:
36,192,105826,1,0,0:0:0:0:
475,192,105826,1,0,0:0:0:0:
64,192,105941,1,0,0:0:0:0:
192,192,105941,1,0,0:0:0:0:
320,192,105941,1,0,0:0:0:0:
448,192,105941,1,0,0:0:0:0:
109,192,105941,1,0,0:0:0:0:
402,192,105941,1,0,0:0:0:0:
448,192,106057,1,0,0:0:0:0:
36,192,106057,1,0,0:0:0:0:
109,192,106057,1,0,0:0:0:0:
402,192,106057,1,0,0:0:0:0:
64,192,106172,1,0,0:0:0:0:
475,192,106172,1,0,0:0:0:0:
448,192,106288,1,0,0:0:0:0:
109,192,106288,1,0,0:0:0:0:
36,192,106288,1,0,0:0:0:0:
402,192,106288,1,0,0:0:0:0:
64,192,106403,1,0,0:0:0:0:
192,192,106403,1,0,0:0:0:0:
109,192,106403,1,0,0:0:0:0:
329,192,106403,1,0,0:0:0:0:
402,192,106403,1,0,0:0:0:0:
475,192,106403,1,0,0:0:0:0:
109,192,106518,1,0,0:0:0:0:
36,192,106518,1,0,0:0:0:0:
402,192,106518,1,0,0:0:0:0:
475,192,106518,1,0,0:0:0:0:
256,192,106634,1,0,0:0:0:0:
36,192,106634,1,0,0:0:0:0:
475,192,106634,1,0,0:0:0:0:
192,192,106749,1,0,0:0:0:0:
320,192,106749,1,0,0:0:0:0:
109,192,106865,1,0,0:0:0:0:
402,192,106865,1,0,0:0:0:0:
36,192,106980,1,0,0:0:0:0:
475,192,106980,1,0,0:0:0:0:
109,192,107095,1,0,0:0:0:0:
402,192,107095,1,0,0:0:0:0:
182,192,107211,1,0,0:0:0:0:
329,192,107211,1,0,0:0:0:0:
192,192,107326,1,0,0:0:0:0:
329,192,107326,1,0,0:0:0:0:
109,192,107441,1,0,0:0:0:0:
402,192,107441,1,0,0:0:0:0:
475,192,107557,1,0,0:0:0:0:
36,192,107557,1,0,0:0:0:0:
109,192,107672,1,0,0:0:0:0:
402,192,107672,1,0,0:0:0:0:
109,192,107788,1,0,0:0:0:0:
402,192,107788,1,0,0:0:0:0:
64,192,107903,1,0,0:0:0:0:
475,192,107903,1,0,0:0:0:0:
182,192,108018,1,0,0:0:0:0:
256,192,108018,1,0,0:0:0:0:
256,192,108134,1,0,0:0:0:0:
329,192,108134,1,0,0:0:0:0:
329,192,108249,1,0,0:0:0:0:
402,192,108249,1,0,0:0:0:0:
475,192,108365,1,0,0:0:0:0:
402,192,108365,1,0,0:0:0:0:
329,192,108480,1,0,0:0:0:0:
256,192,108480,1,0,0:0:0:0:
182,192,108595,1,0,0:0:0:0:
256,192,108595,1,0,0:0:0:0:
109,192,108711,1,0,0:0:0:0:
182,192,108711,1,0,0:0:0:0:
36,192,108826,1,0,0:0:0:0:
109,192,108826,1,0,0:0:0:0:
448,192,108941,1,0,0:0:0:0:
182,192,108941,1,0,0:0:0:0:
402,192,109057,1,0,0:0:0:0:
109,192,109057,1,0,0:0:0:0:
182,192,109172,1,0,0:0:0:0:
475,192,109172,1,0,0:0:0:0:
109,192,109288,1,0,0:0:0:0:
402,192,109288,1,0,0:0:0:0:
36,192,109403,1,0,0:0:0:0:
329,192,109403,1,0,0:0:0:0:
109,192,109518,1,0,0:0:0:0:
402,192,109518,1,0,0:0:0:0:
36,192,109634,1,0,0:0:0:0:
329,192,109634,1,0,0:0:0:0:
109,192,109749,1,0,0:0:0:0:
402,192,109749,1,0,0:0:0:0:
320,192,109865,1,0,0:0:0:0:
64,192,109865,1,0,0:0:0:0:
475,192,109980,1,0,0:0:0:0:
402,192,110095,1,0,0:0:0:0:
329,192,110211,1,0,0:0:0:0:
192,192,110326,1,0,0:0:0:0:
64,192,110326,1,0,0:0:0:0:
256,192,110326,1,0,0:0:0:0:
475,192,110441,1,0,0:0:0:0:
402,192,110557,1,0,0:0:0:0:
320,192,110672,1,0,0:0:0:0:
36,192,110788,128,0,111249:0:0:0:0:
256,192,110788,1,0,0:0:0:0:
109,192,110903,128,0,111249:0:0:0:0:
192,192,111018,128,0,111249:0:0:0:0:
256,192,111134,128,0,111249:0:0:0:0:
475,192,111249,128,0,111711:0:0:0:0:
402,192,111365,128,0,111711:0:0:0:0:
329,192,111480,128,0,111711:0:0:0:0:
256,192,111595,128,0,111711:0:0:0:0:
109,192,111711,128,0,112172:0:0:0:0:
192,192,111826,128,0,112172:0:0:0:0:
256,192,111941,128,0,112172:0:0:0:0:
329,192,112057,128,0,112172:0:0:0:0:
402,192,112172,128,0,112634:0:0:0:0:
329,192,112288,128,0,112634:0:0:0:0:
256,192,112403,128,0,112634:0:0:0:0:
192,192,112518,128,0,112634:0:0:0:0:
475,192,112634,128,0,112865:0:0:0:0:
36,192,112634,128,0,112865:0:0:0:0:
402,192,112749,128,0,112980:0:0:0:0:
109,192,112749,128,0,112980:0:0:0:0:
329,192,112865,128,0,113095:0:0:0:0:
182,192,112865,128,0,113095:0:0:0:0:
256,192,112980,128,0,113211:0:0:0:0:
475,192,113095,128,0,113326:0:0:0:0:
36,192,113095,128,0,113326:0:0:0:0:
109,192,113211,128,0,113441:0:0:0:0:
402,192,113211,128,0,113441:0:0:0:0:
182,192,113326,128,0,113557:0:0:0:0:
329,192,113326,128,0,113557:0:0:0:0:
256,192,113441,128,0,113672:0:0:0:0:
475,192,113557,1,0,0:0:0:0:
36,192,113557,1,0,0:0:0:0:
109,192,113672,1,0,0:0:0:0:
402,192,113672,1,0,0:0:0:0:
182,192,113788,1,0,0:0:0:0:
329,192,113788,1,0,0:0:0:0:
256,192,113903,1,0,0:0:0:0:
36,192,114018,1,0,0:0:0:0:
475,192,114018,1,0,0:0:0:0:
402,192,114134,1,0,0:0:0:0:
109,192,114134,1,0,0:0:0:0:
182,192,114249,1,0,0:0:0:0:
329,192,114249,1,0,0:0:0:0:
256,192,114365,1,0,0:0:0:0:
475,192,114480,128,0,114595:0:0:0:0:
402,192,114595,128,0,114711:0:0:0:0:
329,192,114711,128,0,114826:0:0:0:0:
256,192,114826,128,0,114941:0:0:0:0:
475,192,114941,128,0,115057:0:0:0:0:
402,192,115057,128,0,115172:0:0:0:0:
329,192,115172,128,0,115288:0:0:0:0:
256,192,115288,128,0,115403:0:0:0:0:
320,192,115403,128,0,115518:0:0:0:0:
402,192,115518,128,0,115634:0:0:0:0:
329,192,115634,128,0,115749:0:0:0:0:
256,192,115749,128,0,115865:0:0:0:0:
182,192,115865,128,0,115980:0:0:0:0:
256,192,115980,128,0,116095:0:0:0:0:
182,192,116095,128,0,116211:0:0:0:0:
109,192,116211,128,0,116326:0:0:0:0:
64,192,116326,1,0,0:0:0:0:
475,192,116326,1,0,0:0:0:0:
329,192,116326,128,0,116441:0:0:0:0:
109,192,116441,1,0,0:0:0:0:
402,192,116441,1,0,0:0:0:0:
256,192,116441,128,0,116557:0:0:0:0:
64,192,116557,1,0,0:0:0:0:
475,192,116557,1,0,0:0:0:0:
182,192,116557,128,0,116672:0:0:0:0:
109,192,116672,1,0,0:0:0:0:
402,192,116672,1,0,0:0:0:0:
256,192,116672,128,0,116788:0:0:0:0:
109,192,116788,1,0,0:0:0:0:
402,192,116788,1,0,0:0:0:0:
329,192,116788,128,0,116903:0:0:0:0:
36,192,116903,1,0,0:0:0:0:
475,192,116903,1,0,0:0:0:0:
256,192,116903,128,0,117018:0:0:0:0:
109,192,117018,1,0,0:0:0:0:
402,192,117018,1,0,0:0:0:0:
182,192,117018,128,0,117134:0:0:0:0:
475,192,117134,1,0,0:0:0:0:
36,192,117134,1,0,0:0:0:0:
256,192,117134,128,0,117249:0:0:0:0:
36,192,117249,1,0,0:0:0:0:
402,192,117249,128,0,117365:0:0:0:0:
109,192,117365,1,0,0:0:0:0:
329,192,117365,128,0,117480:0:0:0:0:
448,192,117480,1,0,0:0:0:0:
256,192,117480,128,0,117595:0:0:0:0:
402,192,117595,1,0,0:0:0:0:
182,192,117595,128,0,117711:0:0:0:0:
64,192,117711,1,0,0:0:0:0:
329,192,117711,128,0,117826:0:0:0:0:
109,192,117826,1,0,0:0:0:0:
256,192,117826,128,0,117941:0:0:0:0:
448,192,117941,1,0,0:0:0:0:
182,192,117941,128,0,118057:0:0:0:0:
402,192,118057,1,0,0:0:0:0:
109,192,118057,128,0,118172:0:0:0:0:
64,192,118172,1,0,0:0:0:0:
448,192,118172,1,0,0:0:0:0:
402,192,118172,128,0,119095:0:0:0:0:
192,192,118403,1,0,0:0:0:0:
320,192,118518,1,0,0:0:0:0:
64,192,118749,1,0,0:0:0:0:
448,192,118749,1,0,0:0:0:0:
109,192,119095,1,0,0:0:0:0:
329,192,119095,128,0,120018:0:0:0:0:
448,192,119211,1,0,0:0:0:0:
64,192,119441,1,0,0:0:0:0:
256,192,119441,1,0,0:0:0:0:
192,192,119672,1,0,0:0:0:0:
448,192,119672,1,0,0:0:0:0:
64,192,120018,1,0,0:0:0:0:
256,192,120018,128,0,120941:0:0:0:0:
192,192,120365,1,0,0:0:0:0:
320,192,120711,1,0,0:0:0:0:
64,192,120941,1,0,0:0:0:0:
448,192,120941,1,0,0:0:0:0:
109,192,120941,128,0,121403:0:0:0:0:
182,192,121403,128,0,121865:0:0:0:0:
448,192,121634,1,0,0:0:0:0:
402,192,121749,1,0,0:0:0:0:
329,192,121865,1,0,0:0:0:0:
36,192,121865,1,0,0:0:0:0:
256,192,121865,128,0,122788:0:0:0:0:
448,192,122095,1,0,0:0:0:0:
109,192,122095,1,0,0:0:0:0:
192,192,122211,1,0,0:0:0:0:
36,192,122441,1,0,0:0:0:0:
402,192,122441,1,0,0:0:0:0:
64,192,122788,1,0,0:0:0:0:
329,192,122788,128,0,123249:0:0:0:0:
475,192,122788,1,0,0:0:0:0:
109,192,122903,1,0,0:0:0:0:
402,192,122903,1,0,0:0:0:0:
475,192,123018,1,0,0:0:0:0:
182,192,123018,1,0,0:0:0:0:
109,192,123134,1,0,0:0:0:0:
402,192,123134,1,0,0:0:0:0:
256,192,123249,128,0,123711:0:0:0:0:
36,192,123365,1,0,0:0:0:0:
475,192,123365,1,0,0:0:0:0:
64,192,123711,1,0,0:0:0:0:
109,192,123711,1,0,0:0:0:0:
182,192,123711,1,0,0:0:0:0:
402,192,123711,128,0,124634:0:0:0:0:
192,192,124057,1,0,0:0:0:0:
256,192,124057,1,0,0:0:0:0:
329,192,124057,1,0,0:0:0:0:
109,192,124403,1,0,0:0:0:0:
182,192,124403,1,0,0:0:0:0:
256,192,124403,1,0,0:0:0:0:
320,192,124634,1,0,0:0:0:0:
256,192,124634,1,0,0:0:0:0:
182,192,124634,1,0,0:0:0:0:
475,192,124634,128,0,124865:0:0:0:0:
402,192,124865,128,0,125095:0:0:0:0:
329,192,125095,128,0,125326:0:0:0:0:
192,192,125326,1,0,0:0:0:0:
256,192,125326,128,0,125441:0:0:0:0:
109,192,125441,1,0,0:0:0:0:
182,192,125441,128,0,125557:0:0:0:0:
64,192,125557,1,0,0:0:0:0:
402,192,125557,128,0,126480:0:0:0:0:
109,192,125788,1,0,0:0:0:0:
182,192,125788,1,0,0:0:0:0:
320,192,125903,1,0,0:0:0:0:
256,192,125903,1,0,0:0:0:0:
192,192,126134,1,0,0:0:0:0:
109,192,126134,1,0,0:0:0:0:
64,192,126365,1,0,0:0:0:0:
109,192,126365,1,0,0:0:0:0:
192,192,126480,1,0,0:0:0:0:
475,192,126480,128,0,127403:0:0:0:0:
256,192,126480,1,0,0:0:0:0:
329,192,126595,1,0,0:0:0:0:
402,192,126595,1,0,0:0:0:0:
256,192,126711,1,0,0:0:0:0:
182,192,126711,1,0,0:0:0:0:
109,192,126826,1,0,0:0:0:0:
36,192,126826,1,0,0:0:0:0:
64,192,127057,1,0,0:0:0:0:
109,192,127057,1,0,0:0:0:0:
182,192,127057,1,0,0:0:0:0:
64,192,127403,1,0,0:0:0:0:
192,192,127403,1,0,0:0:0:0:
109,192,127403,128,0,128326:0:0:0:0:
402,192,127403,128,0,128326:0:0:0:0:
192,192,127749,1,0,0:0:0:0:
320,192,127749,1,0,0:0:0:0:
320,192,128095,1,0,0:0:0:0:
448,192,128095,1,0,0:0:0:0:
64,192,128326,1,0,0:0:0:0:
182,192,128326,128,0,128788:0:0:0:0:
475,192,128326,128,0,128788:0:0:0:0:
329,192,128326,1,0,0:0:0:0:
256,192,128441,1,0,0:0:0:0:
320,192,128557,1,0,0:0:0:0:
256,192,128672,1,0,0:0:0:0:
320,192,128788,1,0,0:0:0:0:
109,192,128788,128,0,129249:0:0:0:0:
402,192,128788,128,0,129249:0:0:0:0:
36,192,128788,1,0,0:0:0:0:
256,192,128903,1,0,0:0:0:0:
329,192,129018,1,0,0:0:0:0:
256,192,129134,1,0,0:0:0:0:
36,192,129249,128,0,130172:0:0:0:0:
182,192,129249,1,0,0:0:0:0:
475,192,129249,128,0,129278:0:0:0:0:
256,192,129307,1,0,0:0:0:0:
329,192,129365,1,0,0:0:0:0:
256,192,129422,1,0,0:0:0:0:
182,192,129480,1,0,0:0:0:0:
475,192,129480,128,0,129509:0:0:0:0:
109,192,129538,1,0,0:0:0:0:
182,192,129595,1,0,0:0:0:0:
402,192,129595,128,0,129624:0:0:0:0:
256,192,129653,1,0,0:0:0:0:
329,192,129711,1,0,0:0:0:0:
402,192,129768,1,0,0:0:0:0:
256,192,129826,128,0,129855:0:0:0:0:
475,192,129826,1,0,0:0:0:0:
402,192,129884,1,0,0:0:0:0:
329,192,129941,1,0,0:0:0:0:
256,192,129999,1,0,0:0:0:0:
182,192,130057,1,0,0:0:0:0:
109,192,130115,1,0,0:0:0:0:
109,192,130172,128,0,131095:0:0:0:0:
402,192,130172,128,0,130201:0:0:0:0:
182,192,130172,1,0,0:0:0:0:
256,192,130230,1,0,0:0:0:0:
475,192,130288,128,0,130316:0:0:0:0:
329,192,130288,1,0,0:0:0:0:
256,192,130345,1,0,0:0:0:0:
402,192,130403,128,0,130432:0:0:0:0:
182,192,130403,1,0,0:0:0:0:
36,192,130461,1,0,0:0:0:0:
329,192,130518,128,0,130547:0:0:0:0:
182,192,130518,1,0,0:0:0:0:
256,192,130576,1,0,0:0:0:0:
329,192,130634,1,0,0:0:0:0:
402,192,130691,1,0,0:0:0:0:
256,192,130749,128,0,130778:0:0:0:0:
475,192,130749,1,0,0:0:0:0:
402,192,130807,1,0,0:0:0:0:
329,192,130865,1,0,0:0:0:0:
256,192,130922,1,0,0:0:0:0:
182,192,130980,1,0,0:0:0:0:
36,192,131038,1,0,0:0:0:0:
475,192,131095,128,0,132941:0:0:0:0:
329,192,131095,128,0,131124:0:0:0:0:
182,192,131095,1,0,0:0:0:0:
256,192,131153,1,0,0:0:0:0:
182,192,131211,1,0,0:0:0:0:
109,192,131268,1,0,0:0:0:0:
329,192,131326,128,0,131355:0:0:0:0:
36,192,131326,1,0,0:0:0:0:
109,192,131384,1,0,0:0:0:0:
402,192,131441,128,0,131470:0:0:0:0:
182,192,131441,1,0,0:0:0:0:
256,192,131499,1,0,0:0:0:0:
329,192,131557,1,0,0:0:0:0:
256,192,131615,1,0,0:0:0:0:
320,192,131672,128,0,131701:0:0:0:0:
182,192,131672,1,0,0:0:0:0:
109,192,131730,1,0,0:0:0:0:
36,192,131788,1,0,0:0:0:0:
109,192,131845,1,0,0:0:0:0:
320,192,131903,128,0,131932:0:0:0:0:
182,192,131903,1,0,0:0:0:0:
256,192,131961,1,0,0:0:0:0:
329,192,132018,1,0,0:0:0:0:
109,192,132018,128,0,132047:0:0:0:0:
402,192,132076,1,0,0:0:0:0:
329,192,132134,1,0,0:0:0:0:
256,192,132191,1,0,0:0:0:0:
182,192,132249,1,0,0:0:0:0:
109,192,132307,1,0,0:0:0:0:
182,192,132365,1,0,0:0:0:0:
256,192,132422,1,0,0:0:0:0:
36,192,132480,128,0,132509:0:0:0:0:
329,192,132480,1,0,0:0:0:0:
402,192,132480,1,0,0:0:0:0:
109,192,132538,1,0,0:0:0:0:
182,192,132595,1,0,0:0:0:0:
256,192,132653,1,0,0:0:0:0:
36,192,132711,1,0,0:0:0:0:
109,192,132711,1,0,0:0:0:0:
329,192,132711,1,0,0:0:0:0:
256,192,132768,1,0,0:0:0:0:
182,192,132826,1,0,0:0:0:0:
109,192,132884,1,0,0:0:0:0:
402,192,132941,1,0,0:0:0:0:
329,192,132941,1,0,0:0:0:0:
256,192,132941,128,0,136634:0:0:0:0:
64,192,132941,128,0,132970:0:0:0:0:
64,192,133865,128,0,133893:0:0:0:0:
64,192,134788,128,0,134816:0:0:0:0:
192,192,135134,128,0,135163:0:0:0:0:
320,192,135480,128,0,135509:0:0:0:0:
448,192,135711,128,0,135740:0:0:0:0:
64,192,135711,128,0,135740:0:0:0:0:
329,192,136403,128,0,136432:0:0:0:0:
402,192,136518,128,0,136547:0:0:0:0:
448,192,136634,128,0,136663:0:0:0:0:
329,192,136865,128,0,136893:0:0:0:0:
256,192,136980,128,0,137009:0:0:0:0:
182,192,137211,128,0,137240:0:0:0:0:
448,192,137557,128,0,137586:0:0:0:0:
109,192,137557,128,0,137586:0:0:0:0:
182,192,137672,128,0,137701:0:0:0:0:
256,192,137788,128,0,137816:0:0:0:0:
329,192,137903,128,0,137932:0:0:0:0:
402,192,138134,128,0,138163:0:0:0:0:
448,192,138480,128,0,138509:0:0:0:0:
320,192,138826,128,0,138855:0:0:0:0:
192,192,139172,128,0,139201:0:0:0:0:
256,192,139403,128,0,139432:0:0:0:0:
64,192,139403,128,0,139432:0:0:0:0:
448,192,139403,128,0,139432:0:0:0:0:
182,192,139865,128,0,139893:0:0:0:0:
329,192,140095,128,0,140124:0:0:0:0:
256,192,140211,128,0,140240:0:0:0:0:
182,192,140326,128,0,140355:0:0:0:0:
64,192,140326,128,0,140355:0:0:0:0:
402,192,140557,128,0,140586:0:0:0:0:
256,192,140557,128,0,140586:0:0:0:0:
182,192,140672,128,0,140701:0:0:0:0:
329,192,140672,128,0,140701:0:0:0:0:
256,192,140903,128,0,140932:0:0:0:0:
109,192,140903,128,0,140932:0:0:0:0:
36,192,141134,128,0,141163:0:0:0:0:
182,192,141134,128,0,141163:0:0:0:0:
256,192,141249,128,0,141278:0:0:0:0:
109,192,141249,128,0,141278:0:0:0:0:
182,192,141365,128,0,141393:0:0:0:0:
329,192,141365,128,0,141393:0:0:0:0:
256,192,141480,128,0,141509:0:0:0:0:
402,192,141480,128,0,141509:0:0:0:0:
329,192,141595,128,0,141624:0:0:0:0:
475,192,141595,128,0,141624:0:0:0:0:
256,192,141826,128,0,141855:0:0:0:0:
402,192,141826,128,0,141855:0:0:0:0:
109,192,142172,128,0,142201:0:0:0:0:
36,192,142172,128,0,142201:0:0:0:0:
182,192,142518,128,0,142547:0:0:0:0:
256,192,142518,128,0,142547:0:0:0:0:
329,192,142865,128,0,142893:0:0:0:0:
402,192,142865,128,0,142893:0:0:0:0:
36,192,143095,128,0,143124:0:0:0:0:
109,192,143095,128,0,143124:0:0:0:0:
182,192,143557,128,0,143586:0:0:0:0:
256,192,143557,128,0,143586:0:0:0:0:
329,192,143557,128,0,143586:0:0:0:0:
36,192,143788,128,0,143816:0:0:0:0:
109,192,143788,128,0,143816:0:0:0:0:
182,192,143903,128,0,143932:0:0:0:0:
256,192,143903,128,0,143932:0:0:0:0:
329,192,144018,128,0,144047:0:0:0:0:
402,192,144018,128,0,144047:0:0:0:0:
475,192,144018,128,0,144047:0:0:0:0:
36,192,144249,128,0,144278:0:0:0:0:
109,192,144249,128,0,144278:0:0:0:0:
475,192,144365,128,0,144393:0:0:0:0:
402,192,144365,128,0,144393:0:0:0:0:
256,192,144595,128,0,144624:0:0:0:0:
329,192,144595,128,0,144624:0:0:0:0:
475,192,144941,128,0,144970:0:0:0:0:
36,192,144941,128,0,144970:0:0:0:0:
256,192,144941,128,0,144970:0:0:0:0:
109,192,145057,128,0,145086:0:0:0:0:
329,192,145057,128,0,145086:0:0:0:0:
182,192,145172,128,0,145201:0:0:0:0:
402,192,145172,128,0,145201:0:0:0:0:
256,192,145288,128,0,145316:0:0:0:0:
475,192,145288,128,0,145316:0:0:0:0:
109,192,145518,128,0,145547:0:0:0:0:
402,192,145518,128,0,145547:0:0:0:0:
475,192,145865,128,0,153249:0:0:0:0:
36,192,145865,128,0,149730:0:0:0:0:
109,192,146038,128,0,148865:0:0:0:0:
182,192,146211,128,0,148172:0:0:0:0:
256,192,146441,128,0,147595:0:0:0:0:
320,192,146730,128,0,147134:0:0:0:0:
