osu file format v14

[General]
AudioFilename: PEACE BREAKER.mp3
AudioLeadIn: 0
PreviewTime: 101936
Countdown: 0
SampleSet: None
StackLeniency: 0.7
Mode: 3
LetterboxInBreaks: 0
SpecialStyle: 0
WidescreenStoryboard: 0

[Editor]
DistanceSpacing: 0.8
BeatDivisor: 4
GridSize: 32
TimelineZoom: 2.799999

[Metadata]
Title:__M A S__ Vol. 3
TitleUnicode:__M A S__ Vol. 3
Artist:Various
ArtistUnicode:Various
Creator:[ C r a c k ]
Version:Omnipotenx - PEACE BREAKER - 7K BREAKER
Source:
Tags:
BeatmapID:1144931
BeatmapSetID:539892

[Difficulty]
HPDrainRate:8
CircleSize:7
OverallDifficulty:5
ApproachRate:5
SliderMultiplier:1.4
SliderTickRate:1

[Events]
//Background and Video events
0,0,"8BG 2.png",0,0
//Break Periods
//Storyboard Layer 0 (Background)
//Storyboard Layer 1 (Fail)
//Storyboard Layer 2 (Pass)
//Storyboard Layer 3 (Foreground)
//Storyboard Sound Samples

[TimingPoints]
30,375,4,2,0,0,1,0

[HitObjects]
182,192,3030,5,0,0:0:0:0:
36,192,3030,1,0,0:0:0:0:
256,192,3030,1,0,0:0:0:0:
329,192,3030,1,0,0:0:0:0:
475,192,3030,1,0,0:0:0:0:
36,192,3405,128,0,3780:0:0:0:0:
475,192,3405,128,0,3780:0:0:0:0:
329,192,4155,1,0,0:0:0:0:
36,192,4530,1,0,0:0:0:0:
256,192,4905,1,0,0:0:0:0:
109,192,5280,1,0,0:0:0:0:
256,192,5373,1,0,0:0:0:0:
36,192,5842,1,0,0:0:0:0:
329,192,5842,1,0,0:0:0:0:
109,192,6030,1,0,0:0:0:0:
402,192,6030,1,0,0:0:0:0:
182,192,6217,1,0,0:0:0:0:
329,192,6311,1,0,0:0:0:0:
182,192,6592,1,0,0:0:0:0:
329,192,6686,1,0,0:0:0:0:
182,192,6967,1,0,0:0:0:0:
109,192,6967,1,0,0:0:0:0:
329,192,7342,1,0,0:0:0:0:
475,192,7342,1,0,0:0:0:0:
475,192,7530,1,0,0:0:0:0:
329,192,7530,1,0,0:0:0:0:
36,192,7717,1,0,0:0:0:0:
182,192,7811,1,0,0:0:0:0:
109,192,8092,1,0,0:0:0:0:
256,192,8186,1,0,0:0:0:0:
182,192,8467,1,0,0:0:0:0:
329,192,8561,1,0,0:0:0:0:
475,192,8655,1,0,0:0:0:0:
109,192,8842,1,0,0:0:0:0:
329,192,9030,1,0,0:0:0:0:
475,192,9030,1,0,0:0:0:0:
109,192,9030,1,0,0:0:0:0:
256,192,9123,1,0,0:0:0:0:
36,192,9405,1,0,0:0:0:0:
109,192,9592,1,0,0:0:0:0:
182,192,9873,1,0,0:0:0:0:
402,192,10061,1,0,0:0:0:0:
256,192,10155,1,0,0:0:0:0:
402,192,10342,1,0,0:0:0:0:
402,192,10530,1,0,0:0:0:0:
256,192,10530,1,0,0:0:0:0:
109,192,10530,1,0,0:0:0:0:
36,192,10717,1,0,0:0:0:0:
182,192,10811,1,0,0:0:0:0:
109,192,10998,1,0,0:0:0:0:
256,192,11092,1,0,0:0:0:0:
182,192,11280,1,0,0:0:0:0:
329,192,11373,1,0,0:0:0:0:
256,192,11561,1,0,0:0:0:0:
402,192,11655,1,0,0:0:0:0:
329,192,11842,1,0,0:0:0:0:
475,192,11936,1,0,0:0:0:0:
329,192,12030,1,0,0:0:0:0:
182,192,12030,1,0,0:0:0:0:
36,192,12030,1,0,0:0:0:0:
256,192,12405,1,0,0:0:0:0:
182,192,12592,1,0,0:0:0:0:
109,192,12592,1,0,0:0:0:0:
329,192,12592,1,0,0:0:0:0:
402,192,12592,1,0,0:0:0:0:
329,192,12780,1,0,0:0:0:0:
402,192,12780,1,0,0:0:0:0:
182,192,12780,1,0,0:0:0:0:
109,192,12780,1,0,0:0:0:0:
256,192,13155,1,0,0:0:0:0:
109,192,13342,1,0,0:0:0:0:
36,192,13342,1,0,0:0:0:0:
402,192,13342,1,0,0:0:0:0:
475,192,13342,1,0,0:0:0:0:
109,192,13530,1,0,0:0:0:0:
36,192,13530,1,0,0:0:0:0:
475,192,13530,1,0,0:0:0:0:
402,192,13530,1,0,0:0:0:0:
256,192,13623,1,0,0:0:0:0:
475,192,13811,1,0,0:0:0:0:
329,192,13905,1,0,0:0:0:0:
182,192,13998,1,0,0:0:0:0:
36,192,14186,1,0,0:0:0:0:
329,192,14186,1,0,0:0:0:0:
475,192,14280,1,0,0:0:0:0:
182,192,14280,1,0,0:0:0:0:
402,192,14467,1,0,0:0:0:0:
256,192,14561,1,0,0:0:0:0:
109,192,14655,1,0,0:0:0:0:
36,192,14655,1,0,0:0:0:0:
329,192,14748,1,0,0:0:0:0:
182,192,14842,1,0,0:0:0:0:
402,192,14936,1,0,0:0:0:0:
36,192,15030,1,0,0:0:0:0:
256,192,15030,1,0,0:0:0:0:
109,192,15030,1,0,0:0:0:0:
475,192,15030,1,0,0:0:0:0:
402,192,15123,1,0,0:0:0:0:
182,192,15123,1,0,0:0:0:0:
329,192,15217,1,0,0:0:0:0:
256,192,15217,1,0,0:0:0:0:
36,192,15217,1,0,0:0:0:0:
475,192,15311,1,0,0:0:0:0:
182,192,15311,1,0,0:0:0:0:
109,192,15311,1,0,0:0:0:0:
402,192,15405,1,0,0:0:0:0:
36,192,15405,1,0,0:0:0:0:
329,192,15498,1,0,0:0:0:0:
256,192,15498,1,0,0:0:0:0:
182,192,15498,1,0,0:0:0:0:
109,192,15592,1,0,0:0:0:0:
36,192,15592,1,0,0:0:0:0:
402,192,15592,1,0,0:0:0:0:
475,192,15592,1,0,0:0:0:0:
182,192,15686,1,0,0:0:0:0:
329,192,15686,1,0,0:0:0:0:
109,192,15780,1,0,0:0:0:0:
475,192,15780,1,0,0:0:0:0:
256,192,15780,1,0,0:0:0:0:
36,192,15873,1,0,0:0:0:0:
402,192,15873,1,0,0:0:0:0:
329,192,15873,1,0,0:0:0:0:
182,192,15967,1,0,0:0:0:0:
109,192,15967,1,0,0:0:0:0:
256,192,16061,1,0,0:0:0:0:
329,192,16061,1,0,0:0:0:0:
402,192,16061,1,0,0:0:0:0:
109,192,16155,1,0,0:0:0:0:
36,192,16155,1,0,0:0:0:0:
182,192,16155,1,0,0:0:0:0:
475,192,16155,1,0,0:0:0:0:
329,192,16248,1,0,0:0:0:0:
402,192,16248,1,0,0:0:0:0:
182,192,16342,1,0,0:0:0:0:
256,192,16342,1,0,0:0:0:0:
109,192,16342,1,0,0:0:0:0:
402,192,16436,1,0,0:0:0:0:
475,192,16436,1,0,0:0:0:0:
36,192,16436,1,0,0:0:0:0:
182,192,16530,1,0,0:0:0:0:
329,192,16530,1,0,0:0:0:0:
36,192,16623,1,0,0:0:0:0:
109,192,16623,1,0,0:0:0:0:
256,192,16623,1,0,0:0:0:0:
329,192,16717,1,0,0:0:0:0:
475,192,16717,1,0,0:0:0:0:
182,192,16717,1,0,0:0:0:0:
402,192,16717,1,0,0:0:0:0:
256,192,16811,1,0,0:0:0:0:
36,192,16811,1,0,0:0:0:0:
109,192,16905,1,0,0:0:0:0:
182,192,16905,1,0,0:0:0:0:
402,192,16905,1,0,0:0:0:0:
256,192,16998,1,0,0:0:0:0:
329,192,16998,1,0,0:0:0:0:
475,192,16998,1,0,0:0:0:0:
36,192,17092,1,0,0:0:0:0:
182,192,17092,1,0,0:0:0:0:
329,192,17186,1,0,0:0:0:0:
402,192,17186,1,0,0:0:0:0:
109,192,17186,1,0,0:0:0:0:
256,192,17280,1,0,0:0:0:0:
182,192,17280,1,0,0:0:0:0:
475,192,17280,1,0,0:0:0:0:
36,192,17280,1,0,0:0:0:0:
329,192,17373,1,0,0:0:0:0:
402,192,17373,1,0,0:0:0:0:
36,192,17467,1,0,0:0:0:0:
109,192,17467,1,0,0:0:0:0:
182,192,17467,1,0,0:0:0:0:
256,192,17561,1,0,0:0:0:0:
329,192,17561,1,0,0:0:0:0:
475,192,17655,1,0,0:0:0:0:
402,192,17655,1,0,0:0:0:0:
36,192,17701,1,0,0:0:0:0:
109,192,17748,1,0,0:0:0:0:
182,192,17795,1,0,0:0:0:0:
256,192,17842,1,0,0:0:0:0:
329,192,17889,1,0,0:0:0:0:
402,192,17936,1,0,0:0:0:0:
475,192,17983,1,0,0:0:0:0:
109,192,18030,1,0,0:0:0:0:
36,192,18030,1,0,0:0:0:0:
329,192,18123,1,0,0:0:0:0:
256,192,18123,1,0,0:0:0:0:
182,192,18217,1,0,0:0:0:0:
109,192,18217,1,0,0:0:0:0:
36,192,18217,1,0,0:0:0:0:
475,192,18217,1,0,0:0:0:0:
402,192,18217,1,0,0:0:0:0:
329,192,18311,1,0,0:0:0:0:
256,192,18311,1,0,0:0:0:0:
109,192,18405,1,0,0:0:0:0:
475,192,18405,1,0,0:0:0:0:
402,192,18498,1,0,0:0:0:0:
329,192,18498,1,0,0:0:0:0:
182,192,18498,1,0,0:0:0:0:
256,192,18592,1,0,0:0:0:0:
36,192,18592,1,0,0:0:0:0:
475,192,18592,1,0,0:0:0:0:
109,192,18592,1,0,0:0:0:0:
329,192,18686,1,0,0:0:0:0:
402,192,18686,1,0,0:0:0:0:
182,192,18686,1,0,0:0:0:0:
109,192,18780,1,0,0:0:0:0:
36,192,18780,1,0,0:0:0:0:
402,192,18873,1,0,0:0:0:0:
475,192,18873,1,0,0:0:0:0:
182,192,18967,1,0,0:0:0:0:
109,192,18967,1,0,0:0:0:0:
36,192,18967,1,0,0:0:0:0:
256,192,18967,1,0,0:0:0:0:
329,192,19061,1,0,0:0:0:0:
402,192,19061,1,0,0:0:0:0:
475,192,19061,1,0,0:0:0:0:
36,192,19155,1,0,0:0:0:0:
109,192,19155,1,0,0:0:0:0:
256,192,19248,1,0,0:0:0:0:
475,192,19248,1,0,0:0:0:0:
182,192,19248,1,0,0:0:0:0:
36,192,19342,1,0,0:0:0:0:
329,192,19342,1,0,0:0:0:0:
402,192,19342,1,0,0:0:0:0:
109,192,19342,1,0,0:0:0:0:
182,192,19436,1,0,0:0:0:0:
256,192,19436,1,0,0:0:0:0:
475,192,19436,1,0,0:0:0:0:
402,192,19530,1,0,0:0:0:0:
329,192,19530,1,0,0:0:0:0:
109,192,19530,1,0,0:0:0:0:
182,192,19623,1,0,0:0:0:0:
36,192,19717,1,0,0:0:0:0:
329,192,19717,1,0,0:0:0:0:
402,192,19717,1,0,0:0:0:0:
475,192,19717,1,0,0:0:0:0:
256,192,19717,1,0,0:0:0:0:
109,192,19811,1,0,0:0:0:0:
182,192,19811,1,0,0:0:0:0:
402,192,19905,1,0,0:0:0:0:
329,192,19905,1,0,0:0:0:0:
109,192,19998,1,0,0:0:0:0:
182,192,19998,1,0,0:0:0:0:
36,192,19998,1,0,0:0:0:0:
256,192,20092,1,0,0:0:0:0:
329,192,20092,1,0,0:0:0:0:
402,192,20092,1,0,0:0:0:0:
475,192,20092,1,0,0:0:0:0:
109,192,20186,1,0,0:0:0:0:
36,192,20186,1,0,0:0:0:0:
475,192,20280,1,0,0:0:0:0:
329,192,20280,1,0,0:0:0:0:
402,192,20280,1,0,0:0:0:0:
256,192,20280,1,0,0:0:0:0:
182,192,20280,1,0,0:0:0:0:
36,192,20467,1,0,0:0:0:0:
182,192,20467,1,0,0:0:0:0:
256,192,20561,1,0,0:0:0:0:
475,192,20655,1,0,0:0:0:0:
329,192,20655,1,0,0:0:0:0:
256,192,20748,1,0,0:0:0:0:
36,192,20842,1,0,0:0:0:0:
182,192,20842,1,0,0:0:0:0:
256,192,20936,1,0,0:0:0:0:
109,192,21030,1,0,0:0:0:0:
402,192,21030,1,0,0:0:0:0:
475,192,21030,1,0,0:0:0:0:
182,192,21030,1,0,0:0:0:0:
36,192,21030,1,0,0:0:0:0:
329,192,21123,1,0,0:0:0:0:
256,192,21123,1,0,0:0:0:0:
109,192,21217,1,0,0:0:0:0:
182,192,21217,1,0,0:0:0:0:
475,192,21217,1,0,0:0:0:0:
402,192,21217,1,0,0:0:0:0:
36,192,21217,1,0,0:0:0:0:
329,192,21311,1,0,0:0:0:0:
256,192,21311,1,0,0:0:0:0:
182,192,21405,1,0,0:0:0:0:
36,192,21405,1,0,0:0:0:0:
475,192,21498,1,0,0:0:0:0:
329,192,21498,1,0,0:0:0:0:
402,192,21498,1,0,0:0:0:0:
256,192,21592,1,0,0:0:0:0:
109,192,21592,1,0,0:0:0:0:
182,192,21592,1,0,0:0:0:0:
36,192,21592,1,0,0:0:0:0:
475,192,21686,1,0,0:0:0:0:
402,192,21686,1,0,0:0:0:0:
329,192,21686,1,0,0:0:0:0:
256,192,21780,1,0,0:0:0:0:
36,192,21780,1,0,0:0:0:0:
329,192,21873,1,0,0:0:0:0:
402,192,21873,1,0,0:0:0:0:
256,192,21967,1,0,0:0:0:0:
182,192,21967,1,0,0:0:0:0:
109,192,21967,1,0,0:0:0:0:
36,192,21967,1,0,0:0:0:0:
475,192,21967,1,0,0:0:0:0:
402,192,22061,1,0,0:0:0:0:
182,192,22155,1,0,0:0:0:0:
329,192,22248,1,0,0:0:0:0:
109,192,22342,1,0,0:0:0:0:
256,192,22436,1,0,0:0:0:0:
36,192,22530,1,0,0:0:0:0:
109,192,22530,1,0,0:0:0:0:
402,192,22530,1,0,0:0:0:0:
475,192,22530,1,0,0:0:0:0:
475,192,22717,1,0,0:0:0:0:
329,192,22811,1,0,0:0:0:0:
402,192,22905,1,0,0:0:0:0:
256,192,22998,1,0,0:0:0:0:
329,192,23092,1,0,0:0:0:0:
182,192,23186,1,0,0:0:0:0:
256,192,23280,1,0,0:0:0:0:
109,192,23373,1,0,0:0:0:0:
182,192,23467,1,0,0:0:0:0:
36,192,23561,1,0,0:0:0:0:
256,192,23655,1,0,0:0:0:0:
109,192,23748,1,0,0:0:0:0:
329,192,23842,1,0,0:0:0:0:
402,192,23842,1,0,0:0:0:0:
475,192,23842,1,0,0:0:0:0:
256,192,23936,1,0,0:0:0:0:
109,192,24030,1,0,0:0:0:0:
36,192,24030,1,0,0:0:0:0:
475,192,24030,1,0,0:0:0:0:
402,192,24030,1,0,0:0:0:0:
182,192,24030,1,0,0:0:0:0:
329,192,24123,1,0,0:0:0:0:
256,192,24123,1,0,0:0:0:0:
109,192,24217,1,0,0:0:0:0:
36,192,24217,1,0,0:0:0:0:
182,192,24217,1,0,0:0:0:0:
402,192,24217,1,0,0:0:0:0:
475,192,24217,1,0,0:0:0:0:
256,192,24311,1,0,0:0:0:0:
329,192,24311,1,0,0:0:0:0:
36,192,24405,1,0,0:0:0:0:
109,192,24405,1,0,0:0:0:0:
329,192,24498,1,0,0:0:0:0:
402,192,24498,1,0,0:0:0:0:
475,192,24498,1,0,0:0:0:0:
256,192,24592,1,0,0:0:0:0:
182,192,24592,1,0,0:0:0:0:
109,192,24592,1,0,0:0:0:0:
36,192,24592,1,0,0:0:0:0:
329,192,24686,1,0,0:0:0:0:
402,192,24686,1,0,0:0:0:0:
475,192,24686,1,0,0:0:0:0:
182,192,24780,1,0,0:0:0:0:
36,192,24780,1,0,0:0:0:0:
329,192,24873,1,0,0:0:0:0:
475,192,24873,1,0,0:0:0:0:
256,192,24967,1,0,0:0:0:0:
109,192,24967,1,0,0:0:0:0:
182,192,24967,1,0,0:0:0:0:
402,192,24967,1,0,0:0:0:0:
36,192,24967,1,0,0:0:0:0:
329,192,25061,1,0,0:0:0:0:
475,192,25061,1,0,0:0:0:0:
36,192,25155,1,0,0:0:0:0:
109,192,25155,1,0,0:0:0:0:
182,192,25248,1,0,0:0:0:0:
256,192,25248,1,0,0:0:0:0:
329,192,25248,1,0,0:0:0:0:
402,192,25342,1,0,0:0:0:0:
475,192,25342,1,0,0:0:0:0:
109,192,25342,1,0,0:0:0:0:
36,192,25342,1,0,0:0:0:0:
256,192,25436,1,0,0:0:0:0:
329,192,25436,1,0,0:0:0:0:
182,192,25436,1,0,0:0:0:0:
109,192,25530,1,0,0:0:0:0:
36,192,25530,1,0,0:0:0:0:
402,192,25623,1,0,0:0:0:0:
475,192,25623,1,0,0:0:0:0:
329,192,25717,1,0,0:0:0:0:
256,192,25717,1,0,0:0:0:0:
182,192,25717,1,0,0:0:0:0:
109,192,25717,1,0,0:0:0:0:
36,192,25717,1,0,0:0:0:0:
402,192,25811,1,0,0:0:0:0:
475,192,25811,1,0,0:0:0:0:
109,192,25905,1,0,0:0:0:0:
256,192,25905,1,0,0:0:0:0:
329,192,25998,1,0,0:0:0:0:
402,192,25998,1,0,0:0:0:0:
475,192,25998,1,0,0:0:0:0:
256,192,26092,1,0,0:0:0:0:
182,192,26092,1,0,0:0:0:0:
109,192,26092,1,0,0:0:0:0:
36,192,26092,1,0,0:0:0:0:
402,192,26186,1,0,0:0:0:0:
475,192,26186,1,0,0:0:0:0:
329,192,26280,1,0,0:0:0:0:
256,192,26280,1,0,0:0:0:0:
182,192,26280,1,0,0:0:0:0:
109,192,26280,1,0,0:0:0:0:
36,192,26280,1,0,0:0:0:0:
475,192,26467,1,0,0:0:0:0:
402,192,26514,1,0,0:0:0:0:
329,192,26561,1,0,0:0:0:0:
256,192,26608,1,0,0:0:0:0:
182,192,26655,1,0,0:0:0:0:
36,192,26655,1,0,0:0:0:0:
109,192,26655,1,0,0:0:0:0:
475,192,26748,1,0,0:0:0:0:
402,192,26842,1,0,0:0:0:0:
329,192,26936,1,0,0:0:0:0:
256,192,27030,1,0,0:0:0:0:
182,192,27030,1,0,0:0:0:0:
36,192,27030,1,0,0:0:0:0:
109,192,27030,1,0,0:0:0:0:
475,192,27123,1,0,0:0:0:0:
182,192,27217,1,0,0:0:0:0:
402,192,27311,1,0,0:0:0:0:
109,192,27405,1,0,0:0:0:0:
329,192,27498,1,0,0:0:0:0:
36,192,27592,1,0,0:0:0:0:
256,192,27686,1,0,0:0:0:0:
109,192,27780,1,0,0:0:0:0:
329,192,27873,1,0,0:0:0:0:
182,192,27967,1,0,0:0:0:0:
402,192,28061,1,0,0:0:0:0:
256,192,28155,1,0,0:0:0:0:
475,192,28248,1,0,0:0:0:0:
182,192,28342,1,0,0:0:0:0:
36,192,28342,1,0,0:0:0:0:
256,192,28436,1,0,0:0:0:0:
329,192,28530,1,0,0:0:0:0:
475,192,28530,1,0,0:0:0:0:
182,192,28717,1,0,0:0:0:0:
36,192,28811,1,0,0:0:0:0:
256,192,28905,1,0,0:0:0:0:
109,192,28998,1,0,0:0:0:0:
329,192,29092,1,0,0:0:0:0:
182,192,29186,1,0,0:0:0:0:
402,192,29280,1,0,0:0:0:0:
475,192,29280,1,0,0:0:0:0:
36,192,29467,1,0,0:0:0:0:
182,192,29561,1,0,0:0:0:0:
329,192,29655,1,0,0:0:0:0:
475,192,29748,1,0,0:0:0:0:
182,192,29842,1,0,0:0:0:0:
109,192,29842,1,0,0:0:0:0:
36,192,29842,1,0,0:0:0:0:
256,192,29936,1,0,0:0:0:0:
329,192,30030,1,0,0:0:0:0:
475,192,30030,1,0,0:0:0:0:
402,192,30030,1,0,0:0:0:0:
36,192,30217,1,0,0:0:0:0:
182,192,30217,1,0,0:0:0:0:
329,192,30217,1,0,0:0:0:0:
256,192,30217,1,0,0:0:0:0:
402,192,30311,1,0,0:0:0:0:
475,192,30311,1,0,0:0:0:0:
109,192,30405,1,0,0:0:0:0:
182,192,30405,1,0,0:0:0:0:
256,192,30405,1,0,0:0:0:0:
329,192,30498,1,0,0:0:0:0:
402,192,30498,1,0,0:0:0:0:
109,192,30592,1,0,0:0:0:0:
36,192,30592,1,0,0:0:0:0:
256,192,30592,1,0,0:0:0:0:
329,192,30686,1,0,0:0:0:0:
475,192,30686,1,0,0:0:0:0:
182,192,30686,1,0,0:0:0:0:
256,192,30780,1,0,0:0:0:0:
402,192,30780,1,0,0:0:0:0:
36,192,30780,1,0,0:0:0:0:
109,192,30873,1,0,0:0:0:0:
182,192,30967,1,0,0:0:0:0:
256,192,30967,1,0,0:0:0:0:
402,192,30967,1,0,0:0:0:0:
475,192,30967,1,0,0:0:0:0:
329,192,31061,1,0,0:0:0:0:
109,192,31061,1,0,0:0:0:0:
36,192,31155,1,0,0:0:0:0:
475,192,31155,1,0,0:0:0:0:
329,192,31248,1,0,0:0:0:0:
256,192,31248,1,0,0:0:0:0:
109,192,31342,1,0,0:0:0:0:
402,192,31342,1,0,0:0:0:0:
182,192,31436,1,0,0:0:0:0:
256,192,31436,1,0,0:0:0:0:
36,192,31530,1,0,0:0:0:0:
329,192,31530,1,0,0:0:0:0:
182,192,31592,1,0,0:0:0:0:
402,192,31623,1,0,0:0:0:0:
109,192,31655,1,0,0:0:0:0:
256,192,31717,1,0,0:0:0:0:
475,192,31717,1,0,0:0:0:0:
182,192,31780,1,0,0:0:0:0:
36,192,31811,1,0,0:0:0:0:
329,192,31842,1,0,0:0:0:0:
256,192,31905,1,0,0:0:0:0:
109,192,31951,1,0,0:0:0:0:
402,192,31967,1,0,0:0:0:0:
182,192,31998,1,0,0:0:0:0:
329,192,32030,1,0,0:0:0:0:
36,192,32045,1,0,0:0:0:0:
475,192,32092,1,0,0:0:0:0:
109,192,32092,1,0,0:0:0:0:
256,192,32155,1,0,0:0:0:0:
36,192,32186,1,0,0:0:0:0:
402,192,32217,1,0,0:0:0:0:
182,192,32280,1,0,0:0:0:0:
329,192,32342,1,0,0:0:0:0:
475,192,32373,1,0,0:0:0:0:
109,192,32405,1,0,0:0:0:0:
256,192,32467,1,0,0:0:0:0:
402,192,32467,1,0,0:0:0:0:
36,192,32530,1,0,0:0:0:0:
329,192,32561,1,0,0:0:0:0:
182,192,32592,1,0,0:0:0:0:
109,192,32655,1,0,0:0:0:0:
402,192,32655,1,0,0:0:0:0:
256,192,32717,1,0,0:0:0:0:
475,192,32748,1,0,0:0:0:0:
182,192,32780,1,0,0:0:0:0:
329,192,32842,1,0,0:0:0:0:
36,192,32842,1,0,0:0:0:0:
256,192,32905,1,0,0:0:0:0:
109,192,32936,1,0,0:0:0:0:
402,192,32967,1,0,0:0:0:0:
329,192,33030,1,0,0:0:0:0:
182,192,33030,1,0,0:0:0:0:
329,192,33217,1,0,0:0:0:0:
182,192,33217,1,0,0:0:0:0:
475,192,33280,1,0,0:0:0:0:
36,192,33280,1,0,0:0:0:0:
109,192,33342,1,0,0:0:0:0:
402,192,33342,1,0,0:0:0:0:
182,192,33405,1,0,0:0:0:0:
329,192,33405,1,0,0:0:0:0:
256,192,33498,1,0,0:0:0:0:
109,192,33498,1,0,0:0:0:0:
36,192,33498,1,0,0:0:0:0:
329,192,33592,1,0,0:0:0:0:
475,192,33592,1,0,0:0:0:0:
402,192,33592,1,0,0:0:0:0:
182,192,33686,1,0,0:0:0:0:
36,192,33686,1,0,0:0:0:0:
109,192,33686,1,0,0:0:0:0:
256,192,33780,1,0,0:0:0:0:
329,192,33780,1,0,0:0:0:0:
475,192,33780,1,0,0:0:0:0:
182,192,33873,1,0,0:0:0:0:
109,192,33873,1,0,0:0:0:0:
256,192,33967,1,0,0:0:0:0:
329,192,33967,1,0,0:0:0:0:
402,192,33967,1,0,0:0:0:0:
36,192,33967,1,0,0:0:0:0:
475,192,34061,1,0,0:0:0:0:
109,192,34061,1,0,0:0:0:0:
182,192,34155,1,0,0:0:0:0:
402,192,34155,1,0,0:0:0:0:
109,192,34248,1,0,0:0:0:0:
329,192,34248,1,0,0:0:0:0:
36,192,34342,1,0,0:0:0:0:
256,192,34342,1,0,0:0:0:0:
329,192,34436,1,0,0:0:0:0:
402,192,34436,1,0,0:0:0:0:
475,192,34530,1,0,0:0:0:0:
182,192,34530,1,0,0:0:0:0:
329,192,34592,1,0,0:0:0:0:
109,192,34623,1,0,0:0:0:0:
402,192,34655,1,0,0:0:0:0:
36,192,34717,1,0,0:0:0:0:
256,192,34717,1,0,0:0:0:0:
329,192,34780,1,0,0:0:0:0:
475,192,34811,1,0,0:0:0:0:
182,192,34842,1,0,0:0:0:0:
256,192,34905,1,0,0:0:0:0:
402,192,34951,1,0,0:0:0:0:
109,192,34967,1,0,0:0:0:0:
329,192,34998,1,0,0:0:0:0:
182,192,35030,1,0,0:0:0:0:
475,192,35045,1,0,0:0:0:0:
36,192,35092,1,0,0:0:0:0:
402,192,35092,1,0,0:0:0:0:
256,192,35155,1,0,0:0:0:0:
475,192,35186,1,0,0:0:0:0:
182,192,35186,1,0,0:0:0:0:
109,192,35217,1,0,0:0:0:0:
329,192,35280,1,0,0:0:0:0:
182,192,35342,1,0,0:0:0:0:
36,192,35373,1,0,0:0:0:0:
402,192,35405,1,0,0:0:0:0:
256,192,35467,1,0,0:0:0:0:
109,192,35467,1,0,0:0:0:0:
475,192,35530,1,0,0:0:0:0:
182,192,35561,1,0,0:0:0:0:
329,192,35592,1,0,0:0:0:0:
402,192,35655,1,0,0:0:0:0:
109,192,35655,1,0,0:0:0:0:
256,192,35717,1,0,0:0:0:0:
36,192,35748,1,0,0:0:0:0:
329,192,35780,1,0,0:0:0:0:
475,192,35842,1,0,0:0:0:0:
182,192,35842,1,0,0:0:0:0:
256,192,35905,1,0,0:0:0:0:
402,192,35936,1,0,0:0:0:0:
109,192,35967,1,0,0:0:0:0:
182,192,36030,1,0,0:0:0:0:
329,192,36030,1,0,0:0:0:0:
36,192,36217,1,0,0:0:0:0:
475,192,36217,1,0,0:0:0:0:
329,192,36280,1,0,0:0:0:0:
182,192,36280,1,0,0:0:0:0:
402,192,36342,1,0,0:0:0:0:
109,192,36342,1,0,0:0:0:0:
475,192,36405,1,0,0:0:0:0:
36,192,36405,1,0,0:0:0:0:
329,192,36498,1,0,0:0:0:0:
402,192,36498,1,0,0:0:0:0:
182,192,36498,1,0,0:0:0:0:
256,192,36592,1,0,0:0:0:0:
109,192,36592,1,0,0:0:0:0:
402,192,36686,1,0,0:0:0:0:
475,192,36686,1,0,0:0:0:0:
36,192,36686,1,0,0:0:0:0:
329,192,36780,1,0,0:0:0:0:
182,192,36780,1,0,0:0:0:0:
256,192,36780,1,0,0:0:0:0:
109,192,36873,1,0,0:0:0:0:
36,192,36873,1,0,0:0:0:0:
256,192,36967,1,0,0:0:0:0:
329,192,36967,1,0,0:0:0:0:
402,192,36967,1,0,0:0:0:0:
475,192,36967,1,0,0:0:0:0:
182,192,37061,1,0,0:0:0:0:
36,192,37061,1,0,0:0:0:0:
329,192,37155,1,0,0:0:0:0:
402,192,37155,1,0,0:0:0:0:
256,192,37155,1,0,0:0:0:0:
182,192,37248,1,0,0:0:0:0:
36,192,37248,1,0,0:0:0:0:
109,192,37248,1,0,0:0:0:0:
329,192,37342,1,0,0:0:0:0:
402,192,37342,1,0,0:0:0:0:
475,192,37342,1,0,0:0:0:0:
256,192,37436,1,0,0:0:0:0:
182,192,37436,1,0,0:0:0:0:
109,192,37436,1,0,0:0:0:0:
36,192,37530,1,0,0:0:0:0:
329,192,37530,1,0,0:0:0:0:
475,192,37576,1,0,0:0:0:0:
182,192,37592,1,0,0:0:0:0:
402,192,37623,1,0,0:0:0:0:
109,192,37655,1,0,0:0:0:0:
329,192,37670,1,0,0:0:0:0:
256,192,37717,1,0,0:0:0:0:
475,192,37764,1,0,0:0:0:0:
182,192,37780,1,0,0:0:0:0:
36,192,37811,1,0,0:0:0:0:
329,192,37842,1,0,0:0:0:0:
256,192,37905,1,0,0:0:0:0:
109,192,37905,1,0,0:0:0:0:
402,192,37967,1,0,0:0:0:0:
182,192,37998,1,0,0:0:0:0:
329,192,38030,1,0,0:0:0:0:
475,192,38092,1,0,0:0:0:0:
256,192,38092,1,0,0:0:0:0:
36,192,38092,1,0,0:0:0:0:
182,192,38155,1,0,0:0:0:0:
402,192,38186,1,0,0:0:0:0:
109,192,38217,1,0,0:0:0:0:
329,192,38280,1,0,0:0:0:0:
36,192,38280,1,0,0:0:0:0:
475,192,38280,1,0,0:0:0:0:
182,192,38280,1,0,0:0:0:0:
109,192,38655,1,0,0:0:0:0:
256,192,38655,1,0,0:0:0:0:
402,192,38655,1,0,0:0:0:0:
36,192,38842,1,0,0:0:0:0:
109,192,38936,1,0,0:0:0:0:
182,192,39030,1,0,0:0:0:0:
329,192,39030,1,0,0:0:0:0:
402,192,39030,1,0,0:0:0:0:
475,192,39030,1,0,0:0:0:0:
36,192,39217,1,0,0:0:0:0:
182,192,39311,1,0,0:0:0:0:
329,192,39405,1,0,0:0:0:0:
475,192,39498,1,0,0:0:0:0:
256,192,39592,1,0,0:0:0:0:
402,192,39686,1,0,0:0:0:0:
182,192,39780,1,0,0:0:0:0:
329,192,39873,1,0,0:0:0:0:
109,192,39967,1,0,0:0:0:0:
256,192,40061,1,0,0:0:0:0:
36,192,40155,1,0,0:0:0:0:
402,192,40155,1,0,0:0:0:0:
182,192,40248,1,0,0:0:0:0:
475,192,40248,1,0,0:0:0:0:
402,192,40342,1,0,0:0:0:0:
36,192,40342,1,0,0:0:0:0:
475,192,40436,1,0,0:0:0:0:
182,192,40436,1,0,0:0:0:0:
329,192,40530,1,0,0:0:0:0:
36,192,40530,1,0,0:0:0:0:
182,192,40592,1,0,0:0:0:0:
402,192,40623,1,0,0:0:0:0:
109,192,40655,1,0,0:0:0:0:
475,192,40717,1,0,0:0:0:0:
256,192,40717,1,0,0:0:0:0:
182,192,40780,1,0,0:0:0:0:
36,192,40811,1,0,0:0:0:0:
329,192,40842,1,0,0:0:0:0:
256,192,40905,1,0,0:0:0:0:
109,192,40951,1,0,0:0:0:0:
402,192,40967,1,0,0:0:0:0:
182,192,40998,1,0,0:0:0:0:
329,192,41030,1,0,0:0:0:0:
36,192,41045,1,0,0:0:0:0:
475,192,41092,1,0,0:0:0:0:
109,192,41092,1,0,0:0:0:0:
256,192,41155,1,0,0:0:0:0:
36,192,41186,1,0,0:0:0:0:
402,192,41217,1,0,0:0:0:0:
182,192,41280,1,0,0:0:0:0:
329,192,41342,1,0,0:0:0:0:
475,192,41373,1,0,0:0:0:0:
109,192,41405,1,0,0:0:0:0:
402,192,41467,1,0,0:0:0:0:
256,192,41467,1,0,0:0:0:0:
36,192,41530,1,0,0:0:0:0:
329,192,41561,1,0,0:0:0:0:
182,192,41592,1,0,0:0:0:0:
109,192,41655,1,0,0:0:0:0:
402,192,41655,1,0,0:0:0:0:
256,192,41717,1,0,0:0:0:0:
475,192,41748,1,0,0:0:0:0:
182,192,41780,1,0,0:0:0:0:
329,192,41842,1,0,0:0:0:0:
36,192,41842,1,0,0:0:0:0:
256,192,41905,1,0,0:0:0:0:
109,192,41936,1,0,0:0:0:0:
402,192,41967,1,0,0:0:0:0:
329,192,42030,1,0,0:0:0:0:
182,192,42030,1,0,0:0:0:0:
475,192,42123,1,0,0:0:0:0:
256,192,42123,1,0,0:0:0:0:
182,192,42217,1,0,0:0:0:0:
109,192,42217,1,0,0:0:0:0:
402,192,42217,1,0,0:0:0:0:
329,192,42311,1,0,0:0:0:0:
36,192,42311,1,0,0:0:0:0:
256,192,42311,1,0,0:0:0:0:
182,192,42405,1,0,0:0:0:0:
475,192,42405,1,0,0:0:0:0:
402,192,42405,1,0,0:0:0:0:
109,192,42498,1,0,0:0:0:0:
329,192,42498,1,0,0:0:0:0:
402,192,42592,1,0,0:0:0:0:
182,192,42592,1,0,0:0:0:0:
256,192,42592,1,0,0:0:0:0:
36,192,42592,1,0,0:0:0:0:
329,192,42686,1,0,0:0:0:0:
475,192,42686,1,0,0:0:0:0:
256,192,42780,1,0,0:0:0:0:
182,192,42780,1,0,0:0:0:0:
109,192,42780,1,0,0:0:0:0:
36,192,42780,1,0,0:0:0:0:
402,192,42873,1,0,0:0:0:0:
475,192,42873,1,0,0:0:0:0:
256,192,42967,1,0,0:0:0:0:
329,192,42967,1,0,0:0:0:0:
109,192,42967,1,0,0:0:0:0:
182,192,43061,1,0,0:0:0:0:
36,192,43061,1,0,0:0:0:0:
475,192,43061,1,0,0:0:0:0:
402,192,43155,1,0,0:0:0:0:
329,192,43155,1,0,0:0:0:0:
256,192,43155,1,0,0:0:0:0:
109,192,43248,1,0,0:0:0:0:
182,192,43248,1,0,0:0:0:0:
256,192,43342,1,0,0:0:0:0:
402,192,43342,1,0,0:0:0:0:
475,192,43342,1,0,0:0:0:0:
329,192,43342,1,0,0:0:0:0:
36,192,43342,1,0,0:0:0:0:
182,192,43436,1,0,0:0:0:0:
109,192,43483,1,0,0:0:0:0:
36,192,43530,1,0,0:0:0:0:
329,192,43530,1,0,0:0:0:0:
402,192,43530,1,0,0:0:0:0:
475,192,43530,1,0,0:0:0:0:
256,192,43623,1,0,0:0:0:0:
109,192,43623,1,0,0:0:0:0:
329,192,43717,1,0,0:0:0:0:
475,192,43717,1,0,0:0:0:0:
36,192,43717,1,0,0:0:0:0:
256,192,43811,1,0,0:0:0:0:
109,192,43811,1,0,0:0:0:0:
402,192,43811,1,0,0:0:0:0:
329,192,43905,1,0,0:0:0:0:
182,192,43905,1,0,0:0:0:0:
475,192,43905,1,0,0:0:0:0:
109,192,43951,1,0,0:0:0:0:
36,192,43998,1,0,0:0:0:0:
402,192,43998,1,0,0:0:0:0:
256,192,44045,1,0,0:0:0:0:
182,192,44092,1,0,0:0:0:0:
475,192,44092,1,0,0:0:0:0:
109,192,44139,1,0,0:0:0:0:
36,192,44186,1,0,0:0:0:0:
329,192,44186,1,0,0:0:0:0:
402,192,44280,1,0,0:0:0:0:
182,192,44280,1,0,0:0:0:0:
475,192,44373,1,0,0:0:0:0:
256,192,44373,1,0,0:0:0:0:
109,192,44467,1,0,0:0:0:0:
329,192,44467,1,0,0:0:0:0:
256,192,44514,1,0,0:0:0:0:
182,192,44561,1,0,0:0:0:0:
402,192,44561,1,0,0:0:0:0:
36,192,44655,1,0,0:0:0:0:
109,192,44655,1,0,0:0:0:0:
475,192,44655,1,0,0:0:0:0:
182,192,44701,1,0,0:0:0:0:
329,192,44748,1,0,0:0:0:0:
256,192,44748,1,0,0:0:0:0:
402,192,44842,1,0,0:0:0:0:
475,192,44842,1,0,0:0:0:0:
109,192,44842,1,0,0:0:0:0:
36,192,44842,1,0,0:0:0:0:
182,192,44936,1,0,0:0:0:0:
329,192,44936,1,0,0:0:0:0:
256,192,45030,1,0,0:0:0:0:
109,192,45030,1,0,0:0:0:0:
402,192,45030,1,0,0:0:0:0:
475,192,45030,1,0,0:0:0:0:
36,192,45030,1,0,0:0:0:0:
182,192,45123,1,0,0:0:0:0:
329,192,45123,1,0,0:0:0:0:
402,192,45217,1,0,0:0:0:0:
109,192,45217,1,0,0:0:0:0:
36,192,45217,1,0,0:0:0:0:
329,192,45311,1,0,0:0:0:0:
256,192,45311,1,0,0:0:0:0:
182,192,45311,1,0,0:0:0:0:
475,192,45405,1,0,0:0:0:0:
109,192,45405,1,0,0:0:0:0:
36,192,45405,1,0,0:0:0:0:
402,192,45451,1,0,0:0:0:0:
329,192,45498,1,0,0:0:0:0:
182,192,45498,1,0,0:0:0:0:
256,192,45545,1,0,0:0:0:0:
475,192,45592,1,0,0:0:0:0:
109,192,45592,1,0,0:0:0:0:
402,192,45639,1,0,0:0:0:0:
329,192,45686,1,0,0:0:0:0:
36,192,45686,1,0,0:0:0:0:
256,192,45733,1,0,0:0:0:0:
109,192,45780,1,0,0:0:0:0:
182,192,45780,1,0,0:0:0:0:
329,192,45873,1,0,0:0:0:0:
475,192,45873,1,0,0:0:0:0:
256,192,45967,1,0,0:0:0:0:
402,192,45967,1,0,0:0:0:0:
36,192,45967,1,0,0:0:0:0:
109,192,46061,1,0,0:0:0:0:
182,192,46061,1,0,0:0:0:0:
329,192,46061,1,0,0:0:0:0:
402,192,46155,1,0,0:0:0:0:
475,192,46155,1,0,0:0:0:0:
329,192,46186,1,0,0:0:0:0:
256,192,46217,1,0,0:0:0:0:
182,192,46248,1,0,0:0:0:0:
109,192,46280,1,0,0:0:0:0:
36,192,46311,1,0,0:0:0:0:
329,192,46342,1,0,0:0:0:0:
402,192,46342,1,0,0:0:0:0:
475,192,46342,1,0,0:0:0:0:
256,192,46436,1,0,0:0:0:0:
182,192,46530,1,0,0:0:0:0:
109,192,46530,1,0,0:0:0:0:
36,192,46530,1,0,0:0:0:0:
475,192,46530,1,0,0:0:0:0:
329,192,46623,1,0,0:0:0:0:
36,192,46717,1,0,0:0:0:0:
402,192,46717,1,0,0:0:0:0:
475,192,46717,1,0,0:0:0:0:
109,192,46764,1,0,0:0:0:0:
182,192,46811,1,0,0:0:0:0:
329,192,46811,1,0,0:0:0:0:
256,192,46858,1,0,0:0:0:0:
36,192,46905,1,0,0:0:0:0:
475,192,46905,1,0,0:0:0:0:
402,192,46905,1,0,0:0:0:0:
109,192,46951,1,0,0:0:0:0:
182,192,46998,1,0,0:0:0:0:
329,192,46998,1,0,0:0:0:0:
256,192,47045,1,0,0:0:0:0:
36,192,47092,1,0,0:0:0:0:
475,192,47092,1,0,0:0:0:0:
402,192,47092,1,0,0:0:0:0:
109,192,47139,1,0,0:0:0:0:
182,192,47186,1,0,0:0:0:0:
329,192,47186,1,0,0:0:0:0:
256,192,47280,1,0,0:0:0:0:
402,192,47280,1,0,0:0:0:0:
475,192,47280,1,0,0:0:0:0:
36,192,47373,1,0,0:0:0:0:
182,192,47373,1,0,0:0:0:0:
475,192,47397,1,0,0:0:0:0:
402,192,47420,1,0,0:0:0:0:
329,192,47444,1,0,0:0:0:0:
256,192,47467,1,0,0:0:0:0:
109,192,47467,1,0,0:0:0:0:
182,192,47561,1,0,0:0:0:0:
329,192,47561,1,0,0:0:0:0:
36,192,47561,1,0,0:0:0:0:
402,192,47655,1,0,0:0:0:0:
475,192,47655,1,0,0:0:0:0:
109,192,47655,1,0,0:0:0:0:
329,192,47701,1,0,0:0:0:0:
256,192,47748,1,0,0:0:0:0:
182,192,47795,1,0,0:0:0:0:
109,192,47842,1,0,0:0:0:0:
36,192,47842,1,0,0:0:0:0:
329,192,47842,1,0,0:0:0:0:
402,192,47889,1,0,0:0:0:0:
182,192,47936,1,0,0:0:0:0:
475,192,47936,1,0,0:0:0:0:
256,192,47959,1,0,0:0:0:0:
109,192,47983,1,0,0:0:0:0:
329,192,47983,1,0,0:0:0:0:
402,192,48006,1,0,0:0:0:0:
475,192,48030,1,0,0:0:0:0:
36,192,48030,1,0,0:0:0:0:
109,192,48123,1,0,0:0:0:0:
329,192,48123,1,0,0:0:0:0:
182,192,48217,1,0,0:0:0:0:
402,192,48217,1,0,0:0:0:0:
256,192,48217,1,0,0:0:0:0:
109,192,48311,1,0,0:0:0:0:
36,192,48311,1,0,0:0:0:0:
475,192,48311,1,0,0:0:0:0:
402,192,48358,1,0,0:0:0:0:
329,192,48405,1,0,0:0:0:0:
182,192,48405,1,0,0:0:0:0:
109,192,48498,1,0,0:0:0:0:
36,192,48498,1,0,0:0:0:0:
475,192,48592,1,0,0:0:0:0:
182,192,48592,1,0,0:0:0:0:
256,192,48592,1,0,0:0:0:0:
329,192,48592,1,0,0:0:0:0:
402,192,48686,1,0,0:0:0:0:
109,192,48686,1,0,0:0:0:0:
256,192,48780,1,0,0:0:0:0:
182,192,48780,1,0,0:0:0:0:
36,192,48780,1,0,0:0:0:0:
329,192,48780,1,0,0:0:0:0:
475,192,48873,1,0,0:0:0:0:
402,192,48897,1,0,0:0:0:0:
329,192,48920,1,0,0:0:0:0:
256,192,48944,1,0,0:0:0:0:
182,192,48967,1,0,0:0:0:0:
109,192,48990,1,0,0:0:0:0:
36,192,49014,1,0,0:0:0:0:
329,192,49037,1,0,0:0:0:0:
402,192,49061,1,0,0:0:0:0:
475,192,49061,1,0,0:0:0:0:
36,192,49155,1,0,0:0:0:0:
329,192,49155,1,0,0:0:0:0:
182,192,49201,1,0,0:0:0:0:
109,192,49248,1,0,0:0:0:0:
402,192,49248,1,0,0:0:0:0:
256,192,49295,1,0,0:0:0:0:
182,192,49342,1,0,0:0:0:0:
475,192,49342,1,0,0:0:0:0:
329,192,49389,1,0,0:0:0:0:
256,192,49436,1,0,0:0:0:0:
402,192,49483,1,0,0:0:0:0:
329,192,49530,1,0,0:0:0:0:
109,192,49530,1,0,0:0:0:0:
36,192,49530,1,0,0:0:0:0:
182,192,49623,1,0,0:0:0:0:
329,192,49717,1,0,0:0:0:0:
402,192,49717,1,0,0:0:0:0:
36,192,49717,1,0,0:0:0:0:
109,192,49811,1,0,0:0:0:0:
256,192,49811,1,0,0:0:0:0:
475,192,49811,1,0,0:0:0:0:
182,192,49905,1,0,0:0:0:0:
36,192,49905,1,0,0:0:0:0:
329,192,49905,1,0,0:0:0:0:
402,192,49998,1,0,0:0:0:0:
475,192,49998,1,0,0:0:0:0:
329,192,50092,1,0,0:0:0:0:
109,192,50092,1,0,0:0:0:0:
182,192,50092,1,0,0:0:0:0:
256,192,50186,1,0,0:0:0:0:
402,192,50186,1,0,0:0:0:0:
36,192,50186,1,0,0:0:0:0:
329,192,50280,1,0,0:0:0:0:
475,192,50280,1,0,0:0:0:0:
182,192,50280,1,0,0:0:0:0:
36,192,50373,1,0,0:0:0:0:
109,192,50420,1,0,0:0:0:0:
182,192,50467,1,0,0:0:0:0:
402,192,50467,1,0,0:0:0:0:
256,192,50467,1,0,0:0:0:0:
36,192,50561,1,0,0:0:0:0:
329,192,50561,1,0,0:0:0:0:
109,192,50655,1,0,0:0:0:0:
402,192,50655,1,0,0:0:0:0:
182,192,50748,1,0,0:0:0:0:
329,192,50748,1,0,0:0:0:0:
256,192,50842,1,0,0:0:0:0:
402,192,50842,1,0,0:0:0:0:
475,192,50842,1,0,0:0:0:0:
109,192,50842,1,0,0:0:0:0:
36,192,50842,1,0,0:0:0:0:
182,192,50936,1,0,0:0:0:0:
256,192,51030,1,0,0:0:0:0:
329,192,51030,1,0,0:0:0:0:
402,192,51030,1,0,0:0:0:0:
475,192,51030,1,0,0:0:0:0:
109,192,51030,1,0,0:0:0:0:
182,192,51123,1,0,0:0:0:0:
36,192,51123,1,0,0:0:0:0:
256,192,51217,1,0,0:0:0:0:
329,192,51217,1,0,0:0:0:0:
475,192,51311,1,0,0:0:0:0:
109,192,51311,1,0,0:0:0:0:
402,192,51311,1,0,0:0:0:0:
36,192,51311,1,0,0:0:0:0:
182,192,51405,1,0,0:0:0:0:
256,192,51405,1,0,0:0:0:0:
109,192,51498,1,0,0:0:0:0:
36,192,51498,1,0,0:0:0:0:
475,192,51498,1,0,0:0:0:0:
329,192,51592,1,0,0:0:0:0:
402,192,51592,1,0,0:0:0:0:
256,192,51686,1,0,0:0:0:0:
182,192,51686,1,0,0:0:0:0:
36,192,51780,1,0,0:0:0:0:
329,192,51780,1,0,0:0:0:0:
402,192,51780,1,0,0:0:0:0:
475,192,51780,1,0,0:0:0:0:
109,192,51780,1,0,0:0:0:0:
182,192,51873,1,0,0:0:0:0:
256,192,51873,1,0,0:0:0:0:
329,192,51920,1,0,0:0:0:0:
402,192,51967,1,0,0:0:0:0:
475,192,51967,1,0,0:0:0:0:
36,192,52061,1,0,0:0:0:0:
182,192,52061,1,0,0:0:0:0:
256,192,52061,1,0,0:0:0:0:
109,192,52061,1,0,0:0:0:0:
329,192,52155,1,0,0:0:0:0:
402,192,52155,1,0,0:0:0:0:
36,192,52248,1,0,0:0:0:0:
475,192,52248,1,0,0:0:0:0:
109,192,52272,1,0,0:0:0:0:
182,192,52295,1,0,0:0:0:0:
256,192,52319,1,0,0:0:0:0:
329,192,52342,1,0,0:0:0:0:
402,192,52342,1,0,0:0:0:0:
36,192,52436,1,0,0:0:0:0:
256,192,52436,1,0,0:0:0:0:
109,192,52530,1,0,0:0:0:0:
329,192,52530,1,0,0:0:0:0:
475,192,52530,1,0,0:0:0:0:
182,192,52623,1,0,0:0:0:0:
402,192,52623,1,0,0:0:0:0:
256,192,52623,1,0,0:0:0:0:
329,192,52717,1,0,0:0:0:0:
109,192,52717,1,0,0:0:0:0:
36,192,52717,1,0,0:0:0:0:
475,192,52764,1,0,0:0:0:0:
182,192,52811,1,0,0:0:0:0:
402,192,52811,1,0,0:0:0:0:
109,192,52858,1,0,0:0:0:0:
36,192,52905,1,0,0:0:0:0:
329,192,52905,1,0,0:0:0:0:
256,192,52905,1,0,0:0:0:0:
402,192,52998,1,0,0:0:0:0:
475,192,52998,1,0,0:0:0:0:
182,192,52998,1,0,0:0:0:0:
109,192,53092,1,0,0:0:0:0:
329,192,53092,1,0,0:0:0:0:
36,192,53186,1,0,0:0:0:0:
256,192,53186,1,0,0:0:0:0:
402,192,53186,1,0,0:0:0:0:
329,192,53280,1,0,0:0:0:0:
475,192,53280,1,0,0:0:0:0:
109,192,53280,1,0,0:0:0:0:
182,192,53373,1,0,0:0:0:0:
36,192,53373,1,0,0:0:0:0:
256,192,53397,1,0,0:0:0:0:
329,192,53420,1,0,0:0:0:0:
402,192,53444,1,0,0:0:0:0:
475,192,53467,1,0,0:0:0:0:
109,192,53467,1,0,0:0:0:0:
182,192,53561,1,0,0:0:0:0:
329,192,53561,1,0,0:0:0:0:
402,192,53655,1,0,0:0:0:0:
475,192,53655,1,0,0:0:0:0:
256,192,53655,1,0,0:0:0:0:
36,192,53655,1,0,0:0:0:0:
329,192,53748,1,0,0:0:0:0:
182,192,53748,1,0,0:0:0:0:
109,192,53748,1,0,0:0:0:0:
475,192,53842,1,0,0:0:0:0:
329,192,53865,1,0,0:0:0:0:
182,192,53889,1,0,0:0:0:0:
36,192,53912,1,0,0:0:0:0:
475,192,53936,1,0,0:0:0:0:
329,192,53959,1,0,0:0:0:0:
182,192,53983,1,0,0:0:0:0:
36,192,54006,1,0,0:0:0:0:
109,192,54030,1,0,0:0:0:0:
256,192,54030,1,0,0:0:0:0:
402,192,54030,1,0,0:0:0:0:
109,192,54405,1,0,0:0:0:0:
402,192,54405,1,0,0:0:0:0:
36,192,54967,1,0,0:0:0:0:
475,192,54967,1,0,0:0:0:0:
182,192,55530,1,0,0:0:0:0:
329,192,55530,1,0,0:0:0:0:
329,192,56092,1,0,0:0:0:0:
182,192,56092,1,0,0:0:0:0:
109,192,56467,1,0,0:0:0:0:
402,192,56467,1,0,0:0:0:0:
36,192,56842,1,0,0:0:0:0:
475,192,56842,1,0,0:0:0:0:
109,192,57405,1,0,0:0:0:0:
402,192,57405,1,0,0:0:0:0:
475,192,57967,1,0,0:0:0:0:
36,192,57967,1,0,0:0:0:0:
182,192,58530,1,0,0:0:0:0:
329,192,58530,1,0,0:0:0:0:
182,192,59092,1,0,0:0:0:0:
329,192,59092,1,0,0:0:0:0:
109,192,59467,1,0,0:0:0:0:
402,192,59467,1,0,0:0:0:0:
36,192,59842,1,0,0:0:0:0:
475,192,59842,1,0,0:0:0:0:
109,192,60405,1,0,0:0:0:0:
402,192,60405,1,0,0:0:0:0:
36,192,60967,1,0,0:0:0:0:
475,192,60967,1,0,0:0:0:0:
182,192,61530,1,0,0:0:0:0:
329,192,61530,1,0,0:0:0:0:
182,192,62092,1,0,0:0:0:0:
329,192,62092,1,0,0:0:0:0:
109,192,62467,1,0,0:0:0:0:
402,192,62467,1,0,0:0:0:0:
475,192,62842,1,0,0:0:0:0:
36,192,62842,1,0,0:0:0:0:
109,192,63405,1,0,0:0:0:0:
402,192,63405,1,0,0:0:0:0:
475,192,63967,1,0,0:0:0:0:
36,192,63967,1,0,0:0:0:0:
182,192,64530,1,0,0:0:0:0:
329,192,64530,1,0,0:0:0:0:
402,192,64717,1,0,0:0:0:0:
256,192,64811,1,0,0:0:0:0:
109,192,64905,1,0,0:0:0:0:
182,192,65092,1,0,0:0:0:0:
329,192,65092,1,0,0:0:0:0:
109,192,65467,1,0,0:0:0:0:
182,192,65467,1,0,0:0:0:0:
329,192,65467,1,0,0:0:0:0:
402,192,65467,1,0,0:0:0:0:
109,192,65655,1,0,0:0:0:0:
329,192,65655,1,0,0:0:0:0:
36,192,65655,1,0,0:0:0:0:
475,192,65655,1,0,0:0:0:0:
182,192,65701,1,0,0:0:0:0:
256,192,65748,1,0,0:0:0:0:
329,192,65795,1,0,0:0:0:0:
475,192,65842,1,0,0:0:0:0:
36,192,65842,1,0,0:0:0:0:
402,192,65842,1,0,0:0:0:0:
109,192,65889,1,0,0:0:0:0:
182,192,65936,1,0,0:0:0:0:
256,192,65983,1,0,0:0:0:0:
402,192,66030,1,0,0:0:0:0:
329,192,66030,1,0,0:0:0:0:
475,192,66030,1,0,0:0:0:0:
36,192,66030,1,0,0:0:0:0:
36,192,66217,1,0,0:0:0:0:
402,192,66217,1,0,0:0:0:0:
109,192,66311,1,0,0:0:0:0:
329,192,66311,1,0,0:0:0:0:
182,192,66405,1,0,0:0:0:0:
256,192,66405,1,0,0:0:0:0:
402,192,66405,1,0,0:0:0:0:
475,192,66405,1,0,0:0:0:0:
36,192,66405,1,0,0:0:0:0:
329,192,66498,1,0,0:0:0:0:
109,192,66592,1,0,0:0:0:0:
402,192,66592,1,0,0:0:0:0:
256,192,66686,1,0,0:0:0:0:
36,192,66780,1,0,0:0:0:0:
329,192,66780,1,0,0:0:0:0:
182,192,66873,1,0,0:0:0:0:
256,192,66967,1,0,0:0:0:0:
329,192,66967,1,0,0:0:0:0:
402,192,66967,1,0,0:0:0:0:
36,192,66967,1,0,0:0:0:0:
475,192,66967,1,0,0:0:0:0:
36,192,67155,1,0,0:0:0:0:
182,192,67155,1,0,0:0:0:0:
329,192,67155,1,0,0:0:0:0:
402,192,67248,1,0,0:0:0:0:
475,192,67342,1,0,0:0:0:0:
182,192,67342,1,0,0:0:0:0:
256,192,67342,1,0,0:0:0:0:
329,192,67436,1,0,0:0:0:0:
402,192,67530,1,0,0:0:0:0:
475,192,67530,1,0,0:0:0:0:
182,192,67530,1,0,0:0:0:0:
109,192,67530,1,0,0:0:0:0:
36,192,67530,1,0,0:0:0:0:
256,192,67623,1,0,0:0:0:0:
329,192,67717,1,0,0:0:0:0:
109,192,67717,1,0,0:0:0:0:
182,192,67811,1,0,0:0:0:0:
36,192,67905,1,0,0:0:0:0:
256,192,67905,1,0,0:0:0:0:
402,192,67905,1,0,0:0:0:0:
329,192,67998,1,0,0:0:0:0:
475,192,68092,1,0,0:0:0:0:
182,192,68092,1,0,0:0:0:0:
36,192,68092,1,0,0:0:0:0:
109,192,68092,1,0,0:0:0:0:
256,192,68092,1,0,0:0:0:0:
329,192,68186,1,0,0:0:0:0:
402,192,68280,1,0,0:0:0:0:
256,192,68280,1,0,0:0:0:0:
109,192,68280,1,0,0:0:0:0:
182,192,68467,1,0,0:0:0:0:
256,192,68467,1,0,0:0:0:0:
329,192,68467,1,0,0:0:0:0:
475,192,68467,1,0,0:0:0:0:
109,192,68467,1,0,0:0:0:0:
36,192,68561,1,0,0:0:0:0:
475,192,68655,1,0,0:0:0:0:
182,192,68655,1,0,0:0:0:0:
109,192,68655,1,0,0:0:0:0:
402,192,68701,1,0,0:0:0:0:
329,192,68748,1,0,0:0:0:0:
256,192,68795,1,0,0:0:0:0:
182,192,68842,1,0,0:0:0:0:
109,192,68842,1,0,0:0:0:0:
36,192,68842,1,0,0:0:0:0:
402,192,68842,1,0,0:0:0:0:
475,192,68842,1,0,0:0:0:0:
256,192,68936,1,0,0:0:0:0:
329,192,69030,1,0,0:0:0:0:
475,192,69030,1,0,0:0:0:0:
182,192,69030,1,0,0:0:0:0:
109,192,69030,1,0,0:0:0:0:
256,192,69217,1,0,0:0:0:0:
402,192,69217,1,0,0:0:0:0:
182,192,69311,1,0,0:0:0:0:
256,192,69405,1,0,0:0:0:0:
402,192,69405,1,0,0:0:0:0:
475,192,69405,1,0,0:0:0:0:
109,192,69405,1,0,0:0:0:0:
36,192,69405,1,0,0:0:0:0:
329,192,69498,1,0,0:0:0:0:
109,192,69592,1,0,0:0:0:0:
402,192,69592,1,0,0:0:0:0:
182,192,69686,1,0,0:0:0:0:
256,192,69780,1,0,0:0:0:0:
475,192,69780,1,0,0:0:0:0:
36,192,69780,1,0,0:0:0:0:
109,192,69873,1,0,0:0:0:0:
182,192,69967,1,0,0:0:0:0:
329,192,69967,1,0,0:0:0:0:
475,192,69967,1,0,0:0:0:0:
402,192,69967,1,0,0:0:0:0:
256,192,70061,1,0,0:0:0:0:
329,192,70155,1,0,0:0:0:0:
402,192,70155,1,0,0:0:0:0:
475,192,70155,1,0,0:0:0:0:
109,192,70155,1,0,0:0:0:0:
36,192,70155,1,0,0:0:0:0:
182,192,70248,1,0,0:0:0:0:
109,192,70342,1,0,0:0:0:0:
36,192,70342,1,0,0:0:0:0:
182,192,70436,1,0,0:0:0:0:
475,192,70436,1,0,0:0:0:0:
329,192,70530,1,0,0:0:0:0:
402,192,70530,1,0,0:0:0:0:
256,192,70530,1,0,0:0:0:0:
109,192,70530,1,0,0:0:0:0:
36,192,70530,1,0,0:0:0:0:
182,192,70623,1,0,0:0:0:0:
475,192,70717,1,0,0:0:0:0:
329,192,70717,1,0,0:0:0:0:
256,192,70811,1,0,0:0:0:0:
402,192,70905,1,0,0:0:0:0:
182,192,70905,1,0,0:0:0:0:
36,192,70905,1,0,0:0:0:0:
329,192,70998,1,0,0:0:0:0:
256,192,70998,1,0,0:0:0:0:
402,192,71092,1,0,0:0:0:0:
475,192,71092,1,0,0:0:0:0:
182,192,71092,1,0,0:0:0:0:
109,192,71092,1,0,0:0:0:0:
36,192,71092,1,0,0:0:0:0:
256,192,71186,1,0,0:0:0:0:
329,192,71280,1,0,0:0:0:0:
402,192,71280,1,0,0:0:0:0:
182,192,71373,1,0,0:0:0:0:
256,192,71467,1,0,0:0:0:0:
329,192,71467,1,0,0:0:0:0:
402,192,71467,1,0,0:0:0:0:
475,192,71467,1,0,0:0:0:0:
36,192,71467,1,0,0:0:0:0:
109,192,71561,1,0,0:0:0:0:
182,192,71655,1,0,0:0:0:0:
329,192,71655,1,0,0:0:0:0:
475,192,71655,1,0,0:0:0:0:
402,192,71748,1,0,0:0:0:0:
256,192,71842,1,0,0:0:0:0:
329,192,71842,1,0,0:0:0:0:
182,192,71842,1,0,0:0:0:0:
109,192,71842,1,0,0:0:0:0:
36,192,71842,1,0,0:0:0:0:
475,192,71936,1,0,0:0:0:0:
402,192,72030,1,0,0:0:0:0:
256,192,72030,1,0,0:0:0:0:
109,192,72030,1,0,0:0:0:0:
36,192,72217,1,0,0:0:0:0:
402,192,72217,1,0,0:0:0:0:
109,192,72311,1,0,0:0:0:0:
329,192,72311,1,0,0:0:0:0:
182,192,72405,1,0,0:0:0:0:
402,192,72405,1,0,0:0:0:0:
475,192,72405,1,0,0:0:0:0:
256,192,72405,1,0,0:0:0:0:
36,192,72405,1,0,0:0:0:0:
329,192,72498,1,0,0:0:0:0:
182,192,72592,1,0,0:0:0:0:
475,192,72592,1,0,0:0:0:0:
109,192,72592,1,0,0:0:0:0:
256,192,72686,1,0,0:0:0:0:
402,192,72780,1,0,0:0:0:0:
109,192,72780,1,0,0:0:0:0:
36,192,72780,1,0,0:0:0:0:
329,192,72873,1,0,0:0:0:0:
109,192,72967,1,0,0:0:0:0:
475,192,72967,1,0,0:0:0:0:
182,192,72967,1,0,0:0:0:0:
36,192,72967,1,0,0:0:0:0:
256,192,72967,1,0,0:0:0:0:
36,192,73155,1,0,0:0:0:0:
475,192,73155,1,0,0:0:0:0:
329,192,73155,1,0,0:0:0:0:
182,192,73201,1,0,0:0:0:0:
109,192,73248,1,0,0:0:0:0:
256,192,73295,1,0,0:0:0:0:
182,192,73342,1,0,0:0:0:0:
329,192,73389,1,0,0:0:0:0:
256,192,73436,1,0,0:0:0:0:
402,192,73483,1,0,0:0:0:0:
329,192,73530,1,0,0:0:0:0:
182,192,73530,1,0,0:0:0:0:
36,192,73530,1,0,0:0:0:0:
109,192,73530,1,0,0:0:0:0:
256,192,73717,1,0,0:0:0:0:
402,192,73717,1,0,0:0:0:0:
329,192,73905,1,0,0:0:0:0:
475,192,73905,1,0,0:0:0:0:
109,192,73905,1,0,0:0:0:0:
256,192,73998,1,0,0:0:0:0:
36,192,73998,1,0,0:0:0:0:
329,192,74092,1,0,0:0:0:0:
402,192,74092,1,0,0:0:0:0:
475,192,74092,1,0,0:0:0:0:
182,192,74092,1,0,0:0:0:0:
256,192,74186,1,0,0:0:0:0:
109,192,74186,1,0,0:0:0:0:
475,192,74280,1,0,0:0:0:0:
36,192,74280,1,0,0:0:0:0:
182,192,74467,1,0,0:0:0:0:
329,192,74467,1,0,0:0:0:0:
402,192,74467,1,0,0:0:0:0:
109,192,74467,1,0,0:0:0:0:
256,192,74561,1,0,0:0:0:0:
402,192,74655,1,0,0:0:0:0:
109,192,74655,1,0,0:0:0:0:
36,192,74655,1,0,0:0:0:0:
329,192,74701,1,0,0:0:0:0:
256,192,74748,1,0,0:0:0:0:
182,192,74842,1,0,0:0:0:0:
109,192,74842,1,0,0:0:0:0:
402,192,74842,1,0,0:0:0:0:
475,192,74842,1,0,0:0:0:0:
36,192,74842,1,0,0:0:0:0:
329,192,74936,1,0,0:0:0:0:
256,192,75030,1,0,0:0:0:0:
109,192,75030,1,0,0:0:0:0:
475,192,75030,1,0,0:0:0:0:
329,192,75123,1,0,0:0:0:0:
475,192,75217,1,0,0:0:0:0:
182,192,75217,1,0,0:0:0:0:
36,192,75217,1,0,0:0:0:0:
256,192,75311,1,0,0:0:0:0:
329,192,75311,1,0,0:0:0:0:
182,192,75405,1,0,0:0:0:0:
109,192,75405,1,0,0:0:0:0:
36,192,75405,1,0,0:0:0:0:
402,192,75405,1,0,0:0:0:0:
475,192,75405,1,0,0:0:0:0:
256,192,75498,1,0,0:0:0:0:
182,192,75592,1,0,0:0:0:0:
36,192,75592,1,0,0:0:0:0:
402,192,75592,1,0,0:0:0:0:
256,192,75686,1,0,0:0:0:0:
329,192,75780,1,0,0:0:0:0:
475,192,75780,1,0,0:0:0:0:
36,192,75780,1,0,0:0:0:0:
182,192,75873,1,0,0:0:0:0:
402,192,75967,1,0,0:0:0:0:
256,192,75967,1,0,0:0:0:0:
329,192,75967,1,0,0:0:0:0:
475,192,75967,1,0,0:0:0:0:
109,192,75967,1,0,0:0:0:0:
182,192,76061,1,0,0:0:0:0:
256,192,76155,1,0,0:0:0:0:
36,192,76155,1,0,0:0:0:0:
475,192,76155,1,0,0:0:0:0:
109,192,76248,1,0,0:0:0:0:
182,192,76342,1,0,0:0:0:0:
329,192,76342,1,0,0:0:0:0:
402,192,76342,1,0,0:0:0:0:
256,192,76436,1,0,0:0:0:0:
109,192,76436,1,0,0:0:0:0:
36,192,76436,1,0,0:0:0:0:
329,192,76530,1,0,0:0:0:0:
402,192,76530,1,0,0:0:0:0:
475,192,76530,1,0,0:0:0:0:
182,192,76530,1,0,0:0:0:0:
109,192,76623,1,0,0:0:0:0:
256,192,76717,1,0,0:0:0:0:
36,192,76717,1,0,0:0:0:0:
402,192,76717,1,0,0:0:0:0:
182,192,76811,1,0,0:0:0:0:
329,192,76905,1,0,0:0:0:0:
475,192,76905,1,0,0:0:0:0:
109,192,76905,1,0,0:0:0:0:
256,192,76998,1,0,0:0:0:0:
402,192,76998,1,0,0:0:0:0:
182,192,76998,1,0,0:0:0:0:
329,192,77092,1,0,0:0:0:0:
36,192,77092,1,0,0:0:0:0:
109,192,77092,1,0,0:0:0:0:
475,192,77092,1,0,0:0:0:0:
256,192,77186,1,0,0:0:0:0:
182,192,77280,1,0,0:0:0:0:
109,192,77280,1,0,0:0:0:0:
36,192,77280,1,0,0:0:0:0:
329,192,77280,1,0,0:0:0:0:
475,192,77373,1,0,0:0:0:0:
256,192,77467,1,0,0:0:0:0:
182,192,77467,1,0,0:0:0:0:
109,192,77467,1,0,0:0:0:0:
36,192,77467,1,0,0:0:0:0:
402,192,77561,1,0,0:0:0:0:
329,192,77655,1,0,0:0:0:0:
256,192,77655,1,0,0:0:0:0:
182,192,77655,1,0,0:0:0:0:
109,192,77655,1,0,0:0:0:0:
36,192,77655,1,0,0:0:0:0:
475,192,77748,1,0,0:0:0:0:
402,192,77842,1,0,0:0:0:0:
329,192,77842,1,0,0:0:0:0:
256,192,77842,1,0,0:0:0:0:
182,192,77842,1,0,0:0:0:0:
36,192,77842,1,0,0:0:0:0:
109,192,77936,1,0,0:0:0:0:
182,192,78030,1,0,0:0:0:0:
36,192,78030,1,0,0:0:0:0:
329,192,78030,1,0,0:0:0:0:
475,192,78030,1,0,0:0:0:0:
402,192,78030,1,0,0:0:0:0:
256,192,78123,1,0,0:0:0:0:
109,192,78217,1,0,0:0:0:0:
182,192,78217,1,0,0:0:0:0:
475,192,78217,1,0,0:0:0:0:
402,192,78217,1,0,0:0:0:0:
256,192,78311,1,0,0:0:0:0:
329,192,78311,1,0,0:0:0:0:
182,192,78405,1,0,0:0:0:0:
109,192,78405,1,0,0:0:0:0:
36,192,78405,1,0,0:0:0:0:
475,192,78405,1,0,0:0:0:0:
402,192,78405,1,0,0:0:0:0:
256,192,78498,1,0,0:0:0:0:
329,192,78498,1,0,0:0:0:0:
182,192,78592,1,0,0:0:0:0:
109,192,78592,1,0,0:0:0:0:
36,192,78592,1,0,0:0:0:0:
402,192,78686,1,0,0:0:0:0:
329,192,78686,1,0,0:0:0:0:
475,192,78780,1,0,0:0:0:0:
256,192,78780,1,0,0:0:0:0:
182,192,78780,1,0,0:0:0:0:
109,192,78873,1,0,0:0:0:0:
182,192,78967,1,0,0:0:0:0:
256,192,78967,1,0,0:0:0:0:
329,192,78967,1,0,0:0:0:0:
402,192,78967,1,0,0:0:0:0:
475,192,78967,1,0,0:0:0:0:
36,192,78967,1,0,0:0:0:0:
109,192,79061,1,0,0:0:0:0:
182,192,79155,1,0,0:0:0:0:
329,192,79155,1,0,0:0:0:0:
475,192,79155,1,0,0:0:0:0:
256,192,79248,1,0,0:0:0:0:
402,192,79248,1,0,0:0:0:0:
36,192,79342,1,0,0:0:0:0:
182,192,79342,1,0,0:0:0:0:
329,192,79342,1,0,0:0:0:0:
256,192,79436,1,0,0:0:0:0:
402,192,79436,1,0,0:0:0:0:
109,192,79436,1,0,0:0:0:0:
182,192,79530,1,0,0:0:0:0:
329,192,79530,1,0,0:0:0:0:
475,192,79530,1,0,0:0:0:0:
36,192,79530,1,0,0:0:0:0:
402,192,79623,1,0,0:0:0:0:
329,192,79717,1,0,0:0:0:0:
109,192,79717,1,0,0:0:0:0:
256,192,79717,1,0,0:0:0:0:
36,192,79717,1,0,0:0:0:0:
182,192,79811,1,0,0:0:0:0:
256,192,79905,1,0,0:0:0:0:
329,192,79905,1,0,0:0:0:0:
402,192,79905,1,0,0:0:0:0:
182,192,79998,1,0,0:0:0:0:
36,192,79998,1,0,0:0:0:0:
109,192,79998,1,0,0:0:0:0:
329,192,80092,1,0,0:0:0:0:
402,192,80092,1,0,0:0:0:0:
475,192,80092,1,0,0:0:0:0:
256,192,80186,1,0,0:0:0:0:
182,192,80186,1,0,0:0:0:0:
109,192,80280,1,0,0:0:0:0:
36,192,80280,1,0,0:0:0:0:
402,192,80280,1,0,0:0:0:0:
475,192,80280,1,0,0:0:0:0:
329,192,80373,1,0,0:0:0:0:
256,192,80467,1,0,0:0:0:0:
182,192,80467,1,0,0:0:0:0:
109,192,80467,1,0,0:0:0:0:
36,192,80467,1,0,0:0:0:0:
402,192,80467,1,0,0:0:0:0:
475,192,80467,1,0,0:0:0:0:
329,192,80561,1,0,0:0:0:0:
402,192,80655,1,0,0:0:0:0:
475,192,80655,1,0,0:0:0:0:
182,192,80655,1,0,0:0:0:0:
256,192,80748,1,0,0:0:0:0:
329,192,80748,1,0,0:0:0:0:
36,192,80842,1,0,0:0:0:0:
109,192,80842,1,0,0:0:0:0:
402,192,80842,1,0,0:0:0:0:
182,192,80936,1,0,0:0:0:0:
256,192,80936,1,0,0:0:0:0:
329,192,81030,1,0,0:0:0:0:
402,192,81030,1,0,0:0:0:0:
475,192,81030,1,0,0:0:0:0:
36,192,81030,1,0,0:0:0:0:
182,192,81123,1,0,0:0:0:0:
402,192,81217,1,0,0:0:0:0:
109,192,81217,1,0,0:0:0:0:
36,192,81217,1,0,0:0:0:0:
475,192,81217,1,0,0:0:0:0:
256,192,81311,1,0,0:0:0:0:
329,192,81311,1,0,0:0:0:0:
182,192,81405,1,0,0:0:0:0:
402,192,81405,1,0,0:0:0:0:
109,192,81405,1,0,0:0:0:0:
36,192,81405,1,0,0:0:0:0:
475,192,81405,1,0,0:0:0:0:
256,192,81498,1,0,0:0:0:0:
329,192,81498,1,0,0:0:0:0:
109,192,81592,1,0,0:0:0:0:
402,192,81592,1,0,0:0:0:0:
36,192,81592,1,0,0:0:0:0:
182,192,81686,1,0,0:0:0:0:
256,192,81686,1,0,0:0:0:0:
329,192,81780,1,0,0:0:0:0:
402,192,81780,1,0,0:0:0:0:
475,192,81780,1,0,0:0:0:0:
36,192,81780,1,0,0:0:0:0:
182,192,81873,1,0,0:0:0:0:
402,192,81967,1,0,0:0:0:0:
329,192,81967,1,0,0:0:0:0:
475,192,81967,1,0,0:0:0:0:
109,192,81967,1,0,0:0:0:0:
36,192,81967,1,0,0:0:0:0:
256,192,82061,1,0,0:0:0:0:
36,192,82155,1,0,0:0:0:0:
182,192,82155,1,0,0:0:0:0:
329,192,82155,1,0,0:0:0:0:
475,192,82248,1,0,0:0:0:0:
402,192,82248,1,0,0:0:0:0:
256,192,82342,1,0,0:0:0:0:
109,192,82342,1,0,0:0:0:0:
182,192,82342,1,0,0:0:0:0:
402,192,82436,1,0,0:0:0:0:
329,192,82436,1,0,0:0:0:0:
182,192,82530,1,0,0:0:0:0:
36,192,82530,1,0,0:0:0:0:
475,192,82530,1,0,0:0:0:0:
109,192,82530,1,0,0:0:0:0:
256,192,82623,1,0,0:0:0:0:
402,192,82623,1,0,0:0:0:0:
329,192,82717,1,0,0:0:0:0:
109,192,82717,1,0,0:0:0:0:
182,192,82717,1,0,0:0:0:0:
256,192,82811,1,0,0:0:0:0:
182,192,82905,1,0,0:0:0:0:
475,192,82905,1,0,0:0:0:0:
109,192,82905,1,0,0:0:0:0:
329,192,82998,1,0,0:0:0:0:
402,192,82998,1,0,0:0:0:0:
36,192,83092,1,0,0:0:0:0:
109,192,83092,1,0,0:0:0:0:
182,192,83092,1,0,0:0:0:0:
256,192,83092,1,0,0:0:0:0:
402,192,83186,1,0,0:0:0:0:
475,192,83186,1,0,0:0:0:0:
329,192,83280,1,0,0:0:0:0:
256,192,83280,1,0,0:0:0:0:
182,192,83280,1,0,0:0:0:0:
109,192,83373,1,0,0:0:0:0:
36,192,83467,1,0,0:0:0:0:
182,192,83467,1,0,0:0:0:0:
256,192,83467,1,0,0:0:0:0:
329,192,83467,1,0,0:0:0:0:
402,192,83467,1,0,0:0:0:0:
475,192,83467,1,0,0:0:0:0:
36,192,83655,1,0,0:0:0:0:
182,192,83655,1,0,0:0:0:0:
109,192,83655,1,0,0:0:0:0:
256,192,83748,1,0,0:0:0:0:
329,192,83748,1,0,0:0:0:0:
402,192,83842,1,0,0:0:0:0:
475,192,83842,1,0,0:0:0:0:
36,192,83865,1,0,0:0:0:0:
109,192,83889,1,0,0:0:0:0:
182,192,83912,1,0,0:0:0:0:
256,192,83936,1,0,0:0:0:0:
329,192,83959,1,0,0:0:0:0:
402,192,83983,1,0,0:0:0:0:
475,192,84006,1,0,0:0:0:0:
109,192,84030,1,0,0:0:0:0:
36,192,84030,1,0,0:0:0:0:
182,192,84123,1,0,0:0:0:0:
256,192,84217,1,0,0:0:0:0:
329,192,84217,1,0,0:0:0:0:
475,192,84217,1,0,0:0:0:0:
402,192,84217,1,0,0:0:0:0:
182,192,84311,1,0,0:0:0:0:
109,192,84311,1,0,0:0:0:0:
36,192,84311,1,0,0:0:0:0:
329,192,84405,1,0,0:0:0:0:
256,192,84405,1,0,0:0:0:0:
402,192,84405,1,0,0:0:0:0:
475,192,84405,1,0,0:0:0:0:
182,192,84498,1,0,0:0:0:0:
109,192,84498,1,0,0:0:0:0:
256,192,84592,1,0,0:0:0:0:
329,192,84592,1,0,0:0:0:0:
36,192,84592,1,0,0:0:0:0:
402,192,84686,1,0,0:0:0:0:
475,192,84686,1,0,0:0:0:0:
36,192,84780,1,0,0:0:0:0:
109,192,84780,1,0,0:0:0:0:
182,192,84780,1,0,0:0:0:0:
256,192,84873,1,0,0:0:0:0:
329,192,84873,1,0,0:0:0:0:
402,192,84967,1,0,0:0:0:0:
475,192,84967,1,0,0:0:0:0:
109,192,84967,1,0,0:0:0:0:
182,192,84967,1,0,0:0:0:0:
36,192,84967,1,0,0:0:0:0:
256,192,85061,1,0,0:0:0:0:
329,192,85155,1,0,0:0:0:0:
475,192,85155,1,0,0:0:0:0:
109,192,85155,1,0,0:0:0:0:
182,192,85248,1,0,0:0:0:0:
36,192,85342,1,0,0:0:0:0:
256,192,85342,1,0,0:0:0:0:
402,192,85342,1,0,0:0:0:0:
109,192,85436,1,0,0:0:0:0:
329,192,85436,1,0,0:0:0:0:
475,192,85436,1,0,0:0:0:0:
402,192,85530,1,0,0:0:0:0:
182,192,85530,1,0,0:0:0:0:
256,192,85530,1,0,0:0:0:0:
36,192,85530,1,0,0:0:0:0:
109,192,85717,1,0,0:0:0:0:
329,192,85717,1,0,0:0:0:0:
475,192,85717,1,0,0:0:0:0:
182,192,85811,1,0,0:0:0:0:
36,192,85905,1,0,0:0:0:0:
475,192,85905,1,0,0:0:0:0:
256,192,85905,1,0,0:0:0:0:
109,192,85998,1,0,0:0:0:0:
402,192,85998,1,0,0:0:0:0:
329,192,86092,1,0,0:0:0:0:
182,192,86092,1,0,0:0:0:0:
475,192,86092,1,0,0:0:0:0:
256,192,86186,1,0,0:0:0:0:
36,192,86186,1,0,0:0:0:0:
402,192,86186,1,0,0:0:0:0:
182,192,86280,1,0,0:0:0:0:
109,192,86280,1,0,0:0:0:0:
329,192,86280,1,0,0:0:0:0:
256,192,86373,1,0,0:0:0:0:
182,192,86467,1,0,0:0:0:0:
109,192,86467,1,0,0:0:0:0:
36,192,86467,1,0,0:0:0:0:
475,192,86467,1,0,0:0:0:0:
402,192,86467,1,0,0:0:0:0:
329,192,86561,1,0,0:0:0:0:
182,192,86655,1,0,0:0:0:0:
109,192,86655,1,0,0:0:0:0:
256,192,86655,1,0,0:0:0:0:
475,192,86748,1,0,0:0:0:0:
402,192,86748,1,0,0:0:0:0:
256,192,86842,1,0,0:0:0:0:
36,192,86842,1,0,0:0:0:0:
329,192,86842,1,0,0:0:0:0:
109,192,86842,1,0,0:0:0:0:
402,192,86889,1,0,0:0:0:0:
182,192,86936,1,0,0:0:0:0:
475,192,86936,1,0,0:0:0:0:
475,192,87030,1,0,0:0:0:0:
402,192,87053,1,0,0:0:0:0:
329,192,87076,1,0,0:0:0:0:
256,192,87100,1,0,0:0:0:0:
36,192,87123,1,0,0:0:0:0:
109,192,87147,1,0,0:0:0:0:
182,192,87170,1,0,0:0:0:0:
256,192,87194,1,0,0:0:0:0:
402,192,87217,1,0,0:0:0:0:
475,192,87217,1,0,0:0:0:0:
329,192,87217,1,0,0:0:0:0:
182,192,87311,1,0,0:0:0:0:
329,192,87405,1,0,0:0:0:0:
256,192,87405,1,0,0:0:0:0:
109,192,87405,1,0,0:0:0:0:
402,192,87405,1,0,0:0:0:0:
36,192,87405,1,0,0:0:0:0:
475,192,87498,1,0,0:0:0:0:
329,192,87592,1,0,0:0:0:0:
256,192,87592,1,0,0:0:0:0:
109,192,87592,1,0,0:0:0:0:
402,192,87686,1,0,0:0:0:0:
182,192,87780,1,0,0:0:0:0:
36,192,87780,1,0,0:0:0:0:
475,192,87780,1,0,0:0:0:0:
256,192,87873,1,0,0:0:0:0:
402,192,87967,1,0,0:0:0:0:
329,192,87967,1,0,0:0:0:0:
475,192,87967,1,0,0:0:0:0:
109,192,87967,1,0,0:0:0:0:
36,192,87967,1,0,0:0:0:0:
182,192,88014,1,0,0:0:0:0:
256,192,88061,1,0,0:0:0:0:
329,192,88108,1,0,0:0:0:0:
402,192,88155,1,0,0:0:0:0:
36,192,88155,1,0,0:0:0:0:
109,192,88155,1,0,0:0:0:0:
182,192,88248,1,0,0:0:0:0:
475,192,88248,1,0,0:0:0:0:
256,192,88342,1,0,0:0:0:0:
402,192,88342,1,0,0:0:0:0:
109,192,88342,1,0,0:0:0:0:
182,192,88436,1,0,0:0:0:0:
329,192,88436,1,0,0:0:0:0:
109,192,88530,1,0,0:0:0:0:
36,192,88530,1,0,0:0:0:0:
256,192,88530,1,0,0:0:0:0:
475,192,88530,1,0,0:0:0:0:
402,192,88623,1,0,0:0:0:0:
329,192,88717,1,0,0:0:0:0:
182,192,88717,1,0,0:0:0:0:
36,192,88717,1,0,0:0:0:0:
402,192,88811,1,0,0:0:0:0:
475,192,88905,1,0,0:0:0:0:
256,192,88905,1,0,0:0:0:0:
109,192,88905,1,0,0:0:0:0:
329,192,88998,1,0,0:0:0:0:
402,192,88998,1,0,0:0:0:0:
182,192,89092,1,0,0:0:0:0:
36,192,89092,1,0,0:0:0:0:
256,192,89092,1,0,0:0:0:0:
475,192,89092,1,0,0:0:0:0:
109,192,89092,1,0,0:0:0:0:
329,192,89186,1,0,0:0:0:0:
402,192,89280,1,0,0:0:0:0:
475,192,89280,1,0,0:0:0:0:
182,192,89280,1,0,0:0:0:0:
256,192,89373,1,0,0:0:0:0:
329,192,89467,1,0,0:0:0:0:
402,192,89467,1,0,0:0:0:0:
475,192,89467,1,0,0:0:0:0:
109,192,89467,1,0,0:0:0:0:
36,192,89467,1,0,0:0:0:0:
182,192,89561,1,0,0:0:0:0:
256,192,89655,1,0,0:0:0:0:
36,192,89655,1,0,0:0:0:0:
402,192,89655,1,0,0:0:0:0:
109,192,89748,1,0,0:0:0:0:
329,192,89842,1,0,0:0:0:0:
402,192,89842,1,0,0:0:0:0:
475,192,89842,1,0,0:0:0:0:
256,192,89842,1,0,0:0:0:0:
182,192,89842,1,0,0:0:0:0:
109,192,89936,1,0,0:0:0:0:
256,192,90030,1,0,0:0:0:0:
475,192,90030,1,0,0:0:0:0:
402,192,90030,1,0,0:0:0:0:
36,192,90030,1,0,0:0:0:0:
329,192,90030,1,0,0:0:0:0:
182,192,90123,1,0,0:0:0:0:
109,192,90217,1,0,0:0:0:0:
329,192,90217,1,0,0:0:0:0:
402,192,90217,1,0,0:0:0:0:
475,192,90217,1,0,0:0:0:0:
36,192,90311,1,0,0:0:0:0:
182,192,90405,1,0,0:0:0:0:
402,192,90405,1,0,0:0:0:0:
475,192,90405,1,0,0:0:0:0:
329,192,90405,1,0,0:0:0:0:
256,192,90405,1,0,0:0:0:0:
109,192,90498,1,0,0:0:0:0:
36,192,90498,1,0,0:0:0:0:
182,192,90592,1,0,0:0:0:0:
329,192,90592,1,0,0:0:0:0:
402,192,90686,1,0,0:0:0:0:
475,192,90686,1,0,0:0:0:0:
256,192,90780,1,0,0:0:0:0:
329,192,90780,1,0,0:0:0:0:
109,192,90780,1,0,0:0:0:0:
36,192,90780,1,0,0:0:0:0:
182,192,90873,1,0,0:0:0:0:
256,192,90967,1,0,0:0:0:0:
329,192,90967,1,0,0:0:0:0:
402,192,90967,1,0,0:0:0:0:
475,192,90967,1,0,0:0:0:0:
36,192,90967,1,0,0:0:0:0:
109,192,91061,1,0,0:0:0:0:
182,192,91155,1,0,0:0:0:0:
256,192,91155,1,0,0:0:0:0:
329,192,91155,1,0,0:0:0:0:
402,192,91155,1,0,0:0:0:0:
109,192,91248,1,0,0:0:0:0:
36,192,91342,1,0,0:0:0:0:
329,192,91342,1,0,0:0:0:0:
475,192,91342,1,0,0:0:0:0:
182,192,91436,1,0,0:0:0:0:
256,192,91530,1,0,0:0:0:0:
402,192,91530,1,0,0:0:0:0:
109,192,91530,1,0,0:0:0:0:
36,192,91530,1,0,0:0:0:0:
475,192,91530,1,0,0:0:0:0:
329,192,91623,1,0,0:0:0:0:
109,192,91717,1,0,0:0:0:0:
36,192,91717,1,0,0:0:0:0:
182,192,91717,1,0,0:0:0:0:
256,192,91811,1,0,0:0:0:0:
329,192,91905,1,0,0:0:0:0:
402,192,91905,1,0,0:0:0:0:
475,192,91905,1,0,0:0:0:0:
182,192,91998,1,0,0:0:0:0:
109,192,91998,1,0,0:0:0:0:
36,192,91998,1,0,0:0:0:0:
256,192,92092,1,0,0:0:0:0:
329,192,92092,1,0,0:0:0:0:
402,192,92092,1,0,0:0:0:0:
475,192,92092,1,0,0:0:0:0:
109,192,92186,1,0,0:0:0:0:
36,192,92186,1,0,0:0:0:0:
182,192,92280,1,0,0:0:0:0:
256,192,92280,1,0,0:0:0:0:
329,192,92280,1,0,0:0:0:0:
475,192,92373,1,0,0:0:0:0:
256,192,92467,1,0,0:0:0:0:
182,192,92467,1,0,0:0:0:0:
109,192,92467,1,0,0:0:0:0:
36,192,92467,1,0,0:0:0:0:
402,192,92467,1,0,0:0:0:0:
329,192,92467,1,0,0:0:0:0:
475,192,92561,1,0,0:0:0:0:
402,192,92655,1,0,0:0:0:0:
256,192,92655,1,0,0:0:0:0:
109,192,92655,1,0,0:0:0:0:
182,192,92748,1,0,0:0:0:0:
329,192,92748,1,0,0:0:0:0:
256,192,92842,1,0,0:0:0:0:
36,192,92842,1,0,0:0:0:0:
109,192,92842,1,0,0:0:0:0:
402,192,92842,1,0,0:0:0:0:
475,192,92842,1,0,0:0:0:0:
182,192,92936,1,0,0:0:0:0:
329,192,92936,1,0,0:0:0:0:
256,192,93030,1,0,0:0:0:0:
109,192,93030,1,0,0:0:0:0:
402,192,93030,1,0,0:0:0:0:
475,192,93123,1,0,0:0:0:0:
329,192,93217,1,0,0:0:0:0:
182,192,93217,1,0,0:0:0:0:
109,192,93217,1,0,0:0:0:0:
402,192,93311,1,0,0:0:0:0:
256,192,93311,1,0,0:0:0:0:
329,192,93405,1,0,0:0:0:0:
475,192,93405,1,0,0:0:0:0:
109,192,93405,1,0,0:0:0:0:
36,192,93405,1,0,0:0:0:0:
182,192,93498,1,0,0:0:0:0:
256,192,93498,1,0,0:0:0:0:
329,192,93592,1,0,0:0:0:0:
402,192,93592,1,0,0:0:0:0:
182,192,93686,1,0,0:0:0:0:
109,192,93686,1,0,0:0:0:0:
256,192,93780,1,0,0:0:0:0:
36,192,93780,1,0,0:0:0:0:
475,192,93780,1,0,0:0:0:0:
329,192,93873,1,0,0:0:0:0:
182,192,93967,1,0,0:0:0:0:
109,192,93967,1,0,0:0:0:0:
36,192,93967,1,0,0:0:0:0:
475,192,93967,1,0,0:0:0:0:
402,192,93967,1,0,0:0:0:0:
256,192,94061,1,0,0:0:0:0:
329,192,94155,1,0,0:0:0:0:
402,192,94155,1,0,0:0:0:0:
109,192,94155,1,0,0:0:0:0:
182,192,94248,1,0,0:0:0:0:
256,192,94248,1,0,0:0:0:0:
36,192,94342,1,0,0:0:0:0:
402,192,94342,1,0,0:0:0:0:
475,192,94342,1,0,0:0:0:0:
109,192,94436,1,0,0:0:0:0:
182,192,94436,1,0,0:0:0:0:
256,192,94530,1,0,0:0:0:0:
329,192,94530,1,0,0:0:0:0:
402,192,94530,1,0,0:0:0:0:
475,192,94530,1,0,0:0:0:0:
36,192,94623,1,0,0:0:0:0:
329,192,94717,1,0,0:0:0:0:
182,192,94717,1,0,0:0:0:0:
402,192,94717,1,0,0:0:0:0:
109,192,94811,1,0,0:0:0:0:
256,192,94905,1,0,0:0:0:0:
329,192,94905,1,0,0:0:0:0:
36,192,94905,1,0,0:0:0:0:
402,192,94998,1,0,0:0:0:0:
475,192,94998,1,0,0:0:0:0:
182,192,94998,1,0,0:0:0:0:
109,192,95092,1,0,0:0:0:0:
256,192,95092,1,0,0:0:0:0:
329,192,95092,1,0,0:0:0:0:
402,192,95186,1,0,0:0:0:0:
475,192,95186,1,0,0:0:0:0:
36,192,95186,1,0,0:0:0:0:
182,192,95280,1,0,0:0:0:0:
256,192,95280,1,0,0:0:0:0:
329,192,95280,1,0,0:0:0:0:
402,192,95373,1,0,0:0:0:0:
475,192,95467,1,0,0:0:0:0:
256,192,95467,1,0,0:0:0:0:
182,192,95467,1,0,0:0:0:0:
109,192,95467,1,0,0:0:0:0:
36,192,95467,1,0,0:0:0:0:
36,192,95655,1,0,0:0:0:0:
256,192,95655,1,0,0:0:0:0:
402,192,95655,1,0,0:0:0:0:
109,192,95748,1,0,0:0:0:0:
182,192,95748,1,0,0:0:0:0:
475,192,95842,1,0,0:0:0:0:
402,192,95842,1,0,0:0:0:0:
36,192,95865,1,0,0:0:0:0:
109,192,95889,1,0,0:0:0:0:
182,192,95912,1,0,0:0:0:0:
256,192,95936,1,0,0:0:0:0:
329,192,95959,1,0,0:0:0:0:
402,192,95983,1,0,0:0:0:0:
475,192,96006,1,0,0:0:0:0:
182,192,96030,1,0,0:0:0:0:
36,192,96030,1,0,0:0:0:0:
256,192,96123,1,0,0:0:0:0:
329,192,96217,1,0,0:0:0:0:
402,192,96217,1,0,0:0:0:0:
475,192,96217,1,0,0:0:0:0:
182,192,96311,1,0,0:0:0:0:
109,192,96311,1,0,0:0:0:0:
256,192,96405,1,0,0:0:0:0:
329,192,96405,1,0,0:0:0:0:
402,192,96405,1,0,0:0:0:0:
475,192,96405,1,0,0:0:0:0:
36,192,96405,1,0,0:0:0:0:
109,192,96498,1,0,0:0:0:0:
182,192,96498,1,0,0:0:0:0:
256,192,96592,1,0,0:0:0:0:
402,192,96592,1,0,0:0:0:0:
329,192,96686,1,0,0:0:0:0:
475,192,96686,1,0,0:0:0:0:
182,192,96780,1,0,0:0:0:0:
36,192,96780,1,0,0:0:0:0:
402,192,96780,1,0,0:0:0:0:
256,192,96873,1,0,0:0:0:0:
182,192,96967,1,0,0:0:0:0:
109,192,96967,1,0,0:0:0:0:
36,192,96967,1,0,0:0:0:0:
329,192,96967,1,0,0:0:0:0:
475,192,96967,1,0,0:0:0:0:
402,192,97061,1,0,0:0:0:0:
182,192,97155,1,0,0:0:0:0:
256,192,97155,1,0,0:0:0:0:
329,192,97155,1,0,0:0:0:0:
402,192,97248,1,0,0:0:0:0:
475,192,97248,1,0,0:0:0:0:
109,192,97342,1,0,0:0:0:0:
182,192,97342,1,0,0:0:0:0:
256,192,97436,1,0,0:0:0:0:
329,192,97436,1,0,0:0:0:0:
402,192,97436,1,0,0:0:0:0:
182,192,97530,1,0,0:0:0:0:
109,192,97530,1,0,0:0:0:0:
36,192,97530,1,0,0:0:0:0:
475,192,97530,1,0,0:0:0:0:
329,192,97623,1,0,0:0:0:0:
402,192,97717,1,0,0:0:0:0:
109,192,97717,1,0,0:0:0:0:
36,192,97717,1,0,0:0:0:0:
256,192,97811,1,0,0:0:0:0:
182,192,97905,1,0,0:0:0:0:
329,192,97905,1,0,0:0:0:0:
475,192,97905,1,0,0:0:0:0:
402,192,97998,1,0,0:0:0:0:
256,192,97998,1,0,0:0:0:0:
36,192,98092,1,0,0:0:0:0:
182,192,98092,1,0,0:0:0:0:
329,192,98092,1,0,0:0:0:0:
475,192,98092,1,0,0:0:0:0:
109,192,98186,1,0,0:0:0:0:
256,192,98186,1,0,0:0:0:0:
329,192,98280,1,0,0:0:0:0:
182,192,98280,1,0,0:0:0:0:
475,192,98280,1,0,0:0:0:0:
256,192,98373,1,0,0:0:0:0:
329,192,98467,1,0,0:0:0:0:
402,192,98467,1,0,0:0:0:0:
475,192,98467,1,0,0:0:0:0:
182,192,98467,1,0,0:0:0:0:
109,192,98467,1,0,0:0:0:0:
36,192,98467,1,0,0:0:0:0:
256,192,98561,1,0,0:0:0:0:
402,192,98655,1,0,0:0:0:0:
109,192,98655,1,0,0:0:0:0:
475,192,98655,1,0,0:0:0:0:
256,192,98748,1,0,0:0:0:0:
402,192,98842,1,0,0:0:0:0:
475,192,98842,1,0,0:0:0:0:
182,192,98842,1,0,0:0:0:0:
36,192,98842,1,0,0:0:0:0:
256,192,98936,1,0,0:0:0:0:
329,192,98983,1,0,0:0:0:0:
109,192,99030,1,0,0:0:0:0:
402,192,99030,1,0,0:0:0:0:
36,192,99030,1,0,0:0:0:0:
475,192,99030,1,0,0:0:0:0:
182,192,99123,1,0,0:0:0:0:
109,192,99217,1,0,0:0:0:0:
36,192,99217,1,0,0:0:0:0:
402,192,99217,1,0,0:0:0:0:
182,192,99311,1,0,0:0:0:0:
329,192,99311,1,0,0:0:0:0:
402,192,99405,1,0,0:0:0:0:
475,192,99405,1,0,0:0:0:0:
256,192,99405,1,0,0:0:0:0:
109,192,99405,1,0,0:0:0:0:
36,192,99405,1,0,0:0:0:0:
329,192,99498,1,0,0:0:0:0:
182,192,99498,1,0,0:0:0:0:
475,192,99545,1,0,0:0:0:0:
256,192,99592,1,0,0:0:0:0:
109,192,99592,1,0,0:0:0:0:
402,192,99639,1,0,0:0:0:0:
36,192,99686,1,0,0:0:0:0:
182,192,99686,1,0,0:0:0:0:
329,192,99686,1,0,0:0:0:0:
402,192,99780,1,0,0:0:0:0:
475,192,99780,1,0,0:0:0:0:
109,192,99780,1,0,0:0:0:0:
256,192,99873,1,0,0:0:0:0:
182,192,99967,1,0,0:0:0:0:
36,192,99967,1,0,0:0:0:0:
109,192,99967,1,0,0:0:0:0:
329,192,99967,1,0,0:0:0:0:
402,192,99967,1,0,0:0:0:0:
256,192,100061,1,0,0:0:0:0:
402,192,100155,1,0,0:0:0:0:
475,192,100155,1,0,0:0:0:0:
182,192,100155,1,0,0:0:0:0:
329,192,100248,1,0,0:0:0:0:
109,192,100248,1,0,0:0:0:0:
36,192,100342,1,0,0:0:0:0:
402,192,100342,1,0,0:0:0:0:
182,192,100389,1,0,0:0:0:0:
329,192,100436,1,0,0:0:0:0:
475,192,100483,1,0,0:0:0:0:
256,192,100530,1,0,0:0:0:0:
182,192,100530,1,0,0:0:0:0:
109,192,100530,1,0,0:0:0:0:
36,192,100530,1,0,0:0:0:0:
329,192,100623,1,0,0:0:0:0:
182,192,100717,1,0,0:0:0:0:
402,192,100717,1,0,0:0:0:0:
256,192,100811,1,0,0:0:0:0:
182,192,100905,1,0,0:0:0:0:
109,192,100905,1,0,0:0:0:0:
36,192,100905,1,0,0:0:0:0:
475,192,100905,1,0,0:0:0:0:
256,192,100998,1,0,0:0:0:0:
329,192,100998,1,0,0:0:0:0:
402,192,101092,1,0,0:0:0:0:
475,192,101092,1,0,0:0:0:0:
36,192,101092,1,0,0:0:0:0:
109,192,101092,1,0,0:0:0:0:
182,192,101092,1,0,0:0:0:0:
256,192,101186,1,0,0:0:0:0:
329,192,101186,1,0,0:0:0:0:
402,192,101280,1,0,0:0:0:0:
475,192,101280,1,0,0:0:0:0:
36,192,101280,1,0,0:0:0:0:
182,192,101373,1,0,0:0:0:0:
109,192,101467,1,0,0:0:0:0:
329,192,101467,1,0,0:0:0:0:
402,192,101467,1,0,0:0:0:0:
475,192,101467,1,0,0:0:0:0:
256,192,101561,1,0,0:0:0:0:
182,192,101655,1,0,0:0:0:0:
402,192,101655,1,0,0:0:0:0:
475,192,101655,1,0,0:0:0:0:
109,192,101655,1,0,0:0:0:0:
36,192,101655,1,0,0:0:0:0:
329,192,101748,1,0,0:0:0:0:
256,192,101842,1,0,0:0:0:0:
402,192,101842,1,0,0:0:0:0:
475,192,101842,1,0,0:0:0:0:
36,192,101842,1,0,0:0:0:0:
109,192,101889,1,0,0:0:0:0:
182,192,101936,1,0,0:0:0:0:
256,192,101983,1,0,0:0:0:0:
329,192,102030,1,0,0:0:0:0:
402,192,102030,1,0,0:0:0:0:
475,192,102030,1,0,0:0:0:0:
36,192,102030,1,0,0:0:0:0:
182,192,102123,1,0,0:0:0:0:
329,192,102217,1,0,0:0:0:0:
475,192,102311,1,0,0:0:0:0:
182,192,102311,1,0,0:0:0:0:
109,192,102311,1,0,0:0:0:0:
256,192,102405,1,0,0:0:0:0:
329,192,102405,1,0,0:0:0:0:
109,192,102498,1,0,0:0:0:0:
36,192,102498,1,0,0:0:0:0:
256,192,102592,1,0,0:0:0:0:
182,192,102592,1,0,0:0:0:0:
329,192,102592,1,0,0:0:0:0:
402,192,102686,1,0,0:0:0:0:
475,192,102686,1,0,0:0:0:0:
182,192,102780,1,0,0:0:0:0:
36,192,102780,1,0,0:0:0:0:
329,192,102780,1,0,0:0:0:0:
475,192,102873,1,0,0:0:0:0:
402,192,102897,1,0,0:0:0:0:
329,192,102920,1,0,0:0:0:0:
256,192,102944,1,0,0:0:0:0:
36,192,102967,1,0,0:0:0:0:
109,192,102990,1,0,0:0:0:0:
182,192,103014,1,0,0:0:0:0:
256,192,103037,1,0,0:0:0:0:
329,192,103061,1,0,0:0:0:0:
402,192,103061,1,0,0:0:0:0:
475,192,103061,1,0,0:0:0:0:
182,192,103155,1,0,0:0:0:0:
109,192,103155,1,0,0:0:0:0:
256,192,103248,1,0,0:0:0:0:
402,192,103248,1,0,0:0:0:0:
109,192,103342,1,0,0:0:0:0:
36,192,103342,1,0,0:0:0:0:
475,192,103342,1,0,0:0:0:0:
182,192,103436,1,0,0:0:0:0:
329,192,103436,1,0,0:0:0:0:
402,192,103530,1,0,0:0:0:0:
256,192,103530,1,0,0:0:0:0:
36,192,103530,1,0,0:0:0:0:
182,192,103592,1,0,0:0:0:0:
475,192,103623,1,0,0:0:0:0:
109,192,103655,1,0,0:0:0:0:
256,192,103717,1,0,0:0:0:0:
402,192,103717,1,0,0:0:0:0:
182,192,103780,1,0,0:0:0:0:
475,192,103811,1,0,0:0:0:0:
329,192,103842,1,0,0:0:0:0:
256,192,103905,1,0,0:0:0:0:
182,192,103951,1,0,0:0:0:0:
402,192,103967,1,0,0:0:0:0:
109,192,103998,1,0,0:0:0:0:
329,192,104030,1,0,0:0:0:0:
36,192,104045,1,0,0:0:0:0:
475,192,104092,1,0,0:0:0:0:
182,192,104092,1,0,0:0:0:0:
256,192,104155,1,0,0:0:0:0:
109,192,104186,1,0,0:0:0:0:
402,192,104217,1,0,0:0:0:0:
182,192,104280,1,0,0:0:0:0:
36,192,104280,1,0,0:0:0:0:
329,192,104342,1,0,0:0:0:0:
475,192,104373,1,0,0:0:0:0:
109,192,104405,1,0,0:0:0:0:
256,192,104467,1,0,0:0:0:0:
402,192,104467,1,0,0:0:0:0:
36,192,104530,1,0,0:0:0:0:
475,192,104561,1,0,0:0:0:0:
182,192,104592,1,0,0:0:0:0:
256,192,104655,1,0,0:0:0:0:
329,192,104701,1,0,0:0:0:0:
475,192,104748,1,0,0:0:0:0:
182,192,104748,1,0,0:0:0:0:
36,192,104748,1,0,0:0:0:0:
256,192,104795,1,0,0:0:0:0:
402,192,104842,1,0,0:0:0:0:
109,192,104842,1,0,0:0:0:0:
182,192,104865,1,0,0:0:0:0:
256,192,104889,1,0,0:0:0:0:
329,192,104912,1,0,0:0:0:0:
36,192,104936,1,0,0:0:0:0:
109,192,104959,1,0,0:0:0:0:
182,192,104983,1,0,0:0:0:0:
256,192,105006,1,0,0:0:0:0:
329,192,105030,1,0,0:0:0:0:
402,192,105030,1,0,0:0:0:0:
475,192,105030,1,0,0:0:0:0:
329,192,105217,1,0,0:0:0:0:
182,192,105217,1,0,0:0:0:0:
475,192,105280,1,0,0:0:0:0:
36,192,105280,1,0,0:0:0:0:
109,192,105342,1,0,0:0:0:0:
402,192,105342,1,0,0:0:0:0:
329,192,105405,1,0,0:0:0:0:
182,192,105405,1,0,0:0:0:0:
475,192,105498,1,0,0:0:0:0:
402,192,105498,1,0,0:0:0:0:
36,192,105592,1,0,0:0:0:0:
182,192,105592,1,0,0:0:0:0:
256,192,105686,1,0,0:0:0:0:
402,192,105686,1,0,0:0:0:0:
329,192,105780,1,0,0:0:0:0:
182,192,105780,1,0,0:0:0:0:
109,192,105780,1,0,0:0:0:0:
402,192,105873,1,0,0:0:0:0:
475,192,105967,1,0,0:0:0:0:
256,192,105967,1,0,0:0:0:0:
109,192,106061,1,0,0:0:0:0:
36,192,106061,1,0,0:0:0:0:
329,192,106061,1,0,0:0:0:0:
182,192,106155,1,0,0:0:0:0:
402,192,106155,1,0,0:0:0:0:
256,192,106248,1,0,0:0:0:0:
109,192,106248,1,0,0:0:0:0:
329,192,106272,1,0,0:0:0:0:
402,192,106295,1,0,0:0:0:0:
475,192,106319,1,0,0:0:0:0:
36,192,106342,1,0,0:0:0:0:
182,192,106342,1,0,0:0:0:0:
256,192,106436,1,0,0:0:0:0:
329,192,106530,1,0,0:0:0:0:
475,192,106530,1,0,0:0:0:0:
36,192,106530,1,0,0:0:0:0:
182,192,106592,1,0,0:0:0:0:
402,192,106623,1,0,0:0:0:0:
256,192,106655,1,0,0:0:0:0:
109,192,106717,1,0,0:0:0:0:
475,192,106717,1,0,0:0:0:0:
182,192,106780,1,0,0:0:0:0:
329,192,106811,1,0,0:0:0:0:
402,192,106811,1,0,0:0:0:0:
36,192,106842,1,0,0:0:0:0:
475,192,106905,1,0,0:0:0:0:
109,192,106905,1,0,0:0:0:0:
402,192,106951,1,0,0:0:0:0:
329,192,106998,1,0,0:0:0:0:
182,192,106998,1,0,0:0:0:0:
256,192,107045,1,0,0:0:0:0:
36,192,107092,1,0,0:0:0:0:
109,192,107092,1,0,0:0:0:0:
402,192,107155,1,0,0:0:0:0:
475,192,107186,1,0,0:0:0:0:
109,192,107217,1,0,0:0:0:0:
256,192,107280,1,0,0:0:0:0:
182,192,107280,1,0,0:0:0:0:
329,192,107280,1,0,0:0:0:0:
475,192,107342,1,0,0:0:0:0:
36,192,107373,1,0,0:0:0:0:
109,192,107397,1,0,0:0:0:0:
402,192,107405,1,0,0:0:0:0:
182,192,107420,1,0,0:0:0:0:
256,192,107444,1,0,0:0:0:0:
329,192,107467,1,0,0:0:0:0:
475,192,107530,1,0,0:0:0:0:
402,192,107561,1,0,0:0:0:0:
329,192,107584,1,0,0:0:0:0:
109,192,107592,1,0,0:0:0:0:
256,192,107608,1,0,0:0:0:0:
182,192,107631,1,0,0:0:0:0:
36,192,107655,1,0,0:0:0:0:
475,192,107655,1,0,0:0:0:0:
329,192,107701,1,0,0:0:0:0:
402,192,107748,1,0,0:0:0:0:
256,192,107795,1,0,0:0:0:0:
182,192,107842,1,0,0:0:0:0:
36,192,107842,1,0,0:0:0:0:
475,192,107936,1,0,0:0:0:0:
329,192,107959,1,0,0:0:0:0:
182,192,107983,1,0,0:0:0:0:
36,192,108006,1,0,0:0:0:0:
109,192,108030,1,0,0:0:0:0:
256,192,108030,1,0,0:0:0:0:
402,192,108030,1,0,0:0:0:0:
329,192,108123,1,0,0:0:0:0:
256,192,108217,1,0,0:0:0:0:
109,192,108311,1,0,0:0:0:0:
36,192,108311,1,0,0:0:0:0:
475,192,108311,1,0,0:0:0:0:
182,192,108311,1,0,0:0:0:0:
329,192,108405,1,0,0:0:0:0:
402,192,108405,1,0,0:0:0:0:
256,192,108498,1,0,0:0:0:0:
182,192,108498,1,0,0:0:0:0:
109,192,108592,1,0,0:0:0:0:
36,192,108592,1,0,0:0:0:0:
329,192,108592,1,0,0:0:0:0:
402,192,108686,1,0,0:0:0:0:
475,192,108686,1,0,0:0:0:0:
329,192,108780,1,0,0:0:0:0:
256,192,108780,1,0,0:0:0:0:
182,192,108780,1,0,0:0:0:0:
36,192,108873,1,0,0:0:0:0:
109,192,108905,1,0,0:0:0:0:
182,192,108936,1,0,0:0:0:0:
256,192,108967,1,0,0:0:0:0:
329,192,108998,1,0,0:0:0:0:
402,192,109030,1,0,0:0:0:0:
475,192,109061,1,0,0:0:0:0:
256,192,109155,1,0,0:0:0:0:
182,192,109155,1,0,0:0:0:0:
36,192,109155,1,0,0:0:0:0:
329,192,109248,1,0,0:0:0:0:
402,192,109248,1,0,0:0:0:0:
475,192,109248,1,0,0:0:0:0:
256,192,109342,1,0,0:0:0:0:
182,192,109342,1,0,0:0:0:0:
109,192,109342,1,0,0:0:0:0:
329,192,109436,1,0,0:0:0:0:
402,192,109436,1,0,0:0:0:0:
475,192,109436,1,0,0:0:0:0:
182,192,109530,1,0,0:0:0:0:
109,192,109530,1,0,0:0:0:0:
36,192,109530,1,0,0:0:0:0:
256,192,109592,1,0,0:0:0:0:
329,192,109655,1,0,0:0:0:0:
402,192,109717,1,0,0:0:0:0:
36,192,109717,1,0,0:0:0:0:
109,192,109717,1,0,0:0:0:0:
475,192,109780,1,0,0:0:0:0:
182,192,109780,1,0,0:0:0:0:
256,192,109811,1,0,0:0:0:0:
329,192,109842,1,0,0:0:0:0:
475,192,109905,1,0,0:0:0:0:
109,192,109905,1,0,0:0:0:0:
402,192,109951,1,0,0:0:0:0:
329,192,109998,1,0,0:0:0:0:
36,192,109998,1,0,0:0:0:0:
256,192,110045,1,0,0:0:0:0:
182,192,110092,1,0,0:0:0:0:
475,192,110092,1,0,0:0:0:0:
36,192,110155,1,0,0:0:0:0:
109,192,110186,1,0,0:0:0:0:
402,192,110186,1,0,0:0:0:0:
182,192,110217,1,0,0:0:0:0:
329,192,110280,1,0,0:0:0:0:
256,192,110280,1,0,0:0:0:0:
475,192,110280,1,0,0:0:0:0:
109,192,110342,1,0,0:0:0:0:
182,192,110405,1,0,0:0:0:0:
36,192,110467,1,0,0:0:0:0:
402,192,110467,1,0,0:0:0:0:
475,192,110467,1,0,0:0:0:0:
256,192,110530,1,0,0:0:0:0:
109,192,110561,1,0,0:0:0:0:
475,192,110592,1,0,0:0:0:0:
402,192,110655,1,0,0:0:0:0:
36,192,110655,1,0,0:0:0:0:
182,192,110655,1,0,0:0:0:0:
329,192,110701,1,0,0:0:0:0:
256,192,110748,1,0,0:0:0:0:
475,192,110748,1,0,0:0:0:0:
109,192,110748,1,0,0:0:0:0:
402,192,110795,1,0,0:0:0:0:
36,192,110842,1,0,0:0:0:0:
329,192,110842,1,0,0:0:0:0:
109,192,110873,1,0,0:0:0:0:
182,192,110905,1,0,0:0:0:0:
256,192,110936,1,0,0:0:0:0:
329,192,110967,1,0,0:0:0:0:
402,192,110998,1,0,0:0:0:0:
475,192,111030,1,0,0:0:0:0:
36,192,111030,1,0,0:0:0:0:
109,192,111030,1,0,0:0:0:0:
182,192,111030,1,0,0:0:0:0:
256,192,111123,1,0,0:0:0:0:
402,192,111217,1,0,0:0:0:0:
109,192,111311,1,0,0:0:0:0:
329,192,111311,1,0,0:0:0:0:
182,192,111311,1,0,0:0:0:0:
402,192,111405,1,0,0:0:0:0:
475,192,111405,1,0,0:0:0:0:
36,192,111405,1,0,0:0:0:0:
182,192,111498,1,0,0:0:0:0:
329,192,111498,1,0,0:0:0:0:
109,192,111592,1,0,0:0:0:0:
36,192,111592,1,0,0:0:0:0:
256,192,111686,1,0,0:0:0:0:
402,192,111686,1,0,0:0:0:0:
182,192,111780,1,0,0:0:0:0:
109,192,111780,1,0,0:0:0:0:
36,192,111780,1,0,0:0:0:0:
475,192,111780,1,0,0:0:0:0:
329,192,111873,1,0,0:0:0:0:
109,192,111967,1,0,0:0:0:0:
402,192,111967,1,0,0:0:0:0:
36,192,111967,1,0,0:0:0:0:
256,192,112061,1,0,0:0:0:0:
182,192,112061,1,0,0:0:0:0:
329,192,112155,1,0,0:0:0:0:
402,192,112155,1,0,0:0:0:0:
475,192,112155,1,0,0:0:0:0:
36,192,112217,1,0,0:0:0:0:
182,192,112248,1,0,0:0:0:0:
109,192,112280,1,0,0:0:0:0:
256,192,112311,1,0,0:0:0:0:
329,192,112342,1,0,0:0:0:0:
402,192,112342,1,0,0:0:0:0:
475,192,112342,1,0,0:0:0:0:
182,192,112436,1,0,0:0:0:0:
109,192,112436,1,0,0:0:0:0:
256,192,112530,1,0,0:0:0:0:
329,192,112530,1,0,0:0:0:0:
402,192,112530,1,0,0:0:0:0:
182,192,112592,1,0,0:0:0:0:
109,192,112623,1,0,0:0:0:0:
36,192,112623,1,0,0:0:0:0:
475,192,112655,1,0,0:0:0:0:
329,192,112717,1,0,0:0:0:0:
182,192,112717,1,0,0:0:0:0:
402,192,112780,1,0,0:0:0:0:
109,192,112811,1,0,0:0:0:0:
256,192,112842,1,0,0:0:0:0:
36,192,112905,1,0,0:0:0:0:
475,192,112905,1,0,0:0:0:0:
329,192,112951,1,0,0:0:0:0:
109,192,112998,1,0,0:0:0:0:
402,192,112998,1,0,0:0:0:0:
256,192,113045,1,0,0:0:0:0:
182,192,113092,1,0,0:0:0:0:
475,192,113092,1,0,0:0:0:0:
402,192,113155,1,0,0:0:0:0:
109,192,113186,1,0,0:0:0:0:
329,192,113217,1,0,0:0:0:0:
475,192,113280,1,0,0:0:0:0:
256,192,113280,1,0,0:0:0:0:
36,192,113280,1,0,0:0:0:0:
109,192,113342,1,0,0:0:0:0:
402,192,113373,1,0,0:0:0:0:
182,192,113405,1,0,0:0:0:0:
256,192,113467,1,0,0:0:0:0:
36,192,113467,1,0,0:0:0:0:
329,192,113530,1,0,0:0:0:0:
109,192,113561,1,0,0:0:0:0:
402,192,113592,1,0,0:0:0:0:
475,192,113655,1,0,0:0:0:0:
182,192,113655,1,0,0:0:0:0:
329,192,113701,1,0,0:0:0:0:
402,192,113748,1,0,0:0:0:0:
109,192,113748,1,0,0:0:0:0:
256,192,113795,1,0,0:0:0:0:
36,192,113842,1,0,0:0:0:0:
109,192,113865,1,0,0:0:0:0:
182,192,113889,1,0,0:0:0:0:
256,192,113912,1,0,0:0:0:0:
475,192,113936,1,0,0:0:0:0:
402,192,113959,1,0,0:0:0:0:
329,192,113983,1,0,0:0:0:0:
256,192,114006,1,0,0:0:0:0:
182,192,114030,1,0,0:0:0:0:
109,192,114030,1,0,0:0:0:0:
36,192,114030,1,0,0:0:0:0:
475,192,114123,1,0,0:0:0:0:
256,192,114217,1,0,0:0:0:0:
109,192,114217,1,0,0:0:0:0:
402,192,114217,1,0,0:0:0:0:
329,192,114311,1,0,0:0:0:0:
256,192,114405,1,0,0:0:0:0:
182,192,114405,1,0,0:0:0:0:
109,192,114405,1,0,0:0:0:0:
36,192,114405,1,0,0:0:0:0:
475,192,114405,1,0,0:0:0:0:
329,192,114498,1,0,0:0:0:0:
402,192,114498,1,0,0:0:0:0:
256,192,114592,1,0,0:0:0:0:
109,192,114592,1,0,0:0:0:0:
329,192,114686,1,0,0:0:0:0:
475,192,114686,1,0,0:0:0:0:
36,192,114780,1,0,0:0:0:0:
109,192,114780,1,0,0:0:0:0:
182,192,114780,1,0,0:0:0:0:
329,192,114873,1,0,0:0:0:0:
256,192,114967,1,0,0:0:0:0:
182,192,114967,1,0,0:0:0:0:
109,192,114967,1,0,0:0:0:0:
36,192,114967,1,0,0:0:0:0:
402,192,114967,1,0,0:0:0:0:
475,192,114967,1,0,0:0:0:0:
329,192,115061,1,0,0:0:0:0:
36,192,115155,1,0,0:0:0:0:
109,192,115155,1,0,0:0:0:0:
475,192,115155,1,0,0:0:0:0:
402,192,115248,1,0,0:0:0:0:
256,192,115248,1,0,0:0:0:0:
329,192,115248,1,0,0:0:0:0:
182,192,115248,1,0,0:0:0:0:
109,192,115342,1,0,0:0:0:0:
475,192,115342,1,0,0:0:0:0:
36,192,115342,1,0,0:0:0:0:
402,192,115436,1,0,0:0:0:0:
182,192,115436,1,0,0:0:0:0:
256,192,115436,1,0,0:0:0:0:
329,192,115436,1,0,0:0:0:0:
109,192,115530,1,0,0:0:0:0:
36,192,115530,1,0,0:0:0:0:
475,192,115530,1,0,0:0:0:0:
182,192,115592,1,0,0:0:0:0:
256,192,115655,1,0,0:0:0:0:
475,192,115717,1,0,0:0:0:0:
402,192,115717,1,0,0:0:0:0:
36,192,115717,1,0,0:0:0:0:
329,192,115780,1,0,0:0:0:0:
109,192,115811,1,0,0:0:0:0:
256,192,115842,1,0,0:0:0:0:
182,192,115905,1,0,0:0:0:0:
475,192,115905,1,0,0:0:0:0:
402,192,115951,1,0,0:0:0:0:
329,192,115998,1,0,0:0:0:0:
36,192,115998,1,0,0:0:0:0:
109,192,116045,1,0,0:0:0:0:
182,192,116092,1,0,0:0:0:0:
256,192,116092,1,0,0:0:0:0:
475,192,116092,1,0,0:0:0:0:
329,192,116155,1,0,0:0:0:0:
36,192,116186,1,0,0:0:0:0:
402,192,116217,1,0,0:0:0:0:
475,192,116280,1,0,0:0:0:0:
109,192,116280,1,0,0:0:0:0:
182,192,116280,1,0,0:0:0:0:
256,192,116342,1,0,0:0:0:0:
329,192,116373,1,0,0:0:0:0:
402,192,116405,1,0,0:0:0:0:
36,192,116467,1,0,0:0:0:0:
475,192,116467,1,0,0:0:0:0:
109,192,116467,1,0,0:0:0:0:
182,192,116530,1,0,0:0:0:0:
329,192,116592,1,0,0:0:0:0:
256,192,116655,1,0,0:0:0:0:
475,192,116655,1,0,0:0:0:0:
182,192,116701,1,0,0:0:0:0:
109,192,116748,1,0,0:0:0:0:
402,192,116748,1,0,0:0:0:0:
36,192,116795,1,0,0:0:0:0:
329,192,116842,1,0,0:0:0:0:
256,192,116842,1,0,0:0:0:0:
182,192,116842,1,0,0:0:0:0:
475,192,116842,1,0,0:0:0:0:
109,192,116936,1,0,0:0:0:0:
402,192,116936,1,0,0:0:0:0:
36,192,117030,1,0,0:0:0:0:
329,192,117030,1,0,0:0:0:0:
256,192,117030,1,0,0:0:0:0:
182,192,117030,1,0,0:0:0:0:
475,192,117123,1,0,0:0:0:0:
109,192,117217,1,0,0:0:0:0:
182,192,117217,1,0,0:0:0:0:
256,192,117217,1,0,0:0:0:0:
402,192,117311,1,0,0:0:0:0:
329,192,117311,1,0,0:0:0:0:
182,192,117405,1,0,0:0:0:0:
109,192,117405,1,0,0:0:0:0:
36,192,117405,1,0,0:0:0:0:
475,192,117405,1,0,0:0:0:0:
256,192,117405,1,0,0:0:0:0:
329,192,117498,1,0,0:0:0:0:
402,192,117498,1,0,0:0:0:0:
182,192,117592,1,0,0:0:0:0:
109,192,117592,1,0,0:0:0:0:
36,192,117592,1,0,0:0:0:0:
475,192,117592,1,0,0:0:0:0:
256,192,117686,1,0,0:0:0:0:
329,192,117686,1,0,0:0:0:0:
402,192,117780,1,0,0:0:0:0:
475,192,117780,1,0,0:0:0:0:
109,192,117780,1,0,0:0:0:0:
182,192,117780,1,0,0:0:0:0:
256,192,117873,1,0,0:0:0:0:
109,192,117967,1,0,0:0:0:0:
36,192,117967,1,0,0:0:0:0:
329,192,117967,1,0,0:0:0:0:
402,192,117967,1,0,0:0:0:0:
475,192,117967,1,0,0:0:0:0:
182,192,118061,1,0,0:0:0:0:
256,192,118155,1,0,0:0:0:0:
329,192,118155,1,0,0:0:0:0:
402,192,118155,1,0,0:0:0:0:
475,192,118155,1,0,0:0:0:0:
182,192,118248,1,0,0:0:0:0:
109,192,118248,1,0,0:0:0:0:
36,192,118248,1,0,0:0:0:0:
329,192,118342,1,0,0:0:0:0:
256,192,118342,1,0,0:0:0:0:
402,192,118342,1,0,0:0:0:0:
475,192,118342,1,0,0:0:0:0:
109,192,118436,1,0,0:0:0:0:
36,192,118436,1,0,0:0:0:0:
182,192,118530,1,0,0:0:0:0:
475,192,118530,1,0,0:0:0:0:
402,192,118592,1,0,0:0:0:0:
109,192,118623,1,0,0:0:0:0:
329,192,118655,1,0,0:0:0:0:
36,192,118717,1,0,0:0:0:0:
256,192,118717,1,0,0:0:0:0:
475,192,118717,1,0,0:0:0:0:
109,192,118780,1,0,0:0:0:0:
329,192,118811,1,0,0:0:0:0:
182,192,118842,1,0,0:0:0:0:
475,192,118905,1,0,0:0:0:0:
256,192,118905,1,0,0:0:0:0:
402,192,118951,1,0,0:0:0:0:
329,192,118998,1,0,0:0:0:0:
109,192,118998,1,0,0:0:0:0:
182,192,119045,1,0,0:0:0:0:
256,192,119092,1,0,0:0:0:0:
36,192,119092,1,0,0:0:0:0:
475,192,119092,1,0,0:0:0:0:
182,192,119155,1,0,0:0:0:0:
329,192,119186,1,0,0:0:0:0:
402,192,119186,1,0,0:0:0:0:
109,192,119217,1,0,0:0:0:0:
36,192,119280,1,0,0:0:0:0:
256,192,119280,1,0,0:0:0:0:
475,192,119280,1,0,0:0:0:0:
329,192,119342,1,0,0:0:0:0:
109,192,119373,1,0,0:0:0:0:
182,192,119405,1,0,0:0:0:0:
36,192,119467,1,0,0:0:0:0:
256,192,119467,1,0,0:0:0:0:
329,192,119467,1,0,0:0:0:0:
402,192,119467,1,0,0:0:0:0:
475,192,119467,1,0,0:0:0:0:
109,192,119530,1,0,0:0:0:0:
182,192,119592,1,0,0:0:0:0:
256,192,119655,1,0,0:0:0:0:
475,192,119655,1,0,0:0:0:0:
36,192,119655,1,0,0:0:0:0:
402,192,119701,1,0,0:0:0:0:
329,192,119748,1,0,0:0:0:0:
109,192,119748,1,0,0:0:0:0:
256,192,119795,1,0,0:0:0:0:
182,192,119842,1,0,0:0:0:0:
475,192,119865,1,0,0:0:0:0:
402,192,119889,1,0,0:0:0:0:
329,192,119912,1,0,0:0:0:0:
256,192,119936,1,0,0:0:0:0:
182,192,119959,1,0,0:0:0:0:
109,192,119983,1,0,0:0:0:0:
36,192,120006,1,0,0:0:0:0:
475,192,120030,1,0,0:0:0:0:
402,192,120030,1,0,0:0:0:0:
329,192,120030,1,0,0:0:0:0:
182,192,120123,1,0,0:0:0:0:
109,192,120217,1,0,0:0:0:0:
402,192,120217,1,0,0:0:0:0:
329,192,120217,1,0,0:0:0:0:
256,192,120311,1,0,0:0:0:0:
475,192,120405,1,0,0:0:0:0:
402,192,120405,1,0,0:0:0:0:
329,192,120405,1,0,0:0:0:0:
182,192,120405,1,0,0:0:0:0:
109,192,120405,1,0,0:0:0:0:
36,192,120498,1,0,0:0:0:0:
256,192,120592,1,0,0:0:0:0:
402,192,120592,1,0,0:0:0:0:
182,192,120686,1,0,0:0:0:0:
109,192,120686,1,0,0:0:0:0:
329,192,120780,1,0,0:0:0:0:
475,192,120780,1,0,0:0:0:0:
402,192,120780,1,0,0:0:0:0:
256,192,120873,1,0,0:0:0:0:
182,192,120967,1,0,0:0:0:0:
109,192,120967,1,0,0:0:0:0:
36,192,120967,1,0,0:0:0:0:
329,192,120967,1,0,0:0:0:0:
402,192,120967,1,0,0:0:0:0:
475,192,120967,1,0,0:0:0:0:
256,192,121061,1,0,0:0:0:0:
182,192,121155,1,0,0:0:0:0:
402,192,121155,1,0,0:0:0:0:
475,192,121155,1,0,0:0:0:0:
36,192,121248,1,0,0:0:0:0:
109,192,121248,1,0,0:0:0:0:
256,192,121248,1,0,0:0:0:0:
329,192,121248,1,0,0:0:0:0:
402,192,121342,1,0,0:0:0:0:
475,192,121342,1,0,0:0:0:0:
182,192,121342,1,0,0:0:0:0:
256,192,121436,1,0,0:0:0:0:
329,192,121436,1,0,0:0:0:0:
109,192,121436,1,0,0:0:0:0:
36,192,121436,1,0,0:0:0:0:
475,192,121530,1,0,0:0:0:0:
182,192,121530,1,0,0:0:0:0:
402,192,121553,1,0,0:0:0:0:
329,192,121576,1,0,0:0:0:0:
36,192,121592,1,0,0:0:0:0:
256,192,121600,1,0,0:0:0:0:
475,192,121623,1,0,0:0:0:0:
402,192,121647,1,0,0:0:0:0:
109,192,121655,1,0,0:0:0:0:
329,192,121670,1,0,0:0:0:0:
256,192,121694,1,0,0:0:0:0:
182,192,121717,1,0,0:0:0:0:
36,192,121780,1,0,0:0:0:0:
329,192,121811,1,0,0:0:0:0:
109,192,121842,1,0,0:0:0:0:
182,192,121905,1,0,0:0:0:0:
475,192,121905,1,0,0:0:0:0:
402,192,121951,1,0,0:0:0:0:
329,192,121998,1,0,0:0:0:0:
36,192,121998,1,0,0:0:0:0:
256,192,122045,1,0,0:0:0:0:
182,192,122092,1,0,0:0:0:0:
109,192,122092,1,0,0:0:0:0:
402,192,122092,1,0,0:0:0:0:
329,192,122155,1,0,0:0:0:0:
256,192,122186,1,0,0:0:0:0:
475,192,122186,1,0,0:0:0:0:
182,192,122217,1,0,0:0:0:0:
36,192,122280,1,0,0:0:0:0:
402,192,122280,1,0,0:0:0:0:
182,192,122342,1,0,0:0:0:0:
329,192,122405,1,0,0:0:0:0:
475,192,122467,1,0,0:0:0:0:
256,192,122467,1,0,0:0:0:0:
109,192,122467,1,0,0:0:0:0:
402,192,122530,1,0,0:0:0:0:
329,192,122561,1,0,0:0:0:0:
36,192,122592,1,0,0:0:0:0:
256,192,122608,1,0,0:0:0:0:
182,192,122655,1,0,0:0:0:0:
475,192,122655,1,0,0:0:0:0:
109,192,122655,1,0,0:0:0:0:
329,192,122701,1,0,0:0:0:0:
402,192,122748,1,0,0:0:0:0:
256,192,122795,1,0,0:0:0:0:
36,192,122842,1,0,0:0:0:0:
182,192,122842,1,0,0:0:0:0:
329,192,122842,1,0,0:0:0:0:
109,192,122842,1,0,0:0:0:0:
475,192,122936,1,0,0:0:0:0:
402,192,122983,1,0,0:0:0:0:
329,192,123030,1,0,0:0:0:0:
256,192,123030,1,0,0:0:0:0:
182,192,123030,1,0,0:0:0:0:
36,192,123030,1,0,0:0:0:0:
109,192,123123,1,0,0:0:0:0:
182,192,123217,1,0,0:0:0:0:
329,192,123217,1,0,0:0:0:0:
475,192,123217,1,0,0:0:0:0:
402,192,123311,1,0,0:0:0:0:
256,192,123311,1,0,0:0:0:0:
329,192,123405,1,0,0:0:0:0:
182,192,123405,1,0,0:0:0:0:
36,192,123405,1,0,0:0:0:0:
109,192,123405,1,0,0:0:0:0:
475,192,123498,1,0,0:0:0:0:
402,192,123498,1,0,0:0:0:0:
256,192,123545,1,0,0:0:0:0:
109,192,123592,1,0,0:0:0:0:
36,192,123592,1,0,0:0:0:0:
475,192,123639,1,0,0:0:0:0:
329,192,123686,1,0,0:0:0:0:
182,192,123686,1,0,0:0:0:0:
36,192,123780,1,0,0:0:0:0:
109,192,123803,1,0,0:0:0:0:
182,192,123826,1,0,0:0:0:0:
256,192,123850,1,0,0:0:0:0:
475,192,123873,1,0,0:0:0:0:
402,192,123897,1,0,0:0:0:0:
329,192,123920,1,0,0:0:0:0:
256,192,123944,1,0,0:0:0:0:
182,192,123967,1,0,0:0:0:0:
109,192,123967,1,0,0:0:0:0:
36,192,123967,1,0,0:0:0:0:
475,192,124061,1,0,0:0:0:0:
402,192,124061,1,0,0:0:0:0:
256,192,124155,1,0,0:0:0:0:
182,192,124155,1,0,0:0:0:0:
109,192,124155,1,0,0:0:0:0:
36,192,124155,1,0,0:0:0:0:
402,192,124248,1,0,0:0:0:0:
329,192,124248,1,0,0:0:0:0:
36,192,124342,1,0,0:0:0:0:
475,192,124342,1,0,0:0:0:0:
109,192,124389,1,0,0:0:0:0:
182,192,124436,1,0,0:0:0:0:
402,192,124436,1,0,0:0:0:0:
256,192,124483,1,0,0:0:0:0:
329,192,124530,1,0,0:0:0:0:
109,192,124530,1,0,0:0:0:0:
36,192,124530,1,0,0:0:0:0:
402,192,124592,1,0,0:0:0:0:
475,192,124655,1,0,0:0:0:0:
36,192,124717,1,0,0:0:0:0:
329,192,124717,1,0,0:0:0:0:
109,192,124740,1,0,0:0:0:0:
182,192,124764,1,0,0:0:0:0:
402,192,124780,1,0,0:0:0:0:
256,192,124787,1,0,0:0:0:0:
36,192,124811,1,0,0:0:0:0:
109,192,124834,1,0,0:0:0:0:
475,192,124842,1,0,0:0:0:0:
182,192,124858,1,0,0:0:0:0:
256,192,124881,1,0,0:0:0:0:
329,192,124905,1,0,0:0:0:0:
475,192,124951,1,0,0:0:0:0:
256,192,124998,1,0,0:0:0:0:
109,192,124998,1,0,0:0:0:0:
402,192,125045,1,0,0:0:0:0:
182,192,125092,1,0,0:0:0:0:
36,192,125092,1,0,0:0:0:0:
329,192,125092,1,0,0:0:0:0:
475,192,125155,1,0,0:0:0:0:
402,192,125186,1,0,0:0:0:0:
329,192,125217,1,0,0:0:0:0:
256,192,125233,1,0,0:0:0:0:
182,192,125280,1,0,0:0:0:0:
36,192,125280,1,0,0:0:0:0:
109,192,125280,1,0,0:0:0:0:
475,192,125342,1,0,0:0:0:0:
329,192,125405,1,0,0:0:0:0:
36,192,125467,1,0,0:0:0:0:
109,192,125467,1,0,0:0:0:0:
475,192,125467,1,0,0:0:0:0:
182,192,125467,1,0,0:0:0:0:
402,192,125514,1,0,0:0:0:0:
329,192,125561,1,0,0:0:0:0:
256,192,125608,1,0,0:0:0:0:
109,192,125655,1,0,0:0:0:0:
36,192,125655,1,0,0:0:0:0:
182,192,125655,1,0,0:0:0:0:
475,192,125655,1,0,0:0:0:0:
329,192,125748,1,0,0:0:0:0:
182,192,125842,1,0,0:0:0:0:
36,192,125842,1,0,0:0:0:0:
109,192,125842,1,0,0:0:0:0:
256,192,125865,1,0,0:0:0:0:
329,192,125889,1,0,0:0:0:0:
402,192,125912,1,0,0:0:0:0:
475,192,125936,1,0,0:0:0:0:
36,192,125936,1,0,0:0:0:0:
109,192,125959,1,0,0:0:0:0:
182,192,125983,1,0,0:0:0:0:
256,192,126006,1,0,0:0:0:0:
329,192,126030,1,0,0:0:0:0:
475,192,126030,1,0,0:0:0:0:
402,192,126030,1,0,0:0:0:0:
256,192,126405,1,0,0:0:0:0:
