osu file format v14

[General]
AudioFilename: chocolate.mp3
AudioLeadIn: 0
PreviewTime: 48185
Countdown: 0
SampleSet: None
StackLeniency: 0.7
Mode: 3
LetterboxInBreaks: 0
SpecialStyle: 0
WidescreenStoryboard: 0

[Editor]
DistanceSpacing: 1.5
BeatDivisor: 4
GridSize: 4
TimelineZoom: 2.599999

[Metadata]
Title:__M A S__ Vol. 3
TitleUnicode:__M A S__ Vol. 3
Artist:Various
ArtistUnicode:Various
Creator:[ C r a c k ]
Version:Hinatabi Bitter Sweets & Coconatsu - Chocolate Smile - 7K MX
Source:
Tags:
BeatmapID:1144926
BeatmapSetID:539892

[Difficulty]
HPDrainRate:8
CircleSize:7
OverallDifficulty:5
ApproachRate:5
SliderMultiplier:1.4
SliderTickRate:1

[Events]
//Background and Video events
0,0,"chocolate.png",0,0
//Break Periods
//Storyboard Layer 0 (Background)
//Storyboard Layer 1 (Fail)
//Storyboard Layer 2 (Pass)
//Storyboard Layer 3 (Foreground)
//Storyboard Sound Samples

[TimingPoints]
660,306.122448979592,4,3,1,0,1,0
85570,306.122448979592,4,3,1,0,1,0
88822,306.122448979592,4,3,1,0,1,0

[HitObjects]
329,192,660,5,0,0:0:0:0:
182,192,660,1,0,0:0:0:0:
475,192,660,1,0,0:0:0:0:
402,192,660,1,0,0:0:0:0:
109,192,660,1,0,0:0:0:0:
329,192,966,1,0,0:0:0:0:
182,192,966,1,0,0:0:0:0:
36,192,966,1,0,0:0:0:0:
109,192,966,1,0,0:0:0:0:
402,192,966,1,0,0:0:0:0:
109,192,1272,1,0,0:0:0:0:
402,192,1272,1,0,0:0:0:0:
329,192,1272,1,0,0:0:0:0:
475,192,1272,1,0,0:0:0:0:
109,192,1425,1,0,0:0:0:0:
402,192,1425,1,0,0:0:0:0:
182,192,1425,1,0,0:0:0:0:
36,192,1425,1,0,0:0:0:0:
36,192,1731,1,0,0:0:0:0:
182,192,1731,1,0,0:0:0:0:
329,192,1731,1,0,0:0:0:0:
475,192,1731,1,0,0:0:0:0:
256,192,1731,1,0,0:0:0:0:
475,192,2037,1,0,0:0:0:0:
182,192,2037,1,0,0:0:0:0:
36,192,2114,1,0,0:0:0:0:
329,192,2114,1,0,0:0:0:0:
109,192,2190,1,0,0:0:0:0:
402,192,2190,1,0,0:0:0:0:
36,192,2267,1,0,0:0:0:0:
329,192,2267,1,0,0:0:0:0:
475,192,2343,1,0,0:0:0:0:
182,192,2343,1,0,0:0:0:0:
109,192,2420,1,0,0:0:0:0:
402,192,2420,1,0,0:0:0:0:
182,192,2496,1,0,0:0:0:0:
475,192,2496,1,0,0:0:0:0:
36,192,2573,1,0,0:0:0:0:
329,192,2573,1,0,0:0:0:0:
109,192,2649,128,0,3108:0:0:0:0:
402,192,2649,128,0,3108:0:0:0:0:
36,192,3108,1,0,0:0:0:0:
475,192,3108,1,0,0:0:0:0:
256,192,3108,1,0,0:0:0:0:
256,192,3415,1,0,0:0:0:0:
475,192,3415,1,0,0:0:0:0:
36,192,3415,1,0,0:0:0:0:
182,192,3415,1,0,0:0:0:0:
329,192,3415,1,0,0:0:0:0:
182,192,3721,1,0,0:0:0:0:
329,192,3721,1,0,0:0:0:0:
109,192,3721,1,0,0:0:0:0:
402,192,3721,1,0,0:0:0:0:
182,192,3874,1,0,0:0:0:0:
329,192,3874,1,0,0:0:0:0:
109,192,3874,1,0,0:0:0:0:
36,192,3874,1,0,0:0:0:0:
402,192,3874,1,0,0:0:0:0:
475,192,3874,1,0,0:0:0:0:
109,192,4180,1,0,0:0:0:0:
402,192,4180,1,0,0:0:0:0:
329,192,4180,1,0,0:0:0:0:
36,192,4180,1,0,0:0:0:0:
475,192,4180,1,0,0:0:0:0:
109,192,4486,1,0,0:0:0:0:
402,192,4486,1,0,0:0:0:0:
256,192,4486,1,0,0:0:0:0:
475,192,4486,1,0,0:0:0:0:
36,192,4486,1,0,0:0:0:0:
109,192,4792,1,0,0:0:0:0:
402,192,4792,1,0,0:0:0:0:
182,192,4792,1,0,0:0:0:0:
36,192,4792,1,0,0:0:0:0:
475,192,4792,1,0,0:0:0:0:
182,192,5098,1,0,0:0:0:0:
329,192,5098,1,0,0:0:0:0:
36,192,5098,1,0,0:0:0:0:
475,192,5098,1,0,0:0:0:0:
475,192,5251,1,0,0:0:0:0:
402,192,5251,1,0,0:0:0:0:
36,192,5328,1,0,0:0:0:0:
109,192,5328,1,0,0:0:0:0:
402,192,5404,1,0,0:0:0:0:
329,192,5404,1,0,0:0:0:0:
109,192,5481,1,0,0:0:0:0:
182,192,5481,1,0,0:0:0:0:
329,192,5557,1,0,0:0:0:0:
475,192,5557,1,0,0:0:0:0:
402,192,5557,1,0,0:0:0:0:
256,192,5864,1,0,0:0:0:0:
475,192,5864,1,0,0:0:0:0:
329,192,5864,1,0,0:0:0:0:
402,192,5864,1,0,0:0:0:0:
182,192,6170,1,0,0:0:0:0:
475,192,6170,1,0,0:0:0:0:
256,192,6170,1,0,0:0:0:0:
329,192,6170,1,0,0:0:0:0:
402,192,6170,1,0,0:0:0:0:
36,192,6323,1,0,0:0:0:0:
329,192,6323,1,0,0:0:0:0:
256,192,6323,1,0,0:0:0:0:
182,192,6323,1,0,0:0:0:0:
109,192,6323,1,0,0:0:0:0:
36,192,6629,128,0,6935:0:0:0:0:
329,192,6629,128,0,6935:0:0:0:0:
109,192,6629,128,0,6935:0:0:0:0:
402,192,6629,128,0,6935:0:0:0:0:
36,192,7088,1,0,0:0:0:0:
329,192,7088,1,0,0:0:0:0:
182,192,7088,1,0,0:0:0:0:
475,192,7088,1,0,0:0:0:0:
109,192,7394,1,0,0:0:0:0:
256,192,7394,1,0,0:0:0:0:
402,192,7394,1,0,0:0:0:0:
182,192,7547,1,0,0:0:0:0:
329,192,7547,1,0,0:0:0:0:
256,192,7547,1,0,0:0:0:0:
475,192,7624,1,0,0:0:0:0:
402,192,7624,1,0,0:0:0:0:
36,192,7624,1,0,0:0:0:0:
109,192,7624,1,0,0:0:0:0:
329,192,7700,1,0,0:0:0:0:
182,192,7700,1,0,0:0:0:0:
256,192,7700,1,0,0:0:0:0:
36,192,7853,1,0,0:0:0:0:
402,192,7853,1,0,0:0:0:0:
475,192,7853,1,0,0:0:0:0:
109,192,7853,1,0,0:0:0:0:
36,192,8160,1,0,0:0:0:0:
109,192,8313,1,0,0:0:0:0:
36,192,8313,1,0,0:0:0:0:
182,192,8466,1,0,0:0:0:0:
36,192,8466,1,0,0:0:0:0:
109,192,8466,1,0,0:0:0:0:
256,192,8619,1,0,0:0:0:0:
182,192,8619,1,0,0:0:0:0:
109,192,8619,1,0,0:0:0:0:
36,192,8619,1,0,0:0:0:0:
329,192,8772,1,0,0:0:0:0:
36,192,8772,1,0,0:0:0:0:
109,192,8772,1,0,0:0:0:0:
182,192,8772,1,0,0:0:0:0:
256,192,8772,1,0,0:0:0:0:
402,192,8925,1,0,0:0:0:0:
329,192,8925,1,0,0:0:0:0:
256,192,8925,1,0,0:0:0:0:
182,192,8925,1,0,0:0:0:0:
109,192,8925,1,0,0:0:0:0:
36,192,8925,1,0,0:0:0:0:
475,192,9078,1,0,0:0:0:0:
36,192,9078,1,0,0:0:0:0:
109,192,9078,1,0,0:0:0:0:
182,192,9078,1,0,0:0:0:0:
256,192,9078,1,0,0:0:0:0:
329,192,9078,1,0,0:0:0:0:
402,192,9078,1,0,0:0:0:0:
36,192,9384,1,0,0:0:0:0:
182,192,9384,1,0,0:0:0:0:
256,192,9384,1,0,0:0:0:0:
329,192,9384,1,0,0:0:0:0:
475,192,9384,1,0,0:0:0:0:
109,192,9690,1,0,0:0:0:0:
182,192,9690,1,0,0:0:0:0:
256,192,9690,1,0,0:0:0:0:
329,192,9690,1,0,0:0:0:0:
402,192,9690,1,0,0:0:0:0:
402,192,9843,1,0,0:0:0:0:
329,192,9843,1,0,0:0:0:0:
256,192,9843,1,0,0:0:0:0:
182,192,9843,1,0,0:0:0:0:
109,192,9843,1,0,0:0:0:0:
329,192,10455,128,0,10762:0:0:0:0:
475,192,10455,128,0,10762:0:0:0:0:
402,192,10455,1,0,0:0:0:0:
182,192,10762,128,0,11068:0:0:0:0:
36,192,10762,128,0,11068:0:0:0:0:
109,192,10762,1,0,0:0:0:0:
329,192,11068,128,0,11374:0:0:0:0:
402,192,11068,128,0,11374:0:0:0:0:
475,192,11068,1,0,0:0:0:0:
109,192,11374,128,0,11986:0:0:0:0:
182,192,11374,128,0,11986:0:0:0:0:
36,192,11374,1,0,0:0:0:0:
329,192,11527,128,0,11986:0:0:0:0:
475,192,11527,128,0,11986:0:0:0:0:
256,192,11680,1,0,0:0:0:0:
256,192,11833,1,0,0:0:0:0:
402,192,11986,1,0,0:0:0:0:
36,192,11986,1,0,0:0:0:0:
109,192,12292,128,0,12598:0:0:0:0:
182,192,12292,128,0,12598:0:0:0:0:
256,192,12445,1,0,0:0:0:0:
329,192,12598,128,0,13211:0:0:0:0:
402,192,12598,128,0,13211:0:0:0:0:
256,192,12751,1,0,0:0:0:0:
36,192,12904,128,0,13211:0:0:0:0:
109,192,12904,128,0,13211:0:0:0:0:
182,192,12904,1,0,0:0:0:0:
475,192,12904,1,0,0:0:0:0:
256,192,13057,1,0,0:0:0:0:
475,192,13211,1,0,0:0:0:0:
182,192,13211,1,0,0:0:0:0:
36,192,13517,128,0,13823:0:0:0:0:
475,192,13517,128,0,13823:0:0:0:0:
329,192,13517,1,0,0:0:0:0:
182,192,13517,1,0,0:0:0:0:
256,192,13670,1,0,0:0:0:0:
109,192,13823,1,0,0:0:0:0:
402,192,13823,1,0,0:0:0:0:
182,192,13976,1,0,0:0:0:0:
329,192,13976,1,0,0:0:0:0:
109,192,14129,128,0,14435:0:0:0:0:
402,192,14129,128,0,14435:0:0:0:0:
256,192,14282,1,0,0:0:0:0:
182,192,14435,128,0,14741:0:0:0:0:
475,192,14435,128,0,14741:0:0:0:0:
256,192,14588,1,0,0:0:0:0:
36,192,14741,128,0,15047:0:0:0:0:
329,192,14741,128,0,15047:0:0:0:0:
256,192,14894,1,0,0:0:0:0:
182,192,15047,128,0,15353:0:0:0:0:
475,192,15047,128,0,15353:0:0:0:0:
256,192,15200,1,0,0:0:0:0:
109,192,15353,1,0,0:0:0:0:
402,192,15353,1,0,0:0:0:0:
256,192,15506,1,0,0:0:0:0:
402,192,15660,128,0,15966:0:0:0:0:
109,192,15660,128,0,15966:0:0:0:0:
256,192,15813,1,0,0:0:0:0:
36,192,15966,128,0,16272:0:0:0:0:
329,192,15966,128,0,16272:0:0:0:0:
256,192,16119,1,0,0:0:0:0:
182,192,16272,1,0,0:0:0:0:
475,192,16272,1,0,0:0:0:0:
109,192,16425,128,0,16884:0:0:0:0:
475,192,16425,128,0,16884:0:0:0:0:
182,192,16425,128,0,16884:0:0:0:0:
402,192,16425,128,0,16884:0:0:0:0:
36,192,16884,1,0,0:0:0:0:
329,192,16884,1,0,0:0:0:0:
256,192,17037,1,0,0:0:0:0:
36,192,17190,1,0,0:0:0:0:
109,192,17190,1,0,0:0:0:0:
329,192,17190,1,0,0:0:0:0:
402,192,17190,1,0,0:0:0:0:
109,192,17343,1,0,0:0:0:0:
182,192,17343,1,0,0:0:0:0:
402,192,17343,1,0,0:0:0:0:
475,192,17343,1,0,0:0:0:0:
402,192,17649,128,0,18108:0:0:0:0:
475,192,17649,128,0,18108:0:0:0:0:
36,192,17649,1,0,0:0:0:0:
182,192,17802,1,0,0:0:0:0:
329,192,17955,1,0,0:0:0:0:
109,192,18108,1,0,0:0:0:0:
182,192,18108,1,0,0:0:0:0:
256,192,18262,1,0,0:0:0:0:
329,192,18415,1,0,0:0:0:0:
402,192,18415,1,0,0:0:0:0:
182,192,18568,1,0,0:0:0:0:
36,192,18721,1,0,0:0:0:0:
109,192,18721,1,0,0:0:0:0:
256,192,18874,1,0,0:0:0:0:
475,192,19027,1,0,0:0:0:0:
36,192,19027,1,0,0:0:0:0:
182,192,19027,128,0,19486:0:0:0:0:
329,192,19027,128,0,19486:0:0:0:0:
256,192,19333,1,0,0:0:0:0:
109,192,19486,128,0,19945:0:0:0:0:
402,192,19486,128,0,19945:0:0:0:0:
182,192,19639,1,0,0:0:0:0:
329,192,19639,1,0,0:0:0:0:
256,192,19792,1,0,0:0:0:0:
36,192,19945,1,0,0:0:0:0:
475,192,19945,1,0,0:0:0:0:
402,192,20022,1,0,0:0:0:0:
329,192,20098,1,0,0:0:0:0:
402,192,20175,1,0,0:0:0:0:
36,192,20251,1,0,0:0:0:0:
182,192,20251,1,0,0:0:0:0:
475,192,20251,1,0,0:0:0:0:
256,192,20404,1,0,0:0:0:0:
109,192,20557,1,0,0:0:0:0:
329,192,20557,1,0,0:0:0:0:
475,192,20557,1,0,0:0:0:0:
256,192,20711,1,0,0:0:0:0:
36,192,20864,1,0,0:0:0:0:
182,192,20864,1,0,0:0:0:0:
402,192,20864,1,0,0:0:0:0:
329,192,21017,1,0,0:0:0:0:
109,192,21170,1,0,0:0:0:0:
475,192,21170,1,0,0:0:0:0:
256,192,21170,1,0,0:0:0:0:
36,192,21323,1,0,0:0:0:0:
402,192,21323,1,0,0:0:0:0:
182,192,21323,1,0,0:0:0:0:
109,192,21476,1,0,0:0:0:0:
475,192,21476,1,0,0:0:0:0:
182,192,21629,1,0,0:0:0:0:
402,192,21629,1,0,0:0:0:0:
256,192,21782,1,0,0:0:0:0:
36,192,21782,1,0,0:0:0:0:
475,192,21782,1,0,0:0:0:0:
109,192,21782,1,0,0:0:0:0:
402,192,21935,1,0,0:0:0:0:
36,192,22088,1,0,0:0:0:0:
329,192,22088,1,0,0:0:0:0:
256,192,22088,1,0,0:0:0:0:
182,192,22241,1,0,0:0:0:0:
109,192,22394,1,0,0:0:0:0:
329,192,22394,1,0,0:0:0:0:
402,192,22394,1,0,0:0:0:0:
256,192,22547,1,0,0:0:0:0:
475,192,22700,1,0,0:0:0:0:
329,192,22700,1,0,0:0:0:0:
36,192,22700,1,0,0:0:0:0:
256,192,22853,1,0,0:0:0:0:
475,192,23006,1,0,0:0:0:0:
182,192,23006,1,0,0:0:0:0:
36,192,23006,1,0,0:0:0:0:
256,192,23160,1,0,0:0:0:0:
109,192,23313,1,0,0:0:0:0:
475,192,23313,1,0,0:0:0:0:
329,192,23313,1,0,0:0:0:0:
182,192,23466,1,0,0:0:0:0:
256,192,23619,1,0,0:0:0:0:
109,192,23619,1,0,0:0:0:0:
475,192,23619,1,0,0:0:0:0:
182,192,23772,1,0,0:0:0:0:
36,192,23772,1,0,0:0:0:0:
402,192,23772,1,0,0:0:0:0:
329,192,23925,1,0,0:0:0:0:
109,192,23925,1,0,0:0:0:0:
475,192,23925,1,0,0:0:0:0:
256,192,24078,1,0,0:0:0:0:
36,192,24078,1,0,0:0:0:0:
475,192,24078,1,0,0:0:0:0:
109,192,24231,1,0,0:0:0:0:
402,192,24231,1,0,0:0:0:0:
182,192,24231,1,0,0:0:0:0:
475,192,24231,1,0,0:0:0:0:
36,192,24537,1,0,0:0:0:0:
475,192,24537,1,0,0:0:0:0:
36,192,24690,1,0,0:0:0:0:
475,192,24690,1,0,0:0:0:0:
36,192,24843,1,0,0:0:0:0:
475,192,24843,1,0,0:0:0:0:
182,192,24843,1,0,0:0:0:0:
329,192,24843,1,0,0:0:0:0:
109,192,25149,1,0,0:0:0:0:
329,192,25149,1,0,0:0:0:0:
402,192,25149,1,0,0:0:0:0:
256,192,25302,1,0,0:0:0:0:
182,192,25455,1,0,0:0:0:0:
109,192,25455,1,0,0:0:0:0:
402,192,25455,1,0,0:0:0:0:
256,192,25608,1,0,0:0:0:0:
36,192,25762,1,0,0:0:0:0:
475,192,25762,1,0,0:0:0:0:
329,192,25762,1,0,0:0:0:0:
182,192,25762,1,0,0:0:0:0:
182,192,25915,1,0,0:0:0:0:
329,192,25915,1,0,0:0:0:0:
109,192,26068,1,0,0:0:0:0:
402,192,26068,1,0,0:0:0:0:
256,192,26068,1,0,0:0:0:0:
182,192,26221,1,0,0:0:0:0:
329,192,26221,1,0,0:0:0:0:
475,192,26221,1,0,0:0:0:0:
402,192,26374,1,0,0:0:0:0:
109,192,26527,1,0,0:0:0:0:
36,192,26680,1,0,0:0:0:0:
182,192,26680,1,0,0:0:0:0:
329,192,26680,1,0,0:0:0:0:
402,192,26833,1,0,0:0:0:0:
256,192,26986,1,0,0:0:0:0:
475,192,26986,1,0,0:0:0:0:
109,192,26986,1,0,0:0:0:0:
36,192,27139,1,0,0:0:0:0:
182,192,27139,1,0,0:0:0:0:
402,192,27139,1,0,0:0:0:0:
329,192,27292,1,0,0:0:0:0:
36,192,27445,1,0,0:0:0:0:
402,192,27445,1,0,0:0:0:0:
182,192,27445,1,0,0:0:0:0:
256,192,27445,1,0,0:0:0:0:
109,192,27598,1,0,0:0:0:0:
402,192,27751,1,0,0:0:0:0:
182,192,27904,1,0,0:0:0:0:
329,192,27904,1,0,0:0:0:0:
475,192,27904,1,0,0:0:0:0:
256,192,28057,1,0,0:0:0:0:
109,192,28211,1,0,0:0:0:0:
329,192,28211,1,0,0:0:0:0:
475,192,28211,1,0,0:0:0:0:
182,192,28364,1,0,0:0:0:0:
36,192,28517,1,0,0:0:0:0:
256,192,28517,1,0,0:0:0:0:
402,192,28517,1,0,0:0:0:0:
329,192,28670,1,0,0:0:0:0:
109,192,28823,1,0,0:0:0:0:
182,192,28823,1,0,0:0:0:0:
402,192,28823,1,0,0:0:0:0:
475,192,28823,1,0,0:0:0:0:
256,192,28976,1,0,0:0:0:0:
36,192,29129,1,0,0:0:0:0:
182,192,29129,1,0,0:0:0:0:
329,192,29129,1,0,0:0:0:0:
475,192,29129,1,0,0:0:0:0:
256,192,29282,1,0,0:0:0:0:
36,192,29435,1,0,0:0:0:0:
109,192,29435,1,0,0:0:0:0:
329,192,29435,1,0,0:0:0:0:
402,192,29435,1,0,0:0:0:0:
256,192,29588,1,0,0:0:0:0:
109,192,29741,1,0,0:0:0:0:
182,192,29741,1,0,0:0:0:0:
329,192,29741,1,0,0:0:0:0:
402,192,29741,1,0,0:0:0:0:
256,192,29894,1,0,0:0:0:0:
36,192,29894,1,0,0:0:0:0:
475,192,29894,1,0,0:0:0:0:
109,192,30200,1,0,0:0:0:0:
182,192,30200,1,0,0:0:0:0:
329,192,30200,1,0,0:0:0:0:
402,192,30200,1,0,0:0:0:0:
109,192,30353,1,0,0:0:0:0:
182,192,30353,1,0,0:0:0:0:
402,192,30353,1,0,0:0:0:0:
329,192,30353,1,0,0:0:0:0:
109,192,30506,1,0,0:0:0:0:
182,192,30506,1,0,0:0:0:0:
329,192,30506,1,0,0:0:0:0:
402,192,30506,1,0,0:0:0:0:
182,192,30660,1,0,0:0:0:0:
109,192,30660,1,0,0:0:0:0:
329,192,30660,1,0,0:0:0:0:
402,192,30660,1,0,0:0:0:0:
475,192,30813,1,0,0:0:0:0:
402,192,30851,1,0,0:0:0:0:
329,192,30889,1,0,0:0:0:0:
256,192,30927,1,0,0:0:0:0:
182,192,30966,1,0,0:0:0:0:
109,192,31004,1,0,0:0:0:0:
36,192,31042,1,0,0:0:0:0:
256,192,31080,1,0,0:0:0:0:
475,192,31119,1,0,0:0:0:0:
402,192,31157,1,0,0:0:0:0:
329,192,31195,1,0,0:0:0:0:
256,192,31233,1,0,0:0:0:0:
36,192,31272,1,0,0:0:0:0:
182,192,31272,1,0,0:0:0:0:
109,192,31272,1,0,0:0:0:0:
329,192,31578,1,0,0:0:0:0:
402,192,31578,1,0,0:0:0:0:
475,192,31578,1,0,0:0:0:0:
329,192,31731,1,0,0:0:0:0:
402,192,31731,1,0,0:0:0:0:
475,192,31731,1,0,0:0:0:0:
109,192,31884,1,0,0:0:0:0:
182,192,31884,1,0,0:0:0:0:
36,192,31884,1,0,0:0:0:0:
36,192,32037,1,0,0:0:0:0:
182,192,32037,1,0,0:0:0:0:
109,192,32037,1,0,0:0:0:0:
256,192,32343,1,0,0:0:0:0:
329,192,32343,1,0,0:0:0:0:
402,192,32343,1,0,0:0:0:0:
36,192,32649,1,0,0:0:0:0:
109,192,32649,1,0,0:0:0:0:
182,192,32649,1,0,0:0:0:0:
329,192,32802,1,0,0:0:0:0:
402,192,32802,1,0,0:0:0:0:
475,192,32802,1,0,0:0:0:0:
256,192,32955,1,0,0:0:0:0:
182,192,32955,1,0,0:0:0:0:
109,192,32955,1,0,0:0:0:0:
36,192,33262,1,0,0:0:0:0:
182,192,33262,1,0,0:0:0:0:
329,192,33262,1,0,0:0:0:0:
475,192,33262,1,0,0:0:0:0:
475,192,33415,1,0,0:0:0:0:
329,192,33415,1,0,0:0:0:0:
182,192,33415,1,0,0:0:0:0:
36,192,33415,1,0,0:0:0:0:
329,192,33721,1,0,0:0:0:0:
402,192,33721,1,0,0:0:0:0:
36,192,34027,1,0,0:0:0:0:
109,192,34027,1,0,0:0:0:0:
329,192,34180,1,0,0:0:0:0:
402,192,34180,1,0,0:0:0:0:
109,192,34333,1,0,0:0:0:0:
182,192,34333,1,0,0:0:0:0:
402,192,34486,1,0,0:0:0:0:
475,192,34486,1,0,0:0:0:0:
36,192,34639,1,0,0:0:0:0:
109,192,34639,1,0,0:0:0:0:
329,192,34792,1,0,0:0:0:0:
402,192,34792,1,0,0:0:0:0:
36,192,35098,1,0,0:0:0:0:
109,192,35098,1,0,0:0:0:0:
402,192,35098,1,0,0:0:0:0:
475,192,35098,1,0,0:0:0:0:
109,192,35404,1,0,0:0:0:0:
182,192,35404,1,0,0:0:0:0:
329,192,35404,1,0,0:0:0:0:
402,192,35404,1,0,0:0:0:0:
182,192,35711,1,0,0:0:0:0:
256,192,35711,1,0,0:0:0:0:
329,192,35711,1,0,0:0:0:0:
36,192,35864,1,0,0:0:0:0:
475,192,35864,1,0,0:0:0:0:
182,192,35864,1,0,0:0:0:0:
109,192,35864,1,0,0:0:0:0:
402,192,35940,1,0,0:0:0:0:
329,192,36017,1,0,0:0:0:0:
402,192,36093,1,0,0:0:0:0:
182,192,36170,1,0,0:0:0:0:
36,192,36170,1,0,0:0:0:0:
109,192,36170,1,0,0:0:0:0:
475,192,36170,1,0,0:0:0:0:
329,192,36476,1,0,0:0:0:0:
402,192,36476,1,0,0:0:0:0:
475,192,36476,1,0,0:0:0:0:
36,192,36629,1,0,0:0:0:0:
109,192,36629,1,0,0:0:0:0:
182,192,36629,1,0,0:0:0:0:
329,192,36782,1,0,0:0:0:0:
402,192,36782,1,0,0:0:0:0:
182,192,36935,1,0,0:0:0:0:
109,192,36935,1,0,0:0:0:0:
182,192,37241,1,0,0:0:0:0:
36,192,37241,1,0,0:0:0:0:
256,192,37241,1,0,0:0:0:0:
329,192,37241,1,0,0:0:0:0:
475,192,37241,1,0,0:0:0:0:
109,192,37547,1,0,0:0:0:0:
182,192,37547,1,0,0:0:0:0:
256,192,37547,1,0,0:0:0:0:
329,192,37547,1,0,0:0:0:0:
402,192,37547,1,0,0:0:0:0:
36,192,37853,1,0,0:0:0:0:
109,192,37853,1,0,0:0:0:0:
256,192,37853,1,0,0:0:0:0:
402,192,37853,1,0,0:0:0:0:
475,192,37853,1,0,0:0:0:0:
109,192,38160,1,0,0:0:0:0:
182,192,38160,1,0,0:0:0:0:
329,192,38160,1,0,0:0:0:0:
402,192,38160,1,0,0:0:0:0:
402,192,38313,1,0,0:0:0:0:
329,192,38313,1,0,0:0:0:0:
182,192,38313,1,0,0:0:0:0:
109,192,38313,1,0,0:0:0:0:
36,192,38313,1,0,0:0:0:0:
475,192,38313,1,0,0:0:0:0:
256,192,38619,1,0,0:0:0:0:
36,192,38619,1,0,0:0:0:0:
475,192,38619,1,0,0:0:0:0:
182,192,38925,1,0,0:0:0:0:
402,192,38925,1,0,0:0:0:0:
109,192,39078,1,0,0:0:0:0:
329,192,39078,1,0,0:0:0:0:
36,192,39231,1,0,0:0:0:0:
256,192,39231,1,0,0:0:0:0:
109,192,39384,1,0,0:0:0:0:
329,192,39384,1,0,0:0:0:0:
182,192,39537,1,0,0:0:0:0:
402,192,39537,1,0,0:0:0:0:
256,192,39690,1,0,0:0:0:0:
475,192,39690,1,0,0:0:0:0:
329,192,39996,1,0,0:0:0:0:
402,192,39996,1,0,0:0:0:0:
475,192,39996,1,0,0:0:0:0:
329,192,40149,1,0,0:0:0:0:
256,192,40149,1,0,0:0:0:0:
182,192,40149,1,0,0:0:0:0:
182,192,40302,1,0,0:0:0:0:
109,192,40302,1,0,0:0:0:0:
36,192,40302,1,0,0:0:0:0:
329,192,40455,1,0,0:0:0:0:
475,192,40455,1,0,0:0:0:0:
329,192,40608,1,0,0:0:0:0:
182,192,40608,1,0,0:0:0:0:
182,192,40762,1,0,0:0:0:0:
36,192,40762,1,0,0:0:0:0:
329,192,41068,1,0,0:0:0:0:
475,192,41068,1,0,0:0:0:0:
109,192,41527,1,0,0:0:0:0:
182,192,41527,1,0,0:0:0:0:
329,192,41680,1,0,0:0:0:0:
402,192,41680,1,0,0:0:0:0:
36,192,41986,1,0,0:0:0:0:
109,192,41986,1,0,0:0:0:0:
402,192,42139,1,0,0:0:0:0:
475,192,42139,1,0,0:0:0:0:
182,192,42292,1,0,0:0:0:0:
329,192,42445,1,0,0:0:0:0:
402,192,42445,1,0,0:0:0:0:
329,192,42751,1,0,0:0:0:0:
402,192,42751,1,0,0:0:0:0:
36,192,42904,1,0,0:0:0:0:
475,192,42904,1,0,0:0:0:0:
475,192,43057,1,0,0:0:0:0:
36,192,43057,1,0,0:0:0:0:
36,192,43211,1,0,0:0:0:0:
475,192,43211,1,0,0:0:0:0:
36,192,43364,128,0,43823:0:0:0:0:
475,192,43364,128,0,43823:0:0:0:0:
402,192,43823,1,0,0:0:0:0:
109,192,43823,1,0,0:0:0:0:
109,192,44129,1,0,0:0:0:0:
402,192,44129,1,0,0:0:0:0:
109,192,44282,1,0,0:0:0:0:
402,192,44282,1,0,0:0:0:0:
109,192,44588,128,0,45047:0:0:0:0:
402,192,44588,128,0,45047:0:0:0:0:
182,192,45047,1,0,0:0:0:0:
329,192,45047,1,0,0:0:0:0:
182,192,45353,1,0,0:0:0:0:
329,192,45353,1,0,0:0:0:0:
329,192,45506,1,0,0:0:0:0:
182,192,45506,1,0,0:0:0:0:
182,192,45813,128,0,46119:0:0:0:0:
329,192,45813,128,0,46119:0:0:0:0:
256,192,46119,1,0,0:0:0:0:
256,192,46272,1,0,0:0:0:0:
182,192,46272,1,0,0:0:0:0:
329,192,46272,1,0,0:0:0:0:
256,192,46425,1,0,0:0:0:0:
109,192,46425,1,0,0:0:0:0:
182,192,46425,1,0,0:0:0:0:
329,192,46425,1,0,0:0:0:0:
402,192,46425,1,0,0:0:0:0:
36,192,46578,1,0,0:0:0:0:
109,192,46578,1,0,0:0:0:0:
182,192,46578,1,0,0:0:0:0:
256,192,46578,1,0,0:0:0:0:
329,192,46578,1,0,0:0:0:0:
402,192,46578,1,0,0:0:0:0:
475,192,46578,1,0,0:0:0:0:
402,192,46731,1,0,0:0:0:0:
329,192,46731,1,0,0:0:0:0:
256,192,46731,1,0,0:0:0:0:
182,192,46731,1,0,0:0:0:0:
109,192,46731,1,0,0:0:0:0:
182,192,46884,1,0,0:0:0:0:
329,192,46884,1,0,0:0:0:0:
256,192,46884,1,0,0:0:0:0:
256,192,47037,1,0,0:0:0:0:
256,192,47802,1,0,0:0:0:0:
475,192,47955,1,0,0:0:0:0:
329,192,47955,1,0,0:0:0:0:
36,192,48032,1,0,0:0:0:0:
182,192,48032,1,0,0:0:0:0:
329,192,48108,1,0,0:0:0:0:
402,192,48108,1,0,0:0:0:0:
109,192,48185,1,0,0:0:0:0:
182,192,48185,1,0,0:0:0:0:
329,192,48262,1,0,0:0:0:0:
475,192,48262,1,0,0:0:0:0:
182,192,48338,1,0,0:0:0:0:
36,192,48338,1,0,0:0:0:0:
329,192,48415,1,0,0:0:0:0:
402,192,48415,1,0,0:0:0:0:
109,192,48568,1,0,0:0:0:0:
182,192,48568,1,0,0:0:0:0:
256,192,48721,1,0,0:0:0:0:
36,192,48721,1,0,0:0:0:0:
475,192,48721,1,0,0:0:0:0:
329,192,48874,1,0,0:0:0:0:
402,192,48874,1,0,0:0:0:0:
109,192,49027,1,0,0:0:0:0:
182,192,49027,1,0,0:0:0:0:
256,192,49027,1,0,0:0:0:0:
36,192,49027,1,0,0:0:0:0:
402,192,49180,1,0,0:0:0:0:
475,192,49180,1,0,0:0:0:0:
36,192,49333,1,0,0:0:0:0:
329,192,49333,1,0,0:0:0:0:
182,192,49333,1,0,0:0:0:0:
109,192,49486,1,0,0:0:0:0:
256,192,49486,1,0,0:0:0:0:
475,192,49486,1,0,0:0:0:0:
402,192,49639,1,0,0:0:0:0:
182,192,49639,1,0,0:0:0:0:
329,192,49792,1,0,0:0:0:0:
109,192,49792,1,0,0:0:0:0:
36,192,49945,1,0,0:0:0:0:
256,192,49945,1,0,0:0:0:0:
475,192,49945,1,0,0:0:0:0:
402,192,50098,1,0,0:0:0:0:
109,192,50098,1,0,0:0:0:0:
256,192,50098,1,0,0:0:0:0:
36,192,50251,1,0,0:0:0:0:
182,192,50251,1,0,0:0:0:0:
329,192,50251,1,0,0:0:0:0:
182,192,50404,1,0,0:0:0:0:
329,192,50404,1,0,0:0:0:0:
475,192,50404,1,0,0:0:0:0:
475,192,50557,1,0,0:0:0:0:
36,192,50557,1,0,0:0:0:0:
109,192,50711,1,0,0:0:0:0:
329,192,50711,1,0,0:0:0:0:
402,192,50711,1,0,0:0:0:0:
256,192,50711,1,0,0:0:0:0:
36,192,50864,1,0,0:0:0:0:
475,192,50864,1,0,0:0:0:0:
182,192,50864,1,0,0:0:0:0:
256,192,51017,1,0,0:0:0:0:
329,192,51170,1,0,0:0:0:0:
402,192,51170,1,0,0:0:0:0:
475,192,51170,1,0,0:0:0:0:
36,192,51170,1,0,0:0:0:0:
256,192,51323,1,0,0:0:0:0:
36,192,51476,1,0,0:0:0:0:
182,192,51476,1,0,0:0:0:0:
109,192,51476,1,0,0:0:0:0:
475,192,51476,1,0,0:0:0:0:
329,192,51629,1,0,0:0:0:0:
402,192,51629,1,0,0:0:0:0:
109,192,51782,1,0,0:0:0:0:
182,192,51782,1,0,0:0:0:0:
256,192,51782,1,0,0:0:0:0:
402,192,51935,1,0,0:0:0:0:
475,192,51935,1,0,0:0:0:0:
36,192,51935,1,0,0:0:0:0:
109,192,52088,1,0,0:0:0:0:
182,192,52088,1,0,0:0:0:0:
256,192,52088,1,0,0:0:0:0:
329,192,52088,1,0,0:0:0:0:
36,192,52241,1,0,0:0:0:0:
475,192,52241,1,0,0:0:0:0:
182,192,52394,1,0,0:0:0:0:
256,192,52394,1,0,0:0:0:0:
329,192,52394,1,0,0:0:0:0:
402,192,52394,1,0,0:0:0:0:
36,192,52547,1,0,0:0:0:0:
475,192,52547,1,0,0:0:0:0:
182,192,52700,1,0,0:0:0:0:
109,192,52700,1,0,0:0:0:0:
329,192,52700,1,0,0:0:0:0:
256,192,52700,1,0,0:0:0:0:
475,192,52853,1,0,0:0:0:0:
36,192,52853,1,0,0:0:0:0:
182,192,53006,1,0,0:0:0:0:
256,192,53006,1,0,0:0:0:0:
329,192,53006,1,0,0:0:0:0:
402,192,53006,1,0,0:0:0:0:
36,192,53160,1,0,0:0:0:0:
475,192,53160,1,0,0:0:0:0:
109,192,53313,1,0,0:0:0:0:
182,192,53313,1,0,0:0:0:0:
256,192,53313,1,0,0:0:0:0:
329,192,53313,1,0,0:0:0:0:
402,192,53313,1,0,0:0:0:0:
182,192,53466,1,0,0:0:0:0:
475,192,53466,1,0,0:0:0:0:
256,192,53619,1,0,0:0:0:0:
329,192,53772,1,0,0:0:0:0:
36,192,53772,1,0,0:0:0:0:
109,192,53925,1,0,0:0:0:0:
182,192,53925,1,0,0:0:0:0:
329,192,53925,1,0,0:0:0:0:
256,192,53925,1,0,0:0:0:0:
402,192,53925,1,0,0:0:0:0:
475,192,54078,1,0,0:0:0:0:
329,192,54078,1,0,0:0:0:0:
36,192,54231,1,0,0:0:0:0:
182,192,54231,1,0,0:0:0:0:
109,192,54384,1,0,0:0:0:0:
182,192,54384,1,0,0:0:0:0:
329,192,54384,1,0,0:0:0:0:
402,192,54384,1,0,0:0:0:0:
256,192,54384,1,0,0:0:0:0:
329,192,54537,1,0,0:0:0:0:
475,192,54537,1,0,0:0:0:0:
182,192,54690,1,0,0:0:0:0:
36,192,54690,1,0,0:0:0:0:
256,192,54843,1,0,0:0:0:0:
402,192,54843,1,0,0:0:0:0:
256,192,54996,1,0,0:0:0:0:
109,192,54996,1,0,0:0:0:0:
182,192,55149,1,0,0:0:0:0:
329,192,55149,1,0,0:0:0:0:
256,192,55302,1,0,0:0:0:0:
402,192,55302,1,0,0:0:0:0:
329,192,55455,1,0,0:0:0:0:
475,192,55455,1,0,0:0:0:0:
109,192,55455,1,0,0:0:0:0:
256,192,55608,1,0,0:0:0:0:
402,192,55608,1,0,0:0:0:0:
109,192,55608,1,0,0:0:0:0:
109,192,55762,1,0,0:0:0:0:
256,192,55762,1,0,0:0:0:0:
402,192,55762,1,0,0:0:0:0:
36,192,55915,1,0,0:0:0:0:
475,192,55915,1,0,0:0:0:0:
182,192,56068,1,0,0:0:0:0:
256,192,56068,1,0,0:0:0:0:
329,192,56068,1,0,0:0:0:0:
475,192,56221,1,0,0:0:0:0:
36,192,56221,1,0,0:0:0:0:
109,192,56374,1,0,0:0:0:0:
256,192,56374,1,0,0:0:0:0:
402,192,56374,1,0,0:0:0:0:
36,192,56527,1,0,0:0:0:0:
475,192,56527,1,0,0:0:0:0:
256,192,56680,1,0,0:0:0:0:
182,192,56680,1,0,0:0:0:0:
329,192,56680,1,0,0:0:0:0:
109,192,56680,1,0,0:0:0:0:
36,192,56680,1,0,0:0:0:0:
36,192,56833,1,0,0:0:0:0:
475,192,56833,1,0,0:0:0:0:
256,192,56833,1,0,0:0:0:0:
109,192,56833,1,0,0:0:0:0:
182,192,56833,1,0,0:0:0:0:
36,192,56986,1,0,0:0:0:0:
109,192,56986,1,0,0:0:0:0:
402,192,56986,1,0,0:0:0:0:
475,192,56986,1,0,0:0:0:0:
182,192,56986,1,0,0:0:0:0:
109,192,57139,1,0,0:0:0:0:
36,192,57139,1,0,0:0:0:0:
402,192,57139,1,0,0:0:0:0:
475,192,57139,1,0,0:0:0:0:
329,192,57139,1,0,0:0:0:0:
36,192,57292,1,0,0:0:0:0:
329,192,57292,1,0,0:0:0:0:
402,192,57292,1,0,0:0:0:0:
256,192,57292,1,0,0:0:0:0:
475,192,57292,1,0,0:0:0:0:
182,192,57445,1,0,0:0:0:0:
402,192,57445,1,0,0:0:0:0:
475,192,57445,1,0,0:0:0:0:
256,192,57445,1,0,0:0:0:0:
329,192,57445,1,0,0:0:0:0:
329,192,57751,1,0,0:0:0:0:
36,192,57751,1,0,0:0:0:0:
109,192,57828,1,0,0:0:0:0:
402,192,57828,1,0,0:0:0:0:
182,192,57904,1,0,0:0:0:0:
475,192,57904,1,0,0:0:0:0:
256,192,57904,1,0,0:0:0:0:
329,192,57981,1,0,0:0:0:0:
402,192,57981,1,0,0:0:0:0:
36,192,57981,1,0,0:0:0:0:
109,192,58057,1,0,0:0:0:0:
182,192,58057,1,0,0:0:0:0:
475,192,58057,1,0,0:0:0:0:
256,192,58134,1,0,0:0:0:0:
329,192,58134,1,0,0:0:0:0:
402,192,58211,1,0,0:0:0:0:
475,192,58211,1,0,0:0:0:0:
36,192,58211,1,0,0:0:0:0:
109,192,58211,1,0,0:0:0:0:
182,192,58211,1,0,0:0:0:0:
256,192,58364,1,0,0:0:0:0:
109,192,58517,1,0,0:0:0:0:
36,192,58517,1,0,0:0:0:0:
402,192,58517,1,0,0:0:0:0:
329,192,58517,1,0,0:0:0:0:
475,192,58517,1,0,0:0:0:0:
256,192,58670,1,0,0:0:0:0:
36,192,58823,1,0,0:0:0:0:
109,192,58823,1,0,0:0:0:0:
182,192,58823,1,0,0:0:0:0:
402,192,58823,1,0,0:0:0:0:
475,192,58823,1,0,0:0:0:0:
256,192,58976,1,0,0:0:0:0:
182,192,59129,1,0,0:0:0:0:
256,192,59129,1,0,0:0:0:0:
329,192,59129,1,0,0:0:0:0:
36,192,59282,1,0,0:0:0:0:
475,192,59282,1,0,0:0:0:0:
109,192,59282,1,0,0:0:0:0:
402,192,59282,1,0,0:0:0:0:
256,192,59282,1,0,0:0:0:0:
329,192,59435,1,0,0:0:0:0:
182,192,59435,1,0,0:0:0:0:
256,192,59588,1,0,0:0:0:0:
36,192,59741,1,0,0:0:0:0:
475,192,59741,1,0,0:0:0:0:
182,192,59741,1,0,0:0:0:0:
329,192,59741,1,0,0:0:0:0:
109,192,59894,1,0,0:0:0:0:
182,192,59894,1,0,0:0:0:0:
329,192,59894,1,0,0:0:0:0:
402,192,59894,1,0,0:0:0:0:
36,192,60047,1,0,0:0:0:0:
109,192,60047,1,0,0:0:0:0:
329,192,60047,1,0,0:0:0:0:
256,192,60047,1,0,0:0:0:0:
109,192,60200,1,0,0:0:0:0:
182,192,60200,1,0,0:0:0:0:
402,192,60200,1,0,0:0:0:0:
329,192,60200,1,0,0:0:0:0:
36,192,60353,1,0,0:0:0:0:
256,192,60353,1,0,0:0:0:0:
475,192,60353,1,0,0:0:0:0:
182,192,60506,1,0,0:0:0:0:
475,192,60506,1,0,0:0:0:0:
329,192,60506,1,0,0:0:0:0:
402,192,60660,1,0,0:0:0:0:
36,192,60660,1,0,0:0:0:0:
475,192,60813,1,0,0:0:0:0:
109,192,60813,1,0,0:0:0:0:
109,192,60966,1,0,0:0:0:0:
256,192,60966,1,0,0:0:0:0:
402,192,60966,1,0,0:0:0:0:
475,192,61119,1,0,0:0:0:0:
182,192,61119,1,0,0:0:0:0:
36,192,61272,1,0,0:0:0:0:
182,192,61272,1,0,0:0:0:0:
329,192,61272,1,0,0:0:0:0:
256,192,61425,1,0,0:0:0:0:
475,192,61425,1,0,0:0:0:0:
109,192,61578,1,0,0:0:0:0:
402,192,61578,1,0,0:0:0:0:
182,192,61578,1,0,0:0:0:0:
329,192,61578,1,0,0:0:0:0:
256,192,61731,1,0,0:0:0:0:
36,192,61731,1,0,0:0:0:0:
109,192,61731,1,0,0:0:0:0:
402,192,61731,1,0,0:0:0:0:
475,192,61731,1,0,0:0:0:0:
36,192,61884,1,0,0:0:0:0:
182,192,61884,1,0,0:0:0:0:
329,192,61884,1,0,0:0:0:0:
475,192,61884,1,0,0:0:0:0:
182,192,62037,1,0,0:0:0:0:
329,192,62037,1,0,0:0:0:0:
109,192,62190,1,0,0:0:0:0:
256,192,62190,1,0,0:0:0:0:
402,192,62190,1,0,0:0:0:0:
109,192,62343,1,0,0:0:0:0:
402,192,62343,1,0,0:0:0:0:
182,192,62496,1,0,0:0:0:0:
329,192,62496,1,0,0:0:0:0:
36,192,62649,1,0,0:0:0:0:
182,192,62649,1,0,0:0:0:0:
329,192,62649,1,0,0:0:0:0:
475,192,62649,1,0,0:0:0:0:
256,192,62802,1,0,0:0:0:0:
109,192,62802,1,0,0:0:0:0:
402,192,62802,1,0,0:0:0:0:
182,192,62955,1,0,0:0:0:0:
329,192,62955,1,0,0:0:0:0:
109,192,63108,1,0,0:0:0:0:
329,192,63108,1,0,0:0:0:0:
475,192,63108,1,0,0:0:0:0:
36,192,63108,1,0,0:0:0:0:
402,192,63108,1,0,0:0:0:0:
256,192,63262,1,0,0:0:0:0:
109,192,63262,1,0,0:0:0:0:
475,192,63262,1,0,0:0:0:0:
402,192,63415,1,0,0:0:0:0:
182,192,63415,1,0,0:0:0:0:
329,192,63568,1,0,0:0:0:0:
256,192,63568,1,0,0:0:0:0:
36,192,63721,1,0,0:0:0:0:
109,192,63721,1,0,0:0:0:0:
182,192,63721,1,0,0:0:0:0:
402,192,63721,1,0,0:0:0:0:
475,192,63721,1,0,0:0:0:0:
36,192,63874,1,0,0:0:0:0:
256,192,63874,1,0,0:0:0:0:
402,192,63874,1,0,0:0:0:0:
109,192,64027,1,0,0:0:0:0:
329,192,64027,1,0,0:0:0:0:
36,192,64180,1,0,0:0:0:0:
109,192,64180,1,0,0:0:0:0:
182,192,64180,1,0,0:0:0:0:
329,192,64180,1,0,0:0:0:0:
475,192,64180,1,0,0:0:0:0:
402,192,64180,1,0,0:0:0:0:
182,192,64333,1,0,0:0:0:0:
256,192,64333,1,0,0:0:0:0:
36,192,64486,1,0,0:0:0:0:
109,192,64486,1,0,0:0:0:0:
329,192,64486,1,0,0:0:0:0:
256,192,64486,1,0,0:0:0:0:
182,192,64639,1,0,0:0:0:0:
109,192,64639,1,0,0:0:0:0:
402,192,64639,1,0,0:0:0:0:
329,192,64639,1,0,0:0:0:0:
402,192,64792,1,0,0:0:0:0:
475,192,64792,1,0,0:0:0:0:
256,192,64792,1,0,0:0:0:0:
36,192,64792,1,0,0:0:0:0:
109,192,64792,1,0,0:0:0:0:
109,192,64945,1,0,0:0:0:0:
182,192,64945,1,0,0:0:0:0:
256,192,64945,1,0,0:0:0:0:
329,192,64945,1,0,0:0:0:0:
402,192,64945,1,0,0:0:0:0:
36,192,65098,1,0,0:0:0:0:
182,192,65098,1,0,0:0:0:0:
256,192,65098,1,0,0:0:0:0:
329,192,65098,1,0,0:0:0:0:
475,192,65098,1,0,0:0:0:0:
109,192,65251,1,0,0:0:0:0:
402,192,65251,1,0,0:0:0:0:
475,192,65404,1,0,0:0:0:0:
182,192,65404,1,0,0:0:0:0:
36,192,65404,1,0,0:0:0:0:
329,192,65404,1,0,0:0:0:0:
256,192,65557,1,0,0:0:0:0:
329,192,65711,1,0,0:0:0:0:
109,192,65864,1,0,0:0:0:0:
402,192,65864,1,0,0:0:0:0:
256,192,65864,1,0,0:0:0:0:
182,192,66017,1,0,0:0:0:0:
36,192,66170,1,0,0:0:0:0:
256,192,66170,1,0,0:0:0:0:
475,192,66170,1,0,0:0:0:0:
329,192,66323,1,0,0:0:0:0:
256,192,66476,1,0,0:0:0:0:
109,192,66476,1,0,0:0:0:0:
475,192,66476,1,0,0:0:0:0:
36,192,66476,1,0,0:0:0:0:
402,192,66476,1,0,0:0:0:0:
329,192,66629,1,0,0:0:0:0:
36,192,66782,128,0,67241:0:0:0:0:
475,192,66782,128,0,67241:0:0:0:0:
109,192,66782,128,0,67547:0:0:0:0:
402,192,66782,128,0,67547:0:0:0:0:
256,192,66782,1,0,0:0:0:0:
182,192,66935,1,0,0:0:0:0:
256,192,67088,1,0,0:0:0:0:
329,192,67241,128,0,67547:0:0:0:0:
182,192,67241,128,0,67547:0:0:0:0:
36,192,67547,1,0,0:0:0:0:
256,192,67547,1,0,0:0:0:0:
256,192,67700,1,0,0:0:0:0:
475,192,67700,1,0,0:0:0:0:
36,192,67853,1,0,0:0:0:0:
256,192,67853,1,0,0:0:0:0:
256,192,68006,1,0,0:0:0:0:
475,192,68006,1,0,0:0:0:0:
182,192,68313,1,0,0:0:0:0:
402,192,68313,1,0,0:0:0:0:
329,192,68619,1,0,0:0:0:0:
109,192,68619,1,0,0:0:0:0:
36,192,68772,1,0,0:0:0:0:
256,192,68772,1,0,0:0:0:0:
256,192,68925,1,0,0:0:0:0:
475,192,68925,1,0,0:0:0:0:
256,192,69078,1,0,0:0:0:0:
36,192,69078,1,0,0:0:0:0:
109,192,69231,1,0,0:0:0:0:
329,192,69231,1,0,0:0:0:0:
182,192,69537,1,0,0:0:0:0:
402,192,69537,1,0,0:0:0:0:
256,192,69843,1,0,0:0:0:0:
475,192,69843,1,0,0:0:0:0:
256,192,69996,1,0,0:0:0:0:
36,192,69996,1,0,0:0:0:0:
256,192,70149,1,0,0:0:0:0:
475,192,70149,1,0,0:0:0:0:
256,192,70302,1,0,0:0:0:0:
36,192,70302,1,0,0:0:0:0:
256,192,70455,1,0,0:0:0:0:
475,192,70455,1,0,0:0:0:0:
402,192,70762,1,0,0:0:0:0:
182,192,70762,1,0,0:0:0:0:
109,192,71068,1,0,0:0:0:0:
329,192,71068,1,0,0:0:0:0:
36,192,71221,1,0,0:0:0:0:
256,192,71221,1,0,0:0:0:0:
256,192,71374,1,0,0:0:0:0:
475,192,71374,1,0,0:0:0:0:
256,192,71527,1,0,0:0:0:0:
36,192,71527,1,0,0:0:0:0:
256,192,71680,1,0,0:0:0:0:
475,192,71680,1,0,0:0:0:0:
182,192,71986,1,0,0:0:0:0:
402,192,71986,1,0,0:0:0:0:
329,192,72292,1,0,0:0:0:0:
109,192,72292,1,0,0:0:0:0:
36,192,72445,1,0,0:0:0:0:
256,192,72445,1,0,0:0:0:0:
256,192,72598,1,0,0:0:0:0:
475,192,72598,1,0,0:0:0:0:
256,192,72751,1,0,0:0:0:0:
36,192,72751,1,0,0:0:0:0:
256,192,72904,1,0,0:0:0:0:
475,192,72904,1,0,0:0:0:0:
182,192,73211,1,0,0:0:0:0:
402,192,73211,1,0,0:0:0:0:
109,192,73517,1,0,0:0:0:0:
329,192,73517,1,0,0:0:0:0:
36,192,73670,1,0,0:0:0:0:
256,192,73670,1,0,0:0:0:0:
256,192,73823,1,0,0:0:0:0:
475,192,73823,1,0,0:0:0:0:
256,192,73976,1,0,0:0:0:0:
36,192,73976,1,0,0:0:0:0:
256,192,74129,1,0,0:0:0:0:
475,192,74129,1,0,0:0:0:0:
182,192,74435,1,0,0:0:0:0:
402,192,74435,1,0,0:0:0:0:
109,192,74741,1,0,0:0:0:0:
329,192,74741,1,0,0:0:0:0:
36,192,74894,1,0,0:0:0:0:
256,192,74894,1,0,0:0:0:0:
182,192,74971,1,0,0:0:0:0:
109,192,75047,1,0,0:0:0:0:
329,192,75047,1,0,0:0:0:0:
256,192,75124,1,0,0:0:0:0:
182,192,75200,1,0,0:0:0:0:
402,192,75200,1,0,0:0:0:0:
329,192,75277,1,0,0:0:0:0:
256,192,75353,1,0,0:0:0:0:
475,192,75353,1,0,0:0:0:0:
36,192,75660,1,0,0:0:0:0:
256,192,75660,1,0,0:0:0:0:
256,192,75813,1,0,0:0:0:0:
475,192,75813,1,0,0:0:0:0:
182,192,76119,1,0,0:0:0:0:
329,192,76119,1,0,0:0:0:0:
109,192,76272,1,0,0:0:0:0:
402,192,76272,1,0,0:0:0:0:
36,192,76425,1,0,0:0:0:0:
475,192,76425,1,0,0:0:0:0:
182,192,76578,1,0,0:0:0:0:
329,192,76578,1,0,0:0:0:0:
36,192,76578,1,0,0:0:0:0:
109,192,76731,1,0,0:0:0:0:
256,192,76731,1,0,0:0:0:0:
402,192,76731,1,0,0:0:0:0:
182,192,76884,1,0,0:0:0:0:
329,192,76884,1,0,0:0:0:0:
475,192,76884,1,0,0:0:0:0:
109,192,77037,1,0,0:0:0:0:
256,192,77037,1,0,0:0:0:0:
402,192,77037,1,0,0:0:0:0:
36,192,77343,1,0,0:0:0:0:
182,192,77343,1,0,0:0:0:0:
329,192,77343,1,0,0:0:0:0:
109,192,77496,1,0,0:0:0:0:
256,192,77496,1,0,0:0:0:0:
402,192,77496,1,0,0:0:0:0:
182,192,77649,1,0,0:0:0:0:
329,192,77649,1,0,0:0:0:0:
475,192,77649,1,0,0:0:0:0:
36,192,77802,1,0,0:0:0:0:
256,192,77802,1,0,0:0:0:0:
402,192,77802,1,0,0:0:0:0:
109,192,78262,1,0,0:0:0:0:
182,192,78568,1,0,0:0:0:0:
109,192,78721,1,0,0:0:0:0:
36,192,78874,1,0,0:0:0:0:
36,192,79180,1,0,0:0:0:0:
109,192,79333,1,0,0:0:0:0:
182,192,79486,1,0,0:0:0:0:
402,192,79792,1,0,0:0:0:0:
475,192,79792,1,0,0:0:0:0:
329,192,80098,1,0,0:0:0:0:
402,192,80098,1,0,0:0:0:0:
36,192,80404,1,0,0:0:0:0:
182,192,80404,1,0,0:0:0:0:
109,192,80557,1,0,0:0:0:0:
36,192,80711,1,0,0:0:0:0:
329,192,80864,1,0,0:0:0:0:
182,192,80940,1,0,0:0:0:0:
329,192,81017,1,0,0:0:0:0:
182,192,81093,1,0,0:0:0:0:
329,192,81170,1,0,0:0:0:0:
475,192,81170,1,0,0:0:0:0:
109,192,81476,1,0,0:0:0:0:
182,192,81476,1,0,0:0:0:0:
109,192,81629,1,0,0:0:0:0:
182,192,81629,1,0,0:0:0:0:
329,192,81935,1,0,0:0:0:0:
402,192,81935,1,0,0:0:0:0:
329,192,82241,128,0,82700:0:0:0:0:
402,192,82241,128,0,82700:0:0:0:0:
36,192,82700,1,0,0:0:0:0:
109,192,82700,1,0,0:0:0:0:
109,192,82853,1,0,0:0:0:0:
36,192,82853,1,0,0:0:0:0:
402,192,83160,1,0,0:0:0:0:
475,192,83160,1,0,0:0:0:0:
402,192,83466,128,0,83925:0:0:0:0:
475,192,83466,128,0,83925:0:0:0:0:
36,192,83925,128,0,84231:0:0:0:0:
109,192,84231,128,0,84537:0:0:0:0:
182,192,84537,128,0,84843:0:0:0:0:
109,192,84843,128,0,84996:0:0:0:0:
36,192,84996,128,0,88823:0:0:0:0:
475,192,85570,128,0,85723:0:0:0:0:
402,192,85723,128,0,85876:0:0:0:0:
329,192,85876,128,0,86182:0:0:0:0:
402,192,86182,128,0,86642:0:0:0:0:
475,192,86642,128,0,86948:0:0:0:0:
402,192,86948,128,0,87254:0:0:0:0:
329,192,87254,128,0,87407:0:0:0:0:
402,192,87407,128,0,87560:0:0:0:0:
475,192,87560,128,0,87866:0:0:0:0:
402,192,87866,128,0,88172:0:0:0:0:
329,192,88172,128,0,88478:0:0:0:0:
402,192,88478,128,0,90505:0:0:0:0:
109,192,88822,128,0,89434:0:0:0:0:
182,192,89434,128,0,89893:0:0:0:0:
109,192,89893,128,0,91117:0:0:0:0:
475,192,90505,128,0,90658:0:0:0:0:
402,192,90658,128,0,90811:0:0:0:0:
329,192,90811,128,0,91117:0:0:0:0:
36,192,91117,1,0,0:0:0:0:
475,192,91117,1,0,0:0:0:0:
36,192,91270,1,0,0:0:0:0:
475,192,91270,1,0,0:0:0:0:
329,192,91270,1,0,0:0:0:0:
256,192,91270,1,0,0:0:0:0:
109,192,91270,1,0,0:0:0:0:
36,192,91577,1,0,0:0:0:0:
475,192,91577,1,0,0:0:0:0:
182,192,91577,1,0,0:0:0:0:
256,192,91577,1,0,0:0:0:0:
402,192,91577,1,0,0:0:0:0:
475,192,91883,1,0,0:0:0:0:
36,192,91883,1,0,0:0:0:0:
329,192,91883,1,0,0:0:0:0:
256,192,91883,1,0,0:0:0:0:
109,192,91883,1,0,0:0:0:0:
36,192,92189,1,0,0:0:0:0:
475,192,92189,1,0,0:0:0:0:
182,192,92189,1,0,0:0:0:0:
256,192,92189,1,0,0:0:0:0:
402,192,92189,1,0,0:0:0:0:
329,192,92495,1,0,0:0:0:0:
402,192,92495,1,0,0:0:0:0:
475,192,92495,1,0,0:0:0:0:
109,192,92495,1,0,0:0:0:0:
36,192,92495,1,0,0:0:0:0:
36,192,92648,1,0,0:0:0:0:
109,192,92648,1,0,0:0:0:0:
182,192,92648,1,0,0:0:0:0:
402,192,92648,1,0,0:0:0:0:
475,192,92648,1,0,0:0:0:0:
256,192,92801,1,0,0:0:0:0:
182,192,92801,1,0,0:0:0:0:
36,192,92801,1,0,0:0:0:0:
109,192,92801,1,0,0:0:0:0:
475,192,92801,1,0,0:0:0:0:
329,192,92954,1,0,0:0:0:0:
256,192,92954,1,0,0:0:0:0:
182,192,92954,1,0,0:0:0:0:
109,192,92954,1,0,0:0:0:0:
36,192,92954,1,0,0:0:0:0:
475,192,93260,1,0,0:0:0:0:
182,192,93260,1,0,0:0:0:0:
109,192,93337,1,0,0:0:0:0:
402,192,93337,1,0,0:0:0:0:
36,192,93413,1,0,0:0:0:0:
256,192,93413,1,0,0:0:0:0:
329,192,93413,1,0,0:0:0:0:
475,192,93490,1,0,0:0:0:0:
182,192,93490,1,0,0:0:0:0:
109,192,93490,1,0,0:0:0:0:
36,192,93566,1,0,0:0:0:0:
402,192,93566,1,0,0:0:0:0:
329,192,93566,1,0,0:0:0:0:
182,192,93643,1,0,0:0:0:0:
256,192,93643,1,0,0:0:0:0:
402,192,93719,1,0,0:0:0:0:
36,192,93719,1,0,0:0:0:0:
329,192,93719,1,0,0:0:0:0:
109,192,93719,1,0,0:0:0:0:
475,192,93719,1,0,0:0:0:0:
256,192,93873,1,0,0:0:0:0:
36,192,94026,1,0,0:0:0:0:
109,192,94026,1,0,0:0:0:0:
182,192,94026,1,0,0:0:0:0:
402,192,94026,1,0,0:0:0:0:
475,192,94026,1,0,0:0:0:0:
256,192,94179,1,0,0:0:0:0:
36,192,94332,1,0,0:0:0:0:
109,192,94332,1,0,0:0:0:0:
329,192,94332,1,0,0:0:0:0:
402,192,94332,1,0,0:0:0:0:
475,192,94332,1,0,0:0:0:0:
256,192,94485,1,0,0:0:0:0:
36,192,94638,1,0,0:0:0:0:
109,192,94638,1,0,0:0:0:0:
182,192,94638,1,0,0:0:0:0:
402,192,94638,1,0,0:0:0:0:
475,192,94638,1,0,0:0:0:0:
109,192,94791,1,0,0:0:0:0:
36,192,94791,1,0,0:0:0:0:
329,192,94791,1,0,0:0:0:0:
402,192,94791,1,0,0:0:0:0:
475,192,94791,1,0,0:0:0:0:
256,192,94944,1,0,0:0:0:0:
36,192,95097,1,0,0:0:0:0:
475,192,95097,1,0,0:0:0:0:
182,192,95250,1,0,0:0:0:0:
329,192,95250,1,0,0:0:0:0:
109,192,95403,1,0,0:0:0:0:
402,192,95403,1,0,0:0:0:0:
256,192,95403,1,0,0:0:0:0:
36,192,95556,1,0,0:0:0:0:
182,192,95556,1,0,0:0:0:0:
329,192,95556,1,0,0:0:0:0:
109,192,95709,1,0,0:0:0:0:
256,192,95709,1,0,0:0:0:0:
402,192,95709,1,0,0:0:0:0:
329,192,95862,1,0,0:0:0:0:
475,192,95862,1,0,0:0:0:0:
182,192,95862,1,0,0:0:0:0:
36,192,95862,1,0,0:0:0:0:
36,192,96015,1,0,0:0:0:0:
256,192,96015,1,0,0:0:0:0:
402,192,96015,1,0,0:0:0:0:
329,192,96168,1,0,0:0:0:0:
109,192,96168,1,0,0:0:0:0:
402,192,96322,1,0,0:0:0:0:
182,192,96322,1,0,0:0:0:0:
109,192,96475,1,0,0:0:0:0:
256,192,96475,1,0,0:0:0:0:
475,192,96475,1,0,0:0:0:0:
329,192,96628,1,0,0:0:0:0:
36,192,96781,1,0,0:0:0:0:
402,192,96781,1,0,0:0:0:0:
182,192,96781,1,0,0:0:0:0:
256,192,96934,1,0,0:0:0:0:
109,192,97087,1,0,0:0:0:0:
329,192,97087,1,0,0:0:0:0:
475,192,97087,1,0,0:0:0:0:
402,192,97240,1,0,0:0:0:0:
182,192,97240,1,0,0:0:0:0:
256,192,97393,1,0,0:0:0:0:
109,192,97393,1,0,0:0:0:0:
36,192,97393,1,0,0:0:0:0:
402,192,97393,1,0,0:0:0:0:
475,192,97393,1,0,0:0:0:0:
182,192,97546,1,0,0:0:0:0:
329,192,97546,1,0,0:0:0:0:
36,192,97699,1,0,0:0:0:0:
182,192,97699,1,0,0:0:0:0:
256,192,97699,1,0,0:0:0:0:
329,192,97699,1,0,0:0:0:0:
475,192,97699,1,0,0:0:0:0:
109,192,97852,1,0,0:0:0:0:
402,192,97852,1,0,0:0:0:0:
109,192,98005,1,0,0:0:0:0:
182,192,98005,1,0,0:0:0:0:
329,192,98005,1,0,0:0:0:0:
256,192,98005,1,0,0:0:0:0:
402,192,98005,1,0,0:0:0:0:
36,192,98158,1,0,0:0:0:0:
475,192,98158,1,0,0:0:0:0:
36,192,98311,1,0,0:0:0:0:
109,192,98311,1,0,0:0:0:0:
256,192,98311,1,0,0:0:0:0:
402,192,98311,1,0,0:0:0:0:
475,192,98311,1,0,0:0:0:0:
109,192,98464,1,0,0:0:0:0:
402,192,98464,1,0,0:0:0:0:
36,192,98617,1,0,0:0:0:0:
109,192,98617,1,0,0:0:0:0:
182,192,98617,1,0,0:0:0:0:
329,192,98617,1,0,0:0:0:0:
402,192,98617,1,0,0:0:0:0:
475,192,98617,1,0,0:0:0:0:
182,192,98924,1,0,0:0:0:0:
329,192,98924,1,0,0:0:0:0:
182,192,99077,1,0,0:0:0:0:
109,192,99077,1,0,0:0:0:0:
329,192,99077,1,0,0:0:0:0:
402,192,99077,1,0,0:0:0:0:
36,192,99230,1,0,0:0:0:0:
109,192,99230,1,0,0:0:0:0:
182,192,99230,1,0,0:0:0:0:
329,192,99230,1,0,0:0:0:0:
402,192,99230,1,0,0:0:0:0:
475,192,99230,1,0,0:0:0:0:
36,192,99536,1,0,0:0:0:0:
109,192,99536,1,0,0:0:0:0:
182,192,99536,1,0,0:0:0:0:
329,192,99536,1,0,0:0:0:0:
402,192,99536,1,0,0:0:0:0:
475,192,99536,1,0,0:0:0:0:
109,192,99689,1,0,0:0:0:0:
36,192,99689,1,0,0:0:0:0:
402,192,99689,1,0,0:0:0:0:
475,192,99689,1,0,0:0:0:0:
36,192,99842,1,0,0:0:0:0:
475,192,99842,1,0,0:0:0:0:
329,192,99995,1,0,0:0:0:0:
402,192,99995,1,0,0:0:0:0:
109,192,99995,1,0,0:0:0:0:
329,192,100148,1,0,0:0:0:0:
256,192,100148,1,0,0:0:0:0:
182,192,100301,1,0,0:0:0:0:
475,192,100301,1,0,0:0:0:0:
402,192,100301,1,0,0:0:0:0:
256,192,100301,1,0,0:0:0:0:
109,192,100454,1,0,0:0:0:0:
329,192,100454,1,0,0:0:0:0:
402,192,100454,1,0,0:0:0:0:
182,192,100454,1,0,0:0:0:0:
36,192,100607,1,0,0:0:0:0:
329,192,100607,1,0,0:0:0:0:
256,192,100607,1,0,0:0:0:0:
109,192,100607,1,0,0:0:0:0:
109,192,100760,1,0,0:0:0:0:
182,192,100760,1,0,0:0:0:0:
402,192,100760,1,0,0:0:0:0:
329,192,100760,1,0,0:0:0:0:
36,192,100913,1,0,0:0:0:0:
182,192,100913,1,0,0:0:0:0:
329,192,100913,1,0,0:0:0:0:
475,192,100913,1,0,0:0:0:0:
329,192,101066,1,0,0:0:0:0:
402,192,101066,1,0,0:0:0:0:
109,192,101066,1,0,0:0:0:0:
182,192,101066,1,0,0:0:0:0:
256,192,101219,1,0,0:0:0:0:
36,192,101373,1,0,0:0:0:0:
109,192,101373,1,0,0:0:0:0:
402,192,101373,1,0,0:0:0:0:
475,192,101373,1,0,0:0:0:0:
256,192,101526,1,0,0:0:0:0:
109,192,101679,1,0,0:0:0:0:
182,192,101679,1,0,0:0:0:0:
329,192,101679,1,0,0:0:0:0:
402,192,101679,1,0,0:0:0:0:
256,192,101832,1,0,0:0:0:0:
182,192,101985,1,0,0:0:0:0:
109,192,101985,1,0,0:0:0:0:
36,192,101985,1,0,0:0:0:0:
329,192,101985,1,0,0:0:0:0:
402,192,101985,1,0,0:0:0:0:
475,192,101985,1,0,0:0:0:0:
256,192,102138,1,0,0:0:0:0:
182,192,102291,1,0,0:0:0:0:
36,192,102291,1,0,0:0:0:0:
329,192,102291,1,0,0:0:0:0:
475,192,102291,1,0,0:0:0:0:
109,192,102444,1,0,0:0:0:0:
256,192,102597,1,0,0:0:0:0:
36,192,102750,1,0,0:0:0:0:
182,192,102750,1,0,0:0:0:0:
402,192,102750,1,0,0:0:0:0:
329,192,102903,1,0,0:0:0:0:
109,192,103056,1,0,0:0:0:0:
182,192,103056,1,0,0:0:0:0:
256,192,103056,1,0,0:0:0:0:
36,192,103056,1,0,0:0:0:0:
475,192,103056,1,0,0:0:0:0:
402,192,103209,1,0,0:0:0:0:
182,192,103209,1,0,0:0:0:0:
109,192,103209,1,0,0:0:0:0:
36,192,103209,1,0,0:0:0:0:
475,192,103209,1,0,0:0:0:0:
329,192,103362,1,0,0:0:0:0:
475,192,103362,1,0,0:0:0:0:
402,192,103362,1,0,0:0:0:0:
36,192,103362,1,0,0:0:0:0:
109,192,103362,1,0,0:0:0:0:
256,192,103515,1,0,0:0:0:0:
329,192,103515,1,0,0:0:0:0:
402,192,103515,1,0,0:0:0:0:
475,192,103515,1,0,0:0:0:0:
36,192,103515,1,0,0:0:0:0:
182,192,103822,1,0,0:0:0:0:
256,192,103822,1,0,0:0:0:0:
329,192,103822,1,0,0:0:0:0:
402,192,103822,1,0,0:0:0:0:
475,192,103822,1,0,0:0:0:0:
256,192,104128,1,0,0:0:0:0:
329,192,104128,1,0,0:0:0:0:
402,192,104128,1,0,0:0:0:0:
475,192,104128,1,0,0:0:0:0:
402,192,104281,1,0,0:0:0:0:
329,192,104281,1,0,0:0:0:0:
36,192,104281,1,0,0:0:0:0:
475,192,104281,1,0,0:0:0:0:
402,192,104434,1,0,0:0:0:0:
475,192,104434,1,0,0:0:0:0:
109,192,104434,1,0,0:0:0:0:
36,192,104434,1,0,0:0:0:0:
36,192,104587,1,0,0:0:0:0:
109,192,104587,1,0,0:0:0:0:
182,192,104587,1,0,0:0:0:0:
475,192,104587,1,0,0:0:0:0:
36,192,104740,1,0,0:0:0:0:
109,192,104740,1,0,0:0:0:0:
182,192,104740,1,0,0:0:0:0:
256,192,104740,1,0,0:0:0:0:
36,192,105046,1,0,0:0:0:0:
109,192,105046,1,0,0:0:0:0:
182,192,105046,1,0,0:0:0:0:
256,192,105046,1,0,0:0:0:0:
329,192,105046,1,0,0:0:0:0:
256,192,105352,1,0,0:0:0:0:
109,192,105352,1,0,0:0:0:0:
182,192,105352,1,0,0:0:0:0:
36,192,105352,1,0,0:0:0:0:
475,192,105352,1,0,0:0:0:0:
182,192,105505,1,0,0:0:0:0:
109,192,105505,1,0,0:0:0:0:
36,192,105505,1,0,0:0:0:0:
402,192,105505,1,0,0:0:0:0:
475,192,105505,1,0,0:0:0:0:
109,192,105658,1,0,0:0:0:0:
36,192,105658,1,0,0:0:0:0:
329,192,105658,1,0,0:0:0:0:
402,192,105658,1,0,0:0:0:0:
475,192,105658,1,0,0:0:0:0:
36,192,105811,1,0,0:0:0:0:
475,192,105811,1,0,0:0:0:0:
402,192,105811,1,0,0:0:0:0:
329,192,105811,1,0,0:0:0:0:
256,192,105811,1,0,0:0:0:0:
182,192,105964,1,0,0:0:0:0:
256,192,105964,1,0,0:0:0:0:
329,192,105964,1,0,0:0:0:0:
475,192,105964,1,0,0:0:0:0:
402,192,105964,1,0,0:0:0:0:
109,192,106270,1,0,0:0:0:0:
182,192,106270,1,0,0:0:0:0:
256,192,106270,1,0,0:0:0:0:
329,192,106270,1,0,0:0:0:0:
402,192,106270,1,0,0:0:0:0:
475,192,106270,1,0,0:0:0:0:
182,192,106577,1,0,0:0:0:0:
256,192,106577,1,0,0:0:0:0:
329,192,106577,1,0,0:0:0:0:
475,192,106577,1,0,0:0:0:0:
402,192,106577,1,0,0:0:0:0:
256,192,106730,1,0,0:0:0:0:
329,192,106730,1,0,0:0:0:0:
402,192,106730,1,0,0:0:0:0:
475,192,106730,1,0,0:0:0:0:
36,192,106730,1,0,0:0:0:0:
36,192,106883,1,0,0:0:0:0:
109,192,106883,1,0,0:0:0:0:
402,192,106883,1,0,0:0:0:0:
329,192,106883,1,0,0:0:0:0:
475,192,106883,1,0,0:0:0:0:
182,192,107036,1,0,0:0:0:0:
109,192,107036,1,0,0:0:0:0:
36,192,107036,1,0,0:0:0:0:
402,192,107036,1,0,0:0:0:0:
475,192,107036,1,0,0:0:0:0:
36,192,107189,1,0,0:0:0:0:
109,192,107189,1,0,0:0:0:0:
182,192,107189,1,0,0:0:0:0:
256,192,107189,1,0,0:0:0:0:
475,192,107189,1,0,0:0:0:0:
402,192,107342,1,0,0:0:0:0:
36,192,107495,1,0,0:0:0:0:
109,192,107495,1,0,0:0:0:0:
182,192,107495,1,0,0:0:0:0:
256,192,107495,1,0,0:0:0:0:
329,192,107495,1,0,0:0:0:0:
402,192,107648,1,0,0:0:0:0:
475,192,107801,1,0,0:0:0:0:
256,192,107801,1,0,0:0:0:0:
182,192,107801,1,0,0:0:0:0:
109,192,107801,1,0,0:0:0:0:
36,192,107801,1,0,0:0:0:0:
402,192,107954,1,0,0:0:0:0:
36,192,107954,1,0,0:0:0:0:
109,192,107954,1,0,0:0:0:0:
182,192,107954,1,0,0:0:0:0:
329,192,108107,1,0,0:0:0:0:
109,192,108107,1,0,0:0:0:0:
36,192,108107,1,0,0:0:0:0:
402,192,108260,1,0,0:0:0:0:
36,192,108260,1,0,0:0:0:0:
475,192,108413,1,0,0:0:0:0:
182,192,108413,1,0,0:0:0:0:
329,192,108413,1,0,0:0:0:0:
109,192,108719,1,0,0:0:0:0:
256,192,108719,1,0,0:0:0:0:
402,192,108719,1,0,0:0:0:0:
36,192,109026,1,0,0:0:0:0:
182,192,109026,1,0,0:0:0:0:
329,192,109026,1,0,0:0:0:0:
109,192,109179,1,0,0:0:0:0:
256,192,109179,1,0,0:0:0:0:
402,192,109179,1,0,0:0:0:0:
182,192,109332,1,0,0:0:0:0:
329,192,109332,1,0,0:0:0:0:
475,192,109332,1,0,0:0:0:0:
402,192,109485,1,0,0:0:0:0:
256,192,109485,1,0,0:0:0:0:
109,192,109485,1,0,0:0:0:0:
36,192,109638,1,0,0:0:0:0:
182,192,109638,1,0,0:0:0:0:
329,192,109638,1,0,0:0:0:0:
109,192,109944,1,0,0:0:0:0:
256,192,109944,1,0,0:0:0:0:
402,192,109944,1,0,0:0:0:0:
182,192,110250,1,0,0:0:0:0:
329,192,110250,1,0,0:0:0:0:
475,192,110250,1,0,0:0:0:0:
36,192,110403,1,0,0:0:0:0:
402,192,110403,1,0,0:0:0:0:
475,192,110403,1,0,0:0:0:0:
256,192,110403,1,0,0:0:0:0:
109,192,110480,1,0,0:0:0:0:
329,192,110480,1,0,0:0:0:0:
182,192,110556,1,0,0:0:0:0:
475,192,110556,1,0,0:0:0:0:
256,192,110556,1,0,0:0:0:0:
402,192,110633,1,0,0:0:0:0:
109,192,110633,1,0,0:0:0:0:
329,192,110709,1,0,0:0:0:0:
36,192,110709,1,0,0:0:0:0:
256,192,110709,1,0,0:0:0:0:
402,192,110786,1,0,0:0:0:0:
109,192,110786,1,0,0:0:0:0:
182,192,110862,128,0,111934:0:0:0:0:
329,192,110862,128,0,111934:0:0:0:0:
475,192,110862,128,0,111934:0:0:0:0:
36,192,110862,128,0,111934:0:0:0:0:
256,192,111168,1,0,0:0:0:0:
256,192,111322,1,0,0:0:0:0:
256,192,111628,1,0,0:0:0:0:
256,192,111781,1,0,0:0:0:0:
256,192,111934,1,0,0:0:0:0:
109,192,111934,128,0,112852:0:0:0:0:
402,192,111934,128,0,112852:0:0:0:0:
256,192,112087,1,0,0:0:0:0:
256,192,112240,1,0,0:0:0:0:
256,192,112393,1,0,0:0:0:0:
256,192,112546,1,0,0:0:0:0:
256,192,112852,1,0,0:0:0:0:
256,192,113005,1,0,0:0:0:0:
256,192,113158,1,0,0:0:0:0:
182,192,113311,1,0,0:0:0:0:
109,192,113311,1,0,0:0:0:0:
329,192,113311,1,0,0:0:0:0:
402,192,113311,1,0,0:0:0:0:
109,192,113617,1,0,0:0:0:0:
36,192,113617,1,0,0:0:0:0:
402,192,113617,1,0,0:0:0:0:
475,192,113617,1,0,0:0:0:0:
182,192,113924,1,0,0:0:0:0:
36,192,113924,1,0,0:0:0:0:
329,192,113924,1,0,0:0:0:0:
475,192,113924,1,0,0:0:0:0:
475,192,114077,1,0,0:0:0:0:
329,192,114077,1,0,0:0:0:0:
182,192,114077,1,0,0:0:0:0:
36,192,114077,1,0,0:0:0:0:
182,192,114383,1,0,0:0:0:0:
109,192,114383,1,0,0:0:0:0:
36,192,114383,1,0,0:0:0:0:
329,192,114383,1,0,0:0:0:0:
402,192,114383,1,0,0:0:0:0:
475,192,114383,1,0,0:0:0:0:
475,192,114689,1,0,0:0:0:0:
36,192,114689,1,0,0:0:0:0:
329,192,114689,1,0,0:0:0:0:
402,192,114689,1,0,0:0:0:0:
256,192,114689,1,0,0:0:0:0:
182,192,114765,1,0,0:0:0:0:
36,192,114842,1,0,0:0:0:0:
475,192,114842,1,0,0:0:0:0:
402,192,114842,1,0,0:0:0:0:
329,192,114842,1,0,0:0:0:0:
109,192,114842,1,0,0:0:0:0:
256,192,114918,1,0,0:0:0:0:
475,192,114995,1,0,0:0:0:0:
36,192,114995,1,0,0:0:0:0:
109,192,114995,1,0,0:0:0:0:
402,192,114995,1,0,0:0:0:0:
182,192,114995,1,0,0:0:0:0:
329,192,115072,1,0,0:0:0:0:
36,192,115148,1,0,0:0:0:0:
475,192,115148,1,0,0:0:0:0:
109,192,115148,1,0,0:0:0:0:
182,192,115148,1,0,0:0:0:0:
256,192,115148,1,0,0:0:0:0:
402,192,115225,1,0,0:0:0:0:
256,192,115301,128,0,115760:0:0:0:0:
182,192,115301,1,0,0:0:0:0:
109,192,115301,1,0,0:0:0:0:
36,192,115301,1,0,0:0:0:0:
329,192,115301,1,0,0:0:0:0:
109,192,115760,1,0,0:0:0:0:
182,192,115760,1,0,0:0:0:0:
329,192,115760,1,0,0:0:0:0:
402,192,115760,1,0,0:0:0:0:
36,192,116066,1,0,0:0:0:0:
182,192,116066,1,0,0:0:0:0:
329,192,116066,1,0,0:0:0:0:
475,192,116066,1,0,0:0:0:0:
475,192,116373,1,0,0:0:0:0:
182,192,116373,1,0,0:0:0:0:
109,192,116373,1,0,0:0:0:0:
36,192,116373,1,0,0:0:0:0:
256,192,116373,1,0,0:0:0:0:
329,192,116449,1,0,0:0:0:0:
109,192,116526,1,0,0:0:0:0:
36,192,116526,1,0,0:0:0:0:
402,192,116526,1,0,0:0:0:0:
475,192,116526,1,0,0:0:0:0:
182,192,116526,1,0,0:0:0:0:
256,192,116602,1,0,0:0:0:0:
36,192,116679,1,0,0:0:0:0:
329,192,116679,1,0,0:0:0:0:
402,192,116679,1,0,0:0:0:0:
475,192,116679,1,0,0:0:0:0:
109,192,116679,1,0,0:0:0:0:
182,192,116755,1,0,0:0:0:0:
36,192,116832,1,0,0:0:0:0:
475,192,116832,1,0,0:0:0:0:
256,192,116832,1,0,0:0:0:0:
402,192,116832,1,0,0:0:0:0:
109,192,116832,1,0,0:0:0:0:
256,192,117138,1,0,0:0:0:0:
182,192,117138,1,0,0:0:0:0:
329,192,117138,1,0,0:0:0:0:
475,192,117138,1,0,0:0:0:0:
36,192,117138,1,0,0:0:0:0:
329,192,117444,1,0,0:0:0:0:
182,192,117444,1,0,0:0:0:0:
256,192,117444,1,0,0:0:0:0:
402,192,117444,1,0,0:0:0:0:
109,192,117444,1,0,0:0:0:0:
329,192,117750,1,0,0:0:0:0:
36,192,117750,1,0,0:0:0:0:
402,192,117750,1,0,0:0:0:0:
475,192,117750,1,0,0:0:0:0:
256,192,117750,1,0,0:0:0:0:
182,192,117827,1,0,0:0:0:0:
109,192,117903,1,0,0:0:0:0:
402,192,117903,1,0,0:0:0:0:
475,192,117903,1,0,0:0:0:0:
36,192,117903,1,0,0:0:0:0:
329,192,117903,1,0,0:0:0:0:
256,192,117980,1,0,0:0:0:0:
182,192,118056,1,0,0:0:0:0:
475,192,118056,1,0,0:0:0:0:
36,192,118056,1,0,0:0:0:0:
109,192,118056,1,0,0:0:0:0:
402,192,118056,1,0,0:0:0:0:
329,192,118133,1,0,0:0:0:0:
182,192,118209,1,0,0:0:0:0:
109,192,118209,1,0,0:0:0:0:
36,192,118209,1,0,0:0:0:0:
256,192,118209,1,0,0:0:0:0:
475,192,118209,1,0,0:0:0:0:
329,192,118362,1,0,0:0:0:0:
182,192,118515,1,0,0:0:0:0:
36,192,118515,1,0,0:0:0:0:
109,192,118515,1,0,0:0:0:0:
402,192,118515,1,0,0:0:0:0:
475,192,118515,1,0,0:0:0:0:
256,192,118668,1,0,0:0:0:0:
329,192,118822,1,0,0:0:0:0:
402,192,118822,1,0,0:0:0:0:
475,192,118822,1,0,0:0:0:0:
109,192,118822,1,0,0:0:0:0:
36,192,118822,1,0,0:0:0:0:
256,192,118975,1,0,0:0:0:0:
329,192,118975,1,0,0:0:0:0:
402,192,118975,1,0,0:0:0:0:
475,192,118975,1,0,0:0:0:0:
36,192,118975,1,0,0:0:0:0:
182,192,119281,128,0,119587:0:0:0:0:
329,192,119281,128,0,119587:0:0:0:0:
475,192,119281,128,0,119740:0:0:0:0:
36,192,119281,128,0,119740:0:0:0:0:
256,192,119587,1,0,0:0:0:0:
109,192,119740,1,0,0:0:0:0:
182,192,119740,1,0,0:0:0:0:
402,192,119740,1,0,0:0:0:0:
329,192,119740,1,0,0:0:0:0:
36,192,120046,1,0,0:0:0:0:
109,192,120046,1,0,0:0:0:0:
182,192,120046,1,0,0:0:0:0:
256,192,120046,1,0,0:0:0:0:
329,192,120046,1,0,0:0:0:0:
402,192,120046,1,0,0:0:0:0:
475,192,120046,1,0,0:0:0:0:
36,192,120199,1,0,0:0:0:0:
475,192,120199,1,0,0:0:0:0:
109,192,120199,1,0,0:0:0:0:
402,192,120199,1,0,0:0:0:0:
256,192,120276,1,0,0:0:0:0:
182,192,120276,1,0,0:0:0:0:
329,192,120276,1,0,0:0:0:0:
475,192,120352,1,0,0:0:0:0:
36,192,120352,1,0,0:0:0:0:
109,192,120352,1,0,0:0:0:0:
402,192,120352,1,0,0:0:0:0:
109,192,120505,1,0,0:0:0:0:
182,192,120505,1,0,0:0:0:0:
256,192,120505,1,0,0:0:0:0:
329,192,120505,1,0,0:0:0:0:
402,192,120505,1,0,0:0:0:0:
475,192,120811,1,0,0:0:0:0:
402,192,120964,1,0,0:0:0:0:
475,192,120964,1,0,0:0:0:0:
329,192,121117,1,0,0:0:0:0:
475,192,121117,1,0,0:0:0:0:
402,192,121117,1,0,0:0:0:0:
256,192,121270,1,0,0:0:0:0:
475,192,121270,1,0,0:0:0:0:
402,192,121270,1,0,0:0:0:0:
329,192,121270,1,0,0:0:0:0:
182,192,121424,1,0,0:0:0:0:
256,192,121424,1,0,0:0:0:0:
329,192,121424,1,0,0:0:0:0:
402,192,121424,1,0,0:0:0:0:
475,192,121424,1,0,0:0:0:0:
109,192,121577,1,0,0:0:0:0:
475,192,121577,1,0,0:0:0:0:
329,192,121577,1,0,0:0:0:0:
402,192,121577,1,0,0:0:0:0:
256,192,121577,1,0,0:0:0:0:
182,192,121577,1,0,0:0:0:0:
36,192,121730,1,0,0:0:0:0:
109,192,121730,1,0,0:0:0:0:
182,192,121730,1,0,0:0:0:0:
256,192,121730,1,0,0:0:0:0:
329,192,121730,1,0,0:0:0:0:
402,192,121730,1,0,0:0:0:0:
475,192,121730,1,0,0:0:0:0:
109,192,122036,1,0,0:0:0:0:
182,192,122036,1,0,0:0:0:0:
256,192,122036,1,0,0:0:0:0:
329,192,122036,1,0,0:0:0:0:
402,192,122036,1,0,0:0:0:0:
109,192,122342,1,0,0:0:0:0:
182,192,122342,1,0,0:0:0:0:
256,192,122342,1,0,0:0:0:0:
329,192,122342,1,0,0:0:0:0:
402,192,122342,1,0,0:0:0:0:
36,192,122495,1,0,0:0:0:0:
109,192,122495,1,0,0:0:0:0:
256,192,122495,1,0,0:0:0:0:
402,192,122495,1,0,0:0:0:0:
475,192,122495,1,0,0:0:0:0:
329,192,122495,1,0,0:0:0:0:
182,192,122495,1,0,0:0:0:0:
