osu file format v14

[General]
AudioFilename: lon lon.mp3
AudioLeadIn: 0
PreviewTime: 77743
Countdown: 0
SampleSet: None
StackLeniency: 0.7
Mode: 3
LetterboxInBreaks: 0
SpecialStyle: 0
WidescreenStoryboard: 0

[Editor]
Bookmarks: 105876
DistanceSpacing: 0.8
BeatDivisor: 4
GridSize: 8
TimelineZoom: 3.499998

[Metadata]
Title:__M A S__ Vol. 2
TitleUnicode:__M A S__ Vol. 2
Artist:Various
ArtistUnicode:Various
Creator:[ C r a c k ]
Version:Kokonatsu - Lonlone Rairairai! - 7K MX
Source:
Tags:
BeatmapID:1144462
BeatmapSetID:539671

[Difficulty]
HPDrainRate:8
CircleSize:7
OverallDifficulty:5
ApproachRate:5
SliderMultiplier:1.4
SliderTickRate:1

[Events]
//Background and Video events
0,0,"lonlone.png",0,0
//Break Periods
//Storyboard Layer 0 (Background)
//Storyboard Layer 1 (Fail)
//Storyboard Layer 2 (Pass)
//Storyboard Layer 3 (Foreground)
//Storyboard Sound Samples

[TimingPoints]
1301,384.615384615385,4,2,0,0,1,0
16301,-66.6666666666667,4,2,0,0,0,0
16493,-133.333333333333,4,2,0,0,0,0
16685,-100,4,2,0,0,0,0
17839,-333.333333333333,4,2,0,0,0,0
18031,-66.6666666666667,4,2,0,0,0,0
18224,-100,4,2,0,0,0,0
19377,-333.333333333333,4,2,0,0,0,0
19570,-66.6666666666667,4,2,0,0,0,0
19762,-100,4,2,0,0,0,0
21301,-66.6666666666667,4,2,0,0,0,0
21397,-133.333333333333,4,2,0,0,0,0
21493,-100,4,2,0,0,0,0
21685,-66.6666666666667,4,2,0,0,0,0
21781,-133.333333333333,4,2,0,0,0,0
21877,-100,4,2,0,0,0,0
22070,-66.6666666666667,4,2,0,0,0,0
22166,-133.333333333333,4,2,0,0,0,0
22262,-100,4,2,0,0,0,0
22454,-66.6666666666667,4,2,0,0,0,0
22647,-133.333333333333,4,2,0,0,0,0
22839,-100,4,2,0,0,0,0
23993,-333.333333333333,4,2,0,0,0,0
24185,-66.6666666666667,4,2,0,0,0,0
24377,-100,4,2,0,0,0,0
25531,-333.333333333333,4,2,0,0,0,0
25724,-66.6666666666667,4,2,0,0,0,0
25916,-100,4,2,0,0,0,0
27454,-200,4,2,0,0,0,0
27599,-66.6666666666667,4,2,0,0,0,0
27743,-200,4,2,0,0,0,0
27887,-66.6666666666667,4,2,0,0,0,0
28031,-133.333333333333,4,2,0,0,0,0
28127,-80,4,2,0,0,0,0
28224,-100,4,2,0,0,0,0
33608,-200,4,2,0,0,0,0
33752,-66.6666666666667,4,2,0,0,0,0
33897,-200,4,2,0,0,0,0
34041,-66.6666666666667,4,2,0,0,0,0
34185,-133.333333333333,4,2,0,0,0,0
34281,-66.6666666666667,4,2,0,0,0,0
34377,-100,4,2,0,0,0,0
34762,-10,4,2,0,0,0,0
34792,-100,4,2,0,0,0,0
35147,-100,4,2,0,0,0,0
38993,-200,4,2,0,0,0,0
39137,-66.6666666666667,4,2,0,0,0,0
39281,-100,4,2,0,0,0,0
39762,-66.6666666666667,4,2,0,0,0,0
39858,-133.333333333333,4,2,0,0,0,0
39954,-100,4,2,0,0,0,0
40147,-66.6666666666667,4,2,0,0,0,0
40243,-133.333333333333,4,2,0,0,0,0
40339,-100,4,2,0,0,0,0
40531,-66.6666666666667,4,2,0,0,0,0
40627,-133.333333333333,4,2,0,0,0,0
40724,-100,4,2,0,0,0,0
45147,-66.6666666666667,4,2,0,0,0,0
45339,-133.333333333333,4,2,0,0,0,0
45531,-66.6666666666667,4,2,0,0,0,0
45627,-133.333333333333,4,2,0,0,0,0
45724,-66.6666666666667,4,2,0,0,0,0
45820,-133.333333333333,4,2,0,0,0,0
45916,-50,4,2,0,0,0,0
46108,-200,4,2,0,0,0,0
46301,-50,4,2,0,0,0,0
46493,-200,4,2,0,0,0,0
46685,-100,4,2,0,0,0,0
52070,-50,4,2,0,0,0,0
52262,-333.333333333333,4,2,0,0,0,0
52454,-50,4,2,0,0,0,0
52647,-333.333333333333,4,2,0,0,0,0
52839,-50,4,2,0,0,0,0
53031,-333.333333333333,4,2,0,0,0,0
53224,-50,4,2,0,0,0,0
53416,-333.333333333333,4,2,0,0,0,0
53608,-100,4,2,0,0,0,0
58224,-66.6666666666667,4,2,0,0,0,0
58320,-133.333333333333,4,2,0,0,0,0
58416,-100,4,2,0,0,0,0
58608,-66.6666666666667,4,2,0,0,0,0
58704,-133.333333333333,4,2,0,0,0,0
58801,-100,4,2,0,0,0,0
76685,-200,4,2,0,0,0,0
76829,-66.6666666666667,4,2,0,0,0,0
76974,-200,4,2,0,0,0,0
77118,-66.6666666666667,4,2,0,0,0,0
77262,-133.333333333333,4,2,0,0,0,0
77358,-66.6666666666667,4,2,0,0,0,0
77647,-133.333333333333,4,2,0,0,0,0
77839,-50,4,2,0,0,0,0
78031,-333.333333333333,4,2,0,0,0,0
78224,-10,4,2,0,0,0,0
78254,-117.647058823529,4,2,0,0,0,0
78608,-10,4,2,0,0,0,0
78638,-117.647058823529,4,2,0,0,0,0
78993,-10,4,2,0,0,0,0
79023,-117.647058823529,4,2,0,0,0,0
79377,-100,4,2,0,0,0,0
84377,-10,4,2,0,0,0,0
84407,-117.647058823529,4,2,0,0,0,0
84762,-10,4,2,0,0,0,0
84792,-117.647058823529,4,2,0,0,0,0
85147,-10,4,2,0,0,0,0
85177,-117.647058823529,4,2,0,0,0,0
85531,-100,4,2,0,0,0,0
90531,-10,4,2,0,0,0,0
90561,-117.647058823529,4,2,0,0,0,0
90916,-10,4,2,0,0,0,0
90946,-117.647058823529,4,2,0,0,0,0
91301,-10,4,2,0,0,0,0
91331,-117.647058823529,4,2,0,0,0,0
91685,-100,4,2,0,0,0,0
95916,-50,4,2,0,0,0,0
96108,-200,4,2,0,0,0,0
96301,-50,4,2,0,0,0,0
96493,-200,4,2,0,0,0,0
96685,-10,4,2,0,0,0,0
97104,-117.647058823529,4,2,0,0,0,0
97454,-100,4,2,0,0,0,0
101301,-50,4,2,0,0,0,0
101493,-200,4,2,0,0,0,0
101685,-50,4,2,0,0,0,0
101877,-200,4,2,0,0,0,0
102070,-50,4,2,0,0,0,0
102262,-200,4,2,0,0,0,0
102454,-50,4,2,0,0,0,0
102647,-200,4,2,0,0,0,0
102839,-10,4,2,0,0,0,0
103127,-117.647058823529,4,2,0,0,0,0
103608,-10,4,2,0,0,0,0
103897,-117.647058823529,4,2,0,0,0,0
104377,-10,4,2,0,0,0,0
104666,-117.647058823529,4,2,0,0,0,0
105147,-100,4,2,0,0,0,0
107070,-333.333333333333,4,2,0,0,0,0
107262,-66.6666666666667,4,2,0,0,0,0
107454,-100,4,2,0,0,0,0
108608,-333.333333333333,4,2,0,0,0,0
108801,-66.6666666666667,4,2,0,0,0,0
108993,-100,4,2,0,0,0,0
110531,-66.6666666666667,4,2,0,0,0,0
110627,-133.333333333333,4,2,0,0,0,0
110724,-100,4,2,0,0,0,0
110916,-66.6666666666667,4,2,0,0,0,0
111012,-133.333333333333,4,2,0,0,0,0
111108,-100,4,2,0,0,0,0
111301,-66.6666666666667,4,2,0,0,0,0
111397,-133.333333333333,4,2,0,0,0,0
111493,-100,4,2,0,0,0,0
111685,-66.6666666666667,4,2,0,0,0,0
111877,-133.333333333333,4,2,0,0,0,0
112070,-100,4,2,0,0,0,0
113224,-333.333333333333,4,2,0,0,0,0
113416,-66.6666666666667,4,2,0,0,0,0
113608,-100,4,2,0,0,0,0
114762,-333.333333333333,4,2,0,0,0,0
114954,-66.6666666666667,4,2,0,0,0,0
115147,-100,4,2,0,0,0,0
116685,-200,4,2,0,0,0,0
116829,-66.6666666666667,4,2,0,0,0,0
116974,-200,4,2,0,0,0,0
117118,-66.6666666666667,4,2,0,0,0,0
117262,-200,4,2,0,0,0,0
117358,-66.6666666666667,4,2,0,0,0,0
117454,-100,4,2,0,0,0,0

[HitObjects]
475,192,1301,5,0,0:0:0:0:
36,192,1301,128,0,1685:0:0:0:0:
329,192,1301,1,0,0:0:0:0:
402,192,1685,128,0,2070:0:0:0:0:
109,192,1685,1,0,0:0:0:0:
256,192,1685,1,0,0:0:0:0:
109,192,2070,128,0,2454:0:0:0:0:
329,192,2070,1,0,0:0:0:0:
256,192,2070,1,0,0:0:0:0:
475,192,2454,128,0,2839:0:0:0:0:
182,192,2454,1,0,0:0:0:0:
256,192,2454,1,0,0:0:0:0:
36,192,2839,128,0,3224:0:0:0:0:
329,192,2839,1,0,0:0:0:0:
182,192,2839,1,0,0:0:0:0:
402,192,3224,128,0,3608:0:0:0:0:
182,192,3224,1,0,0:0:0:0:
329,192,3224,1,0,0:0:0:0:
109,192,3608,128,0,4377:0:0:0:0:
329,192,3608,1,0,0:0:0:0:
402,192,3672,1,0,0:0:0:0:
329,192,3736,1,0,0:0:0:0:
402,192,3801,1,0,0:0:0:0:
329,192,3865,1,0,0:0:0:0:
402,192,3929,1,0,0:0:0:0:
329,192,3993,1,0,0:0:0:0:
402,192,4057,1,0,0:0:0:0:
329,192,4121,1,0,0:0:0:0:
402,192,4185,1,0,0:0:0:0:
329,192,4249,1,0,0:0:0:0:
402,192,4313,1,0,0:0:0:0:
329,192,4377,128,0,4762:0:0:0:0:
36,192,4377,1,0,0:0:0:0:
36,192,4762,128,0,5147:0:0:0:0:
256,192,4762,1,0,0:0:0:0:
475,192,4762,1,0,0:0:0:0:
402,192,5147,128,0,5531:0:0:0:0:
109,192,5147,1,0,0:0:0:0:
182,192,5339,1,0,0:0:0:0:
182,192,5531,128,0,5916:0:0:0:0:
329,192,5531,1,0,0:0:0:0:
402,192,5724,1,0,0:0:0:0:
475,192,5916,128,0,6301:0:0:0:0:
256,192,5916,1,0,0:0:0:0:
109,192,5916,1,0,0:0:0:0:
109,192,6301,128,0,6685:0:0:0:0:
256,192,6301,1,0,0:0:0:0:
402,192,6301,1,0,0:0:0:0:
402,192,6685,128,0,7454:0:0:0:0:
182,192,6685,1,0,0:0:0:0:
109,192,6749,1,0,0:0:0:0:
182,192,6813,1,0,0:0:0:0:
109,192,6877,1,0,0:0:0:0:
182,192,6942,1,0,0:0:0:0:
109,192,7006,1,0,0:0:0:0:
182,192,7070,1,0,0:0:0:0:
109,192,7134,1,0,0:0:0:0:
182,192,7198,1,0,0:0:0:0:
109,192,7262,1,0,0:0:0:0:
182,192,7326,1,0,0:0:0:0:
109,192,7390,1,0,0:0:0:0:
182,192,7454,1,0,0:0:0:0:
475,192,7647,1,0,0:0:0:0:
402,192,7647,1,0,0:0:0:0:
109,192,7839,1,0,0:0:0:0:
402,192,8031,1,0,0:0:0:0:
329,192,8031,1,0,0:0:0:0:
36,192,8224,1,0,0:0:0:0:
109,192,8224,1,0,0:0:0:0:
402,192,8416,1,0,0:0:0:0:
182,192,8608,1,0,0:0:0:0:
109,192,8608,1,0,0:0:0:0:
475,192,8801,1,0,0:0:0:0:
182,192,8993,1,0,0:0:0:0:
36,192,8993,1,0,0:0:0:0:
402,192,9185,1,0,0:0:0:0:
256,192,9185,1,0,0:0:0:0:
109,192,9377,128,0,10531:0:0:0:0:
182,192,9762,128,0,10531:0:0:0:0:
36,192,9762,128,0,10531:0:0:0:0:
475,192,9762,1,0,0:0:0:0:
329,192,9826,1,0,0:0:0:0:
475,192,9890,1,0,0:0:0:0:
329,192,9954,1,0,0:0:0:0:
475,192,10018,1,0,0:0:0:0:
329,192,10083,1,0,0:0:0:0:
475,192,10147,1,0,0:0:0:0:
329,192,10211,1,0,0:0:0:0:
475,192,10275,1,0,0:0:0:0:
329,192,10339,1,0,0:0:0:0:
475,192,10403,1,0,0:0:0:0:
329,192,10467,1,0,0:0:0:0:
475,192,10531,1,0,0:0:0:0:
402,192,10724,1,0,0:0:0:0:
36,192,11108,1,0,0:0:0:0:
329,192,11108,1,0,0:0:0:0:
182,192,11301,1,0,0:0:0:0:
402,192,11685,1,0,0:0:0:0:
109,192,11685,1,0,0:0:0:0:
256,192,11877,1,0,0:0:0:0:
182,192,12070,1,0,0:0:0:0:
36,192,12070,1,0,0:0:0:0:
329,192,12070,1,0,0:0:0:0:
475,192,12070,1,0,0:0:0:0:
182,192,12454,1,0,0:0:0:0:
36,192,12454,1,0,0:0:0:0:
329,192,12454,1,0,0:0:0:0:
475,192,12454,1,0,0:0:0:0:
182,192,12839,1,0,0:0:0:0:
329,192,12839,1,0,0:0:0:0:
475,192,12839,1,0,0:0:0:0:
36,192,12903,1,0,0:0:0:0:
182,192,12967,1,0,0:0:0:0:
36,192,13031,1,0,0:0:0:0:
182,192,13095,1,0,0:0:0:0:
36,192,13159,1,0,0:0:0:0:
182,192,13224,1,0,0:0:0:0:
36,192,13288,1,0,0:0:0:0:
182,192,13352,1,0,0:0:0:0:
36,192,13416,1,0,0:0:0:0:
182,192,13480,1,0,0:0:0:0:
36,192,13544,1,0,0:0:0:0:
182,192,13608,1,0,0:0:0:0:
329,192,13608,1,0,0:0:0:0:
475,192,13608,1,0,0:0:0:0:
182,192,14377,1,0,0:0:0:0:
329,192,14377,1,0,0:0:0:0:
182,192,15147,1,0,0:0:0:0:
36,192,15147,1,0,0:0:0:0:
109,192,15531,1,0,0:0:0:0:
256,192,15531,1,0,0:0:0:0:
182,192,15916,1,0,0:0:0:0:
329,192,15916,1,0,0:0:0:0:
256,192,16301,1,0,0:0:0:0:
402,192,16301,1,0,0:0:0:0:
109,192,16301,1,0,0:0:0:0:
475,192,16301,1,0,0:0:0:0:
36,192,16301,1,0,0:0:0:0:
329,192,16685,1,0,0:0:0:0:
109,192,16685,1,0,0:0:0:0:
475,192,16685,1,0,0:0:0:0:
256,192,16781,1,0,0:0:0:0:
36,192,16877,1,0,0:0:0:0:
182,192,16877,1,0,0:0:0:0:
402,192,16877,1,0,0:0:0:0:
256,192,16974,1,0,0:0:0:0:
329,192,17070,1,0,0:0:0:0:
109,192,17070,1,0,0:0:0:0:
36,192,17070,1,0,0:0:0:0:
475,192,17070,1,0,0:0:0:0:
329,192,17262,1,0,0:0:0:0:
475,192,17262,1,0,0:0:0:0:
109,192,17262,1,0,0:0:0:0:
182,192,17262,1,0,0:0:0:0:
182,192,17454,1,0,0:0:0:0:
36,192,17454,1,0,0:0:0:0:
402,192,17454,1,0,0:0:0:0:
329,192,17454,1,0,0:0:0:0:
329,192,17647,1,0,0:0:0:0:
256,192,17647,1,0,0:0:0:0:
109,192,17647,1,0,0:0:0:0:
402,192,17839,1,0,0:0:0:0:
475,192,17839,1,0,0:0:0:0:
182,192,17839,1,0,0:0:0:0:
36,192,17839,1,0,0:0:0:0:
329,192,17839,1,0,0:0:0:0:
402,192,18224,1,0,0:0:0:0:
182,192,18224,1,0,0:0:0:0:
109,192,18224,1,0,0:0:0:0:
475,192,18224,1,0,0:0:0:0:
256,192,18320,1,0,0:0:0:0:
329,192,18416,1,0,0:0:0:0:
36,192,18416,1,0,0:0:0:0:
475,192,18416,1,0,0:0:0:0:
256,192,18512,1,0,0:0:0:0:
182,192,18608,1,0,0:0:0:0:
402,192,18608,1,0,0:0:0:0:
475,192,18608,1,0,0:0:0:0:
36,192,18608,1,0,0:0:0:0:
402,192,18801,1,0,0:0:0:0:
109,192,18801,1,0,0:0:0:0:
329,192,18801,1,0,0:0:0:0:
256,192,18801,1,0,0:0:0:0:
402,192,18993,1,0,0:0:0:0:
182,192,18993,1,0,0:0:0:0:
475,192,18993,1,0,0:0:0:0:
36,192,18993,1,0,0:0:0:0:
402,192,19185,1,0,0:0:0:0:
109,192,19185,1,0,0:0:0:0:
256,192,19185,1,0,0:0:0:0:
402,192,19377,1,0,0:0:0:0:
36,192,19377,1,0,0:0:0:0:
329,192,19377,1,0,0:0:0:0:
475,192,19377,1,0,0:0:0:0:
182,192,19377,1,0,0:0:0:0:
402,192,19762,1,0,0:0:0:0:
329,192,19762,1,0,0:0:0:0:
182,192,19762,1,0,0:0:0:0:
36,192,19762,1,0,0:0:0:0:
475,192,19858,1,0,0:0:0:0:
402,192,19954,1,0,0:0:0:0:
109,192,19954,1,0,0:0:0:0:
182,192,19954,1,0,0:0:0:0:
329,192,20051,1,0,0:0:0:0:
475,192,20147,1,0,0:0:0:0:
402,192,20147,1,0,0:0:0:0:
109,192,20147,1,0,0:0:0:0:
36,192,20147,1,0,0:0:0:0:
182,192,20147,1,0,0:0:0:0:
329,192,20339,1,0,0:0:0:0:
402,192,20339,1,0,0:0:0:0:
182,192,20339,1,0,0:0:0:0:
36,192,20339,1,0,0:0:0:0:
256,192,20531,1,0,0:0:0:0:
109,192,20531,1,0,0:0:0:0:
475,192,20531,1,0,0:0:0:0:
402,192,20531,1,0,0:0:0:0:
182,192,20724,1,0,0:0:0:0:
329,192,20724,1,0,0:0:0:0:
109,192,20724,1,0,0:0:0:0:
36,192,20724,1,0,0:0:0:0:
402,192,20916,1,0,0:0:0:0:
475,192,20916,1,0,0:0:0:0:
182,192,20916,1,0,0:0:0:0:
256,192,20916,1,0,0:0:0:0:
109,192,21108,1,0,0:0:0:0:
256,192,21108,1,0,0:0:0:0:
402,192,21108,1,0,0:0:0:0:
36,192,21108,1,0,0:0:0:0:
182,192,21204,1,0,0:0:0:0:
329,192,21301,1,0,0:0:0:0:
36,192,21301,1,0,0:0:0:0:
109,192,21301,1,0,0:0:0:0:
475,192,21301,1,0,0:0:0:0:
182,192,21493,1,0,0:0:0:0:
256,192,21685,1,0,0:0:0:0:
402,192,21685,1,0,0:0:0:0:
475,192,21685,1,0,0:0:0:0:
109,192,21685,1,0,0:0:0:0:
36,192,21685,1,0,0:0:0:0:
329,192,21877,1,0,0:0:0:0:
402,192,22070,1,0,0:0:0:0:
475,192,22070,1,0,0:0:0:0:
256,192,22070,1,0,0:0:0:0:
182,192,22070,1,0,0:0:0:0:
36,192,22070,1,0,0:0:0:0:
109,192,22262,1,0,0:0:0:0:
256,192,22454,1,0,0:0:0:0:
182,192,22454,1,0,0:0:0:0:
36,192,22454,1,0,0:0:0:0:
475,192,22454,1,0,0:0:0:0:
329,192,22454,1,0,0:0:0:0:
256,192,22839,1,0,0:0:0:0:
36,192,22839,1,0,0:0:0:0:
402,192,22839,1,0,0:0:0:0:
475,192,22839,1,0,0:0:0:0:
182,192,22935,1,0,0:0:0:0:
329,192,23031,1,0,0:0:0:0:
402,192,23031,1,0,0:0:0:0:
109,192,23031,1,0,0:0:0:0:
256,192,23127,1,0,0:0:0:0:
475,192,23224,1,0,0:0:0:0:
402,192,23224,1,0,0:0:0:0:
182,192,23224,1,0,0:0:0:0:
36,192,23224,1,0,0:0:0:0:
256,192,23416,1,0,0:0:0:0:
329,192,23416,1,0,0:0:0:0:
109,192,23416,1,0,0:0:0:0:
475,192,23416,1,0,0:0:0:0:
182,192,23608,1,0,0:0:0:0:
36,192,23608,1,0,0:0:0:0:
329,192,23608,1,0,0:0:0:0:
402,192,23608,1,0,0:0:0:0:
109,192,23801,1,0,0:0:0:0:
256,192,23801,1,0,0:0:0:0:
402,192,23801,1,0,0:0:0:0:
329,192,23993,1,0,0:0:0:0:
475,192,23993,1,0,0:0:0:0:
182,192,23993,1,0,0:0:0:0:
36,192,23993,1,0,0:0:0:0:
109,192,24377,1,0,0:0:0:0:
402,192,24377,1,0,0:0:0:0:
329,192,24377,1,0,0:0:0:0:
36,192,24377,1,0,0:0:0:0:
256,192,24474,1,0,0:0:0:0:
475,192,24570,1,0,0:0:0:0:
36,192,24570,1,0,0:0:0:0:
182,192,24570,1,0,0:0:0:0:
402,192,24666,1,0,0:0:0:0:
36,192,24762,1,0,0:0:0:0:
329,192,24762,1,0,0:0:0:0:
182,192,24762,1,0,0:0:0:0:
109,192,24762,1,0,0:0:0:0:
256,192,24954,1,0,0:0:0:0:
402,192,24954,1,0,0:0:0:0:
182,192,24954,1,0,0:0:0:0:
109,192,24954,1,0,0:0:0:0:
182,192,25147,1,0,0:0:0:0:
475,192,25147,1,0,0:0:0:0:
402,192,25147,1,0,0:0:0:0:
36,192,25147,1,0,0:0:0:0:
182,192,25339,1,0,0:0:0:0:
329,192,25339,1,0,0:0:0:0:
402,192,25339,1,0,0:0:0:0:
109,192,25339,1,0,0:0:0:0:
182,192,25531,1,0,0:0:0:0:
256,192,25531,1,0,0:0:0:0:
329,192,25531,1,0,0:0:0:0:
36,192,25531,1,0,0:0:0:0:
475,192,25531,1,0,0:0:0:0:
36,192,25916,1,0,0:0:0:0:
182,192,25916,1,0,0:0:0:0:
329,192,25916,1,0,0:0:0:0:
402,192,26012,1,0,0:0:0:0:
475,192,26108,1,0,0:0:0:0:
256,192,26108,1,0,0:0:0:0:
109,192,26108,1,0,0:0:0:0:
329,192,26204,1,0,0:0:0:0:
402,192,26301,1,0,0:0:0:0:
475,192,26301,1,0,0:0:0:0:
36,192,26301,1,0,0:0:0:0:
109,192,26301,1,0,0:0:0:0:
182,192,26301,1,0,0:0:0:0:
256,192,26493,1,0,0:0:0:0:
109,192,26493,1,0,0:0:0:0:
329,192,26493,1,0,0:0:0:0:
402,192,26685,1,0,0:0:0:0:
475,192,26685,1,0,0:0:0:0:
109,192,26685,1,0,0:0:0:0:
182,192,26685,1,0,0:0:0:0:
36,192,26877,1,0,0:0:0:0:
402,192,26877,1,0,0:0:0:0:
109,192,26877,1,0,0:0:0:0:
256,192,26877,1,0,0:0:0:0:
475,192,27070,1,0,0:0:0:0:
329,192,27070,1,0,0:0:0:0:
182,192,27070,1,0,0:0:0:0:
36,192,27070,1,0,0:0:0:0:
256,192,27262,1,0,0:0:0:0:
182,192,27454,1,0,0:0:0:0:
36,192,27454,1,0,0:0:0:0:
402,192,27454,1,0,0:0:0:0:
475,192,27454,1,0,0:0:0:0:
256,192,27743,1,0,0:0:0:0:
109,192,27743,1,0,0:0:0:0:
475,192,27743,1,0,0:0:0:0:
402,192,27743,1,0,0:0:0:0:
109,192,28031,1,0,0:0:0:0:
36,192,28031,1,0,0:0:0:0:
256,192,28031,1,0,0:0:0:0:
402,192,28031,1,0,0:0:0:0:
109,192,28224,1,0,0:0:0:0:
36,192,28224,1,0,0:0:0:0:
329,192,28224,1,0,0:0:0:0:
475,192,28224,1,0,0:0:0:0:
256,192,28416,1,0,0:0:0:0:
402,192,28416,1,0,0:0:0:0:
182,192,28608,1,0,0:0:0:0:
329,192,28608,1,0,0:0:0:0:
256,192,28801,1,0,0:0:0:0:
109,192,28801,1,0,0:0:0:0:
36,192,28993,1,0,0:0:0:0:
182,192,28993,1,0,0:0:0:0:
329,192,28993,1,0,0:0:0:0:
402,192,29089,1,0,0:0:0:0:
109,192,29185,1,0,0:0:0:0:
256,192,29185,1,0,0:0:0:0:
329,192,29281,1,0,0:0:0:0:
36,192,29377,1,0,0:0:0:0:
182,192,29377,1,0,0:0:0:0:
475,192,29377,1,0,0:0:0:0:
402,192,29377,1,0,0:0:0:0:
256,192,29474,1,0,0:0:0:0:
329,192,29570,1,0,0:0:0:0:
402,192,29666,1,0,0:0:0:0:
329,192,29762,1,0,0:0:0:0:
475,192,29762,1,0,0:0:0:0:
182,192,29762,1,0,0:0:0:0:
109,192,29858,1,0,0:0:0:0:
256,192,29954,1,0,0:0:0:0:
402,192,29954,1,0,0:0:0:0:
182,192,30051,1,0,0:0:0:0:
475,192,30147,1,0,0:0:0:0:
36,192,30147,1,0,0:0:0:0:
329,192,30147,1,0,0:0:0:0:
109,192,30147,1,0,0:0:0:0:
256,192,30243,1,0,0:0:0:0:
182,192,30339,1,0,0:0:0:0:
109,192,30435,1,0,0:0:0:0:
182,192,30531,1,0,0:0:0:0:
329,192,30531,1,0,0:0:0:0:
475,192,30531,1,0,0:0:0:0:
109,192,30627,1,0,0:0:0:0:
256,192,30724,1,0,0:0:0:0:
402,192,30724,1,0,0:0:0:0:
182,192,30820,1,0,0:0:0:0:
329,192,30916,1,0,0:0:0:0:
475,192,30916,1,0,0:0:0:0:
109,192,30916,1,0,0:0:0:0:
36,192,30916,1,0,0:0:0:0:
182,192,31012,1,0,0:0:0:0:
256,192,31108,1,0,0:0:0:0:
329,192,31204,1,0,0:0:0:0:
402,192,31301,1,0,0:0:0:0:
109,192,31301,1,0,0:0:0:0:
256,192,31397,1,0,0:0:0:0:
182,192,31493,1,0,0:0:0:0:
329,192,31589,1,0,0:0:0:0:
402,192,31685,1,0,0:0:0:0:
109,192,31685,1,0,0:0:0:0:
182,192,31781,1,0,0:0:0:0:
329,192,31877,1,0,0:0:0:0:
256,192,31974,1,0,0:0:0:0:
402,192,32070,1,0,0:0:0:0:
182,192,32070,1,0,0:0:0:0:
36,192,32070,1,0,0:0:0:0:
256,192,32166,1,0,0:0:0:0:
109,192,32262,1,0,0:0:0:0:
475,192,32262,1,0,0:0:0:0:
329,192,32262,1,0,0:0:0:0:
182,192,32358,1,0,0:0:0:0:
36,192,32454,1,0,0:0:0:0:
256,192,32454,1,0,0:0:0:0:
402,192,32454,1,0,0:0:0:0:
109,192,32551,1,0,0:0:0:0:
182,192,32647,1,0,0:0:0:0:
256,192,32743,1,0,0:0:0:0:
109,192,32839,1,0,0:0:0:0:
475,192,32839,1,0,0:0:0:0:
329,192,32839,1,0,0:0:0:0:
256,192,32935,1,0,0:0:0:0:
182,192,33031,1,0,0:0:0:0:
402,192,33031,1,0,0:0:0:0:
36,192,33031,1,0,0:0:0:0:
329,192,33127,1,0,0:0:0:0:
475,192,33224,1,0,0:0:0:0:
256,192,33224,1,0,0:0:0:0:
109,192,33224,1,0,0:0:0:0:
402,192,33320,1,0,0:0:0:0:
329,192,33416,1,0,0:0:0:0:
256,192,33512,1,0,0:0:0:0:
182,192,33608,1,0,0:0:0:0:
36,192,33608,1,0,0:0:0:0:
402,192,33608,1,0,0:0:0:0:
475,192,33608,1,0,0:0:0:0:
475,192,33897,1,0,0:0:0:0:
329,192,33897,1,0,0:0:0:0:
109,192,33897,1,0,0:0:0:0:
182,192,33897,1,0,0:0:0:0:
109,192,34185,1,0,0:0:0:0:
402,192,34185,1,0,0:0:0:0:
475,192,34185,1,0,0:0:0:0:
256,192,34185,1,0,0:0:0:0:
36,192,34377,1,0,0:0:0:0:
182,192,34377,1,0,0:0:0:0:
402,192,34377,1,0,0:0:0:0:
475,192,34377,1,0,0:0:0:0:
256,192,34570,1,0,0:0:0:0:
475,192,34762,1,0,0:0:0:0:
109,192,34762,1,0,0:0:0:0:
402,192,34762,1,0,0:0:0:0:
182,192,34762,1,0,0:0:0:0:
36,192,34762,1,0,0:0:0:0:
329,192,34762,1,0,0:0:0:0:
256,192,35147,1,0,0:0:0:0:
36,192,35147,1,0,0:0:0:0:
109,192,35147,1,0,0:0:0:0:
402,192,35147,1,0,0:0:0:0:
329,192,35339,1,0,0:0:0:0:
182,192,35339,1,0,0:0:0:0:
256,192,35531,1,0,0:0:0:0:
402,192,35531,1,0,0:0:0:0:
109,192,35531,1,0,0:0:0:0:
256,192,35724,1,0,0:0:0:0:
475,192,35724,1,0,0:0:0:0:
36,192,35724,1,0,0:0:0:0:
402,192,35916,1,0,0:0:0:0:
329,192,35916,1,0,0:0:0:0:
109,192,35916,1,0,0:0:0:0:
182,192,36108,1,0,0:0:0:0:
402,192,36108,1,0,0:0:0:0:
329,192,36108,1,0,0:0:0:0:
36,192,36108,1,0,0:0:0:0:
256,192,36301,1,0,0:0:0:0:
475,192,36301,1,0,0:0:0:0:
402,192,36301,1,0,0:0:0:0:
109,192,36301,1,0,0:0:0:0:
36,192,36493,1,0,0:0:0:0:
182,192,36493,1,0,0:0:0:0:
329,192,36493,1,0,0:0:0:0:
402,192,36493,1,0,0:0:0:0:
109,192,36685,1,0,0:0:0:0:
256,192,36685,1,0,0:0:0:0:
402,192,36877,1,0,0:0:0:0:
475,192,36877,1,0,0:0:0:0:
182,192,36877,1,0,0:0:0:0:
109,192,37070,1,0,0:0:0:0:
329,192,37070,1,0,0:0:0:0:
36,192,37070,1,0,0:0:0:0:
182,192,37262,1,0,0:0:0:0:
256,192,37262,1,0,0:0:0:0:
402,192,37262,1,0,0:0:0:0:
329,192,37454,1,0,0:0:0:0:
36,192,37454,1,0,0:0:0:0:
109,192,37454,1,0,0:0:0:0:
475,192,37454,1,0,0:0:0:0:
109,192,37647,1,0,0:0:0:0:
182,192,37647,1,0,0:0:0:0:
329,192,37647,1,0,0:0:0:0:
402,192,37743,1,0,0:0:0:0:
475,192,37743,1,0,0:0:0:0:
109,192,37839,1,0,0:0:0:0:
36,192,37839,1,0,0:0:0:0:
256,192,37839,1,0,0:0:0:0:
329,192,38031,1,0,0:0:0:0:
402,192,38031,1,0,0:0:0:0:
329,192,38224,1,0,0:0:0:0:
109,192,38224,1,0,0:0:0:0:
475,192,38224,1,0,0:0:0:0:
182,192,38416,1,0,0:0:0:0:
36,192,38416,1,0,0:0:0:0:
256,192,38416,1,0,0:0:0:0:
329,192,38416,1,0,0:0:0:0:
402,192,38512,1,0,0:0:0:0:
475,192,38608,1,0,0:0:0:0:
109,192,38608,1,0,0:0:0:0:
182,192,38608,1,0,0:0:0:0:
36,192,38608,1,0,0:0:0:0:
182,192,38801,1,0,0:0:0:0:
256,192,38801,1,0,0:0:0:0:
329,192,38801,1,0,0:0:0:0:
329,192,38993,1,0,0:0:0:0:
402,192,38993,1,0,0:0:0:0:
475,192,38993,1,0,0:0:0:0:
36,192,38993,1,0,0:0:0:0:
182,192,38993,1,0,0:0:0:0:
109,192,39281,1,0,0:0:0:0:
256,192,39281,1,0,0:0:0:0:
36,192,39377,1,0,0:0:0:0:
329,192,39377,1,0,0:0:0:0:
475,192,39377,1,0,0:0:0:0:
182,192,39377,1,0,0:0:0:0:
256,192,39570,1,0,0:0:0:0:
402,192,39570,1,0,0:0:0:0:
36,192,39762,1,0,0:0:0:0:
182,192,39762,1,0,0:0:0:0:
329,192,39762,1,0,0:0:0:0:
109,192,39762,1,0,0:0:0:0:
475,192,39762,1,0,0:0:0:0:
182,192,39954,1,0,0:0:0:0:
109,192,40147,1,0,0:0:0:0:
256,192,40147,1,0,0:0:0:0:
329,192,40147,1,0,0:0:0:0:
402,192,40147,1,0,0:0:0:0:
475,192,40147,1,0,0:0:0:0:
256,192,40339,1,0,0:0:0:0:
329,192,40531,1,0,0:0:0:0:
256,192,40531,1,0,0:0:0:0:
182,192,40531,1,0,0:0:0:0:
475,192,40531,1,0,0:0:0:0:
36,192,40531,1,0,0:0:0:0:
329,192,40724,1,0,0:0:0:0:
402,192,40724,1,0,0:0:0:0:
182,192,40820,1,0,0:0:0:0:
256,192,40820,1,0,0:0:0:0:
109,192,40820,1,0,0:0:0:0:
402,192,40916,1,0,0:0:0:0:
475,192,40916,1,0,0:0:0:0:
256,192,41012,1,0,0:0:0:0:
329,192,41012,1,0,0:0:0:0:
182,192,41012,1,0,0:0:0:0:
109,192,41108,1,0,0:0:0:0:
36,192,41108,1,0,0:0:0:0:
475,192,41301,1,0,0:0:0:0:
329,192,41301,1,0,0:0:0:0:
109,192,41301,1,0,0:0:0:0:
182,192,41301,1,0,0:0:0:0:
256,192,41493,1,0,0:0:0:0:
36,192,41493,1,0,0:0:0:0:
402,192,41493,1,0,0:0:0:0:
109,192,41589,1,0,0:0:0:0:
182,192,41685,1,0,0:0:0:0:
329,192,41685,1,0,0:0:0:0:
475,192,41685,1,0,0:0:0:0:
256,192,41877,1,0,0:0:0:0:
182,192,42070,1,0,0:0:0:0:
36,192,42070,1,0,0:0:0:0:
329,192,42070,1,0,0:0:0:0:
402,192,42070,1,0,0:0:0:0:
402,192,42262,1,0,0:0:0:0:
475,192,42262,1,0,0:0:0:0:
256,192,42262,1,0,0:0:0:0:
109,192,42262,1,0,0:0:0:0:
36,192,42454,1,0,0:0:0:0:
109,192,42454,1,0,0:0:0:0:
329,192,42454,1,0,0:0:0:0:
402,192,42454,1,0,0:0:0:0:
109,192,42647,1,0,0:0:0:0:
182,192,42647,1,0,0:0:0:0:
402,192,42647,1,0,0:0:0:0:
475,192,42647,1,0,0:0:0:0:
256,192,42839,1,0,0:0:0:0:
402,192,42839,1,0,0:0:0:0:
109,192,43031,1,0,0:0:0:0:
36,192,43031,1,0,0:0:0:0:
329,192,43031,1,0,0:0:0:0:
475,192,43031,1,0,0:0:0:0:
182,192,43224,1,0,0:0:0:0:
329,192,43224,1,0,0:0:0:0:
256,192,43416,1,0,0:0:0:0:
402,192,43416,1,0,0:0:0:0:
109,192,43416,1,0,0:0:0:0:
36,192,43416,1,0,0:0:0:0:
329,192,43608,1,0,0:0:0:0:
475,192,43608,1,0,0:0:0:0:
182,192,43608,1,0,0:0:0:0:
256,192,43801,1,0,0:0:0:0:
109,192,43801,1,0,0:0:0:0:
402,192,43801,1,0,0:0:0:0:
182,192,43897,1,0,0:0:0:0:
36,192,43993,1,0,0:0:0:0:
329,192,43993,1,0,0:0:0:0:
475,192,43993,1,0,0:0:0:0:
256,192,44185,1,0,0:0:0:0:
109,192,44185,1,0,0:0:0:0:
182,192,44377,1,0,0:0:0:0:
475,192,44377,1,0,0:0:0:0:
329,192,44377,1,0,0:0:0:0:
36,192,44570,1,0,0:0:0:0:
329,192,44570,1,0,0:0:0:0:
402,192,44570,1,0,0:0:0:0:
256,192,44570,1,0,0:0:0:0:
475,192,44762,1,0,0:0:0:0:
36,192,44762,1,0,0:0:0:0:
256,192,44762,1,0,0:0:0:0:
109,192,44762,1,0,0:0:0:0:
256,192,44954,1,0,0:0:0:0:
402,192,44954,1,0,0:0:0:0:
109,192,44954,1,0,0:0:0:0:
109,192,45147,1,0,0:0:0:0:
182,192,45147,1,0,0:0:0:0:
475,192,45147,1,0,0:0:0:0:
329,192,45147,1,0,0:0:0:0:
36,192,45147,1,0,0:0:0:0:
36,192,45531,1,0,0:0:0:0:
109,192,45531,1,0,0:0:0:0:
256,192,45531,1,0,0:0:0:0:
329,192,45531,1,0,0:0:0:0:
109,192,45724,1,0,0:0:0:0:
182,192,45724,1,0,0:0:0:0:
329,192,45724,1,0,0:0:0:0:
402,192,45724,1,0,0:0:0:0:
182,192,45916,1,0,0:0:0:0:
256,192,45916,1,0,0:0:0:0:
402,192,45916,1,0,0:0:0:0:
475,192,45916,1,0,0:0:0:0:
109,192,46301,1,0,0:0:0:0:
182,192,46301,1,0,0:0:0:0:
329,192,46301,1,0,0:0:0:0:
402,192,46301,1,0,0:0:0:0:
329,192,46685,1,0,0:0:0:0:
256,192,46685,1,0,0:0:0:0:
109,192,46685,1,0,0:0:0:0:
36,192,46685,1,0,0:0:0:0:
475,192,46781,1,0,0:0:0:0:
402,192,46829,1,0,0:0:0:0:
329,192,46877,1,0,0:0:0:0:
256,192,46926,1,0,0:0:0:0:
182,192,46974,1,0,0:0:0:0:
109,192,47022,1,0,0:0:0:0:
36,192,47070,1,0,0:0:0:0:
475,192,47118,1,0,0:0:0:0:
402,192,47166,1,0,0:0:0:0:
329,192,47214,1,0,0:0:0:0:
256,192,47262,1,0,0:0:0:0:
182,192,47310,1,0,0:0:0:0:
109,192,47358,1,0,0:0:0:0:
36,192,47406,1,0,0:0:0:0:
329,192,47454,1,0,0:0:0:0:
402,192,47454,1,0,0:0:0:0:
475,192,47454,1,0,0:0:0:0:
109,192,47647,1,0,0:0:0:0:
36,192,47647,1,0,0:0:0:0:
329,192,47647,1,0,0:0:0:0:
256,192,47743,1,0,0:0:0:0:
402,192,47839,1,0,0:0:0:0:
475,192,47839,1,0,0:0:0:0:
182,192,47839,1,0,0:0:0:0:
36,192,48031,1,0,0:0:0:0:
109,192,48031,1,0,0:0:0:0:
256,192,48031,1,0,0:0:0:0:
402,192,48031,1,0,0:0:0:0:
182,192,48224,1,0,0:0:0:0:
329,192,48224,1,0,0:0:0:0:
475,192,48224,1,0,0:0:0:0:
256,192,48416,1,0,0:0:0:0:
402,192,48416,1,0,0:0:0:0:
36,192,48608,1,0,0:0:0:0:
109,192,48608,1,0,0:0:0:0:
475,192,48608,1,0,0:0:0:0:
329,192,48608,1,0,0:0:0:0:
182,192,48801,1,0,0:0:0:0:
402,192,48801,1,0,0:0:0:0:
256,192,48801,1,0,0:0:0:0:
109,192,48993,1,0,0:0:0:0:
36,192,48993,1,0,0:0:0:0:
329,192,48993,1,0,0:0:0:0:
475,192,48993,1,0,0:0:0:0:
256,192,49185,1,0,0:0:0:0:
109,192,49185,1,0,0:0:0:0:
402,192,49185,1,0,0:0:0:0:
36,192,49377,1,0,0:0:0:0:
182,192,49377,1,0,0:0:0:0:
329,192,49377,1,0,0:0:0:0:
256,192,49570,1,0,0:0:0:0:
475,192,49570,1,0,0:0:0:0:
109,192,49570,1,0,0:0:0:0:
182,192,49762,1,0,0:0:0:0:
329,192,49762,1,0,0:0:0:0:
402,192,49762,1,0,0:0:0:0:
36,192,49762,1,0,0:0:0:0:
109,192,49954,1,0,0:0:0:0:
402,192,49954,1,0,0:0:0:0:
475,192,49954,1,0,0:0:0:0:
256,192,50051,1,0,0:0:0:0:
182,192,50147,1,0,0:0:0:0:
329,192,50147,1,0,0:0:0:0:
36,192,50147,1,0,0:0:0:0:
475,192,50147,1,0,0:0:0:0:
402,192,50339,1,0,0:0:0:0:
109,192,50339,1,0,0:0:0:0:
256,192,50531,1,0,0:0:0:0:
36,192,50531,1,0,0:0:0:0:
475,192,50531,1,0,0:0:0:0:
182,192,50724,1,0,0:0:0:0:
329,192,50724,1,0,0:0:0:0:
475,192,50724,1,0,0:0:0:0:
109,192,50916,1,0,0:0:0:0:
402,192,50916,1,0,0:0:0:0:
256,192,50916,1,0,0:0:0:0:
329,192,51108,1,0,0:0:0:0:
475,192,51108,1,0,0:0:0:0:
256,192,51108,1,0,0:0:0:0:
36,192,51108,1,0,0:0:0:0:
109,192,51301,1,0,0:0:0:0:
182,192,51301,1,0,0:0:0:0:
402,192,51301,1,0,0:0:0:0:
256,192,51493,1,0,0:0:0:0:
329,192,51493,1,0,0:0:0:0:
36,192,51493,1,0,0:0:0:0:
475,192,51493,1,0,0:0:0:0:
402,192,51685,1,0,0:0:0:0:
182,192,51685,1,0,0:0:0:0:
329,192,51781,1,0,0:0:0:0:
109,192,51781,1,0,0:0:0:0:
475,192,51877,1,0,0:0:0:0:
256,192,51877,1,0,0:0:0:0:
36,192,51877,1,0,0:0:0:0:
182,192,52070,1,0,0:0:0:0:
36,192,52070,1,0,0:0:0:0:
329,192,52070,1,0,0:0:0:0:
402,192,52070,1,0,0:0:0:0:
109,192,52454,1,0,0:0:0:0:
182,192,52454,1,0,0:0:0:0:
329,192,52454,1,0,0:0:0:0:
475,192,52454,1,0,0:0:0:0:
182,192,52839,1,0,0:0:0:0:
36,192,52839,1,0,0:0:0:0:
329,192,52839,1,0,0:0:0:0:
402,192,52839,1,0,0:0:0:0:
475,192,52839,1,0,0:0:0:0:
36,192,53224,1,0,0:0:0:0:
109,192,53224,1,0,0:0:0:0:
182,192,53224,1,0,0:0:0:0:
329,192,53224,1,0,0:0:0:0:
475,192,53224,1,0,0:0:0:0:
109,192,53608,1,0,0:0:0:0:
36,192,53608,1,0,0:0:0:0:
402,192,53608,1,0,0:0:0:0:
475,192,53608,1,0,0:0:0:0:
256,192,53801,1,0,0:0:0:0:
402,192,53801,1,0,0:0:0:0:
109,192,53801,1,0,0:0:0:0:
256,192,53993,1,0,0:0:0:0:
329,192,53993,1,0,0:0:0:0:
475,192,53993,1,0,0:0:0:0:
36,192,54185,1,0,0:0:0:0:
182,192,54185,1,0,0:0:0:0:
402,192,54185,1,0,0:0:0:0:
109,192,54377,1,0,0:0:0:0:
182,192,54377,1,0,0:0:0:0:
329,192,54377,1,0,0:0:0:0:
256,192,54570,1,0,0:0:0:0:
475,192,54570,1,0,0:0:0:0:
36,192,54570,1,0,0:0:0:0:
329,192,54762,1,0,0:0:0:0:
402,192,54762,1,0,0:0:0:0:
182,192,54762,1,0,0:0:0:0:
36,192,54954,1,0,0:0:0:0:
256,192,54954,1,0,0:0:0:0:
475,192,54954,1,0,0:0:0:0:
109,192,54954,1,0,0:0:0:0:
182,192,55147,1,0,0:0:0:0:
402,192,55147,1,0,0:0:0:0:
329,192,55339,1,0,0:0:0:0:
109,192,55339,1,0,0:0:0:0:
402,192,55435,1,0,0:0:0:0:
182,192,55435,1,0,0:0:0:0:
475,192,55531,1,0,0:0:0:0:
256,192,55531,1,0,0:0:0:0:
36,192,55531,1,0,0:0:0:0:
36,192,55724,1,0,0:0:0:0:
182,192,55724,1,0,0:0:0:0:
329,192,55724,1,0,0:0:0:0:
475,192,55724,1,0,0:0:0:0:
109,192,55916,1,0,0:0:0:0:
36,192,55916,1,0,0:0:0:0:
402,192,55916,1,0,0:0:0:0:
475,192,55916,1,0,0:0:0:0:
402,192,56108,1,0,0:0:0:0:
475,192,56108,1,0,0:0:0:0:
109,192,56108,1,0,0:0:0:0:
36,192,56108,1,0,0:0:0:0:
109,192,56301,1,0,0:0:0:0:
182,192,56301,1,0,0:0:0:0:
329,192,56301,1,0,0:0:0:0:
402,192,56301,1,0,0:0:0:0:
182,192,56493,1,0,0:0:0:0:
36,192,56493,1,0,0:0:0:0:
329,192,56493,1,0,0:0:0:0:
475,192,56493,1,0,0:0:0:0:
256,192,56685,1,0,0:0:0:0:
402,192,56685,1,0,0:0:0:0:
329,192,56781,1,0,0:0:0:0:
475,192,56781,1,0,0:0:0:0:
109,192,56877,1,0,0:0:0:0:
256,192,56877,1,0,0:0:0:0:
182,192,56974,1,0,0:0:0:0:
329,192,56974,1,0,0:0:0:0:
256,192,57070,1,0,0:0:0:0:
402,192,57070,1,0,0:0:0:0:
36,192,57070,1,0,0:0:0:0:
182,192,57262,1,0,0:0:0:0:
329,192,57262,1,0,0:0:0:0:
109,192,57454,1,0,0:0:0:0:
256,192,57454,1,0,0:0:0:0:
182,192,57551,1,0,0:0:0:0:
36,192,57551,1,0,0:0:0:0:
256,192,57647,1,0,0:0:0:0:
402,192,57647,1,0,0:0:0:0:
329,192,57743,1,0,0:0:0:0:
182,192,57743,1,0,0:0:0:0:
256,192,57839,1,0,0:0:0:0:
109,192,57839,1,0,0:0:0:0:
475,192,57839,1,0,0:0:0:0:
182,192,58031,1,0,0:0:0:0:
329,192,58031,1,0,0:0:0:0:
256,192,58224,1,0,0:0:0:0:
475,192,58224,1,0,0:0:0:0:
109,192,58224,1,0,0:0:0:0:
402,192,58416,1,0,0:0:0:0:
329,192,58608,1,0,0:0:0:0:
182,192,58608,1,0,0:0:0:0:
36,192,58608,1,0,0:0:0:0:
402,192,58801,1,0,0:0:0:0:
475,192,58993,1,0,0:0:0:0:
256,192,58993,1,0,0:0:0:0:
109,192,58993,1,0,0:0:0:0:
36,192,59089,1,0,0:0:0:0:
182,192,59185,1,0,0:0:0:0:
329,192,59185,1,0,0:0:0:0:
109,192,59281,1,0,0:0:0:0:
256,192,59377,1,0,0:0:0:0:
402,192,59377,1,0,0:0:0:0:
182,192,59474,1,0,0:0:0:0:
329,192,59570,1,0,0:0:0:0:
475,192,59570,1,0,0:0:0:0:
256,192,59666,1,0,0:0:0:0:
182,192,59762,1,0,0:0:0:0:
36,192,59762,1,0,0:0:0:0:
402,192,59762,1,0,0:0:0:0:
329,192,59810,1,0,0:0:0:0:
256,192,59858,1,0,0:0:0:0:
182,192,59906,1,0,0:0:0:0:
109,192,59954,1,0,0:0:0:0:
36,192,60002,1,0,0:0:0:0:
475,192,60051,1,0,0:0:0:0:
402,192,60099,1,0,0:0:0:0:
329,192,60147,1,0,0:0:0:0:
256,192,60195,1,0,0:0:0:0:
182,192,60243,1,0,0:0:0:0:
109,192,60291,1,0,0:0:0:0:
475,192,60339,1,0,0:0:0:0:
402,192,60387,1,0,0:0:0:0:
329,192,60435,1,0,0:0:0:0:
256,192,60483,1,0,0:0:0:0:
182,192,60531,1,0,0:0:0:0:
36,192,60579,1,0,0:0:0:0:
109,192,60627,1,0,0:0:0:0:
182,192,60676,1,0,0:0:0:0:
256,192,60724,1,0,0:0:0:0:
329,192,60772,1,0,0:0:0:0:
109,192,60820,1,0,0:0:0:0:
182,192,60868,1,0,0:0:0:0:
256,192,60916,1,0,0:0:0:0:
329,192,60964,1,0,0:0:0:0:
402,192,61012,1,0,0:0:0:0:
182,192,61060,1,0,0:0:0:0:
256,192,61108,1,0,0:0:0:0:
329,192,61156,1,0,0:0:0:0:
402,192,61204,1,0,0:0:0:0:
475,192,61252,1,0,0:0:0:0:
36,192,61301,1,0,0:0:0:0:
109,192,61349,1,0,0:0:0:0:
182,192,61397,1,0,0:0:0:0:
256,192,61445,1,0,0:0:0:0:
329,192,61493,1,0,0:0:0:0:
475,192,61541,1,0,0:0:0:0:
402,192,61589,1,0,0:0:0:0:
329,192,61637,1,0,0:0:0:0:
256,192,61685,1,0,0:0:0:0:
182,192,61733,1,0,0:0:0:0:
402,192,61781,1,0,0:0:0:0:
329,192,61829,1,0,0:0:0:0:
256,192,61877,1,0,0:0:0:0:
182,192,61926,1,0,0:0:0:0:
109,192,61974,1,0,0:0:0:0:
329,192,62022,1,0,0:0:0:0:
256,192,62070,1,0,0:0:0:0:
182,192,62118,1,0,0:0:0:0:
109,192,62166,1,0,0:0:0:0:
36,192,62214,1,0,0:0:0:0:
475,192,62262,1,0,0:0:0:0:
402,192,62310,1,0,0:0:0:0:
329,192,62358,1,0,0:0:0:0:
256,192,62406,1,0,0:0:0:0:
182,192,62454,1,0,0:0:0:0:
36,192,62502,1,0,0:0:0:0:
109,192,62551,1,0,0:0:0:0:
182,192,62599,1,0,0:0:0:0:
256,192,62647,1,0,0:0:0:0:
329,192,62695,1,0,0:0:0:0:
109,192,62743,1,0,0:0:0:0:
182,192,62791,1,0,0:0:0:0:
256,192,62839,1,0,0:0:0:0:
329,192,62887,1,0,0:0:0:0:
402,192,62935,1,0,0:0:0:0:
182,192,62983,1,0,0:0:0:0:
256,192,63031,1,0,0:0:0:0:
329,192,63079,1,0,0:0:0:0:
402,192,63127,1,0,0:0:0:0:
475,192,63176,1,0,0:0:0:0:
109,192,63224,1,0,0:0:0:0:
182,192,63272,1,0,0:0:0:0:
256,192,63320,1,0,0:0:0:0:
329,192,63368,1,0,0:0:0:0:
402,192,63416,1,0,0:0:0:0:
36,192,63464,1,0,0:0:0:0:
109,192,63512,1,0,0:0:0:0:
182,192,63560,1,0,0:0:0:0:
256,192,63608,1,0,0:0:0:0:
329,192,63656,1,0,0:0:0:0:
402,192,63704,1,0,0:0:0:0:
475,192,63752,1,0,0:0:0:0:
109,192,63801,1,0,0:0:0:0:
182,192,63849,1,0,0:0:0:0:
256,192,63897,1,0,0:0:0:0:
329,192,63945,1,0,0:0:0:0:
402,192,63993,1,0,0:0:0:0:
475,192,64041,1,0,0:0:0:0:
182,192,64089,1,0,0:0:0:0:
109,192,64137,1,0,0:0:0:0:
36,192,64185,1,0,0:0:0:0:
402,192,64233,1,0,0:0:0:0:
329,192,64281,1,0,0:0:0:0:
256,192,64329,1,0,0:0:0:0:
182,192,64377,1,0,0:0:0:0:
109,192,64426,1,0,0:0:0:0:
475,192,64474,1,0,0:0:0:0:
402,192,64522,1,0,0:0:0:0:
329,192,64570,1,0,0:0:0:0:
256,192,64618,1,0,0:0:0:0:
182,192,64666,1,0,0:0:0:0:
109,192,64714,1,0,0:0:0:0:
36,192,64762,1,0,0:0:0:0:
402,192,64810,1,0,0:0:0:0:
329,192,64858,1,0,0:0:0:0:
256,192,64906,1,0,0:0:0:0:
182,192,64954,1,0,0:0:0:0:
109,192,65002,1,0,0:0:0:0:
329,192,65051,1,0,0:0:0:0:
402,192,65099,1,0,0:0:0:0:
475,192,65147,1,0,0:0:0:0:
109,192,65195,1,0,0:0:0:0:
182,192,65243,1,0,0:0:0:0:
256,192,65291,1,0,0:0:0:0:
329,192,65339,1,0,0:0:0:0:
402,192,65387,1,0,0:0:0:0:
36,192,65435,1,0,0:0:0:0:
109,192,65483,1,0,0:0:0:0:
182,192,65531,1,0,0:0:0:0:
256,192,65579,1,0,0:0:0:0:
329,192,65627,1,0,0:0:0:0:
402,192,65676,1,0,0:0:0:0:
109,192,65724,1,0,0:0:0:0:
182,192,65772,1,0,0:0:0:0:
256,192,65820,1,0,0:0:0:0:
329,192,65868,1,0,0:0:0:0:
402,192,65916,1,0,0:0:0:0:
475,192,65964,1,0,0:0:0:0:
36,192,66012,1,0,0:0:0:0:
109,192,66060,1,0,0:0:0:0:
182,192,66108,1,0,0:0:0:0:
256,192,66156,1,0,0:0:0:0:
329,192,66204,1,0,0:0:0:0:
402,192,66252,1,0,0:0:0:0:
109,192,66301,1,0,0:0:0:0:
182,192,66349,1,0,0:0:0:0:
256,192,66397,1,0,0:0:0:0:
329,192,66445,1,0,0:0:0:0:
402,192,66493,1,0,0:0:0:0:
475,192,66541,1,0,0:0:0:0:
36,192,66589,1,0,0:0:0:0:
109,192,66637,1,0,0:0:0:0:
182,192,66685,1,0,0:0:0:0:
402,192,66733,1,0,0:0:0:0:
329,192,66781,1,0,0:0:0:0:
256,192,66829,1,0,0:0:0:0:
182,192,66877,1,0,0:0:0:0:
109,192,66926,1,0,0:0:0:0:
475,192,66974,1,0,0:0:0:0:
402,192,67022,1,0,0:0:0:0:
329,192,67070,1,0,0:0:0:0:
256,192,67118,1,0,0:0:0:0:
182,192,67166,1,0,0:0:0:0:
475,192,67214,1,0,0:0:0:0:
402,192,67262,1,0,0:0:0:0:
329,192,67310,1,0,0:0:0:0:
36,192,67358,1,0,0:0:0:0:
109,192,67406,1,0,0:0:0:0:
182,192,67454,1,0,0:0:0:0:
256,192,67502,1,0,0:0:0:0:
329,192,67551,1,0,0:0:0:0:
109,192,67599,1,0,0:0:0:0:
182,192,67647,1,0,0:0:0:0:
256,192,67695,1,0,0:0:0:0:
329,192,67743,1,0,0:0:0:0:
402,192,67791,1,0,0:0:0:0:
475,192,67839,1,0,0:0:0:0:
36,192,67887,1,0,0:0:0:0:
109,192,67935,1,0,0:0:0:0:
182,192,67983,1,0,0:0:0:0:
256,192,68031,1,0,0:0:0:0:
329,192,68079,1,0,0:0:0:0:
402,192,68127,1,0,0:0:0:0:
36,192,68176,1,0,0:0:0:0:
109,192,68224,1,0,0:0:0:0:
182,192,68272,1,0,0:0:0:0:
475,192,68320,1,0,0:0:0:0:
402,192,68368,1,0,0:0:0:0:
329,192,68416,1,0,0:0:0:0:
256,192,68464,1,0,0:0:0:0:
182,192,68512,1,0,0:0:0:0:
109,192,68560,1,0,0:0:0:0:
36,192,68608,1,0,0:0:0:0:
402,192,68656,1,0,0:0:0:0:
329,192,68704,1,0,0:0:0:0:
256,192,68752,1,0,0:0:0:0:
182,192,68801,1,0,0:0:0:0:
109,192,68849,1,0,0:0:0:0:
475,192,68897,1,0,0:0:0:0:
402,192,68945,1,0,0:0:0:0:
329,192,68993,1,0,0:0:0:0:
256,192,69041,1,0,0:0:0:0:
36,192,69089,1,0,0:0:0:0:
109,192,69137,1,0,0:0:0:0:
182,192,69185,1,0,0:0:0:0:
256,192,69233,1,0,0:0:0:0:
329,192,69281,1,0,0:0:0:0:
402,192,69329,1,0,0:0:0:0:
475,192,69377,1,0,0:0:0:0:
36,192,69426,1,0,0:0:0:0:
109,192,69474,1,0,0:0:0:0:
182,192,69522,1,0,0:0:0:0:
475,192,69570,1,0,0:0:0:0:
402,192,69618,1,0,0:0:0:0:
329,192,69666,1,0,0:0:0:0:
256,192,69714,1,0,0:0:0:0:
182,192,69762,1,0,0:0:0:0:
109,192,69810,1,0,0:0:0:0:
36,192,69858,1,0,0:0:0:0:
329,192,69906,1,0,0:0:0:0:
402,192,69954,1,0,0:0:0:0:
475,192,70002,1,0,0:0:0:0:
36,192,70051,1,0,0:0:0:0:
109,192,70099,1,0,0:0:0:0:
182,192,70147,1,0,0:0:0:0:
256,192,70195,1,0,0:0:0:0:
329,192,70243,1,0,0:0:0:0:
402,192,70291,1,0,0:0:0:0:
475,192,70339,1,0,0:0:0:0:
182,192,70387,1,0,0:0:0:0:
109,192,70435,1,0,0:0:0:0:
36,192,70483,1,0,0:0:0:0:
475,192,70531,1,0,0:0:0:0:
402,192,70579,1,0,0:0:0:0:
329,192,70627,1,0,0:0:0:0:
256,192,70676,1,0,0:0:0:0:
182,192,70724,1,0,0:0:0:0:
109,192,70772,1,0,0:0:0:0:
36,192,70820,1,0,0:0:0:0:
475,192,70868,1,0,0:0:0:0:
402,192,70916,1,0,0:0:0:0:
329,192,70964,1,0,0:0:0:0:
256,192,71012,1,0,0:0:0:0:
182,192,71060,1,0,0:0:0:0:
109,192,71108,1,0,0:0:0:0:
36,192,71156,1,0,0:0:0:0:
475,192,71204,1,0,0:0:0:0:
402,192,71252,1,0,0:0:0:0:
329,192,71301,1,0,0:0:0:0:
256,192,71349,1,0,0:0:0:0:
182,192,71397,1,0,0:0:0:0:
109,192,71445,1,0,0:0:0:0:
36,192,71493,1,0,0:0:0:0:
475,192,71541,1,0,0:0:0:0:
402,192,71589,1,0,0:0:0:0:
329,192,71637,1,0,0:0:0:0:
256,192,71685,1,0,0:0:0:0:
182,192,71733,1,0,0:0:0:0:
109,192,71781,1,0,0:0:0:0:
36,192,71829,1,0,0:0:0:0:
475,192,71877,1,0,0:0:0:0:
402,192,71909,1,0,0:0:0:0:
329,192,71942,1,0,0:0:0:0:
256,192,71974,1,0,0:0:0:0:
182,192,72006,1,0,0:0:0:0:
109,192,72038,1,0,0:0:0:0:
36,192,72070,1,0,0:0:0:0:
475,192,72070,1,0,0:0:0:0:
329,192,72166,1,0,0:0:0:0:
475,192,72262,1,0,0:0:0:0:
36,192,72262,1,0,0:0:0:0:
182,192,72358,1,0,0:0:0:0:
36,192,72454,1,0,0:0:0:0:
475,192,72454,1,0,0:0:0:0:
329,192,72551,1,0,0:0:0:0:
182,192,72647,1,0,0:0:0:0:
329,192,72743,1,0,0:0:0:0:
36,192,72839,1,0,0:0:0:0:
475,192,72839,1,0,0:0:0:0:
182,192,72935,1,0,0:0:0:0:
36,192,73031,1,0,0:0:0:0:
475,192,73031,1,0,0:0:0:0:
329,192,73127,1,0,0:0:0:0:
475,192,73224,1,0,0:0:0:0:
36,192,73224,1,0,0:0:0:0:
182,192,73320,1,0,0:0:0:0:
329,192,73416,1,0,0:0:0:0:
182,192,73512,1,0,0:0:0:0:
36,192,73608,1,0,0:0:0:0:
475,192,73608,1,0,0:0:0:0:
256,192,73704,1,0,0:0:0:0:
475,192,73801,1,0,0:0:0:0:
36,192,73801,1,0,0:0:0:0:
182,192,73897,1,0,0:0:0:0:
329,192,73897,1,0,0:0:0:0:
36,192,73993,1,0,0:0:0:0:
475,192,73993,1,0,0:0:0:0:
329,192,74089,1,0,0:0:0:0:
182,192,74185,1,0,0:0:0:0:
329,192,74281,1,0,0:0:0:0:
36,192,74377,1,0,0:0:0:0:
475,192,74377,1,0,0:0:0:0:
182,192,74474,1,0,0:0:0:0:
329,192,74570,1,0,0:0:0:0:
182,192,74666,1,0,0:0:0:0:
36,192,74762,1,0,0:0:0:0:
475,192,74762,1,0,0:0:0:0:
329,192,74858,1,0,0:0:0:0:
182,192,74954,1,0,0:0:0:0:
329,192,75051,1,0,0:0:0:0:
475,192,75147,1,0,0:0:0:0:
109,192,75147,1,0,0:0:0:0:
36,192,75147,1,0,0:0:0:0:
402,192,75243,1,0,0:0:0:0:
256,192,75243,1,0,0:0:0:0:
109,192,75339,1,0,0:0:0:0:
182,192,75339,1,0,0:0:0:0:
329,192,75435,1,0,0:0:0:0:
475,192,75435,1,0,0:0:0:0:
182,192,75531,1,0,0:0:0:0:
256,192,75531,1,0,0:0:0:0:
402,192,75531,1,0,0:0:0:0:
36,192,75531,1,0,0:0:0:0:
109,192,75627,1,0,0:0:0:0:
182,192,75724,1,0,0:0:0:0:
256,192,75820,1,0,0:0:0:0:
402,192,75916,1,0,0:0:0:0:
36,192,75916,1,0,0:0:0:0:
475,192,75916,1,0,0:0:0:0:
109,192,76012,1,0,0:0:0:0:
256,192,76012,1,0,0:0:0:0:
402,192,76108,1,0,0:0:0:0:
329,192,76108,1,0,0:0:0:0:
182,192,76204,1,0,0:0:0:0:
36,192,76204,1,0,0:0:0:0:
329,192,76301,1,0,0:0:0:0:
256,192,76301,1,0,0:0:0:0:
475,192,76301,1,0,0:0:0:0:
109,192,76301,1,0,0:0:0:0:
402,192,76397,1,0,0:0:0:0:
329,192,76493,1,0,0:0:0:0:
256,192,76589,1,0,0:0:0:0:
182,192,76685,1,0,0:0:0:0:
36,192,76685,1,0,0:0:0:0:
402,192,76685,1,0,0:0:0:0:
475,192,76685,1,0,0:0:0:0:
109,192,76685,1,0,0:0:0:0:
109,192,76974,1,0,0:0:0:0:
36,192,76974,1,0,0:0:0:0:
402,192,76974,1,0,0:0:0:0:
329,192,76974,1,0,0:0:0:0:
475,192,76974,1,0,0:0:0:0:
182,192,77262,1,0,0:0:0:0:
109,192,77262,1,0,0:0:0:0:
36,192,77262,1,0,0:0:0:0:
402,192,77262,1,0,0:0:0:0:
475,192,77262,1,0,0:0:0:0:
329,192,77454,1,0,0:0:0:0:
402,192,77454,1,0,0:0:0:0:
475,192,77454,1,0,0:0:0:0:
109,192,77454,1,0,0:0:0:0:
36,192,77454,1,0,0:0:0:0:
256,192,77839,1,0,0:0:0:0:
182,192,77839,1,0,0:0:0:0:
329,192,77839,1,0,0:0:0:0:
36,192,77839,1,0,0:0:0:0:
475,192,77839,1,0,0:0:0:0:
36,192,78224,1,0,0:0:0:0:
109,192,78224,1,0,0:0:0:0:
256,192,78224,1,0,0:0:0:0:
402,192,78224,1,0,0:0:0:0:
475,192,78224,1,0,0:0:0:0:
256,192,78608,1,0,0:0:0:0:
109,192,78608,1,0,0:0:0:0:
36,192,78608,1,0,0:0:0:0:
402,192,78608,1,0,0:0:0:0:
475,192,78608,1,0,0:0:0:0:
475,192,78993,1,0,0:0:0:0:
256,192,78993,1,0,0:0:0:0:
109,192,78993,1,0,0:0:0:0:
36,192,78993,1,0,0:0:0:0:
402,192,78993,1,0,0:0:0:0:
182,192,79377,1,0,0:0:0:0:
36,192,79377,1,0,0:0:0:0:
109,192,79377,1,0,0:0:0:0:
329,192,79570,1,0,0:0:0:0:
475,192,79570,1,0,0:0:0:0:
402,192,79570,1,0,0:0:0:0:
182,192,79762,1,0,0:0:0:0:
36,192,79762,1,0,0:0:0:0:
109,192,79762,128,0,80531:0:0:0:0:
256,192,79954,1,0,0:0:0:0:
329,192,80147,1,0,0:0:0:0:
475,192,80147,1,0,0:0:0:0:
402,192,80147,1,0,0:0:0:0:
256,192,80339,1,0,0:0:0:0:
182,192,80531,1,0,0:0:0:0:
36,192,80531,1,0,0:0:0:0:
329,192,80531,1,0,0:0:0:0:
475,192,80531,1,0,0:0:0:0:
402,192,80531,1,0,0:0:0:0:
256,192,80627,1,0,0:0:0:0:
182,192,80724,1,0,0:0:0:0:
256,192,80820,1,0,0:0:0:0:
36,192,80916,1,0,0:0:0:0:
109,192,80916,1,0,0:0:0:0:
329,192,80916,1,0,0:0:0:0:
402,192,80916,1,0,0:0:0:0:
475,192,80916,1,0,0:0:0:0:
182,192,81108,1,0,0:0:0:0:
256,192,81108,1,0,0:0:0:0:
329,192,81301,1,0,0:0:0:0:
402,192,81301,1,0,0:0:0:0:
109,192,81301,1,0,0:0:0:0:
36,192,81301,1,0,0:0:0:0:
475,192,81493,1,0,0:0:0:0:
182,192,81493,1,0,0:0:0:0:
329,192,81493,1,0,0:0:0:0:
256,192,81589,1,0,0:0:0:0:
402,192,81589,1,0,0:0:0:0:
36,192,81589,1,0,0:0:0:0:
36,192,81781,1,0,0:0:0:0:
182,192,81781,1,0,0:0:0:0:
329,192,81781,1,0,0:0:0:0:
475,192,81781,1,0,0:0:0:0:
256,192,81781,1,0,0:0:0:0:
329,192,81974,1,0,0:0:0:0:
182,192,81974,1,0,0:0:0:0:
475,192,81974,1,0,0:0:0:0:
109,192,82070,1,0,0:0:0:0:
256,192,82070,1,0,0:0:0:0:
329,192,82166,1,0,0:0:0:0:
475,192,82166,1,0,0:0:0:0:
402,192,82262,1,0,0:0:0:0:
256,192,82262,1,0,0:0:0:0:
329,192,82358,1,0,0:0:0:0:
182,192,82358,1,0,0:0:0:0:
36,192,82358,1,0,0:0:0:0:
109,192,82551,1,0,0:0:0:0:
36,192,82551,1,0,0:0:0:0:
256,192,82551,1,0,0:0:0:0:
475,192,82647,1,0,0:0:0:0:
402,192,82647,1,0,0:0:0:0:
329,192,82647,1,0,0:0:0:0:
182,192,82743,1,0,0:0:0:0:
256,192,82743,1,0,0:0:0:0:
36,192,82743,1,0,0:0:0:0:
329,192,82839,1,0,0:0:0:0:
402,192,82839,1,0,0:0:0:0:
109,192,82839,1,0,0:0:0:0:
182,192,83031,1,0,0:0:0:0:
36,192,83031,1,0,0:0:0:0:
329,192,83031,1,0,0:0:0:0:
329,192,83224,1,0,0:0:0:0:
475,192,83224,1,0,0:0:0:0:
182,192,83224,1,0,0:0:0:0:
109,192,83416,1,0,0:0:0:0:
36,192,83416,1,0,0:0:0:0:
329,192,83416,1,0,0:0:0:0:
256,192,83416,1,0,0:0:0:0:
402,192,83608,1,0,0:0:0:0:
475,192,83608,1,0,0:0:0:0:
182,192,83608,1,0,0:0:0:0:
256,192,83608,1,0,0:0:0:0:
329,192,83801,1,0,0:0:0:0:
109,192,83801,1,0,0:0:0:0:
36,192,83993,1,0,0:0:0:0:
475,192,83993,1,0,0:0:0:0:
402,192,83993,1,0,0:0:0:0:
256,192,83993,1,0,0:0:0:0:
182,192,83993,1,0,0:0:0:0:
109,192,84089,1,0,0:0:0:0:
182,192,84185,1,0,0:0:0:0:
109,192,84281,1,0,0:0:0:0:
182,192,84377,1,0,0:0:0:0:
36,192,84377,1,0,0:0:0:0:
256,192,84377,1,0,0:0:0:0:
329,192,84377,1,0,0:0:0:0:
475,192,84377,1,0,0:0:0:0:
475,192,84762,1,0,0:0:0:0:
329,192,84762,1,0,0:0:0:0:
256,192,84762,1,0,0:0:0:0:
182,192,84762,1,0,0:0:0:0:
36,192,84762,1,0,0:0:0:0:
36,192,85147,1,0,0:0:0:0:
182,192,85147,1,0,0:0:0:0:
256,192,85147,1,0,0:0:0:0:
329,192,85147,1,0,0:0:0:0:
475,192,85147,1,0,0:0:0:0:
182,192,85531,1,0,0:0:0:0:
402,192,85531,1,0,0:0:0:0:
475,192,85531,1,0,0:0:0:0:
256,192,85531,1,0,0:0:0:0:
182,192,85724,1,0,0:0:0:0:
109,192,85724,1,0,0:0:0:0:
329,192,85724,1,0,0:0:0:0:
402,192,85724,1,0,0:0:0:0:
36,192,85916,1,0,0:0:0:0:
109,192,85916,1,0,0:0:0:0:
256,192,85916,1,0,0:0:0:0:
329,192,85916,1,0,0:0:0:0:
109,192,86108,1,0,0:0:0:0:
182,192,86108,1,0,0:0:0:0:
329,192,86108,1,0,0:0:0:0:
402,192,86108,1,0,0:0:0:0:
182,192,86301,1,0,0:0:0:0:
256,192,86301,1,0,0:0:0:0:
475,192,86301,1,0,0:0:0:0:
402,192,86301,1,0,0:0:0:0:
109,192,86493,1,0,0:0:0:0:
182,192,86493,1,0,0:0:0:0:
329,192,86493,1,0,0:0:0:0:
402,192,86493,1,0,0:0:0:0:
329,192,86685,1,0,0:0:0:0:
256,192,86685,1,0,0:0:0:0:
109,192,86685,1,0,0:0:0:0:
36,192,86685,1,0,0:0:0:0:
402,192,86749,1,0,0:0:0:0:
475,192,86813,1,0,0:0:0:0:
256,192,86877,1,0,0:0:0:0:
329,192,86942,1,0,0:0:0:0:
402,192,87006,1,0,0:0:0:0:
182,192,87070,1,0,0:0:0:0:
36,192,87070,1,0,0:0:0:0:
329,192,87070,1,0,0:0:0:0:
36,192,87262,1,0,0:0:0:0:
182,192,87262,1,0,0:0:0:0:
256,192,87262,1,0,0:0:0:0:
402,192,87262,1,0,0:0:0:0:
329,192,87454,1,0,0:0:0:0:
475,192,87454,1,0,0:0:0:0:
182,192,87454,1,0,0:0:0:0:
36,192,87454,1,0,0:0:0:0:
256,192,87647,1,0,0:0:0:0:
402,192,87647,1,0,0:0:0:0:
36,192,87647,1,0,0:0:0:0:
329,192,87743,1,0,0:0:0:0:
475,192,87743,1,0,0:0:0:0:
109,192,87743,1,0,0:0:0:0:
182,192,87935,1,0,0:0:0:0:
36,192,87935,1,0,0:0:0:0:
402,192,87935,1,0,0:0:0:0:
256,192,87935,1,0,0:0:0:0:
256,192,88127,1,0,0:0:0:0:
402,192,88127,1,0,0:0:0:0:
182,192,88127,1,0,0:0:0:0:
329,192,88224,1,0,0:0:0:0:
475,192,88224,1,0,0:0:0:0:
109,192,88224,1,0,0:0:0:0:
256,192,88416,1,0,0:0:0:0:
182,192,88608,1,0,0:0:0:0:
36,192,88608,1,0,0:0:0:0:
402,192,88608,1,0,0:0:0:0:
256,192,88801,1,0,0:0:0:0:
182,192,88993,1,0,0:0:0:0:
36,192,88993,1,0,0:0:0:0:
329,192,88993,1,0,0:0:0:0:
402,192,88993,1,0,0:0:0:0:
475,192,88993,1,0,0:0:0:0:
256,192,89185,1,0,0:0:0:0:
109,192,89185,1,0,0:0:0:0:
182,192,89377,1,0,0:0:0:0:
329,192,89377,1,0,0:0:0:0:
475,192,89377,1,0,0:0:0:0:
36,192,89377,1,0,0:0:0:0:
109,192,89377,1,0,0:0:0:0:
256,192,89570,1,0,0:0:0:0:
402,192,89570,1,0,0:0:0:0:
329,192,89762,1,0,0:0:0:0:
475,192,89762,1,0,0:0:0:0:
36,192,89762,1,0,0:0:0:0:
402,192,89762,1,0,0:0:0:0:
109,192,89762,1,0,0:0:0:0:
256,192,89810,1,0,0:0:0:0:
182,192,89858,1,0,0:0:0:0:
109,192,89906,1,0,0:0:0:0:
36,192,89954,1,0,0:0:0:0:
475,192,90002,1,0,0:0:0:0:
402,192,90051,1,0,0:0:0:0:
329,192,90099,1,0,0:0:0:0:
256,192,90147,1,0,0:0:0:0:
182,192,90195,1,0,0:0:0:0:
109,192,90243,1,0,0:0:0:0:
36,192,90291,1,0,0:0:0:0:
475,192,90339,1,0,0:0:0:0:
402,192,90387,1,0,0:0:0:0:
329,192,90435,1,0,0:0:0:0:
256,192,90483,1,0,0:0:0:0:
182,192,90531,1,0,0:0:0:0:
36,192,90531,1,0,0:0:0:0:
109,192,90531,1,0,0:0:0:0:
402,192,90531,1,0,0:0:0:0:
475,192,90531,1,0,0:0:0:0:
36,192,90916,1,0,0:0:0:0:
182,192,90916,1,0,0:0:0:0:
475,192,90916,1,0,0:0:0:0:
109,192,90916,1,0,0:0:0:0:
402,192,90916,1,0,0:0:0:0:
109,192,91301,1,0,0:0:0:0:
402,192,91301,1,0,0:0:0:0:
475,192,91301,1,0,0:0:0:0:
36,192,91301,1,0,0:0:0:0:
182,192,91301,1,0,0:0:0:0:
182,192,91685,1,0,0:0:0:0:
36,192,91685,1,0,0:0:0:0:
329,192,91685,1,0,0:0:0:0:
475,192,91685,1,0,0:0:0:0:
256,192,91877,1,0,0:0:0:0:
182,192,91877,1,0,0:0:0:0:
329,192,91877,1,0,0:0:0:0:
36,192,91877,1,0,0:0:0:0:
475,192,91877,1,0,0:0:0:0:
109,192,92070,1,0,0:0:0:0:
402,192,92070,1,0,0:0:0:0:
256,192,92070,1,0,0:0:0:0:
475,192,92070,1,0,0:0:0:0:
36,192,92070,1,0,0:0:0:0:
182,192,92262,1,0,0:0:0:0:
109,192,92262,1,0,0:0:0:0:
256,192,92262,1,0,0:0:0:0:
329,192,92262,1,0,0:0:0:0:
402,192,92262,1,0,0:0:0:0:
256,192,92454,1,0,0:0:0:0:
109,192,92454,1,0,0:0:0:0:
36,192,92454,1,0,0:0:0:0:
402,192,92454,1,0,0:0:0:0:
475,192,92454,1,0,0:0:0:0:
182,192,92647,1,0,0:0:0:0:
256,192,92647,1,0,0:0:0:0:
329,192,92647,1,0,0:0:0:0:
475,192,92647,1,0,0:0:0:0:
36,192,92647,1,0,0:0:0:0:
109,192,92839,1,0,0:0:0:0:
182,192,92839,1,0,0:0:0:0:
329,192,92839,1,0,0:0:0:0:
402,192,92839,1,0,0:0:0:0:
36,192,92839,1,0,0:0:0:0:
475,192,92839,1,0,0:0:0:0:
256,192,93031,1,0,0:0:0:0:
109,192,93031,1,0,0:0:0:0:
402,192,93031,1,0,0:0:0:0:
182,192,93224,1,0,0:0:0:0:
36,192,93224,1,0,0:0:0:0:
475,192,93224,1,0,0:0:0:0:
256,192,93224,1,0,0:0:0:0:
402,192,93288,1,0,0:0:0:0:
329,192,93352,1,0,0:0:0:0:
256,192,93416,1,0,0:0:0:0:
182,192,93480,1,0,0:0:0:0:
109,192,93544,1,0,0:0:0:0:
36,192,93608,1,0,0:0:0:0:
475,192,93608,1,0,0:0:0:0:
256,192,93608,1,0,0:0:0:0:
329,192,93608,1,0,0:0:0:0:
402,192,93801,1,0,0:0:0:0:
256,192,93801,1,0,0:0:0:0:
182,192,93801,1,0,0:0:0:0:
329,192,93897,1,0,0:0:0:0:
475,192,93897,1,0,0:0:0:0:
109,192,93897,1,0,0:0:0:0:
109,192,94089,1,0,0:0:0:0:
256,192,94089,1,0,0:0:0:0:
402,192,94089,1,0,0:0:0:0:
475,192,94089,1,0,0:0:0:0:
182,192,94185,1,0,0:0:0:0:
36,192,94185,1,0,0:0:0:0:
256,192,94281,1,0,0:0:0:0:
402,192,94281,1,0,0:0:0:0:
329,192,94377,1,0,0:0:0:0:
182,192,94377,1,0,0:0:0:0:
109,192,94474,1,0,0:0:0:0:
256,192,94474,1,0,0:0:0:0:
36,192,94570,1,0,0:0:0:0:
182,192,94570,1,0,0:0:0:0:
402,192,94570,1,0,0:0:0:0:
109,192,94666,1,0,0:0:0:0:
256,192,94666,1,0,0:0:0:0:
475,192,94666,1,0,0:0:0:0:
36,192,94858,1,0,0:0:0:0:
256,192,94858,1,0,0:0:0:0:
475,192,94858,1,0,0:0:0:0:
182,192,94954,1,0,0:0:0:0:
402,192,94954,1,0,0:0:0:0:
109,192,95051,1,0,0:0:0:0:
329,192,95051,1,0,0:0:0:0:
36,192,95051,1,0,0:0:0:0:
182,192,95147,1,0,0:0:0:0:
256,192,95147,1,0,0:0:0:0:
402,192,95147,1,0,0:0:0:0:
475,192,95147,1,0,0:0:0:0:
329,192,95339,1,0,0:0:0:0:
109,192,95531,1,0,0:0:0:0:
182,192,95531,1,0,0:0:0:0:
329,192,95531,1,0,0:0:0:0:
402,192,95531,1,0,0:0:0:0:
256,192,95724,1,0,0:0:0:0:
36,192,95916,1,0,0:0:0:0:
109,192,95916,1,0,0:0:0:0:
256,192,95916,1,0,0:0:0:0:
329,192,95916,1,0,0:0:0:0:
109,192,96301,1,0,0:0:0:0:
182,192,96301,1,0,0:0:0:0:
329,192,96301,1,0,0:0:0:0:
402,192,96301,1,0,0:0:0:0:
182,192,96685,1,0,0:0:0:0:
256,192,96685,1,0,0:0:0:0:
402,192,96685,1,0,0:0:0:0:
475,192,96685,1,0,0:0:0:0:
329,192,96685,128,0,97454:0:0:0:0:
109,192,97454,1,0,0:0:0:0:
36,192,97454,1,0,0:0:0:0:
475,192,97454,1,0,0:0:0:0:
402,192,97454,1,0,0:0:0:0:
182,192,97839,1,0,0:0:0:0:
109,192,97839,1,0,0:0:0:0:
402,192,97839,1,0,0:0:0:0:
475,192,97839,1,0,0:0:0:0:
402,192,98031,1,0,0:0:0:0:
329,192,98031,1,0,0:0:0:0:
109,192,98031,1,0,0:0:0:0:
36,192,98031,1,0,0:0:0:0:
256,192,98416,1,0,0:0:0:0:
475,192,98416,1,0,0:0:0:0:
109,192,98416,1,0,0:0:0:0:
402,192,98416,1,0,0:0:0:0:
182,192,98608,1,0,0:0:0:0:
329,192,98608,1,0,0:0:0:0:
475,192,98608,1,0,0:0:0:0:
36,192,98608,1,0,0:0:0:0:
256,192,98608,1,0,0:0:0:0:
256,192,98801,1,0,0:0:0:0:
402,192,98801,1,0,0:0:0:0:
36,192,98801,1,0,0:0:0:0:
109,192,98801,1,0,0:0:0:0:
329,192,98993,1,0,0:0:0:0:
475,192,98993,1,0,0:0:0:0:
182,192,98993,1,0,0:0:0:0:
109,192,98993,1,0,0:0:0:0:
402,192,98993,1,0,0:0:0:0:
256,192,99185,1,0,0:0:0:0:
182,192,99377,1,0,0:0:0:0:
109,192,99377,1,0,0:0:0:0:
475,192,99377,1,0,0:0:0:0:
329,192,99377,1,0,0:0:0:0:
36,192,99377,1,0,0:0:0:0:
256,192,99570,1,0,0:0:0:0:
402,192,99570,1,0,0:0:0:0:
109,192,99570,1,0,0:0:0:0:
182,192,99762,1,0,0:0:0:0:
329,192,99762,1,0,0:0:0:0:
475,192,99762,1,0,0:0:0:0:
402,192,99762,1,0,0:0:0:0:
36,192,99762,1,0,0:0:0:0:
36,192,99954,1,0,0:0:0:0:
182,192,99954,1,0,0:0:0:0:
329,192,99954,1,0,0:0:0:0:
109,192,100051,1,0,0:0:0:0:
256,192,100051,1,0,0:0:0:0:
402,192,100051,1,0,0:0:0:0:
182,192,100243,1,0,0:0:0:0:
329,192,100243,1,0,0:0:0:0:
475,192,100243,1,0,0:0:0:0:
402,192,100243,1,0,0:0:0:0:
36,192,100243,1,0,0:0:0:0:
109,192,100435,1,0,0:0:0:0:
256,192,100435,1,0,0:0:0:0:
402,192,100435,1,0,0:0:0:0:
329,192,100531,1,0,0:0:0:0:
475,192,100531,1,0,0:0:0:0:
182,192,100531,1,0,0:0:0:0:
109,192,100724,1,0,0:0:0:0:
256,192,100724,1,0,0:0:0:0:
402,192,100724,1,0,0:0:0:0:
36,192,100724,1,0,0:0:0:0:
475,192,100724,1,0,0:0:0:0:
36,192,100916,1,0,0:0:0:0:
182,192,100916,1,0,0:0:0:0:
329,192,100916,1,0,0:0:0:0:
109,192,101108,1,0,0:0:0:0:
256,192,101108,1,0,0:0:0:0:
402,192,101108,1,0,0:0:0:0:
475,192,101108,1,0,0:0:0:0:
36,192,101108,1,0,0:0:0:0:
182,192,101301,1,0,0:0:0:0:
475,192,101301,1,0,0:0:0:0:
329,192,101301,128,0,101685:0:0:0:0:
109,192,101301,1,0,0:0:0:0:
182,192,101685,128,0,102070:0:0:0:0:
36,192,101685,1,0,0:0:0:0:
402,192,101685,1,0,0:0:0:0:
329,192,102070,128,0,102454:0:0:0:0:
475,192,102070,1,0,0:0:0:0:
109,192,102070,1,0,0:0:0:0:
182,192,102454,128,0,102839:0:0:0:0:
36,192,102454,1,0,0:0:0:0:
402,192,102454,1,0,0:0:0:0:
256,192,102839,128,0,103512:0:0:0:0:
256,192,103608,128,0,104281:0:0:0:0:
256,192,104377,128,0,105147:0:0:0:0:
475,192,105147,1,0,0:0:0:0:
329,192,105147,1,0,0:0:0:0:
256,192,105243,1,0,0:0:0:0:
402,192,105243,1,0,0:0:0:0:
329,192,105339,1,0,0:0:0:0:
182,192,105339,1,0,0:0:0:0:
256,192,105435,1,0,0:0:0:0:
109,192,105435,1,0,0:0:0:0:
182,192,105531,1,0,0:0:0:0:
36,192,105531,1,0,0:0:0:0:
109,192,105627,1,0,0:0:0:0:
256,192,105627,1,0,0:0:0:0:
402,192,105627,1,0,0:0:0:0:
329,192,105724,1,0,0:0:0:0:
475,192,105724,1,0,0:0:0:0:
36,192,105916,5,0,0:0:0:0:
182,192,105916,1,0,0:0:0:0:
402,192,105916,1,0,0:0:0:0:
256,192,106012,1,0,0:0:0:0:
109,192,106108,1,0,0:0:0:0:
329,192,106108,1,0,0:0:0:0:
475,192,106108,1,0,0:0:0:0:
256,192,106204,1,0,0:0:0:0:
36,192,106301,1,0,0:0:0:0:
182,192,106301,1,0,0:0:0:0:
475,192,106301,1,0,0:0:0:0:
402,192,106301,1,0,0:0:0:0:
182,192,106493,1,0,0:0:0:0:
329,192,106493,1,0,0:0:0:0:
36,192,106493,1,0,0:0:0:0:
402,192,106493,1,0,0:0:0:0:
182,192,106685,1,0,0:0:0:0:
329,192,106685,1,0,0:0:0:0:
475,192,106685,1,0,0:0:0:0:
109,192,106685,1,0,0:0:0:0:
182,192,106877,1,0,0:0:0:0:
402,192,106877,1,0,0:0:0:0:
256,192,106877,1,0,0:0:0:0:
475,192,107070,1,0,0:0:0:0:
36,192,107070,1,0,0:0:0:0:
329,192,107070,1,0,0:0:0:0:
109,192,107070,1,0,0:0:0:0:
182,192,107070,1,0,0:0:0:0:
109,192,107454,1,0,0:0:0:0:
329,192,107454,1,0,0:0:0:0:
475,192,107454,1,0,0:0:0:0:
256,192,107551,1,0,0:0:0:0:
36,192,107647,1,0,0:0:0:0:
182,192,107647,1,0,0:0:0:0:
402,192,107647,1,0,0:0:0:0:
256,192,107743,1,0,0:0:0:0:
36,192,107839,1,0,0:0:0:0:
109,192,107839,1,0,0:0:0:0:
475,192,107839,1,0,0:0:0:0:
329,192,107839,1,0,0:0:0:0:
475,192,108031,1,0,0:0:0:0:
109,192,108031,1,0,0:0:0:0:
329,192,108031,1,0,0:0:0:0:
182,192,108031,1,0,0:0:0:0:
36,192,108224,1,0,0:0:0:0:
402,192,108224,1,0,0:0:0:0:
329,192,108224,1,0,0:0:0:0:
182,192,108224,1,0,0:0:0:0:
256,192,108416,1,0,0:0:0:0:
109,192,108416,1,0,0:0:0:0:
329,192,108416,1,0,0:0:0:0:
402,192,108608,1,0,0:0:0:0:
329,192,108608,1,0,0:0:0:0:
182,192,108608,1,0,0:0:0:0:
36,192,108608,1,0,0:0:0:0:
475,192,108608,1,0,0:0:0:0:
109,192,108993,1,0,0:0:0:0:
182,192,108993,1,0,0:0:0:0:
475,192,108993,1,0,0:0:0:0:
329,192,108993,1,0,0:0:0:0:
36,192,109089,1,0,0:0:0:0:
329,192,109185,1,0,0:0:0:0:
402,192,109185,1,0,0:0:0:0:
109,192,109185,1,0,0:0:0:0:
182,192,109281,1,0,0:0:0:0:
402,192,109377,1,0,0:0:0:0:
329,192,109377,1,0,0:0:0:0:
475,192,109377,1,0,0:0:0:0:
36,192,109377,1,0,0:0:0:0:
109,192,109377,1,0,0:0:0:0:
182,192,109570,1,0,0:0:0:0:
329,192,109570,1,0,0:0:0:0:
475,192,109570,1,0,0:0:0:0:
109,192,109570,1,0,0:0:0:0:
109,192,109762,1,0,0:0:0:0:
36,192,109762,1,0,0:0:0:0:
256,192,109762,1,0,0:0:0:0:
402,192,109762,1,0,0:0:0:0:
475,192,109954,1,0,0:0:0:0:
329,192,109954,1,0,0:0:0:0:
182,192,109954,1,0,0:0:0:0:
402,192,109954,1,0,0:0:0:0:
36,192,110147,1,0,0:0:0:0:
256,192,110147,1,0,0:0:0:0:
109,192,110147,1,0,0:0:0:0:
329,192,110147,1,0,0:0:0:0:
402,192,110339,1,0,0:0:0:0:
475,192,110339,1,0,0:0:0:0:
256,192,110339,1,0,0:0:0:0:
109,192,110339,1,0,0:0:0:0:
329,192,110435,1,0,0:0:0:0:
36,192,110531,1,0,0:0:0:0:
402,192,110531,1,0,0:0:0:0:
475,192,110531,1,0,0:0:0:0:
182,192,110531,1,0,0:0:0:0:
329,192,110724,1,0,0:0:0:0:
475,192,110916,1,0,0:0:0:0:
36,192,110916,1,0,0:0:0:0:
402,192,110916,1,0,0:0:0:0:
256,192,110916,1,0,0:0:0:0:
109,192,110916,1,0,0:0:0:0:
182,192,111108,1,0,0:0:0:0:
256,192,111301,1,0,0:0:0:0:
36,192,111301,1,0,0:0:0:0:
109,192,111301,1,0,0:0:0:0:
475,192,111301,1,0,0:0:0:0:
329,192,111301,1,0,0:0:0:0:
402,192,111493,1,0,0:0:0:0:
475,192,111685,1,0,0:0:0:0:
256,192,111685,1,0,0:0:0:0:
182,192,111685,1,0,0:0:0:0:
36,192,111685,1,0,0:0:0:0:
329,192,111685,1,0,0:0:0:0:
256,192,112070,1,0,0:0:0:0:
475,192,112070,1,0,0:0:0:0:
36,192,112070,1,0,0:0:0:0:
109,192,112070,1,0,0:0:0:0:
329,192,112166,1,0,0:0:0:0:
402,192,112262,1,0,0:0:0:0:
109,192,112262,1,0,0:0:0:0:
182,192,112262,1,0,0:0:0:0:
256,192,112358,1,0,0:0:0:0:
36,192,112454,1,0,0:0:0:0:
329,192,112454,1,0,0:0:0:0:
109,192,112454,1,0,0:0:0:0:
475,192,112454,1,0,0:0:0:0:
182,192,112647,1,0,0:0:0:0:
256,192,112647,1,0,0:0:0:0:
402,192,112647,1,0,0:0:0:0:
36,192,112647,1,0,0:0:0:0:
182,192,112839,1,0,0:0:0:0:
109,192,112839,1,0,0:0:0:0:
475,192,112839,1,0,0:0:0:0:
329,192,112839,1,0,0:0:0:0:
109,192,113031,1,0,0:0:0:0:
402,192,113031,1,0,0:0:0:0:
256,192,113031,1,0,0:0:0:0:
182,192,113224,1,0,0:0:0:0:
36,192,113224,1,0,0:0:0:0:
475,192,113224,1,0,0:0:0:0:
329,192,113224,1,0,0:0:0:0:
475,192,113608,1,0,0:0:0:0:
182,192,113608,1,0,0:0:0:0:
402,192,113608,1,0,0:0:0:0:
109,192,113608,1,0,0:0:0:0:
256,192,113704,1,0,0:0:0:0:
36,192,113801,1,0,0:0:0:0:
475,192,113801,1,0,0:0:0:0:
329,192,113801,1,0,0:0:0:0:
109,192,113897,1,0,0:0:0:0:
402,192,113993,1,0,0:0:0:0:
475,192,113993,1,0,0:0:0:0:
182,192,113993,1,0,0:0:0:0:
329,192,113993,1,0,0:0:0:0:
402,192,114185,1,0,0:0:0:0:
329,192,114185,1,0,0:0:0:0:
256,192,114185,1,0,0:0:0:0:
109,192,114185,1,0,0:0:0:0:
475,192,114377,1,0,0:0:0:0:
36,192,114377,1,0,0:0:0:0:
109,192,114377,1,0,0:0:0:0:
329,192,114377,1,0,0:0:0:0:
109,192,114570,1,0,0:0:0:0:
402,192,114570,1,0,0:0:0:0:
182,192,114570,1,0,0:0:0:0:
329,192,114570,1,0,0:0:0:0:
182,192,114762,1,0,0:0:0:0:
329,192,114762,1,0,0:0:0:0:
36,192,114762,1,0,0:0:0:0:
256,192,114762,1,0,0:0:0:0:
475,192,114762,1,0,0:0:0:0:
182,192,115147,1,0,0:0:0:0:
329,192,115147,1,0,0:0:0:0:
475,192,115147,1,0,0:0:0:0:
109,192,115243,1,0,0:0:0:0:
402,192,115339,1,0,0:0:0:0:
256,192,115339,1,0,0:0:0:0:
36,192,115339,1,0,0:0:0:0:
182,192,115435,1,0,0:0:0:0:
329,192,115531,1,0,0:0:0:0:
402,192,115531,1,0,0:0:0:0:
36,192,115531,1,0,0:0:0:0:
109,192,115531,1,0,0:0:0:0:
475,192,115531,1,0,0:0:0:0:
182,192,115724,1,0,0:0:0:0:
402,192,115724,1,0,0:0:0:0:
256,192,115724,1,0,0:0:0:0:
329,192,115916,1,0,0:0:0:0:
109,192,115916,1,0,0:0:0:0:
36,192,115916,1,0,0:0:0:0:
402,192,115916,1,0,0:0:0:0:
256,192,116108,1,0,0:0:0:0:
475,192,116108,1,0,0:0:0:0:
402,192,116108,1,0,0:0:0:0:
109,192,116108,1,0,0:0:0:0:
475,192,116301,1,0,0:0:0:0:
329,192,116301,1,0,0:0:0:0:
36,192,116301,1,0,0:0:0:0:
182,192,116301,1,0,0:0:0:0:
256,192,116493,1,0,0:0:0:0:
36,192,116685,1,0,0:0:0:0:
475,192,116685,1,0,0:0:0:0:
109,192,116685,1,0,0:0:0:0:
329,192,116685,1,0,0:0:0:0:
109,192,116974,1,0,0:0:0:0:
36,192,116974,1,0,0:0:0:0:
329,192,116974,1,0,0:0:0:0:
475,192,116974,1,0,0:0:0:0:
109,192,117262,1,0,0:0:0:0:
36,192,117262,1,0,0:0:0:0:
329,192,117262,1,0,0:0:0:0:
475,192,117262,1,0,0:0:0:0:
475,192,117454,1,0,0:0:0:0:
329,192,117454,1,0,0:0:0:0:
109,192,117454,1,0,0:0:0:0:
36,192,117454,1,0,0:0:0:0:
