osu file format v14

[General]
AudioFilename: insomnia.mp3
AudioLeadIn: 0
PreviewTime: 24631
Countdown: 0
SampleSet: None
StackLeniency: 0.7
Mode: 3
LetterboxInBreaks: 0
SpecialStyle: 0
WidescreenStoryboard: 0

[Editor]
DistanceSpacing: 1.2
BeatDivisor: 4
GridSize: 8
TimelineZoom: 2.6

[Metadata]
Title:__M A S__ Vol. 2
TitleUnicode:__M A S__ Vol. 2
Artist:Various
ArtistUnicode:Various
Creator:[ C r a c k ]
Version:Jakarta Funk Brothers - INSOMNIA -7K MX
Source:
Tags:
BeatmapID:1144461
BeatmapSetID:539671

[Difficulty]
HPDrainRate:8
CircleSize:7
OverallDifficulty:5
ApproachRate:5
SliderMultiplier:1.4
SliderTickRate:1

[Events]
//Background and Video events
0,0,"jakarta.png",0,0
//Break Periods
//Storyboard Layer 0 (Background)
//Storyboard Layer 1 (Fail)
//Storyboard Layer 2 (Pass)
//Storyboard Layer 3 (Foreground)
//Storyboard Sound Samples

[TimingPoints]
2478,307.692307692308,4,2,0,0,1,0
4631,-66.6666666666667,4,2,0,0,0,0
4785,-333.333333333333,4,2,0,0,0,0
4939,-100,4,2,0,0,0,0
8939,-133.333333333333,4,2,0,0,0,0
9247,-100,4,2,0,0,0,0
9554,-133.333333333333,4,2,0,0,0,0
9862,-100,4,2,0,0,0,0
13554,-133.333333333333,4,2,0,0,0,0
13862,-66.6666666666667,4,2,0,0,0,0
14016,-333.333333333333,4,2,0,0,0,0
14170,-100,4,2,0,0,0,0
22170,-66.6666666666667,4,2,0,0,0,0
22324,-333.333333333333,4,2,0,0,0,0
22478,-66.6666666666667,4,2,0,0,0,0
22631,-333.333333333333,4,2,0,0,0,0
22785,-50,4,2,0,0,0,0
22939,-333.333333333333,4,2,0,0,0,0
23093,-100,4,2,0,0,0,0
24324,-133.333333333333,4,2,0,0,0,0
24631,-100,4,2,0,0,0,0
42785,-133.333333333333,4,2,0,0,0,0
43093,-100,4,2,0,0,0,0
44324,-66.6666666666667,4,2,0,0,0,0
44478,-333.333333333333,4,2,0,0,0,0
44631,-100,4,2,0,0,0,0
44939,-66.6666666666667,4,2,0,0,0,0
45093,-333.333333333333,4,2,0,0,0,0
45247,-100,4,2,0,0,0,0
45554,-66.6666666666667,4,2,0,0,0,0
45708,-333.333333333333,4,2,0,0,0,0
45862,-100,4,2,0,0,0,0
46170,-66.6666666666667,4,2,0,0,0,0
46324,-333.333333333333,4,2,0,0,0,0
46478,-66.6666666666667,4,2,0,0,0,0
46580,-133.333333333333,4,2,0,0,0,0
46708,-100,4,2,0,0,0,0
46785,-66.6666666666667,4,2,0,0,0,0
46939,-200,4,2,0,0,0,0
47093,-66.6666666666667,4,2,0,0,0,0
47247,-200,4,2,0,0,0,0
47401,-66.6666666666667,4,2,0,0,0,0
47554,-200,4,2,0,0,0,0
47708,-66.6666666666667,4,2,0,0,0,0
47862,-200,4,2,0,0,0,0
48016,-66.6666666666667,4,2,0,0,0,0
48093,-133.333333333333,4,2,0,0,0,0
48170,-66.6666666666667,4,2,0,0,0,0
48247,-133.333333333333,4,2,0,0,0,0
48324,-66.6666666666667,4,2,0,0,0,0
48401,-133.333333333333,4,2,0,0,0,0
48478,-66.6666666666667,4,2,0,0,0,0
48554,-133.333333333333,4,2,0,0,0,0
48631,-66.6666666666667,4,2,0,0,0,0
48670,-333.333333333333,4,2,0,0,0,0
48708,-66.6666666666667,4,2,0,0,0,0
48747,-333.333333333333,4,2,0,0,0,0
48785,-66.6666666666667,4,2,0,0,0,0
48824,-333.333333333333,4,2,0,0,0,0
48862,-66.6666666666667,4,2,0,0,0,0
48901,-333.333333333333,4,2,0,0,0,0
48939,-50,4,2,0,0,0,0
49093,-1000,4,2,0,0,0,0
49247,-100,4,2,0,0,0,0
53862,-133.333333333333,4,2,0,0,0,0
54170,-100,4,2,0,0,0,0
57862,-50,4,2,0,0,0,0
58016,-333.333333333333,4,2,0,0,0,0
58170,-50,4,2,0,0,0,0
58324,-333.333333333333,4,2,0,0,0,0
58478,-50,4,2,0,0,0,0
58631,-333.333333333333,4,2,0,0,0,0
58785,-50,4,2,0,0,0,0
58939,-333.333333333333,4,2,0,0,0,0
59093,-100,4,2,0,0,0,0
67708,-133.333333333333,4,2,0,0,0,0
68016,-100,4,2,0,0,0,0
89247,-66.6666666666667,4,2,0,0,0,0
89324,-133.333333333333,4,2,0,0,0,0
89401,-100,4,2,0,0,0,0
90247,-83.3333333333333,4,2,0,0,0,0
90324,-100,4,2,0,0,0,0
90401,-83.3333333333333,4,2,0,0,0,0
90478,-66.6666666666667,4,2,0,0,0,0
90631,-333.333333333333,4,2,0,0,0,0
90785,-100,4,2,0,0,0,0
110785,-133.333333333333,4,2,0,0,0,0
111093,-100,4,2,0,0,0,0
111401,-133.333333333333,4,2,0,0,0,0
111708,-100,4,2,0,0,0,0
112016,-133.333333333333,4,2,0,0,0,0
112324,-100,4,2,0,0,0,0
112631,-133.333333333333,4,2,0,0,0,0
112939,-100,4,2,0,0,0,0

[HitObjects]
329,192,1247,5,0,0:0:0:0:
182,192,1324,1,0,0:0:0:0:
329,192,1401,1,0,0:0:0:0:
182,192,1477,1,0,0:0:0:0:
329,192,1554,1,0,0:0:0:0:
182,192,1631,1,0,0:0:0:0:
329,192,1708,1,0,0:0:0:0:
182,192,1785,1,0,0:0:0:0:
329,192,1862,1,0,0:0:0:0:
182,192,1939,1,0,0:0:0:0:
329,192,2016,1,0,0:0:0:0:
182,192,2093,1,0,0:0:0:0:
329,192,2170,1,0,0:0:0:0:
182,192,2247,1,0,0:0:0:0:
329,192,2324,1,0,0:0:0:0:
182,192,2401,1,0,0:0:0:0:
402,192,2477,1,0,0:0:0:0:
475,192,2477,1,0,0:0:0:0:
36,192,2477,1,0,0:0:0:0:
256,192,2477,1,0,0:0:0:0:
109,192,2580,1,0,0:0:0:0:
402,192,2683,1,0,0:0:0:0:
109,192,2785,1,0,0:0:0:0:
402,192,2888,1,0,0:0:0:0:
109,192,2990,1,0,0:0:0:0:
475,192,3093,1,0,0:0:0:0:
256,192,3093,1,0,0:0:0:0:
36,192,3195,1,0,0:0:0:0:
475,192,3298,1,0,0:0:0:0:
36,192,3401,1,0,0:0:0:0:
475,192,3503,1,0,0:0:0:0:
36,192,3606,1,0,0:0:0:0:
256,192,3708,1,0,0:0:0:0:
182,192,3708,1,0,0:0:0:0:
329,192,3708,1,0,0:0:0:0:
256,192,3811,1,0,0:0:0:0:
256,192,3913,1,0,0:0:0:0:
256,192,4016,1,0,0:0:0:0:
182,192,4016,1,0,0:0:0:0:
329,192,4016,1,0,0:0:0:0:
109,192,4016,1,0,0:0:0:0:
402,192,4016,1,0,0:0:0:0:
256,192,4119,1,0,0:0:0:0:
256,192,4221,1,0,0:0:0:0:
256,192,4324,1,0,0:0:0:0:
36,192,4324,1,0,0:0:0:0:
109,192,4324,1,0,0:0:0:0:
182,192,4324,1,0,0:0:0:0:
256,192,4478,1,0,0:0:0:0:
329,192,4478,1,0,0:0:0:0:
402,192,4478,1,0,0:0:0:0:
475,192,4478,1,0,0:0:0:0:
36,192,4631,128,0,4939:0:0:0:0:
475,192,4631,128,0,4939:0:0:0:0:
109,192,4939,1,0,0:0:0:0:
402,192,4939,1,0,0:0:0:0:
109,192,5247,1,0,0:0:0:0:
402,192,5247,1,0,0:0:0:0:
402,192,5554,1,0,0:0:0:0:
109,192,5554,1,0,0:0:0:0:
109,192,5862,1,0,0:0:0:0:
402,192,5862,1,0,0:0:0:0:
182,192,6170,1,0,0:0:0:0:
256,192,6324,1,0,0:0:0:0:
329,192,6478,1,0,0:0:0:0:
475,192,6785,1,0,0:0:0:0:
256,192,6939,1,0,0:0:0:0:
36,192,7093,1,0,0:0:0:0:
109,192,7401,1,0,0:0:0:0:
402,192,7401,1,0,0:0:0:0:
109,192,7708,1,0,0:0:0:0:
402,192,7708,1,0,0:0:0:0:
109,192,8016,1,0,0:0:0:0:
402,192,8016,1,0,0:0:0:0:
475,192,8016,1,0,0:0:0:0:
36,192,8016,1,0,0:0:0:0:
36,192,8324,1,0,0:0:0:0:
402,192,8324,1,0,0:0:0:0:
475,192,8324,1,0,0:0:0:0:
109,192,8324,1,0,0:0:0:0:
182,192,8631,1,0,0:0:0:0:
329,192,8631,1,0,0:0:0:0:
182,192,8785,1,0,0:0:0:0:
329,192,8785,1,0,0:0:0:0:
109,192,8939,128,0,9247:0:0:0:0:
402,192,8939,128,0,9247:0:0:0:0:
182,0,9247,5,0,0:0:0:0:
475,192,9247,1,0,0:0:0:0:
402,192,9349,1,0,0:0:0:0:
109,192,9349,1,0,0:0:0:0:
329,192,9452,1,0,0:0:0:0:
36,192,9452,1,0,0:0:0:0:
109,192,9554,128,0,9862:0:0:0:0:
402,192,9554,128,0,9862:0:0:0:0:
329,192,9862,1,0,0:0:0:0:
329,192,9965,1,0,0:0:0:0:
329,192,10067,1,0,0:0:0:0:
182,192,10170,1,0,0:0:0:0:
182,192,10272,1,0,0:0:0:0:
182,192,10375,1,0,0:0:0:0:
402,192,10478,1,0,0:0:0:0:
402,192,10580,1,0,0:0:0:0:
402,192,10683,1,0,0:0:0:0:
109,192,10785,1,0,0:0:0:0:
109,192,10888,1,0,0:0:0:0:
109,192,10990,1,0,0:0:0:0:
475,192,11093,1,0,0:0:0:0:
475,192,11195,1,0,0:0:0:0:
475,192,11298,1,0,0:0:0:0:
36,192,11401,1,0,0:0:0:0:
36,192,11503,1,0,0:0:0:0:
36,192,11606,1,0,0:0:0:0:
402,192,11708,1,0,0:0:0:0:
402,192,11811,1,0,0:0:0:0:
402,192,11913,1,0,0:0:0:0:
109,192,12016,1,0,0:0:0:0:
109,192,12119,1,0,0:0:0:0:
109,192,12221,1,0,0:0:0:0:
329,192,12324,1,0,0:0:0:0:
329,192,12426,1,0,0:0:0:0:
329,192,12529,1,0,0:0:0:0:
182,192,12631,1,0,0:0:0:0:
182,192,12734,1,0,0:0:0:0:
182,192,12836,1,0,0:0:0:0:
402,192,12939,1,0,0:0:0:0:
402,192,13042,1,0,0:0:0:0:
402,192,13144,1,0,0:0:0:0:
109,192,13247,1,0,0:0:0:0:
109,192,13349,1,0,0:0:0:0:
109,192,13452,1,0,0:0:0:0:
182,192,13554,1,0,0:0:0:0:
36,192,13554,128,0,13862:0:0:0:0:
475,192,13554,128,0,13862:0:0:0:0:
329,192,13554,1,0,0:0:0:0:
256,192,13554,1,0,0:0:0:0:
182,192,13862,1,0,0:0:0:0:
329,192,13862,1,0,0:0:0:0:
109,192,14170,1,0,0:0:0:0:
402,192,14170,1,0,0:0:0:0:
36,192,14324,1,0,0:0:0:0:
182,192,14401,1,0,0:0:0:0:
475,192,14478,1,0,0:0:0:0:
329,192,14554,1,0,0:0:0:0:
182,192,14631,1,0,0:0:0:0:
36,192,14708,1,0,0:0:0:0:
256,192,14785,1,0,0:0:0:0:
109,192,14785,1,0,0:0:0:0:
402,192,14785,1,0,0:0:0:0:
329,192,14939,1,0,0:0:0:0:
256,192,15093,1,0,0:0:0:0:
475,192,15093,1,0,0:0:0:0:
329,192,15247,1,0,0:0:0:0:
109,192,15401,1,0,0:0:0:0:
402,192,15401,1,0,0:0:0:0:
182,192,15554,1,0,0:0:0:0:
36,192,15708,1,0,0:0:0:0:
256,192,15708,1,0,0:0:0:0:
329,192,15862,1,0,0:0:0:0:
109,192,16016,128,0,16170:0:0:0:0:
256,192,16016,1,0,0:0:0:0:
475,192,16016,1,0,0:0:0:0:
182,192,16170,128,0,16324:0:0:0:0:
402,192,16170,1,0,0:0:0:0:
256,192,16324,128,0,16478:0:0:0:0:
475,192,16324,1,0,0:0:0:0:
329,192,16324,1,0,0:0:0:0:
182,192,16478,128,0,16631:0:0:0:0:
402,192,16478,1,0,0:0:0:0:
109,192,16631,128,0,16785:0:0:0:0:
256,192,16631,1,0,0:0:0:0:
475,192,16631,1,0,0:0:0:0:
329,192,16785,1,0,0:0:0:0:
36,192,16785,1,0,0:0:0:0:
109,192,16862,1,0,0:0:0:0:
402,192,16939,1,0,0:0:0:0:
475,192,16939,1,0,0:0:0:0:
36,192,16939,1,0,0:0:0:0:
109,192,17016,1,0,0:0:0:0:
329,192,17093,1,0,0:0:0:0:
36,192,17093,1,0,0:0:0:0:
109,192,17170,1,0,0:0:0:0:
256,192,17247,1,0,0:0:0:0:
402,192,17247,1,0,0:0:0:0:
182,192,17247,1,0,0:0:0:0:
109,192,17324,1,0,0:0:0:0:
329,192,17401,1,0,0:0:0:0:
182,192,17401,1,0,0:0:0:0:
109,192,17478,1,0,0:0:0:0:
475,192,17554,1,0,0:0:0:0:
402,192,17554,1,0,0:0:0:0:
182,192,17554,1,0,0:0:0:0:
109,192,17631,1,0,0:0:0:0:
256,192,17708,128,0,18170:0:0:0:0:
329,192,18170,1,0,0:0:0:0:
182,192,18324,1,0,0:0:0:0:
402,192,18478,1,0,0:0:0:0:
256,192,18631,1,0,0:0:0:0:
475,192,18785,1,0,0:0:0:0:
329,192,18939,128,0,19401:0:0:0:0:
36,192,18939,1,0,0:0:0:0:
109,192,19093,1,0,0:0:0:0:
182,192,19247,1,0,0:0:0:0:
402,192,19401,1,0,0:0:0:0:
256,192,19401,1,0,0:0:0:0:
475,192,19554,1,0,0:0:0:0:
182,192,19554,1,0,0:0:0:0:
329,192,19708,1,0,0:0:0:0:
109,192,19708,1,0,0:0:0:0:
402,192,19862,1,0,0:0:0:0:
36,192,19862,1,0,0:0:0:0:
256,192,20016,1,0,0:0:0:0:
329,192,20170,128,0,20631:0:0:0:0:
36,192,20170,1,0,0:0:0:0:
182,192,20170,1,0,0:0:0:0:
109,192,20324,1,0,0:0:0:0:
182,192,20478,1,0,0:0:0:0:
475,192,20478,1,0,0:0:0:0:
256,192,20631,1,0,0:0:0:0:
256,192,20785,128,0,20939:0:0:0:0:
475,192,20785,128,0,20939:0:0:0:0:
182,192,20939,1,0,0:0:0:0:
402,192,20939,1,0,0:0:0:0:
109,192,21093,1,0,0:0:0:0:
329,192,21093,1,0,0:0:0:0:
256,192,21247,1,0,0:0:0:0:
475,192,21247,1,0,0:0:0:0:
182,192,21401,1,0,0:0:0:0:
402,192,21401,1,0,0:0:0:0:
109,192,21554,1,0,0:0:0:0:
329,192,21554,1,0,0:0:0:0:
182,192,21708,1,0,0:0:0:0:
402,192,21708,1,0,0:0:0:0:
36,192,21862,1,0,0:0:0:0:
256,192,21862,1,0,0:0:0:0:
109,192,22016,1,0,0:0:0:0:
329,192,22016,1,0,0:0:0:0:
182,192,22170,1,0,0:0:0:0:
402,192,22170,1,0,0:0:0:0:
182,192,22478,1,0,0:0:0:0:
402,192,22478,1,0,0:0:0:0:
256,192,22785,1,0,0:0:0:0:
475,192,22785,1,0,0:0:0:0:
36,192,22785,1,0,0:0:0:0:
256,192,23093,1,0,0:0:0:0:
475,192,23093,1,0,0:0:0:0:
36,192,23093,1,0,0:0:0:0:
402,192,23170,1,0,0:0:0:0:
329,192,23247,1,0,0:0:0:0:
256,192,23324,1,0,0:0:0:0:
36,192,23401,1,0,0:0:0:0:
182,192,23401,1,0,0:0:0:0:
109,192,23478,1,0,0:0:0:0:
182,192,23554,1,0,0:0:0:0:
256,192,23631,1,0,0:0:0:0:
329,192,23708,1,0,0:0:0:0:
402,192,23708,1,0,0:0:0:0:
475,192,23708,1,0,0:0:0:0:
256,192,23862,1,0,0:0:0:0:
182,192,24016,1,0,0:0:0:0:
109,192,24016,1,0,0:0:0:0:
36,192,24016,1,0,0:0:0:0:
256,192,24170,1,0,0:0:0:0:
329,192,24324,128,0,24631:0:0:0:0:
402,192,24324,128,0,24631:0:0:0:0:
182,192,24324,128,0,24631:0:0:0:0:
109,192,24324,128,0,24631:0:0:0:0:
256,192,24631,1,0,0:0:0:0:
256,192,24785,1,0,0:0:0:0:
182,192,24862,1,0,0:0:0:0:
329,192,24862,1,0,0:0:0:0:
109,192,24939,1,0,0:0:0:0:
402,192,24939,1,0,0:0:0:0:
109,192,25093,1,0,0:0:0:0:
402,192,25093,1,0,0:0:0:0:
256,192,25170,1,0,0:0:0:0:
109,192,25247,1,0,0:0:0:0:
402,192,25247,1,0,0:0:0:0:
109,192,25401,1,0,0:0:0:0:
402,192,25401,1,0,0:0:0:0:
109,192,25554,1,0,0:0:0:0:
402,192,25554,1,0,0:0:0:0:
182,192,25631,1,0,0:0:0:0:
329,192,25631,1,0,0:0:0:0:
109,192,25708,1,0,0:0:0:0:
402,192,25708,1,0,0:0:0:0:
36,192,25785,1,0,0:0:0:0:
475,192,25785,1,0,0:0:0:0:
109,192,25862,1,0,0:0:0:0:
402,192,25862,1,0,0:0:0:0:
36,192,26016,1,0,0:0:0:0:
475,192,26016,1,0,0:0:0:0:
182,192,26170,1,0,0:0:0:0:
329,192,26170,1,0,0:0:0:0:
109,192,26324,1,0,0:0:0:0:
402,192,26324,1,0,0:0:0:0:
256,192,26478,1,0,0:0:0:0:
182,192,26631,1,0,0:0:0:0:
329,192,26631,1,0,0:0:0:0:
109,192,26785,1,0,0:0:0:0:
402,192,26785,1,0,0:0:0:0:
36,192,26939,1,0,0:0:0:0:
475,192,26939,1,0,0:0:0:0:
182,192,27093,1,0,0:0:0:0:
329,192,27093,1,0,0:0:0:0:
256,192,27247,1,0,0:0:0:0:
256,192,27401,1,0,0:0:0:0:
256,192,27554,1,0,0:0:0:0:
182,192,27708,1,0,0:0:0:0:
329,192,27708,1,0,0:0:0:0:
109,192,27862,1,0,0:0:0:0:
402,192,27862,1,0,0:0:0:0:
36,192,28016,1,0,0:0:0:0:
475,192,28016,1,0,0:0:0:0:
109,192,28170,1,0,0:0:0:0:
402,192,28170,1,0,0:0:0:0:
36,192,28324,1,0,0:0:0:0:
475,192,28324,1,0,0:0:0:0:
182,192,28478,1,0,0:0:0:0:
329,192,28478,1,0,0:0:0:0:
109,192,28631,1,0,0:0:0:0:
402,192,28631,1,0,0:0:0:0:
36,192,28785,1,0,0:0:0:0:
475,192,28785,1,0,0:0:0:0:
182,192,28939,1,0,0:0:0:0:
329,192,28939,1,0,0:0:0:0:
256,192,29093,1,0,0:0:0:0:
109,192,29247,1,0,0:0:0:0:
402,192,29247,1,0,0:0:0:0:
182,192,29401,1,0,0:0:0:0:
329,192,29401,1,0,0:0:0:0:
256,192,29554,1,0,0:0:0:0:
256,192,29708,1,0,0:0:0:0:
182,192,29785,1,0,0:0:0:0:
329,192,29785,1,0,0:0:0:0:
109,192,29862,1,0,0:0:0:0:
402,192,29862,1,0,0:0:0:0:
109,192,30016,1,0,0:0:0:0:
402,192,30016,1,0,0:0:0:0:
256,192,30093,1,0,0:0:0:0:
109,192,30170,1,0,0:0:0:0:
402,192,30170,1,0,0:0:0:0:
402,192,30324,1,0,0:0:0:0:
109,192,30324,1,0,0:0:0:0:
256,192,30401,1,0,0:0:0:0:
109,192,30478,1,0,0:0:0:0:
402,192,30478,1,0,0:0:0:0:
109,192,30631,1,0,0:0:0:0:
402,192,30631,1,0,0:0:0:0:
109,192,30708,1,0,0:0:0:0:
402,192,30708,1,0,0:0:0:0:
36,192,30785,1,0,0:0:0:0:
329,192,30785,1,0,0:0:0:0:
109,192,30939,1,0,0:0:0:0:
402,192,30939,1,0,0:0:0:0:
182,192,31093,1,0,0:0:0:0:
475,192,31093,1,0,0:0:0:0:
109,192,31247,1,0,0:0:0:0:
402,192,31247,1,0,0:0:0:0:
36,192,31401,1,0,0:0:0:0:
329,192,31401,1,0,0:0:0:0:
109,192,31554,1,0,0:0:0:0:
402,192,31554,1,0,0:0:0:0:
182,192,31708,1,0,0:0:0:0:
475,192,31708,1,0,0:0:0:0:
256,192,31862,1,0,0:0:0:0:
182,192,32016,1,0,0:0:0:0:
329,192,32016,1,0,0:0:0:0:
256,192,32170,1,0,0:0:0:0:
256,192,32324,1,0,0:0:0:0:
256,192,32478,1,0,0:0:0:0:
109,192,32631,1,0,0:0:0:0:
402,192,32631,1,0,0:0:0:0:
36,192,32785,1,0,0:0:0:0:
329,192,32785,1,0,0:0:0:0:
182,192,32939,1,0,0:0:0:0:
475,192,32939,1,0,0:0:0:0:
109,192,33093,1,0,0:0:0:0:
402,192,33093,1,0,0:0:0:0:
36,192,33247,1,0,0:0:0:0:
329,192,33247,1,0,0:0:0:0:
109,192,33401,1,0,0:0:0:0:
402,192,33401,1,0,0:0:0:0:
182,192,33554,1,0,0:0:0:0:
475,192,33554,1,0,0:0:0:0:
182,192,33708,1,0,0:0:0:0:
475,192,33708,1,0,0:0:0:0:
109,192,33862,1,0,0:0:0:0:
402,192,33862,1,0,0:0:0:0:
36,192,34016,1,0,0:0:0:0:
329,192,34016,1,0,0:0:0:0:
182,192,34170,1,0,0:0:0:0:
475,192,34170,1,0,0:0:0:0:
109,192,34324,1,0,0:0:0:0:
402,192,34324,1,0,0:0:0:0:
256,192,34478,1,0,0:0:0:0:
36,192,34631,1,0,0:0:0:0:
475,192,34631,1,0,0:0:0:0:
109,192,34708,1,0,0:0:0:0:
402,192,34708,1,0,0:0:0:0:
182,192,34785,1,0,0:0:0:0:
329,192,34785,1,0,0:0:0:0:
182,192,34939,1,0,0:0:0:0:
329,192,34939,1,0,0:0:0:0:
256,192,34978,1,0,0:0:0:0:
109,192,35016,1,0,0:0:0:0:
402,192,35016,1,0,0:0:0:0:
256,192,35054,1,0,0:0:0:0:
182,192,35093,1,0,0:0:0:0:
329,192,35093,1,0,0:0:0:0:
182,192,35247,1,0,0:0:0:0:
329,192,35247,1,0,0:0:0:0:
329,192,35401,1,0,0:0:0:0:
182,192,35401,1,0,0:0:0:0:
182,192,35554,1,0,0:0:0:0:
329,192,35554,1,0,0:0:0:0:
182,192,35631,1,0,0:0:0:0:
329,192,35631,1,0,0:0:0:0:
109,192,35708,1,0,0:0:0:0:
402,192,35708,1,0,0:0:0:0:
182,192,35862,1,0,0:0:0:0:
329,192,35862,1,0,0:0:0:0:
36,192,36016,1,0,0:0:0:0:
475,192,36016,1,0,0:0:0:0:
182,192,36170,1,0,0:0:0:0:
329,192,36170,1,0,0:0:0:0:
36,192,36324,1,0,0:0:0:0:
475,192,36324,1,0,0:0:0:0:
109,192,36478,1,0,0:0:0:0:
402,192,36478,1,0,0:0:0:0:
182,192,36631,1,0,0:0:0:0:
329,192,36631,1,0,0:0:0:0:
256,192,36785,1,0,0:0:0:0:
109,192,36939,1,0,0:0:0:0:
402,192,36939,1,0,0:0:0:0:
182,192,37093,1,0,0:0:0:0:
329,192,37093,1,0,0:0:0:0:
329,192,37247,1,0,0:0:0:0:
182,192,37247,1,0,0:0:0:0:
182,192,37401,1,0,0:0:0:0:
329,192,37401,1,0,0:0:0:0:
182,192,37554,1,0,0:0:0:0:
329,192,37554,1,0,0:0:0:0:
109,192,37708,1,0,0:0:0:0:
402,192,37708,1,0,0:0:0:0:
36,192,37862,1,0,0:0:0:0:
475,192,37862,1,0,0:0:0:0:
402,192,38016,1,0,0:0:0:0:
109,192,38016,1,0,0:0:0:0:
36,192,38170,1,0,0:0:0:0:
475,192,38170,1,0,0:0:0:0:
109,192,38324,1,0,0:0:0:0:
402,192,38324,1,0,0:0:0:0:
182,192,38478,1,0,0:0:0:0:
329,192,38478,1,0,0:0:0:0:
182,192,38631,1,0,0:0:0:0:
329,192,38631,1,0,0:0:0:0:
182,192,38785,1,0,0:0:0:0:
329,192,38785,1,0,0:0:0:0:
109,192,38939,1,0,0:0:0:0:
402,192,38939,1,0,0:0:0:0:
182,192,39093,1,0,0:0:0:0:
329,192,39093,1,0,0:0:0:0:
36,192,39247,1,0,0:0:0:0:
475,192,39247,1,0,0:0:0:0:
109,192,39401,1,0,0:0:0:0:
329,192,39401,1,0,0:0:0:0:
182,192,39478,1,0,0:0:0:0:
402,192,39478,1,0,0:0:0:0:
109,192,39554,1,0,0:0:0:0:
329,192,39554,1,0,0:0:0:0:
402,192,39631,1,0,0:0:0:0:
182,192,39631,1,0,0:0:0:0:
109,192,39708,1,0,0:0:0:0:
329,192,39708,1,0,0:0:0:0:
109,192,39862,1,0,0:0:0:0:
329,192,39862,1,0,0:0:0:0:
109,192,39939,1,0,0:0:0:0:
329,192,39939,1,0,0:0:0:0:
182,192,40016,1,0,0:0:0:0:
402,192,40016,1,0,0:0:0:0:
182,192,40170,1,0,0:0:0:0:
402,192,40170,1,0,0:0:0:0:
182,192,40247,1,0,0:0:0:0:
402,192,40247,1,0,0:0:0:0:
109,192,40324,1,0,0:0:0:0:
329,192,40324,1,0,0:0:0:0:
109,192,40478,1,0,0:0:0:0:
329,192,40478,1,0,0:0:0:0:
109,192,40554,1,0,0:0:0:0:
329,192,40554,1,0,0:0:0:0:
182,192,40631,1,0,0:0:0:0:
402,192,40631,1,0,0:0:0:0:
256,192,40785,1,0,0:0:0:0:
475,192,40785,1,0,0:0:0:0:
109,192,40939,1,0,0:0:0:0:
329,192,40939,1,0,0:0:0:0:
182,192,41093,1,0,0:0:0:0:
402,192,41093,1,0,0:0:0:0:
36,192,41247,1,0,0:0:0:0:
256,192,41247,1,0,0:0:0:0:
109,192,41401,1,0,0:0:0:0:
329,192,41401,1,0,0:0:0:0:
182,192,41554,1,0,0:0:0:0:
402,192,41554,1,0,0:0:0:0:
256,192,41708,1,0,0:0:0:0:
475,192,41708,1,0,0:0:0:0:
475,192,41862,1,0,0:0:0:0:
329,192,41862,1,0,0:0:0:0:
402,192,41939,1,0,0:0:0:0:
256,192,41939,1,0,0:0:0:0:
329,192,42016,1,0,0:0:0:0:
182,192,42016,1,0,0:0:0:0:
256,192,42093,1,0,0:0:0:0:
109,192,42093,1,0,0:0:0:0:
182,192,42170,1,0,0:0:0:0:
36,192,42170,1,0,0:0:0:0:
329,192,42324,1,0,0:0:0:0:
475,192,42324,1,0,0:0:0:0:
36,192,42478,1,0,0:0:0:0:
182,192,42478,1,0,0:0:0:0:
256,192,42554,1,0,0:0:0:0:
329,192,42631,1,0,0:0:0:0:
475,192,42631,1,0,0:0:0:0:
256,192,42785,1,0,0:0:0:0:
109,192,42785,128,0,43093:0:0:0:0:
402,192,42785,128,0,43093:0:0:0:0:
182,192,43093,1,0,0:0:0:0:
329,192,43093,1,0,0:0:0:0:
256,192,43247,1,0,0:0:0:0:
256,192,43401,1,0,0:0:0:0:
256,192,43554,1,0,0:0:0:0:
256,192,43708,1,0,0:0:0:0:
182,192,43862,1,0,0:0:0:0:
329,192,43862,1,0,0:0:0:0:
109,192,44016,1,0,0:0:0:0:
402,192,44016,1,0,0:0:0:0:
36,192,44170,1,0,0:0:0:0:
475,192,44170,1,0,0:0:0:0:
109,192,44324,128,0,48939:0:0:0:0:
182,192,44324,128,0,48939:0:0:0:0:
329,192,44324,128,0,48939:0:0:0:0:
402,192,44324,128,0,48939:0:0:0:0:
256,192,44324,1,0,0:0:0:0:
256,192,44631,1,0,0:0:0:0:
256,192,44785,1,0,0:0:0:0:
256,192,44939,1,0,0:0:0:0:
256,192,45247,1,0,0:0:0:0:
256,192,45401,1,0,0:0:0:0:
256,192,45554,1,0,0:0:0:0:
256,192,45862,1,0,0:0:0:0:
256,192,46016,1,0,0:0:0:0:
256,192,46170,1,0,0:0:0:0:
256,192,46478,128,0,46708:0:0:0:0:
256,192,46785,1,0,0:0:0:0:
256,192,47093,1,0,0:0:0:0:
256,192,47401,1,0,0:0:0:0:
256,192,47708,1,0,0:0:0:0:
256,192,48016,1,0,0:0:0:0:
256,192,48170,1,0,0:0:0:0:
256,192,48324,1,0,0:0:0:0:
256,192,48478,1,0,0:0:0:0:
475,192,48631,1,0,0:0:0:0:
36,192,48708,1,0,0:0:0:0:
475,192,48785,1,0,0:0:0:0:
36,192,48862,1,0,0:0:0:0:
256,192,48939,1,0,0:0:0:0:
475,192,48939,1,0,0:0:0:0:
36,192,49247,1,0,0:0:0:0:
329,192,49247,1,0,0:0:0:0:
402,192,49247,128,0,50478:0:0:0:0:
256,192,49324,1,0,0:0:0:0:
182,192,49401,1,0,0:0:0:0:
109,192,49478,1,0,0:0:0:0:
36,192,49554,1,0,0:0:0:0:
109,192,49631,1,0,0:0:0:0:
182,192,49708,1,0,0:0:0:0:
256,192,49785,1,0,0:0:0:0:
329,192,49862,1,0,0:0:0:0:
256,192,49939,1,0,0:0:0:0:
182,192,50016,1,0,0:0:0:0:
109,192,50093,1,0,0:0:0:0:
36,192,50170,1,0,0:0:0:0:
109,192,50247,1,0,0:0:0:0:
182,192,50324,1,0,0:0:0:0:
256,192,50401,1,0,0:0:0:0:
329,192,50478,1,0,0:0:0:0:
475,192,50478,128,0,51708:0:0:0:0:
256,192,50554,1,0,0:0:0:0:
182,192,50631,1,0,0:0:0:0:
109,192,50708,1,0,0:0:0:0:
36,192,50785,1,0,0:0:0:0:
109,192,50862,1,0,0:0:0:0:
182,192,50939,1,0,0:0:0:0:
256,192,51016,1,0,0:0:0:0:
329,192,51093,1,0,0:0:0:0:
256,192,51170,1,0,0:0:0:0:
182,192,51247,1,0,0:0:0:0:
109,192,51324,1,0,0:0:0:0:
36,192,51401,1,0,0:0:0:0:
109,192,51478,1,0,0:0:0:0:
182,192,51554,1,0,0:0:0:0:
256,192,51631,1,0,0:0:0:0:
329,192,51708,1,0,0:0:0:0:
402,192,51708,128,0,52324:0:0:0:0:
256,192,51785,1,0,0:0:0:0:
182,192,51862,1,0,0:0:0:0:
109,192,51939,1,0,0:0:0:0:
36,192,52016,1,0,0:0:0:0:
109,192,52093,1,0,0:0:0:0:
182,192,52170,1,0,0:0:0:0:
256,192,52247,1,0,0:0:0:0:
329,192,52324,1,0,0:0:0:0:
475,192,52324,128,0,53554:0:0:0:0:
256,192,52401,1,0,0:0:0:0:
182,192,52478,1,0,0:0:0:0:
109,192,52554,1,0,0:0:0:0:
36,192,52631,1,0,0:0:0:0:
109,192,52708,1,0,0:0:0:0:
182,192,52785,1,0,0:0:0:0:
256,192,52862,1,0,0:0:0:0:
329,192,52939,1,0,0:0:0:0:
256,192,53016,1,0,0:0:0:0:
182,192,53093,1,0,0:0:0:0:
109,192,53170,1,0,0:0:0:0:
36,192,53247,1,0,0:0:0:0:
109,192,53324,1,0,0:0:0:0:
182,192,53401,1,0,0:0:0:0:
256,192,53478,1,0,0:0:0:0:
329,192,53554,1,0,0:0:0:0:
402,192,53554,1,0,0:0:0:0:
109,192,53631,1,0,0:0:0:0:
182,192,53631,1,0,0:0:0:0:
402,192,53708,1,0,0:0:0:0:
475,192,53708,1,0,0:0:0:0:
36,192,53785,1,0,0:0:0:0:
109,192,53785,1,0,0:0:0:0:
182,192,53862,1,0,0:0:0:0:
329,192,53862,1,0,0:0:0:0:
256,192,53862,128,0,54170:0:0:0:0:
182,192,54170,1,0,0:0:0:0:
475,192,54170,1,0,0:0:0:0:
109,192,54170,128,0,55401:0:0:0:0:
256,192,54247,1,0,0:0:0:0:
329,192,54324,1,0,0:0:0:0:
402,192,54401,1,0,0:0:0:0:
475,192,54478,1,0,0:0:0:0:
402,192,54554,1,0,0:0:0:0:
329,192,54631,1,0,0:0:0:0:
256,192,54708,1,0,0:0:0:0:
182,192,54785,1,0,0:0:0:0:
256,192,54862,1,0,0:0:0:0:
329,192,54939,1,0,0:0:0:0:
402,192,55016,1,0,0:0:0:0:
475,192,55093,1,0,0:0:0:0:
402,192,55170,1,0,0:0:0:0:
329,192,55247,1,0,0:0:0:0:
256,192,55324,1,0,0:0:0:0:
182,192,55401,1,0,0:0:0:0:
36,192,55401,128,0,56631:0:0:0:0:
256,192,55478,1,0,0:0:0:0:
329,192,55554,1,0,0:0:0:0:
402,192,55631,1,0,0:0:0:0:
475,192,55708,1,0,0:0:0:0:
402,192,55785,1,0,0:0:0:0:
329,192,55862,1,0,0:0:0:0:
256,192,55939,1,0,0:0:0:0:
182,192,56016,1,0,0:0:0:0:
256,192,56093,1,0,0:0:0:0:
329,192,56170,1,0,0:0:0:0:
402,192,56247,1,0,0:0:0:0:
475,192,56324,1,0,0:0:0:0:
402,192,56401,1,0,0:0:0:0:
329,192,56478,1,0,0:0:0:0:
256,192,56554,1,0,0:0:0:0:
182,192,56631,1,0,0:0:0:0:
109,192,56631,128,0,57247:0:0:0:0:
256,192,56708,1,0,0:0:0:0:
329,192,56785,1,0,0:0:0:0:
402,192,56862,1,0,0:0:0:0:
475,192,56939,1,0,0:0:0:0:
402,192,57016,1,0,0:0:0:0:
329,192,57093,1,0,0:0:0:0:
256,192,57170,1,0,0:0:0:0:
182,192,57247,1,0,0:0:0:0:
36,192,57247,128,0,57862:0:0:0:0:
256,192,57324,1,0,0:0:0:0:
329,192,57401,1,0,0:0:0:0:
402,192,57478,1,0,0:0:0:0:
475,192,57554,1,0,0:0:0:0:
402,192,57631,1,0,0:0:0:0:
329,192,57708,1,0,0:0:0:0:
256,192,57785,1,0,0:0:0:0:
182,192,57862,128,0,58170:0:0:0:0:
109,192,57862,128,0,58170:0:0:0:0:
329,192,58170,1,0,0:0:0:0:
402,192,58170,1,0,0:0:0:0:
109,192,58478,1,0,0:0:0:0:
182,192,58478,1,0,0:0:0:0:
256,192,58478,1,0,0:0:0:0:
329,192,58478,1,0,0:0:0:0:
402,192,58478,1,0,0:0:0:0:
402,192,58785,1,0,0:0:0:0:
329,192,58785,1,0,0:0:0:0:
256,192,58785,1,0,0:0:0:0:
182,192,58785,1,0,0:0:0:0:
109,192,58785,1,0,0:0:0:0:
402,192,59093,1,0,0:0:0:0:
109,192,59093,1,0,0:0:0:0:
475,192,59093,128,0,60324:0:0:0:0:
329,192,59170,1,0,0:0:0:0:
256,192,59247,1,0,0:0:0:0:
182,192,59324,1,0,0:0:0:0:
109,192,59401,1,0,0:0:0:0:
182,192,59478,1,0,0:0:0:0:
256,192,59554,1,0,0:0:0:0:
329,192,59631,1,0,0:0:0:0:
402,192,59708,1,0,0:0:0:0:
329,192,59785,1,0,0:0:0:0:
256,192,59862,1,0,0:0:0:0:
182,192,59939,1,0,0:0:0:0:
109,192,60016,1,0,0:0:0:0:
182,192,60093,1,0,0:0:0:0:
256,192,60170,1,0,0:0:0:0:
329,192,60247,1,0,0:0:0:0:
402,192,60324,1,0,0:0:0:0:
36,192,60324,128,0,61554:0:0:0:0:
329,192,60401,1,0,0:0:0:0:
256,192,60478,1,0,0:0:0:0:
182,192,60554,1,0,0:0:0:0:
109,192,60631,1,0,0:0:0:0:
182,192,60708,1,0,0:0:0:0:
256,192,60785,1,0,0:0:0:0:
329,192,60862,1,0,0:0:0:0:
402,192,60939,1,0,0:0:0:0:
329,192,61016,1,0,0:0:0:0:
256,192,61093,1,0,0:0:0:0:
182,192,61170,1,0,0:0:0:0:
109,192,61247,1,0,0:0:0:0:
182,192,61324,1,0,0:0:0:0:
256,192,61401,1,0,0:0:0:0:
329,192,61478,1,0,0:0:0:0:
402,192,61554,1,0,0:0:0:0:
475,192,61554,128,0,62170:0:0:0:0:
329,192,61631,1,0,0:0:0:0:
256,192,61708,1,0,0:0:0:0:
182,192,61785,1,0,0:0:0:0:
109,192,61862,1,0,0:0:0:0:
182,192,61939,1,0,0:0:0:0:
256,192,62016,1,0,0:0:0:0:
329,192,62093,1,0,0:0:0:0:
402,192,62170,1,0,0:0:0:0:
36,192,62170,128,0,63401:0:0:0:0:
329,192,62247,1,0,0:0:0:0:
256,192,62324,1,0,0:0:0:0:
182,192,62401,1,0,0:0:0:0:
109,192,62478,1,0,0:0:0:0:
182,192,62554,1,0,0:0:0:0:
256,192,62631,1,0,0:0:0:0:
329,192,62708,1,0,0:0:0:0:
402,192,62785,1,0,0:0:0:0:
329,192,62862,1,0,0:0:0:0:
256,192,62939,1,0,0:0:0:0:
182,192,63016,1,0,0:0:0:0:
109,192,63093,1,0,0:0:0:0:
182,192,63170,1,0,0:0:0:0:
256,192,63247,1,0,0:0:0:0:
329,192,63324,1,0,0:0:0:0:
402,192,63401,1,0,0:0:0:0:
475,192,63401,1,0,0:0:0:0:
109,192,63478,1,0,0:0:0:0:
182,192,63478,1,0,0:0:0:0:
402,192,63554,1,0,0:0:0:0:
329,192,63554,1,0,0:0:0:0:
109,192,63631,1,0,0:0:0:0:
36,192,63631,1,0,0:0:0:0:
402,192,63708,1,0,0:0:0:0:
475,192,63708,1,0,0:0:0:0:
329,192,63785,1,0,0:0:0:0:
256,192,63862,1,0,0:0:0:0:
182,192,63939,1,0,0:0:0:0:
109,192,64016,1,0,0:0:0:0:
402,192,64016,1,0,0:0:0:0:
36,192,64016,128,0,65247:0:0:0:0:
182,192,64093,1,0,0:0:0:0:
256,192,64170,1,0,0:0:0:0:
329,192,64247,1,0,0:0:0:0:
402,192,64324,1,0,0:0:0:0:
329,192,64401,1,0,0:0:0:0:
256,192,64478,1,0,0:0:0:0:
182,192,64554,1,0,0:0:0:0:
109,192,64631,1,0,0:0:0:0:
182,192,64708,1,0,0:0:0:0:
256,192,64785,1,0,0:0:0:0:
329,192,64862,1,0,0:0:0:0:
402,192,64939,1,0,0:0:0:0:
329,192,65016,1,0,0:0:0:0:
256,192,65093,1,0,0:0:0:0:
182,192,65170,1,0,0:0:0:0:
109,192,65247,1,0,0:0:0:0:
475,192,65247,128,0,66478:0:0:0:0:
182,192,65324,1,0,0:0:0:0:
256,192,65401,1,0,0:0:0:0:
329,192,65478,1,0,0:0:0:0:
402,192,65554,1,0,0:0:0:0:
329,192,65631,1,0,0:0:0:0:
256,192,65708,1,0,0:0:0:0:
182,192,65785,1,0,0:0:0:0:
109,192,65862,1,0,0:0:0:0:
182,192,65939,1,0,0:0:0:0:
256,192,66016,1,0,0:0:0:0:
329,192,66093,1,0,0:0:0:0:
402,192,66170,1,0,0:0:0:0:
329,192,66247,1,0,0:0:0:0:
256,192,66324,1,0,0:0:0:0:
182,192,66401,1,0,0:0:0:0:
109,192,66478,1,0,0:0:0:0:
36,192,66478,128,0,67093:0:0:0:0:
182,192,66554,1,0,0:0:0:0:
256,192,66631,1,0,0:0:0:0:
329,192,66708,1,0,0:0:0:0:
402,192,66785,1,0,0:0:0:0:
329,192,66862,1,0,0:0:0:0:
256,192,66939,1,0,0:0:0:0:
182,192,67016,1,0,0:0:0:0:
109,192,67093,1,0,0:0:0:0:
475,192,67093,128,0,67708:0:0:0:0:
182,192,67170,1,0,0:0:0:0:
256,192,67247,1,0,0:0:0:0:
329,192,67324,1,0,0:0:0:0:
402,192,67401,1,0,0:0:0:0:
329,192,67478,1,0,0:0:0:0:
256,192,67554,1,0,0:0:0:0:
182,192,67631,1,0,0:0:0:0:
109,192,67708,128,0,68016:0:0:0:0:
402,192,67708,128,0,68016:0:0:0:0:
182,192,68016,1,0,0:0:0:0:
329,192,68016,1,0,0:0:0:0:
329,192,68170,1,0,0:0:0:0:
182,192,68170,1,0,0:0:0:0:
256,192,68324,128,0,68478:0:0:0:0:
182,192,68478,128,0,68631:0:0:0:0:
329,192,68478,128,0,68631:0:0:0:0:
36,192,68631,128,0,68785:0:0:0:0:
475,192,68631,128,0,68785:0:0:0:0:
402,192,68785,128,0,68939:0:0:0:0:
109,192,68785,128,0,68939:0:0:0:0:
182,192,68939,128,0,70170:0:0:0:0:
329,192,68939,128,0,70170:0:0:0:0:
475,192,68939,1,0,0:0:0:0:
36,192,69016,1,0,0:0:0:0:
475,192,69093,1,0,0:0:0:0:
36,192,69170,1,0,0:0:0:0:
475,192,69247,1,0,0:0:0:0:
36,192,69324,1,0,0:0:0:0:
475,192,69401,1,0,0:0:0:0:
36,192,69478,1,0,0:0:0:0:
256,192,69554,1,0,0:0:0:0:
475,192,69554,1,0,0:0:0:0:
36,192,69631,1,0,0:0:0:0:
475,192,69708,1,0,0:0:0:0:
36,192,69785,1,0,0:0:0:0:
475,192,69862,1,0,0:0:0:0:
36,192,69939,1,0,0:0:0:0:
475,192,70016,1,0,0:0:0:0:
36,192,70093,1,0,0:0:0:0:
109,192,70170,128,0,71401:0:0:0:0:
402,192,70170,128,0,71401:0:0:0:0:
475,192,70170,1,0,0:0:0:0:
36,192,70247,1,0,0:0:0:0:
475,192,70324,1,0,0:0:0:0:
36,192,70401,1,0,0:0:0:0:
475,192,70478,1,0,0:0:0:0:
36,192,70554,1,0,0:0:0:0:
475,192,70631,1,0,0:0:0:0:
36,192,70708,1,0,0:0:0:0:
329,192,70785,1,0,0:0:0:0:
475,192,70785,1,0,0:0:0:0:
36,192,70862,1,0,0:0:0:0:
475,192,70939,1,0,0:0:0:0:
36,192,71016,1,0,0:0:0:0:
475,192,71093,1,0,0:0:0:0:
36,192,71170,1,0,0:0:0:0:
475,192,71247,1,0,0:0:0:0:
36,192,71324,1,0,0:0:0:0:
182,192,71401,128,0,72016:0:0:0:0:
329,192,71401,128,0,72016:0:0:0:0:
475,192,71401,1,0,0:0:0:0:
109,192,71478,1,0,0:0:0:0:
475,192,71554,1,0,0:0:0:0:
109,192,71631,1,0,0:0:0:0:
475,192,71708,1,0,0:0:0:0:
109,192,71785,1,0,0:0:0:0:
475,192,71862,1,0,0:0:0:0:
109,192,71939,1,0,0:0:0:0:
256,192,72016,128,0,73247:0:0:0:0:
402,192,72016,1,0,0:0:0:0:
475,192,72016,1,0,0:0:0:0:
109,192,72093,1,0,0:0:0:0:
402,192,72170,1,0,0:0:0:0:
109,192,72247,1,0,0:0:0:0:
402,192,72324,1,0,0:0:0:0:
109,192,72401,1,0,0:0:0:0:
402,192,72478,1,0,0:0:0:0:
109,192,72554,1,0,0:0:0:0:
402,192,72631,1,0,0:0:0:0:
109,192,72708,1,0,0:0:0:0:
402,192,72785,1,0,0:0:0:0:
109,192,72862,1,0,0:0:0:0:
402,192,72939,1,0,0:0:0:0:
109,192,73016,1,0,0:0:0:0:
402,192,73093,1,0,0:0:0:0:
109,192,73170,1,0,0:0:0:0:
182,192,73247,128,0,73862:0:0:0:0:
329,192,73247,128,0,73862:0:0:0:0:
475,192,73247,1,0,0:0:0:0:
36,192,73324,1,0,0:0:0:0:
402,192,73401,1,0,0:0:0:0:
109,192,73478,1,0,0:0:0:0:
475,192,73554,1,0,0:0:0:0:
36,192,73631,1,0,0:0:0:0:
402,192,73708,1,0,0:0:0:0:
109,192,73785,1,0,0:0:0:0:
256,192,73862,128,0,75093:0:0:0:0:
475,192,73862,1,0,0:0:0:0:
36,192,73862,1,0,0:0:0:0:
329,192,73939,1,0,0:0:0:0:
36,192,74016,1,0,0:0:0:0:
329,192,74093,1,0,0:0:0:0:
36,192,74170,1,0,0:0:0:0:
329,192,74247,1,0,0:0:0:0:
36,192,74324,1,0,0:0:0:0:
329,192,74401,1,0,0:0:0:0:
36,192,74478,1,0,0:0:0:0:
329,192,74554,1,0,0:0:0:0:
36,192,74631,1,0,0:0:0:0:
329,192,74708,1,0,0:0:0:0:
36,192,74785,1,0,0:0:0:0:
329,192,74862,1,0,0:0:0:0:
36,192,74939,1,0,0:0:0:0:
329,192,75016,1,0,0:0:0:0:
109,192,75093,128,0,76324:0:0:0:0:
402,192,75093,128,0,76324:0:0:0:0:
475,192,75093,1,0,0:0:0:0:
182,192,75170,1,0,0:0:0:0:
475,192,75247,1,0,0:0:0:0:
182,192,75324,1,0,0:0:0:0:
475,192,75401,1,0,0:0:0:0:
182,192,75478,1,0,0:0:0:0:
475,192,75554,1,0,0:0:0:0:
182,192,75631,1,0,0:0:0:0:
256,192,75708,128,0,76324:0:0:0:0:
475,192,75708,1,0,0:0:0:0:
182,192,75785,1,0,0:0:0:0:
475,192,75862,1,0,0:0:0:0:
182,192,75939,1,0,0:0:0:0:
475,192,76016,1,0,0:0:0:0:
182,192,76093,1,0,0:0:0:0:
475,192,76170,1,0,0:0:0:0:
182,192,76247,1,0,0:0:0:0:
36,192,76324,128,0,76939:0:0:0:0:
475,192,76324,128,0,76939:0:0:0:0:
329,192,76324,1,0,0:0:0:0:
182,192,76401,1,0,0:0:0:0:
329,192,76478,1,0,0:0:0:0:
182,192,76554,1,0,0:0:0:0:
329,192,76631,1,0,0:0:0:0:
182,192,76708,1,0,0:0:0:0:
329,192,76785,1,0,0:0:0:0:
182,192,76862,1,0,0:0:0:0:
109,192,76939,128,0,78170:0:0:0:0:
402,192,76939,128,0,78170:0:0:0:0:
329,192,76939,1,0,0:0:0:0:
182,192,77016,1,0,0:0:0:0:
329,192,77093,1,0,0:0:0:0:
182,192,77170,1,0,0:0:0:0:
329,192,77247,1,0,0:0:0:0:
182,192,77324,1,0,0:0:0:0:
329,192,77401,1,0,0:0:0:0:
182,192,77478,1,0,0:0:0:0:
329,192,77554,1,0,0:0:0:0:
256,192,77554,1,0,0:0:0:0:
182,192,77631,1,0,0:0:0:0:
329,192,77708,1,0,0:0:0:0:
182,192,77785,1,0,0:0:0:0:
329,192,77862,1,0,0:0:0:0:
182,192,77939,1,0,0:0:0:0:
329,192,78016,1,0,0:0:0:0:
182,192,78093,1,0,0:0:0:0:
36,192,78170,128,0,78785:0:0:0:0:
475,192,78170,128,0,78785:0:0:0:0:
329,192,78170,1,0,0:0:0:0:
182,192,78247,1,0,0:0:0:0:
329,192,78324,1,0,0:0:0:0:
182,192,78401,1,0,0:0:0:0:
329,192,78478,1,0,0:0:0:0:
182,192,78554,1,0,0:0:0:0:
329,192,78631,1,0,0:0:0:0:
182,192,78708,1,0,0:0:0:0:
329,192,78785,1,0,0:0:0:0:
402,192,78785,1,0,0:0:0:0:
256,192,78785,128,0,83708:0:0:0:0:
329,192,79093,1,0,0:0:0:0:
402,192,79093,1,0,0:0:0:0:
329,192,79401,1,0,0:0:0:0:
402,192,79401,1,0,0:0:0:0:
329,192,79708,1,0,0:0:0:0:
402,192,79708,1,0,0:0:0:0:
402,192,79862,1,0,0:0:0:0:
329,192,79862,1,0,0:0:0:0:
182,192,80016,1,0,0:0:0:0:
109,192,80016,1,0,0:0:0:0:
109,192,80324,1,0,0:0:0:0:
182,192,80324,1,0,0:0:0:0:
109,192,80631,1,0,0:0:0:0:
182,192,80631,1,0,0:0:0:0:
109,192,80785,1,0,0:0:0:0:
182,192,80785,1,0,0:0:0:0:
182,192,80939,1,0,0:0:0:0:
109,192,80939,1,0,0:0:0:0:
109,192,81093,1,0,0:0:0:0:
182,192,81093,1,0,0:0:0:0:
182,192,81170,1,0,0:0:0:0:
109,192,81170,1,0,0:0:0:0:
402,192,81247,1,0,0:0:0:0:
475,192,81247,1,0,0:0:0:0:
329,192,81554,1,0,0:0:0:0:
402,192,81554,1,0,0:0:0:0:
402,192,81862,1,0,0:0:0:0:
475,192,81862,1,0,0:0:0:0:
329,192,82170,1,0,0:0:0:0:
402,192,82170,1,0,0:0:0:0:
402,192,82324,1,0,0:0:0:0:
475,192,82324,1,0,0:0:0:0:
36,192,82478,1,0,0:0:0:0:
109,192,82478,1,0,0:0:0:0:
109,192,82785,1,0,0:0:0:0:
182,192,82785,1,0,0:0:0:0:
36,192,83093,1,0,0:0:0:0:
109,192,83093,1,0,0:0:0:0:
182,192,83247,1,0,0:0:0:0:
109,192,83247,1,0,0:0:0:0:
109,192,83401,1,0,0:0:0:0:
36,192,83401,1,0,0:0:0:0:
109,192,83554,1,0,0:0:0:0:
182,192,83554,1,0,0:0:0:0:
182,192,83631,1,0,0:0:0:0:
109,192,83631,1,0,0:0:0:0:
329,192,83708,1,0,0:0:0:0:
402,192,83708,1,0,0:0:0:0:
256,192,83862,1,0,0:0:0:0:
109,192,84016,1,0,0:0:0:0:
182,192,84016,1,0,0:0:0:0:
256,192,84016,1,0,0:0:0:0:
256,192,84170,1,0,0:0:0:0:
329,192,84324,1,0,0:0:0:0:
402,192,84324,1,0,0:0:0:0:
256,192,84324,1,0,0:0:0:0:
256,192,84478,1,0,0:0:0:0:
109,192,84631,1,0,0:0:0:0:
182,192,84631,1,0,0:0:0:0:
256,192,84631,1,0,0:0:0:0:
402,192,84785,1,0,0:0:0:0:
329,192,84785,1,0,0:0:0:0:
256,192,84785,1,0,0:0:0:0:
182,192,84939,1,0,0:0:0:0:
109,192,84939,1,0,0:0:0:0:
256,192,84939,1,0,0:0:0:0:
256,192,85093,1,0,0:0:0:0:
109,192,85247,1,0,0:0:0:0:
36,192,85247,1,0,0:0:0:0:
256,192,85247,1,0,0:0:0:0:
256,192,85401,1,0,0:0:0:0:
329,192,85554,1,0,0:0:0:0:
402,192,85554,1,0,0:0:0:0:
256,192,85554,1,0,0:0:0:0:
402,192,85708,1,0,0:0:0:0:
475,192,85708,1,0,0:0:0:0:
256,192,85708,1,0,0:0:0:0:
36,192,85862,1,0,0:0:0:0:
109,192,85862,1,0,0:0:0:0:
256,192,85862,1,0,0:0:0:0:
329,192,86016,1,0,0:0:0:0:
402,192,86016,1,0,0:0:0:0:
256,192,86016,1,0,0:0:0:0:
109,192,86093,1,0,0:0:0:0:
182,192,86093,1,0,0:0:0:0:
402,192,86170,1,0,0:0:0:0:
475,192,86170,1,0,0:0:0:0:
256,192,86170,1,0,0:0:0:0:
256,192,86324,1,0,0:0:0:0:
329,192,86478,1,0,0:0:0:0:
402,192,86478,1,0,0:0:0:0:
256,192,86478,1,0,0:0:0:0:
256,192,86631,1,0,0:0:0:0:
36,192,86785,1,0,0:0:0:0:
109,192,86785,1,0,0:0:0:0:
256,192,86785,1,0,0:0:0:0:
256,192,86939,1,0,0:0:0:0:
329,192,87093,1,0,0:0:0:0:
402,192,87093,1,0,0:0:0:0:
256,192,87093,1,0,0:0:0:0:
109,192,87247,1,0,0:0:0:0:
182,192,87247,1,0,0:0:0:0:
256,192,87247,1,0,0:0:0:0:
109,192,87401,1,0,0:0:0:0:
182,192,87401,1,0,0:0:0:0:
329,192,87401,1,0,0:0:0:0:
402,192,87401,1,0,0:0:0:0:
256,192,87401,1,0,0:0:0:0:
109,192,87554,1,0,0:0:0:0:
402,192,87554,1,0,0:0:0:0:
475,192,87554,1,0,0:0:0:0:
36,192,87554,1,0,0:0:0:0:
256,192,87554,1,0,0:0:0:0:
329,192,87708,1,0,0:0:0:0:
402,192,87708,1,0,0:0:0:0:
109,192,87708,1,0,0:0:0:0:
182,192,87708,1,0,0:0:0:0:
256,192,87708,1,0,0:0:0:0:
109,192,87862,1,0,0:0:0:0:
36,192,87862,1,0,0:0:0:0:
475,192,87862,1,0,0:0:0:0:
402,192,87862,1,0,0:0:0:0:
256,192,87862,1,0,0:0:0:0:
256,192,88016,1,0,0:0:0:0:
109,192,88016,1,0,0:0:0:0:
182,192,88016,1,0,0:0:0:0:
329,192,88016,1,0,0:0:0:0:
402,192,88016,1,0,0:0:0:0:
256,192,88170,1,0,0:0:0:0:
36,192,88170,1,0,0:0:0:0:
109,192,88170,1,0,0:0:0:0:
402,192,88170,1,0,0:0:0:0:
475,192,88170,1,0,0:0:0:0:
256,192,88324,1,0,0:0:0:0:
109,192,88324,1,0,0:0:0:0:
182,192,88324,1,0,0:0:0:0:
329,192,88324,1,0,0:0:0:0:
402,192,88324,1,0,0:0:0:0:
256,192,88478,1,0,0:0:0:0:
36,192,88478,1,0,0:0:0:0:
109,192,88478,1,0,0:0:0:0:
402,192,88478,1,0,0:0:0:0:
475,192,88478,1,0,0:0:0:0:
256,192,88631,1,0,0:0:0:0:
182,192,88670,1,0,0:0:0:0:
109,192,88708,1,0,0:0:0:0:
36,192,88747,1,0,0:0:0:0:
329,192,88785,1,0,0:0:0:0:
256,192,88824,1,0,0:0:0:0:
182,192,88862,1,0,0:0:0:0:
109,192,88901,1,0,0:0:0:0:
402,192,88939,1,0,0:0:0:0:
329,192,88978,1,0,0:0:0:0:
256,192,89016,1,0,0:0:0:0:
182,192,89054,1,0,0:0:0:0:
475,192,89093,1,0,0:0:0:0:
402,192,89131,1,0,0:0:0:0:
329,192,89170,1,0,0:0:0:0:
256,192,89208,1,0,0:0:0:0:
36,192,89247,1,0,0:0:0:0:
182,192,89247,1,0,0:0:0:0:
475,192,89401,1,0,0:0:0:0:
329,192,89478,1,0,0:0:0:0:
36,192,89554,1,0,0:0:0:0:
182,192,89631,1,0,0:0:0:0:
36,192,89708,1,0,0:0:0:0:
182,192,89785,1,0,0:0:0:0:
256,192,89862,128,0,89939:0:0:0:0:
329,192,89939,128,0,90016:0:0:0:0:
182,192,90016,128,0,90093:0:0:0:0:
256,192,90093,128,0,90170:0:0:0:0:
109,192,90170,128,0,90247:0:0:0:0:
402,192,90170,128,0,90247:0:0:0:0:
402,192,90324,128,0,90401:0:0:0:0:
109,192,90324,128,0,90401:0:0:0:0:
182,192,90478,128,0,90785:0:0:0:0:
329,192,90478,128,0,90785:0:0:0:0:
109,192,90785,1,0,0:0:0:0:
36,192,90785,1,0,0:0:0:0:
402,192,90785,1,0,0:0:0:0:
475,192,90785,1,0,0:0:0:0:
256,192,90939,1,0,0:0:0:0:
182,192,91093,1,0,0:0:0:0:
109,192,91093,1,0,0:0:0:0:
329,192,91093,1,0,0:0:0:0:
402,192,91093,1,0,0:0:0:0:
256,192,91247,1,0,0:0:0:0:
36,192,91401,1,0,0:0:0:0:
109,192,91401,1,0,0:0:0:0:
402,192,91401,1,0,0:0:0:0:
475,192,91401,1,0,0:0:0:0:
256,192,91554,1,0,0:0:0:0:
109,192,91708,1,0,0:0:0:0:
182,192,91708,1,0,0:0:0:0:
329,192,91708,1,0,0:0:0:0:
402,192,91708,1,0,0:0:0:0:
256,192,91862,1,0,0:0:0:0:
36,192,92016,1,0,0:0:0:0:
109,192,92016,1,0,0:0:0:0:
402,192,92016,1,0,0:0:0:0:
475,192,92016,1,0,0:0:0:0:
256,192,92170,1,0,0:0:0:0:
109,192,92324,1,0,0:0:0:0:
182,192,92324,1,0,0:0:0:0:
329,192,92324,1,0,0:0:0:0:
402,192,92324,1,0,0:0:0:0:
256,192,92478,1,0,0:0:0:0:
182,192,92631,1,0,0:0:0:0:
329,192,92631,1,0,0:0:0:0:
256,192,92785,1,0,0:0:0:0:
182,192,92939,128,0,93247:0:0:0:0:
329,192,92939,128,0,93247:0:0:0:0:
475,192,93093,128,0,93247:0:0:0:0:
36,192,93093,128,0,93247:0:0:0:0:
109,192,93247,1,0,0:0:0:0:
402,192,93247,1,0,0:0:0:0:
182,192,93324,1,0,0:0:0:0:
329,192,93324,1,0,0:0:0:0:
36,192,93401,1,0,0:0:0:0:
475,192,93401,1,0,0:0:0:0:
109,192,93478,1,0,0:0:0:0:
402,192,93478,1,0,0:0:0:0:
182,192,93554,128,0,93631:0:0:0:0:
329,192,93554,128,0,93631:0:0:0:0:
182,192,93708,1,0,0:0:0:0:
329,192,93708,1,0,0:0:0:0:
182,192,93862,1,0,0:0:0:0:
329,192,93862,1,0,0:0:0:0:
182,192,94016,1,0,0:0:0:0:
329,192,94016,1,0,0:0:0:0:
109,192,94170,128,0,94247:0:0:0:0:
402,192,94170,128,0,94247:0:0:0:0:
109,192,94324,1,0,0:0:0:0:
402,192,94324,1,0,0:0:0:0:
329,192,94401,1,0,0:0:0:0:
182,192,94401,1,0,0:0:0:0:
109,192,94478,1,0,0:0:0:0:
402,192,94478,1,0,0:0:0:0:
109,192,94631,1,0,0:0:0:0:
402,192,94631,1,0,0:0:0:0:
109,192,94785,128,0,94862:0:0:0:0:
402,192,94785,128,0,94862:0:0:0:0:
402,192,94939,1,0,0:0:0:0:
109,192,94939,1,0,0:0:0:0:
36,192,95016,1,0,0:0:0:0:
475,192,95016,1,0,0:0:0:0:
109,192,95093,1,0,0:0:0:0:
402,192,95093,1,0,0:0:0:0:
109,192,95247,1,0,0:0:0:0:
402,192,95247,1,0,0:0:0:0:
182,192,95401,128,0,95554:0:0:0:0:
329,192,95401,128,0,95554:0:0:0:0:
36,192,95554,128,0,95708:0:0:0:0:
475,192,95554,128,0,95708:0:0:0:0:
256,192,95708,128,0,95862:0:0:0:0:
109,192,95862,128,0,96016:0:0:0:0:
402,192,95862,128,0,96016:0:0:0:0:
329,192,96016,1,0,0:0:0:0:
182,192,96016,1,0,0:0:0:0:
256,192,96170,1,0,0:0:0:0:
109,192,96324,1,0,0:0:0:0:
402,192,96324,1,0,0:0:0:0:
256,192,96478,1,0,0:0:0:0:
182,192,96631,1,0,0:0:0:0:
329,192,96631,1,0,0:0:0:0:
256,192,96785,1,0,0:0:0:0:
36,192,96939,1,0,0:0:0:0:
475,192,96939,1,0,0:0:0:0:
256,192,97093,1,0,0:0:0:0:
182,192,97247,1,0,0:0:0:0:
329,192,97247,1,0,0:0:0:0:
256,192,97401,1,0,0:0:0:0:
109,192,97554,1,0,0:0:0:0:
402,192,97554,1,0,0:0:0:0:
256,192,97708,1,0,0:0:0:0:
256,192,97862,128,0,98016:0:0:0:0:
182,192,98016,128,0,98170:0:0:0:0:
329,192,98016,128,0,98170:0:0:0:0:
109,192,98170,128,0,98324:0:0:0:0:
402,192,98170,128,0,98324:0:0:0:0:
36,192,98324,128,0,98478:0:0:0:0:
475,192,98324,128,0,98478:0:0:0:0:
109,192,98478,128,0,98785:0:0:0:0:
402,192,98478,128,0,98785:0:0:0:0:
475,192,98785,128,0,99093:0:0:0:0:
182,192,98785,128,0,99093:0:0:0:0:
36,192,98939,128,0,99093:0:0:0:0:
329,192,98939,128,0,99093:0:0:0:0:
109,192,99093,1,0,0:0:0:0:
402,192,99093,1,0,0:0:0:0:
182,192,99170,1,0,0:0:0:0:
329,192,99170,1,0,0:0:0:0:
36,192,99247,1,0,0:0:0:0:
475,192,99247,1,0,0:0:0:0:
109,192,99324,1,0,0:0:0:0:
402,192,99324,1,0,0:0:0:0:
256,192,99401,1,0,0:0:0:0:
182,192,99401,128,0,99708:0:0:0:0:
329,192,99401,128,0,99708:0:0:0:0:
109,192,99554,128,0,99708:0:0:0:0:
402,192,99554,128,0,99708:0:0:0:0:
36,192,99708,128,0,99862:0:0:0:0:
475,192,99708,128,0,99862:0:0:0:0:
182,192,99862,128,0,100016:0:0:0:0:
329,192,99862,128,0,100016:0:0:0:0:
109,192,100016,128,0,100170:0:0:0:0:
402,192,100016,128,0,100170:0:0:0:0:
256,192,100170,128,0,100324:0:0:0:0:
329,192,100324,1,0,0:0:0:0:
182,192,100401,1,0,0:0:0:0:
402,192,100478,1,0,0:0:0:0:
109,192,100554,1,0,0:0:0:0:
475,192,100631,1,0,0:0:0:0:
329,192,100708,1,0,0:0:0:0:
182,192,100785,1,0,0:0:0:0:
36,192,100862,1,0,0:0:0:0:
109,192,100939,1,0,0:0:0:0:
402,192,100939,1,0,0:0:0:0:
256,192,101093,1,0,0:0:0:0:
36,192,101247,1,0,0:0:0:0:
475,192,101247,1,0,0:0:0:0:
256,192,101401,1,0,0:0:0:0:
182,192,101554,1,0,0:0:0:0:
329,192,101554,1,0,0:0:0:0:
256,192,101708,1,0,0:0:0:0:
109,192,101862,1,0,0:0:0:0:
402,192,101862,1,0,0:0:0:0:
256,192,102016,1,0,0:0:0:0:
182,192,102170,1,0,0:0:0:0:
36,192,102170,1,0,0:0:0:0:
329,192,102170,1,0,0:0:0:0:
475,192,102170,1,0,0:0:0:0:
256,192,102324,1,0,0:0:0:0:
109,192,102478,1,0,0:0:0:0:
402,192,102478,1,0,0:0:0:0:
256,192,102631,1,0,0:0:0:0:
182,192,102785,1,0,0:0:0:0:
329,192,102785,1,0,0:0:0:0:
109,192,102939,1,0,0:0:0:0:
402,192,102939,1,0,0:0:0:0:
182,192,103093,1,0,0:0:0:0:
329,192,103093,1,0,0:0:0:0:
109,192,103170,1,0,0:0:0:0:
402,192,103170,1,0,0:0:0:0:
256,192,103247,1,0,0:0:0:0:
182,192,103324,1,0,0:0:0:0:
329,192,103324,1,0,0:0:0:0:
109,192,103401,128,0,103478:0:0:0:0:
402,192,103401,128,0,103478:0:0:0:0:
109,192,103554,1,0,0:0:0:0:
402,192,103554,1,0,0:0:0:0:
402,192,103708,1,0,0:0:0:0:
109,192,103708,1,0,0:0:0:0:
109,192,103862,1,0,0:0:0:0:
402,192,103862,1,0,0:0:0:0:
182,192,104016,128,0,104093:0:0:0:0:
329,192,104016,128,0,104093:0:0:0:0:
182,192,104170,1,0,0:0:0:0:
329,192,104170,1,0,0:0:0:0:
182,192,104324,1,0,0:0:0:0:
329,192,104324,1,0,0:0:0:0:
109,192,104401,1,0,0:0:0:0:
402,192,104401,1,0,0:0:0:0:
256,192,104478,1,0,0:0:0:0:
182,192,104554,1,0,0:0:0:0:
329,192,104554,1,0,0:0:0:0:
109,192,104631,128,0,104708:0:0:0:0:
402,192,104631,128,0,104708:0:0:0:0:
402,192,104785,1,0,0:0:0:0:
109,192,104785,1,0,0:0:0:0:
109,192,104939,1,0,0:0:0:0:
402,192,104939,1,0,0:0:0:0:
475,192,105016,1,0,0:0:0:0:
36,192,105016,1,0,0:0:0:0:
182,192,105093,1,0,0:0:0:0:
329,192,105093,1,0,0:0:0:0:
109,192,105170,1,0,0:0:0:0:
402,192,105170,1,0,0:0:0:0:
256,192,105247,128,0,105401:0:0:0:0:
109,192,105401,128,0,105554:0:0:0:0:
402,192,105401,128,0,105554:0:0:0:0:
182,192,105554,128,0,105708:0:0:0:0:
329,192,105554,128,0,105708:0:0:0:0:
256,192,105708,128,0,105862:0:0:0:0:
36,192,105862,1,0,0:0:0:0:
109,192,105862,1,0,0:0:0:0:
475,192,105862,1,0,0:0:0:0:
402,192,105862,1,0,0:0:0:0:
329,192,105862,1,0,0:0:0:0:
256,192,106016,1,0,0:0:0:0:
36,192,106170,1,0,0:0:0:0:
109,192,106170,1,0,0:0:0:0:
475,192,106170,1,0,0:0:0:0:
402,192,106170,1,0,0:0:0:0:
182,192,106170,1,0,0:0:0:0:
256,192,106324,1,0,0:0:0:0:
36,192,106478,1,0,0:0:0:0:
109,192,106478,1,0,0:0:0:0:
402,192,106478,1,0,0:0:0:0:
475,192,106478,1,0,0:0:0:0:
329,192,106478,1,0,0:0:0:0:
256,192,106631,1,0,0:0:0:0:
182,192,106785,1,0,0:0:0:0:
402,192,106785,1,0,0:0:0:0:
475,192,106785,1,0,0:0:0:0:
109,192,106785,1,0,0:0:0:0:
36,192,106785,1,0,0:0:0:0:
256,192,106939,1,0,0:0:0:0:
36,192,106939,1,0,0:0:0:0:
109,192,106939,1,0,0:0:0:0:
402,192,106939,1,0,0:0:0:0:
475,192,106939,1,0,0:0:0:0:
329,192,107093,1,0,0:0:0:0:
402,192,107093,1,0,0:0:0:0:
182,192,107093,1,0,0:0:0:0:
109,192,107093,1,0,0:0:0:0:
475,192,107093,1,0,0:0:0:0:
256,192,107247,1,0,0:0:0:0:
109,192,107401,1,0,0:0:0:0:
182,192,107401,1,0,0:0:0:0:
402,192,107401,1,0,0:0:0:0:
329,192,107401,1,0,0:0:0:0:
36,192,107401,1,0,0:0:0:0:
256,192,107554,1,0,0:0:0:0:
402,192,107708,1,0,0:0:0:0:
329,192,107708,1,0,0:0:0:0:
182,192,107708,1,0,0:0:0:0:
109,192,107708,1,0,0:0:0:0:
475,192,107708,1,0,0:0:0:0:
182,192,107862,1,0,0:0:0:0:
109,192,107862,1,0,0:0:0:0:
329,192,107862,1,0,0:0:0:0:
402,192,107862,1,0,0:0:0:0:
256,192,107862,1,0,0:0:0:0:
182,192,108016,1,0,0:0:0:0:
109,192,108016,1,0,0:0:0:0:
329,192,108016,1,0,0:0:0:0:
402,192,108016,1,0,0:0:0:0:
36,192,108016,1,0,0:0:0:0:
109,192,108170,1,0,0:0:0:0:
182,192,108170,1,0,0:0:0:0:
329,192,108170,1,0,0:0:0:0:
402,192,108170,1,0,0:0:0:0:
256,192,108247,1,0,0:0:0:0:
182,192,108324,1,0,0:0:0:0:
329,192,108324,1,0,0:0:0:0:
402,192,108324,128,0,108631:0:0:0:0:
109,192,108324,128,0,108631:0:0:0:0:
475,192,108631,128,0,108939:0:0:0:0:
36,192,108631,128,0,108939:0:0:0:0:
402,192,108785,128,0,108939:0:0:0:0:
109,192,108785,128,0,108939:0:0:0:0:
329,192,108939,1,0,0:0:0:0:
182,192,108939,1,0,0:0:0:0:
256,192,109016,1,0,0:0:0:0:
182,192,109093,1,0,0:0:0:0:
329,192,109093,1,0,0:0:0:0:
109,192,109170,1,0,0:0:0:0:
402,192,109170,1,0,0:0:0:0:
36,192,109247,1,0,0:0:0:0:
475,192,109247,1,0,0:0:0:0:
109,192,109401,1,0,0:0:0:0:
402,192,109401,1,0,0:0:0:0:
182,192,109554,128,0,109708:0:0:0:0:
329,192,109554,128,0,109708:0:0:0:0:
36,192,109554,1,0,0:0:0:0:
475,192,109554,1,0,0:0:0:0:
256,192,109631,1,0,0:0:0:0:
109,192,109708,1,0,0:0:0:0:
402,192,109708,1,0,0:0:0:0:
256,192,109862,128,0,110016:0:0:0:0:
36,192,109862,1,0,0:0:0:0:
475,192,109862,1,0,0:0:0:0:
109,192,109939,1,0,0:0:0:0:
402,192,109939,1,0,0:0:0:0:
182,192,110016,1,0,0:0:0:0:
329,192,110016,1,0,0:0:0:0:
256,192,110170,1,0,0:0:0:0:
182,192,110247,1,0,0:0:0:0:
329,192,110247,1,0,0:0:0:0:
109,192,110324,1,0,0:0:0:0:
402,192,110324,1,0,0:0:0:0:
36,192,110401,1,0,0:0:0:0:
475,192,110401,1,0,0:0:0:0:
109,192,110478,1,0,0:0:0:0:
402,192,110478,1,0,0:0:0:0:
182,192,110554,1,0,0:0:0:0:
329,192,110554,1,0,0:0:0:0:
256,192,110631,1,0,0:0:0:0:
182,192,110708,1,0,0:0:0:0:
329,192,110708,1,0,0:0:0:0:
109,192,110785,128,0,111093:0:0:0:0:
36,192,110785,128,0,111093:0:0:0:0:
402,192,110785,128,0,111093:0:0:0:0:
475,192,110785,128,0,111093:0:0:0:0:
182,192,111093,1,0,0:0:0:0:
329,192,111093,1,0,0:0:0:0:
329,192,111247,1,0,0:0:0:0:
182,192,111247,1,0,0:0:0:0:
109,192,111401,128,0,111708:0:0:0:0:
36,192,111401,128,0,111708:0:0:0:0:
402,192,111401,128,0,111708:0:0:0:0:
475,192,111401,128,0,111708:0:0:0:0:
329,192,111708,1,0,0:0:0:0:
182,192,111708,1,0,0:0:0:0:
182,192,111862,1,0,0:0:0:0:
329,192,111862,1,0,0:0:0:0:
109,192,112016,128,0,112324:0:0:0:0:
36,192,112016,128,0,112324:0:0:0:0:
402,192,112016,128,0,112324:0:0:0:0:
475,192,112016,128,0,112324:0:0:0:0:
182,192,112324,1,0,0:0:0:0:
329,192,112324,1,0,0:0:0:0:
329,192,112478,1,0,0:0:0:0:
182,192,112478,1,0,0:0:0:0:
109,192,112631,128,0,112939:0:0:0:0:
36,192,112631,128,0,112939:0:0:0:0:
402,192,112631,128,0,112939:0:0:0:0:
475,192,112631,128,0,112939:0:0:0:0:
329,192,112939,1,0,0:0:0:0:
182,192,113016,1,0,0:0:0:0:
329,192,113093,1,0,0:0:0:0:
182,192,113170,1,0,0:0:0:0:
109,192,113247,128,0,113401:0:0:0:0:
36,192,113247,128,0,113401:0:0:0:0:
402,192,113247,128,0,113401:0:0:0:0:
475,192,113247,128,0,113401:0:0:0:0:
182,192,113401,1,0,0:0:0:0:
329,192,113401,1,0,0:0:0:0:
109,192,113554,128,0,113708:0:0:0:0:
182,192,113554,128,0,113708:0:0:0:0:
402,192,113554,128,0,113708:0:0:0:0:
329,192,113554,128,0,113708:0:0:0:0:
36,192,113708,1,0,0:0:0:0:
475,192,113708,1,0,0:0:0:0:
36,192,113862,128,0,114016:0:0:0:0:
109,192,113862,128,0,114016:0:0:0:0:
475,192,113862,128,0,114016:0:0:0:0:
402,192,113862,128,0,114016:0:0:0:0:
329,192,114016,1,0,0:0:0:0:
182,192,114016,1,0,0:0:0:0:
109,192,114170,128,0,114324:0:0:0:0:
182,192,114170,128,0,114324:0:0:0:0:
329,192,114170,128,0,114324:0:0:0:0:
402,192,114170,128,0,114324:0:0:0:0:
475,192,114324,1,0,0:0:0:0:
36,192,114324,1,0,0:0:0:0:
109,192,114478,128,0,114554:0:0:0:0:
182,192,114478,128,0,114554:0:0:0:0:
329,192,114478,128,0,114554:0:0:0:0:
402,192,114478,128,0,114554:0:0:0:0:
402,192,114631,128,0,114708:0:0:0:0:
475,192,114631,128,0,114708:0:0:0:0:
109,192,114631,128,0,114708:0:0:0:0:
36,192,114631,128,0,114708:0:0:0:0:
109,192,114785,128,0,114862:0:0:0:0:
182,192,114785,128,0,114862:0:0:0:0:
329,192,114785,128,0,114862:0:0:0:0:
402,192,114785,128,0,114862:0:0:0:0:
475,192,114939,128,0,115016:0:0:0:0:
402,192,114939,128,0,115016:0:0:0:0:
109,192,114939,128,0,115016:0:0:0:0:
36,192,114939,128,0,115016:0:0:0:0:
329,192,115093,128,0,115170:0:0:0:0:
402,192,115093,128,0,115170:0:0:0:0:
475,192,115093,128,0,115170:0:0:0:0:
182,192,115170,128,0,115247:0:0:0:0:
109,192,115170,128,0,115247:0:0:0:0:
36,192,115170,128,0,115247:0:0:0:0:
402,192,115247,128,0,115324:0:0:0:0:
329,192,115247,128,0,115324:0:0:0:0:
475,192,115247,128,0,115324:0:0:0:0:
182,192,115324,128,0,115401:0:0:0:0:
109,192,115324,128,0,115401:0:0:0:0:
36,192,115324,128,0,115401:0:0:0:0:
256,192,115401,128,0,115785:0:0:0:0:
329,192,115401,128,0,115747:0:0:0:0:
402,192,115401,128,0,115708:0:0:0:0:
475,192,115401,128,0,115670:0:0:0:0:
475,192,115708,1,0,0:0:0:0:
402,192,115747,1,0,0:0:0:0:
329,192,115785,1,0,0:0:0:0:
256,192,115824,1,0,0:0:0:0:
