osu file format v14

[General]
AudioFilename: riot.mp3
AudioLeadIn: 0
PreviewTime: 75496
Countdown: 0
SampleSet: None
StackLeniency: 0.7
Mode: 3
LetterboxInBreaks: 0
SpecialStyle: 0
WidescreenStoryboard: 0

[Editor]
DistanceSpacing: 0.8
BeatDivisor: 4
GridSize: 32
TimelineZoom: 2.500005

[Metadata]
Title:__M A S__ Vol. 2
TitleUnicode:__M A S__ Vol. 2
Artist:Various
ArtistUnicode:Various
Creator:[ C r a c k ]
Version:Camellia as "Bang Riot" -Blastix Riotz - 7K MX
Source:
Tags:
BeatmapID:1144458
BeatmapSetID:539671

[Difficulty]
HPDrainRate:5.5
CircleSize:7
OverallDifficulty:0
ApproachRate:5
SliderMultiplier:1.4
SliderTickRate:1

[Events]
//Background and Video events
0,0,"RIOT.png",0,0
//Break Periods
//Storyboard Layer 0 (Background)
//Storyboard Layer 1 (Fail)
//Storyboard Layer 2 (Pass)
//Storyboard Layer 3 (Foreground)
//Storyboard Sound Samples

[TimingPoints]
614,234.375,4,2,0,0,1,0
7645,-50,4,2,0,0,0,0
7659,-1000,4,2,0,0,0,0
7674,-50,4,2,0,0,0,0
7689,-1000,4,2,0,0,0,0
7703,-50,4,2,0,0,0,0
7718,-1000,4,2,0,0,0,0
7733,-50,4,2,0,0,0,0
7747,-1000,4,2,0,0,0,0
7762,-50,4,2,0,0,0,0
7777,-1000,4,2,0,0,0,0
7791,-50,4,2,0,0,0,0
7806,-1000,4,2,0,0,0,0
7821,-50,4,2,0,0,0,0
7835,-1000,4,2,0,0,0,0
7850,-50,4,2,0,0,0,0
7864,-1000,4,2,0,0,0,0
7879,-100,4,2,0,0,0,0
8817,-50,4,2,0,0,0,0
8831,-1000,4,2,0,0,0,0
8846,-50,4,2,0,0,0,0
8861,-1000,4,2,0,0,0,0
8875,-50,4,2,0,0,0,0
8890,-1000,4,2,0,0,0,0
8905,-50,4,2,0,0,0,0
8919,-1000,4,2,0,0,0,0
8934,-50,4,2,0,0,0,0
8948,-1000,4,2,0,0,0,0
8963,-50,4,2,0,0,0,0
8978,-1000,4,2,0,0,0,0
8992,-50,4,2,0,0,0,0
9007,-1000,4,2,0,0,0,0
9022,-50,4,2,0,0,0,0
9036,-1000,4,2,0,0,0,0
9051,-100,4,2,0,0,0,0
9754,-50,4,2,0,0,0,0
9769,-1000,4,2,0,0,0,0
9783,-50,4,2,0,0,0,0
9798,-1000,4,2,0,0,0,0
9813,-50,4,2,0,0,0,0
9827,-1000,4,2,0,0,0,0
9842,-50,4,2,0,0,0,0
9857,-1000,4,2,0,0,0,0
9871,-50,4,2,0,0,0,0
9886,-1000,4,2,0,0,0,0
9901,-50,4,2,0,0,0,0
9915,-1000,4,2,0,0,0,0
9930,-50,4,2,0,0,0,0
9945,-1000,4,2,0,0,0,0
9959,-50,4,2,0,0,0,0
9974,-1000,4,2,0,0,0,0
9989,-100,4,2,0,0,0,0
10692,-50,4,2,0,0,0,0
10706,-1000,4,2,0,0,0,0
10721,-50,4,2,0,0,0,0
10736,-1000,4,2,0,0,0,0
10750,-50,4,2,0,0,0,0
10765,-1000,4,2,0,0,0,0
10780,-50,4,2,0,0,0,0
10794,-1000,4,2,0,0,0,0
10809,-50,4,2,0,0,0,0
10823,-1000,4,2,0,0,0,0
10838,-50,4,2,0,0,0,0
10853,-1000,4,2,0,0,0,0
10867,-50,4,2,0,0,0,0
10882,-1000,4,2,0,0,0,0
10897,-50,4,2,0,0,0,0
10911,-1000,4,2,0,0,0,0
10926,-100,4,2,0,0,0,0
11160,-50,4,2,0,0,0,0
11175,-1000,4,2,0,0,0,0
11190,-50,4,2,0,0,0,0
11204,-1000,4,2,0,0,0,0
11219,-50,4,2,0,0,0,0
11234,-1000,4,2,0,0,0,0
11248,-50,4,2,0,0,0,0
11263,-1000,4,2,0,0,0,0
11278,-50,4,2,0,0,0,0
11292,-1000,4,2,0,0,0,0
11307,-50,4,2,0,0,0,0
11322,-1000,4,2,0,0,0,0
11336,-50,4,2,0,0,0,0
11351,-1000,4,2,0,0,0,0
11365,-50,4,2,0,0,0,0
11380,-1000,4,2,0,0,0,0
11395,-100,4,2,0,0,0,0
12567,-50,4,2,0,0,0,0
12581,-1000,4,2,0,0,0,0
12596,-50,4,2,0,0,0,0
12611,-1000,4,2,0,0,0,0
12625,-50,4,2,0,0,0,0
12640,-1000,4,2,0,0,0,0
12655,-50,4,2,0,0,0,0
12669,-1000,4,2,0,0,0,0
12684,-50,4,2,0,0,0,0
12698,-1000,4,2,0,0,0,0
12713,-50,4,2,0,0,0,0
12728,-1000,4,2,0,0,0,0
12742,-50,4,2,0,0,0,0
12757,-1000,4,2,0,0,0,0
12772,-50,4,2,0,0,0,0
12786,-1000,4,2,0,0,0,0
12801,-100,4,2,0,0,0,0
13504,-50,4,2,0,0,0,0
13519,-1000,4,2,0,0,0,0
13533,-50,4,2,0,0,0,0
13548,-1000,4,2,0,0,0,0
13563,-50,4,2,0,0,0,0
13577,-1000,4,2,0,0,0,0
13592,-50,4,2,0,0,0,0
13607,-1000,4,2,0,0,0,0
13621,-50,4,2,0,0,0,0
13636,-1000,4,2,0,0,0,0
13651,-50,4,2,0,0,0,0
13665,-1000,4,2,0,0,0,0
13680,-50,4,2,0,0,0,0
13695,-1000,4,2,0,0,0,0
13709,-50,4,2,0,0,0,0
13724,-1000,4,2,0,0,0,0
13739,-100,4,2,0,0,0,0
14442,-50,4,2,0,0,0,0
14456,-1000,4,2,0,0,0,0
14471,-50,4,2,0,0,0,0
14486,-1000,4,2,0,0,0,0
14500,-50,4,2,0,0,0,0
14515,-1000,4,2,0,0,0,0
14530,-50,4,2,0,0,0,0
14544,-1000,4,2,0,0,0,0
14559,-50,4,2,0,0,0,0
14573,-1000,4,2,0,0,0,0
14588,-50,4,2,0,0,0,0
14603,-1000,4,2,0,0,0,0
14617,-50,4,2,0,0,0,0
14632,-1000,4,2,0,0,0,0
14647,-50,4,2,0,0,0,0
14661,-1000,4,2,0,0,0,0
14676,-100,4,2,0,0,0,0
15145,-50,4,2,0,0,0,0
15159,-1000,4,2,0,0,0,0
15174,-50,4,2,0,0,0,0
15189,-1000,4,2,0,0,0,0
15203,-50,4,2,0,0,0,0
15218,-1000,4,2,0,0,0,0
15233,-50,4,2,0,0,0,0
15247,-1000,4,2,0,0,0,0
15262,-50,4,2,0,0,0,0
15277,-1000,4,2,0,0,0,0
15291,-50,4,2,0,0,0,0
15306,-1000,4,2,0,0,0,0
15321,-50,4,2,0,0,0,0
15335,-1000,4,2,0,0,0,0
15350,-50,4,2,0,0,0,0
15364,-1000,4,2,0,0,0,0
15379,-50,4,2,0,0,0,0
15394,-1000,4,2,0,0,0,0
15408,-50,4,2,0,0,0,0
15423,-1000,4,2,0,0,0,0
15438,-50,4,2,0,0,0,0
15452,-1000,4,2,0,0,0,0
15467,-50,4,2,0,0,0,0
15482,-1000,4,2,0,0,0,0
15496,-50,4,2,0,0,0,0
15511,-1000,4,2,0,0,0,0
15526,-50,4,2,0,0,0,0
15540,-1000,4,2,0,0,0,0
15555,-50,4,2,0,0,0,0
15570,-1000,4,2,0,0,0,0
15584,-50,4,2,0,0,0,0
15599,-1000,4,2,0,0,0,0
15614,-100,4,2,0,0,0,0
21942,-50,4,2,0,0,0,0
21956,-1000,4,2,0,0,0,0
21971,-50,4,2,0,0,0,0
21986,-1000,4,2,0,0,0,0
22000,-50,4,2,0,0,0,0
22015,-1000,4,2,0,0,0,0
22030,-50,4,2,0,0,0,0
22044,-1000,4,2,0,0,0,0
22059,-50,4,2,0,0,0,0
22073,-1000,4,2,0,0,0,0
22088,-50,4,2,0,0,0,0
22103,-1000,4,2,0,0,0,0
22117,-50,4,2,0,0,0,0
22132,-1000,4,2,0,0,0,0
22147,-50,4,2,0,0,0,0
22161,-1000,4,2,0,0,0,0
22176,-100,4,2,0,0,0,0
22293,-50,4,2,0,0,0,0
22308,-1000,4,2,0,0,0,0
22322,-50,4,2,0,0,0,0
22337,-1000,4,2,0,0,0,0
22352,-50,4,2,0,0,0,0
22366,-1000,4,2,0,0,0,0
22381,-50,4,2,0,0,0,0
22396,-1000,4,2,0,0,0,0
22410,-50,4,2,0,0,0,0
22425,-1000,4,2,0,0,0,0
22440,-50,4,2,0,0,0,0
22454,-1000,4,2,0,0,0,0
22469,-50,4,2,0,0,0,0
22484,-1000,4,2,0,0,0,0
22498,-50,4,2,0,0,0,0
22513,-1000,4,2,0,0,0,0
22528,-100,4,2,0,0,0,0
25574,-200,4,2,0,0,0,0
25692,-66.6666666666667,4,2,0,0,0,0
25809,-100,4,2,0,0,0,0
26981,-200,4,2,0,0,0,0
27098,-66.6666666666667,4,2,0,0,0,0
27215,-100,4,2,0,0,0,0
27567,-133.333333333333,4,2,0,0,0,0
27684,-80,4,2,0,0,0,0
27801,-100,4,2,0,0,0,0
47137,-142.857142857143,4,2,0,0,0,0
47606,-100,4,2,0,0,0,0
48953,-142.857142857143,4,2,0,0,0,0
49364,-100,4,2,0,0,0,0
50887,-142.857142857143,4,2,0,0,0,0
51356,-100,4,2,0,0,0,0
52703,-142.857142857143,4,2,0,0,0,0
53114,-100,4,2,0,0,0,0
54754,-76.9230769230769,4,2,0,0,0,0
54842,-133.333333333333,4,2,0,0,0,0
54930,-76.9230769230769,4,2,0,0,0,0
55018,-133.333333333333,4,2,0,0,0,0
55106,-100,4,2,0,0,0,0
56453,-142.857142857143,4,2,0,0,0,0
56864,-100,4,2,0,0,0,0
58387,-76.9230769230769,4,2,0,0,0,0
58446,-133.333333333333,4,2,0,0,0,0
58504,-76.9230769230769,4,2,0,0,0,0
58592,-133.333333333333,4,2,0,0,0,0
58680,-76.9230769230769,4,2,0,0,0,0
58768,-133.333333333333,4,2,0,0,0,0
58856,-100,4,2,0,0,0,0
74676,-10,4,2,0,0,0,0
75086,-100,4,2,0,0,0,0
75379,-100,4,2,0,0,0,0
86864,-66.6666666666667,4,2,0,0,0,0
86951,-133.333333333333,4,2,0,0,0,0
87039,-100,4,2,0,0,0,0
87332,-66.6666666666667,4,2,0,0,0,0
87420,-133.333333333333,4,2,0,0,0,0
87508,-100,4,2,0,0,0,0
87801,-66.6666666666667,4,2,0,0,0,0
87889,-133.333333333333,4,2,0,0,0,0
87977,-100,4,2,0,0,0,0
88739,-66.6666666666667,4,2,0,0,0,0
88768,-133.333333333333,4,2,0,0,0,0
88797,-66.6666666666667,4,2,0,0,0,0
88826,-133.333333333333,4,2,0,0,0,0
88856,-66.6666666666667,4,2,0,0,0,0
88885,-133.333333333333,4,2,0,0,0,0
88914,-66.6666666666667,4,2,0,0,0,0
88944,-133.333333333333,4,2,0,0,0,0
88973,-66.6666666666667,4,2,0,0,0,0
89002,-133.333333333333,4,2,0,0,0,0
89031,-66.6666666666667,4,2,0,0,0,0
89061,-133.333333333333,4,2,0,0,0,0
89090,-66.6666666666667,4,2,0,0,0,0
89119,-133.333333333333,4,2,0,0,0,0
89149,-66.6666666666667,4,2,0,0,0,0
89178,-133.333333333333,4,2,0,0,0,0
89207,-66.6666666666667,4,2,0,0,0,0
89237,-133.333333333333,4,2,0,0,0,0
89266,-66.6666666666667,4,2,0,0,0,0
89295,-133.333333333333,4,2,0,0,0,0
89324,-66.6666666666667,4,2,0,0,0,0
89354,-133.333333333333,4,2,0,0,0,0
89383,-66.6666666666667,4,2,0,0,0,0
89412,-133.333333333333,4,2,0,0,0,0
89442,-66.6666666666667,4,2,0,0,0,0
89471,-133.333333333333,4,2,0,0,0,0
89500,-66.6666666666667,4,2,0,0,0,0
89530,-133.333333333333,4,2,0,0,0,0
89559,-66.6666666666667,4,2,0,0,0,0
89588,-133.333333333333,4,2,0,0,0,0
89617,-66.6666666666667,4,2,0,0,0,0
89647,-133.333333333333,4,2,0,0,0,0
89676,-133.333333333333,4,2,0,0,0,0
89852,-117.647058823529,4,2,0,0,0,0
89969,-105.263157894737,4,2,0,0,0,0
90028,-100,4,2,0,0,0,0
90614,-50,4,2,0,0,0,0
90731,-333.333333333333,4,2,0,0,0,0
90848,-50,4,2,0,0,0,0
90965,-333.333333333333,4,2,0,0,0,0
91082,-50,4,2,0,0,0,0
91199,-333.333333333333,4,2,0,0,0,0
91317,-50,4,2,0,0,0,0
91434,-333.333333333333,4,2,0,0,0,0
91551,-100,4,2,0,0,0,0

[HitObjects]
36,192,614,5,0,0:0:0:0:
475,192,614,1,0,0:0:0:0:
182,192,731,1,0,0:0:0:0:
329,192,848,1,0,0:0:0:0:
36,192,965,1,0,0:0:0:0:
475,192,965,1,0,0:0:0:0:
182,192,1082,1,0,0:0:0:0:
329,192,1199,1,0,0:0:0:0:
36,192,1317,1,0,0:0:0:0:
329,192,1434,1,0,0:0:0:0:
402,192,1492,1,0,0:0:0:0:
475,192,1551,1,0,0:0:0:0:
256,192,1668,1,0,0:0:0:0:
36,192,1785,1,0,0:0:0:0:
329,192,1903,1,0,0:0:0:0:
109,192,2020,1,0,0:0:0:0:
402,192,2137,1,0,0:0:0:0:
182,192,2254,1,0,0:0:0:0:
475,192,2371,1,0,0:0:0:0:
109,192,2489,1,0,0:0:0:0:
36,192,2489,1,0,0:0:0:0:
256,192,2606,1,0,0:0:0:0:
402,192,2723,1,0,0:0:0:0:
36,192,2840,1,0,0:0:0:0:
109,192,2840,1,0,0:0:0:0:
256,192,2957,1,0,0:0:0:0:
402,192,3074,1,0,0:0:0:0:
109,192,3192,1,0,0:0:0:0:
329,192,3309,1,0,0:0:0:0:
402,192,3367,1,0,0:0:0:0:
475,192,3426,1,0,0:0:0:0:
256,192,3543,1,0,0:0:0:0:
36,192,3660,1,0,0:0:0:0:
402,192,3778,1,0,0:0:0:0:
256,192,3836,1,0,0:0:0:0:
109,192,3895,1,0,0:0:0:0:
329,192,4012,1,0,0:0:0:0:
256,192,4071,1,0,0:0:0:0:
182,192,4129,1,0,0:0:0:0:
402,192,4246,1,0,0:0:0:0:
36,192,4364,1,0,0:0:0:0:
182,192,4364,1,0,0:0:0:0:
329,192,4481,1,0,0:0:0:0:
475,192,4598,1,0,0:0:0:0:
182,192,4715,1,0,0:0:0:0:
36,192,4715,1,0,0:0:0:0:
329,192,4832,1,0,0:0:0:0:
475,192,4949,1,0,0:0:0:0:
36,192,5067,1,0,0:0:0:0:
182,192,5125,1,0,0:0:0:0:
329,192,5184,1,0,0:0:0:0:
475,192,5242,1,0,0:0:0:0:
36,192,5301,1,0,0:0:0:0:
182,192,5418,1,0,0:0:0:0:
109,192,5535,1,0,0:0:0:0:
256,192,5653,1,0,0:0:0:0:
475,192,5770,1,0,0:0:0:0:
182,192,5770,1,0,0:0:0:0:
329,192,5887,1,0,0:0:0:0:
182,192,6004,1,0,0:0:0:0:
36,192,6121,1,0,0:0:0:0:
329,192,6239,1,0,0:0:0:0:
109,192,6239,1,0,0:0:0:0:
402,192,6356,1,0,0:0:0:0:
475,192,6473,1,0,0:0:0:0:
329,192,6590,1,0,0:0:0:0:
36,192,6590,1,0,0:0:0:0:
402,192,6707,1,0,0:0:0:0:
475,192,6824,1,0,0:0:0:0:
329,192,6942,1,0,0:0:0:0:
182,192,7059,1,0,0:0:0:0:
36,192,7176,1,0,0:0:0:0:
402,192,7176,1,0,0:0:0:0:
109,192,7235,1,0,0:0:0:0:
182,192,7293,1,0,0:0:0:0:
475,192,7410,1,0,0:0:0:0:
109,192,7410,1,0,0:0:0:0:
402,192,7469,1,0,0:0:0:0:
329,192,7528,1,0,0:0:0:0:
36,192,7645,128,0,7879:0:0:0:0:
475,192,7879,128,0,8114:0:0:0:0:
109,192,8114,1,0,0:0:0:0:
182,192,8172,1,0,0:0:0:0:
256,192,8231,1,0,0:0:0:0:
329,192,8289,1,0,0:0:0:0:
402,192,8348,1,0,0:0:0:0:
36,192,8406,1,0,0:0:0:0:
109,192,8465,1,0,0:0:0:0:
182,192,8524,1,0,0:0:0:0:
256,192,8582,1,0,0:0:0:0:
329,192,8641,1,0,0:0:0:0:
402,192,8699,1,0,0:0:0:0:
475,192,8758,1,0,0:0:0:0:
182,192,8817,128,0,9051:0:0:0:0:
329,192,8817,128,0,9051:0:0:0:0:
36,192,8817,128,0,9051:0:0:0:0:
402,192,9051,1,0,0:0:0:0:
329,192,9110,1,0,0:0:0:0:
256,192,9168,1,0,0:0:0:0:
182,192,9227,1,0,0:0:0:0:
109,192,9285,1,0,0:0:0:0:
475,192,9344,1,0,0:0:0:0:
402,192,9403,1,0,0:0:0:0:
329,192,9461,1,0,0:0:0:0:
256,192,9520,1,0,0:0:0:0:
182,192,9578,1,0,0:0:0:0:
109,192,9637,1,0,0:0:0:0:
36,192,9696,1,0,0:0:0:0:
182,192,9754,128,0,9989:0:0:0:0:
329,192,9754,128,0,9989:0:0:0:0:
475,192,9754,128,0,9989:0:0:0:0:
109,192,9989,1,0,0:0:0:0:
182,192,10047,1,0,0:0:0:0:
256,192,10106,1,0,0:0:0:0:
329,192,10164,1,0,0:0:0:0:
402,192,10223,1,0,0:0:0:0:
36,192,10281,1,0,0:0:0:0:
109,192,10340,1,0,0:0:0:0:
182,192,10399,1,0,0:0:0:0:
256,192,10457,1,0,0:0:0:0:
329,192,10516,1,0,0:0:0:0:
402,192,10574,1,0,0:0:0:0:
475,192,10633,1,0,0:0:0:0:
329,192,10692,128,0,10926:0:0:0:0:
182,192,10692,128,0,10926:0:0:0:0:
36,192,10692,128,0,10926:0:0:0:0:
475,192,10926,1,0,0:0:0:0:
329,192,10985,1,0,0:0:0:0:
182,192,11043,1,0,0:0:0:0:
36,192,11102,1,0,0:0:0:0:
182,192,11160,128,0,11395:0:0:0:0:
329,192,11160,128,0,11395:0:0:0:0:
475,192,11160,128,0,11395:0:0:0:0:
36,192,11395,1,0,0:0:0:0:
109,192,11512,1,0,0:0:0:0:
182,192,11571,1,0,0:0:0:0:
402,192,11688,1,0,0:0:0:0:
329,192,11746,1,0,0:0:0:0:
36,192,11864,1,0,0:0:0:0:
109,192,11922,1,0,0:0:0:0:
182,192,11981,1,0,0:0:0:0:
256,192,12039,1,0,0:0:0:0:
329,192,12098,1,0,0:0:0:0:
402,192,12156,1,0,0:0:0:0:
475,192,12215,1,0,0:0:0:0:
109,192,12274,1,0,0:0:0:0:
182,192,12332,1,0,0:0:0:0:
256,192,12391,1,0,0:0:0:0:
329,192,12449,1,0,0:0:0:0:
402,192,12508,1,0,0:0:0:0:
182,192,12567,128,0,12801:0:0:0:0:
109,192,12567,128,0,12801:0:0:0:0:
36,192,12567,128,0,12801:0:0:0:0:
475,192,12801,1,0,0:0:0:0:
402,192,12860,1,0,0:0:0:0:
329,192,12918,1,0,0:0:0:0:
256,192,12977,1,0,0:0:0:0:
182,192,13035,1,0,0:0:0:0:
109,192,13094,1,0,0:0:0:0:
36,192,13153,1,0,0:0:0:0:
402,192,13211,1,0,0:0:0:0:
329,192,13270,1,0,0:0:0:0:
256,192,13328,1,0,0:0:0:0:
182,192,13387,1,0,0:0:0:0:
109,192,13446,1,0,0:0:0:0:
329,192,13504,128,0,13739:0:0:0:0:
402,192,13504,128,0,13739:0:0:0:0:
475,192,13504,128,0,13739:0:0:0:0:
36,192,13739,1,0,0:0:0:0:
182,192,13797,1,0,0:0:0:0:
329,192,13856,1,0,0:0:0:0:
475,192,13914,1,0,0:0:0:0:
36,192,13973,1,0,0:0:0:0:
182,192,14031,1,0,0:0:0:0:
329,192,14090,1,0,0:0:0:0:
475,192,14149,1,0,0:0:0:0:
36,192,14207,1,0,0:0:0:0:
182,192,14266,1,0,0:0:0:0:
329,192,14324,1,0,0:0:0:0:
475,192,14383,1,0,0:0:0:0:
36,192,14442,1,0,0:0:0:0:
109,192,14442,1,0,0:0:0:0:
182,192,14442,1,0,0:0:0:0:
256,192,14442,128,0,14676:0:0:0:0:
329,192,14676,1,0,0:0:0:0:
402,192,14676,1,0,0:0:0:0:
475,192,14676,1,0,0:0:0:0:
475,192,15614,1,0,0:0:0:0:
36,192,15614,1,0,0:0:0:0:
109,192,15848,1,0,0:0:0:0:
402,192,15848,1,0,0:0:0:0:
182,192,16082,1,0,0:0:0:0:
329,192,16082,1,0,0:0:0:0:
109,192,16317,1,0,0:0:0:0:
402,192,16317,1,0,0:0:0:0:
36,192,16551,1,0,0:0:0:0:
475,192,16551,1,0,0:0:0:0:
329,192,16551,1,0,0:0:0:0:
182,192,16668,1,0,0:0:0:0:
109,192,16727,1,0,0:0:0:0:
36,192,16785,1,0,0:0:0:0:
402,192,16785,1,0,0:0:0:0:
329,192,16903,1,0,0:0:0:0:
475,192,16903,1,0,0:0:0:0:
182,192,17020,1,0,0:0:0:0:
36,192,17020,1,0,0:0:0:0:
329,192,17137,1,0,0:0:0:0:
402,192,17137,1,0,0:0:0:0:
109,192,17254,1,0,0:0:0:0:
182,192,17254,1,0,0:0:0:0:
329,192,17371,1,0,0:0:0:0:
475,192,17371,1,0,0:0:0:0:
182,192,17489,1,0,0:0:0:0:
36,192,17489,1,0,0:0:0:0:
402,192,17606,1,0,0:0:0:0:
475,192,17606,1,0,0:0:0:0:
109,192,17723,1,0,0:0:0:0:
36,192,17723,1,0,0:0:0:0:
402,192,17840,1,0,0:0:0:0:
475,192,17840,1,0,0:0:0:0:
329,192,17840,1,0,0:0:0:0:
182,192,17957,1,0,0:0:0:0:
109,192,17957,1,0,0:0:0:0:
36,192,17957,1,0,0:0:0:0:
329,192,18074,1,0,0:0:0:0:
475,192,18074,1,0,0:0:0:0:
182,192,18192,1,0,0:0:0:0:
36,192,18192,1,0,0:0:0:0:
256,192,18250,1,0,0:0:0:0:
329,192,18309,1,0,0:0:0:0:
402,192,18367,1,0,0:0:0:0:
475,192,18426,1,0,0:0:0:0:
109,192,18426,1,0,0:0:0:0:
36,192,18426,1,0,0:0:0:0:
329,192,18543,1,0,0:0:0:0:
402,192,18602,1,0,0:0:0:0:
475,192,18660,1,0,0:0:0:0:
36,192,18660,1,0,0:0:0:0:
256,192,18660,1,0,0:0:0:0:
182,192,18778,1,0,0:0:0:0:
109,192,18778,1,0,0:0:0:0:
329,192,18895,1,0,0:0:0:0:
475,192,18895,1,0,0:0:0:0:
182,192,19012,1,0,0:0:0:0:
36,192,19012,1,0,0:0:0:0:
329,192,19129,1,0,0:0:0:0:
402,192,19129,1,0,0:0:0:0:
182,192,19246,1,0,0:0:0:0:
109,192,19246,1,0,0:0:0:0:
329,192,19364,1,0,0:0:0:0:
475,192,19364,1,0,0:0:0:0:
182,192,19481,1,0,0:0:0:0:
36,192,19481,1,0,0:0:0:0:
329,192,19598,1,0,0:0:0:0:
402,192,19598,1,0,0:0:0:0:
475,192,19598,1,0,0:0:0:0:
182,192,19715,1,0,0:0:0:0:
109,192,19715,1,0,0:0:0:0:
36,192,19715,1,0,0:0:0:0:
329,192,19832,1,0,0:0:0:0:
475,192,19832,1,0,0:0:0:0:
256,192,19891,1,0,0:0:0:0:
182,192,19949,1,0,0:0:0:0:
36,192,19949,1,0,0:0:0:0:
109,192,20067,1,0,0:0:0:0:
475,192,20067,1,0,0:0:0:0:
182,192,20125,1,0,0:0:0:0:
256,192,20184,1,0,0:0:0:0:
329,192,20242,1,0,0:0:0:0:
402,192,20301,1,0,0:0:0:0:
36,192,20301,1,0,0:0:0:0:
475,192,20301,1,0,0:0:0:0:
329,192,20418,1,0,0:0:0:0:
256,192,20477,1,0,0:0:0:0:
182,192,20535,1,0,0:0:0:0:
109,192,20594,1,0,0:0:0:0:
36,192,20653,1,0,0:0:0:0:
475,192,20653,1,0,0:0:0:0:
109,192,20770,5,0,0:0:0:0:
402,192,20770,1,0,0:0:0:0:
256,192,20887,1,0,0:0:0:0:
182,192,21004,1,0,0:0:0:0:
329,192,21004,1,0,0:0:0:0:
36,192,21121,1,0,0:0:0:0:
475,192,21121,1,0,0:0:0:0:
109,192,21239,1,0,0:0:0:0:
402,192,21239,1,0,0:0:0:0:
182,192,21356,1,0,0:0:0:0:
329,192,21356,1,0,0:0:0:0:
109,192,21473,1,0,0:0:0:0:
402,192,21473,1,0,0:0:0:0:
475,192,21590,1,0,0:0:0:0:
36,192,21590,1,0,0:0:0:0:
329,192,21707,1,0,0:0:0:0:
109,192,21707,1,0,0:0:0:0:
182,192,21824,1,0,0:0:0:0:
256,192,21824,1,0,0:0:0:0:
402,192,21942,128,0,22176:0:0:0:0:
475,192,21942,128,0,22176:0:0:0:0:
109,192,22176,1,0,0:0:0:0:
36,192,22176,1,0,0:0:0:0:
109,192,22293,128,0,22528:0:0:0:0:
36,192,22293,128,0,22528:0:0:0:0:
475,192,22528,1,0,0:0:0:0:
402,192,22586,1,0,0:0:0:0:
329,192,22645,1,0,0:0:0:0:
256,192,22703,1,0,0:0:0:0:
182,192,22762,1,0,0:0:0:0:
109,192,22821,1,0,0:0:0:0:
36,192,22879,1,0,0:0:0:0:
475,192,22879,1,0,0:0:0:0:
182,192,22996,1,0,0:0:0:0:
256,192,23055,1,0,0:0:0:0:
329,192,23114,1,0,0:0:0:0:
402,192,23172,1,0,0:0:0:0:
475,192,23231,1,0,0:0:0:0:
182,192,23231,1,0,0:0:0:0:
36,192,23231,1,0,0:0:0:0:
256,192,23348,1,0,0:0:0:0:
402,192,23348,1,0,0:0:0:0:
182,192,23524,1,0,0:0:0:0:
36,192,23524,1,0,0:0:0:0:
329,192,23524,1,0,0:0:0:0:
109,192,23699,1,0,0:0:0:0:
256,192,23699,1,0,0:0:0:0:
402,192,23699,1,0,0:0:0:0:
182,192,23934,1,0,0:0:0:0:
329,192,23934,1,0,0:0:0:0:
475,192,23934,1,0,0:0:0:0:
109,192,24051,1,0,0:0:0:0:
36,192,24051,1,0,0:0:0:0:
402,192,24051,1,0,0:0:0:0:
475,192,24051,1,0,0:0:0:0:
182,192,24285,1,0,0:0:0:0:
329,192,24285,1,0,0:0:0:0:
182,192,24403,1,0,0:0:0:0:
329,192,24403,1,0,0:0:0:0:
109,192,24520,1,0,0:0:0:0:
402,192,24520,1,0,0:0:0:0:
109,192,24637,1,0,0:0:0:0:
402,192,24637,1,0,0:0:0:0:
36,192,24754,1,0,0:0:0:0:
182,192,24813,1,0,0:0:0:0:
329,192,24871,1,0,0:0:0:0:
475,192,24930,1,0,0:0:0:0:
256,192,24989,1,0,0:0:0:0:
109,192,24989,1,0,0:0:0:0:
402,192,24989,1,0,0:0:0:0:
182,192,25106,1,0,0:0:0:0:
109,192,25164,1,0,0:0:0:0:
36,192,25223,1,0,0:0:0:0:
329,192,25340,1,0,0:0:0:0:
402,192,25399,1,0,0:0:0:0:
475,192,25457,1,0,0:0:0:0:
182,192,25457,1,0,0:0:0:0:
36,192,25574,1,0,0:0:0:0:
329,192,25574,1,0,0:0:0:0:
182,192,25574,1,0,0:0:0:0:
475,192,25574,1,0,0:0:0:0:
256,192,25809,1,0,0:0:0:0:
109,192,25926,1,0,0:0:0:0:
402,192,25926,1,0,0:0:0:0:
475,192,25926,1,0,0:0:0:0:
182,192,25926,1,0,0:0:0:0:
36,192,26043,1,0,0:0:0:0:
329,192,26043,1,0,0:0:0:0:
402,192,26043,1,0,0:0:0:0:
109,192,26102,1,0,0:0:0:0:
182,192,26160,1,0,0:0:0:0:
256,192,26278,1,0,0:0:0:0:
475,192,26395,1,0,0:0:0:0:
109,192,26395,1,0,0:0:0:0:
182,192,26395,1,0,0:0:0:0:
402,192,26453,1,0,0:0:0:0:
329,192,26512,1,0,0:0:0:0:
256,192,26629,1,0,0:0:0:0:
182,192,26746,1,0,0:0:0:0:
36,192,26864,1,0,0:0:0:0:
329,192,26864,1,0,0:0:0:0:
402,192,26864,1,0,0:0:0:0:
109,192,26864,1,0,0:0:0:0:
475,192,26981,1,0,0:0:0:0:
182,192,26981,1,0,0:0:0:0:
109,192,26981,1,0,0:0:0:0:
402,192,26981,1,0,0:0:0:0:
475,192,27215,1,0,0:0:0:0:
182,192,27215,1,0,0:0:0:0:
402,192,27215,1,0,0:0:0:0:
109,192,27215,1,0,0:0:0:0:
36,192,27332,1,0,0:0:0:0:
329,192,27332,1,0,0:0:0:0:
109,192,27332,1,0,0:0:0:0:
402,192,27332,1,0,0:0:0:0:
182,192,27449,1,0,0:0:0:0:
475,192,27449,1,0,0:0:0:0:
109,192,27567,128,0,27801:0:0:0:0:
402,192,27567,128,0,27801:0:0:0:0:
329,192,27801,1,0,0:0:0:0:
182,192,27801,1,0,0:0:0:0:
109,192,27918,1,0,0:0:0:0:
36,192,27918,1,0,0:0:0:0:
402,192,27918,1,0,0:0:0:0:
475,192,27918,1,0,0:0:0:0:
329,192,28035,1,0,0:0:0:0:
256,192,28094,1,0,0:0:0:0:
182,192,28153,1,0,0:0:0:0:
36,192,28270,1,0,0:0:0:0:
109,192,28328,1,0,0:0:0:0:
182,192,28387,1,0,0:0:0:0:
329,192,28387,1,0,0:0:0:0:
475,192,28387,1,0,0:0:0:0:
402,192,28504,1,0,0:0:0:0:
36,192,28504,1,0,0:0:0:0:
109,192,28621,1,0,0:0:0:0:
329,192,28621,1,0,0:0:0:0:
36,192,28739,1,0,0:0:0:0:
402,192,28739,1,0,0:0:0:0:
182,192,28797,1,0,0:0:0:0:
329,192,28856,1,0,0:0:0:0:
475,192,28914,1,0,0:0:0:0:
109,192,28973,1,0,0:0:0:0:
182,192,28973,1,0,0:0:0:0:
36,192,28973,1,0,0:0:0:0:
329,192,29090,1,0,0:0:0:0:
402,192,29090,1,0,0:0:0:0:
475,192,29207,1,0,0:0:0:0:
109,192,29207,1,0,0:0:0:0:
329,192,29266,1,0,0:0:0:0:
182,192,29324,1,0,0:0:0:0:
36,192,29383,1,0,0:0:0:0:
475,192,29442,1,0,0:0:0:0:
329,192,29500,1,0,0:0:0:0:
182,192,29559,1,0,0:0:0:0:
36,192,29617,1,0,0:0:0:0:
109,192,29676,1,0,0:0:0:0:
182,192,29735,1,0,0:0:0:0:
475,192,29793,1,0,0:0:0:0:
402,192,29852,1,0,0:0:0:0:
329,192,29910,1,0,0:0:0:0:
182,192,29910,1,0,0:0:0:0:
36,192,30028,1,0,0:0:0:0:
109,192,30086,1,0,0:0:0:0:
329,192,30145,1,0,0:0:0:0:
256,192,30203,1,0,0:0:0:0:
182,192,30262,1,0,0:0:0:0:
36,192,30262,1,0,0:0:0:0:
475,192,30379,1,0,0:0:0:0:
402,192,30438,1,0,0:0:0:0:
182,192,30496,1,0,0:0:0:0:
256,192,30555,1,0,0:0:0:0:
329,192,30614,1,0,0:0:0:0:
475,192,30614,1,0,0:0:0:0:
182,192,30672,1,0,0:0:0:0:
36,192,30672,1,0,0:0:0:0:
256,192,30731,1,0,0:0:0:0:
475,192,30789,1,0,0:0:0:0:
329,192,30789,1,0,0:0:0:0:
182,192,30848,1,0,0:0:0:0:
36,192,30848,1,0,0:0:0:0:
256,192,30906,1,0,0:0:0:0:
329,192,30965,1,0,0:0:0:0:
475,192,30965,1,0,0:0:0:0:
182,192,31024,1,0,0:0:0:0:
36,192,31024,1,0,0:0:0:0:
256,192,31082,1,0,0:0:0:0:
329,192,31141,1,0,0:0:0:0:
475,192,31141,1,0,0:0:0:0:
182,192,31199,1,0,0:0:0:0:
36,192,31199,1,0,0:0:0:0:
256,192,31258,1,0,0:0:0:0:
329,192,31317,1,0,0:0:0:0:
475,192,31317,1,0,0:0:0:0:
182,192,31551,1,0,0:0:0:0:
329,192,31551,1,0,0:0:0:0:
256,192,31551,1,0,0:0:0:0:
402,192,31551,1,0,0:0:0:0:
475,192,31551,1,0,0:0:0:0:
109,192,31668,1,0,0:0:0:0:
36,192,31668,1,0,0:0:0:0:
182,192,31785,1,0,0:0:0:0:
256,192,31785,1,0,0:0:0:0:
329,192,31785,1,0,0:0:0:0:
402,192,31785,1,0,0:0:0:0:
475,192,31785,1,0,0:0:0:0:
182,192,31961,1,0,0:0:0:0:
256,192,31961,1,0,0:0:0:0:
402,192,31961,1,0,0:0:0:0:
329,192,31961,1,0,0:0:0:0:
475,192,31961,1,0,0:0:0:0:
182,192,32137,1,0,0:0:0:0:
256,192,32137,1,0,0:0:0:0:
329,192,32137,1,0,0:0:0:0:
402,192,32137,1,0,0:0:0:0:
475,192,32137,1,0,0:0:0:0:
182,192,32313,1,0,0:0:0:0:
256,192,32313,1,0,0:0:0:0:
329,192,32313,1,0,0:0:0:0:
402,192,32313,1,0,0:0:0:0:
475,192,32313,1,0,0:0:0:0:
256,192,32489,1,0,0:0:0:0:
329,192,32489,1,0,0:0:0:0:
182,192,32489,1,0,0:0:0:0:
36,192,32489,1,0,0:0:0:0:
109,192,32489,1,0,0:0:0:0:
109,192,32606,1,0,0:0:0:0:
36,192,32606,1,0,0:0:0:0:
256,192,32606,1,0,0:0:0:0:
182,192,32606,1,0,0:0:0:0:
329,192,32606,1,0,0:0:0:0:
329,192,32723,1,0,0:0:0:0:
256,192,32723,1,0,0:0:0:0:
182,192,32723,1,0,0:0:0:0:
36,192,32723,1,0,0:0:0:0:
109,192,32723,1,0,0:0:0:0:
329,192,32899,1,0,0:0:0:0:
256,192,32899,1,0,0:0:0:0:
182,192,32899,1,0,0:0:0:0:
109,192,32899,1,0,0:0:0:0:
36,192,32899,1,0,0:0:0:0:
329,192,33074,1,0,0:0:0:0:
256,192,33074,1,0,0:0:0:0:
182,192,33074,1,0,0:0:0:0:
36,192,33074,1,0,0:0:0:0:
109,192,33074,1,0,0:0:0:0:
329,192,33250,1,0,0:0:0:0:
256,192,33250,1,0,0:0:0:0:
182,192,33250,1,0,0:0:0:0:
109,192,33250,1,0,0:0:0:0:
36,192,33250,1,0,0:0:0:0:
329,192,33426,1,0,0:0:0:0:
256,192,33426,1,0,0:0:0:0:
182,192,33426,1,0,0:0:0:0:
109,192,33426,1,0,0:0:0:0:
36,192,33426,1,0,0:0:0:0:
402,192,33543,1,0,0:0:0:0:
475,192,33660,1,0,0:0:0:0:
329,192,33778,1,0,0:0:0:0:
182,192,33778,1,0,0:0:0:0:
36,192,33778,1,0,0:0:0:0:
402,192,33895,1,0,0:0:0:0:
475,192,34012,1,0,0:0:0:0:
36,192,34129,1,0,0:0:0:0:
182,192,34188,1,0,0:0:0:0:
329,192,34246,1,0,0:0:0:0:
475,192,34305,1,0,0:0:0:0:
36,192,34364,1,0,0:0:0:0:
182,192,34422,1,0,0:0:0:0:
329,192,34481,1,0,0:0:0:0:
475,192,34481,1,0,0:0:0:0:
256,192,34598,1,0,0:0:0:0:
475,192,34715,1,0,0:0:0:0:
329,192,34774,1,0,0:0:0:0:
182,192,34832,1,0,0:0:0:0:
36,192,34832,1,0,0:0:0:0:
256,192,34949,1,0,0:0:0:0:
36,192,35067,1,0,0:0:0:0:
182,192,35125,1,0,0:0:0:0:
329,192,35184,1,0,0:0:0:0:
475,192,35242,1,0,0:0:0:0:
36,192,35301,1,0,0:0:0:0:
109,192,35301,1,0,0:0:0:0:
182,192,35301,1,0,0:0:0:0:
256,192,35301,1,0,0:0:0:0:
329,192,35301,1,0,0:0:0:0:
402,192,35418,1,0,0:0:0:0:
475,192,35418,1,0,0:0:0:0:
329,192,35535,1,0,0:0:0:0:
256,192,35535,1,0,0:0:0:0:
182,192,35535,1,0,0:0:0:0:
109,192,35535,1,0,0:0:0:0:
36,192,35535,1,0,0:0:0:0:
36,192,35711,1,0,0:0:0:0:
109,192,35711,1,0,0:0:0:0:
182,192,35711,1,0,0:0:0:0:
256,192,35711,1,0,0:0:0:0:
329,192,35711,1,0,0:0:0:0:
329,192,35887,1,0,0:0:0:0:
256,192,35887,1,0,0:0:0:0:
182,192,35887,1,0,0:0:0:0:
109,192,35887,1,0,0:0:0:0:
36,192,35887,1,0,0:0:0:0:
329,192,36063,1,0,0:0:0:0:
256,192,36063,1,0,0:0:0:0:
182,192,36063,1,0,0:0:0:0:
109,192,36063,1,0,0:0:0:0:
36,192,36063,1,0,0:0:0:0:
182,192,36239,1,0,0:0:0:0:
256,192,36239,1,0,0:0:0:0:
329,192,36239,1,0,0:0:0:0:
402,192,36239,1,0,0:0:0:0:
475,192,36239,1,0,0:0:0:0:
182,192,36356,1,0,0:0:0:0:
256,192,36356,1,0,0:0:0:0:
329,192,36356,1,0,0:0:0:0:
402,192,36356,1,0,0:0:0:0:
475,192,36356,1,0,0:0:0:0:
475,192,36473,1,0,0:0:0:0:
402,192,36473,1,0,0:0:0:0:
329,192,36473,1,0,0:0:0:0:
256,192,36473,1,0,0:0:0:0:
182,192,36473,1,0,0:0:0:0:
182,192,36649,1,0,0:0:0:0:
256,192,36649,1,0,0:0:0:0:
329,192,36649,1,0,0:0:0:0:
402,192,36649,1,0,0:0:0:0:
475,192,36649,1,0,0:0:0:0:
475,192,36824,1,0,0:0:0:0:
402,192,36824,1,0,0:0:0:0:
329,192,36824,1,0,0:0:0:0:
256,192,36824,1,0,0:0:0:0:
182,192,36824,1,0,0:0:0:0:
182,192,37000,1,0,0:0:0:0:
256,192,37000,1,0,0:0:0:0:
329,192,37000,1,0,0:0:0:0:
402,192,37000,1,0,0:0:0:0:
475,192,37000,1,0,0:0:0:0:
182,192,37176,1,0,0:0:0:0:
256,192,37176,1,0,0:0:0:0:
329,192,37176,1,0,0:0:0:0:
475,192,37176,1,0,0:0:0:0:
402,192,37176,1,0,0:0:0:0:
109,192,37293,1,0,0:0:0:0:
36,192,37410,1,0,0:0:0:0:
182,192,37528,1,0,0:0:0:0:
329,192,37528,1,0,0:0:0:0:
475,192,37528,1,0,0:0:0:0:
109,192,37645,1,0,0:0:0:0:
36,192,37762,1,0,0:0:0:0:
475,192,37879,1,0,0:0:0:0:
329,192,37938,1,0,0:0:0:0:
182,192,37996,1,0,0:0:0:0:
36,192,38055,1,0,0:0:0:0:
329,192,38114,1,0,0:0:0:0:
475,192,38114,1,0,0:0:0:0:
182,192,38231,1,0,0:0:0:0:
36,192,38231,1,0,0:0:0:0:
329,192,38348,1,0,0:0:0:0:
475,192,38348,1,0,0:0:0:0:
402,192,38348,1,0,0:0:0:0:
182,192,38465,1,0,0:0:0:0:
36,192,38465,1,0,0:0:0:0:
109,192,38465,1,0,0:0:0:0:
329,192,38582,1,0,0:0:0:0:
402,192,38641,1,0,0:0:0:0:
475,192,38699,1,0,0:0:0:0:
36,192,38699,1,0,0:0:0:0:
182,192,38699,1,0,0:0:0:0:
329,192,38817,1,0,0:0:0:0:
475,192,38817,1,0,0:0:0:0:
182,192,38934,1,0,0:0:0:0:
109,192,38992,1,0,0:0:0:0:
36,192,39051,1,0,0:0:0:0:
329,192,39051,1,0,0:0:0:0:
475,192,39051,1,0,0:0:0:0:
109,192,39168,1,0,0:0:0:0:
256,192,39227,1,0,0:0:0:0:
402,192,39285,1,0,0:0:0:0:
182,192,39403,1,0,0:0:0:0:
36,192,39403,1,0,0:0:0:0:
475,192,39403,1,0,0:0:0:0:
402,192,39520,1,0,0:0:0:0:
256,192,39578,1,0,0:0:0:0:
109,192,39637,1,0,0:0:0:0:
36,192,39754,1,0,0:0:0:0:
182,192,39754,1,0,0:0:0:0:
402,192,39754,1,0,0:0:0:0:
109,192,39871,1,0,0:0:0:0:
256,192,39930,1,0,0:0:0:0:
402,192,39989,1,0,0:0:0:0:
475,192,40106,1,0,0:0:0:0:
256,192,40164,1,0,0:0:0:0:
36,192,40223,1,0,0:0:0:0:
402,192,40340,1,0,0:0:0:0:
256,192,40399,1,0,0:0:0:0:
109,192,40457,1,0,0:0:0:0:
36,192,40516,1,0,0:0:0:0:
402,192,40574,1,0,0:0:0:0:
475,192,40633,1,0,0:0:0:0:
256,192,40692,128,0,40926:0:0:0:0:
109,192,40926,1,0,0:0:0:0:
36,192,40926,1,0,0:0:0:0:
402,192,40926,1,0,0:0:0:0:
182,192,41043,1,0,0:0:0:0:
256,192,41102,1,0,0:0:0:0:
329,192,41160,1,0,0:0:0:0:
402,192,41278,1,0,0:0:0:0:
475,192,41278,1,0,0:0:0:0:
109,192,41278,1,0,0:0:0:0:
329,192,41395,1,0,0:0:0:0:
256,192,41453,1,0,0:0:0:0:
182,192,41512,1,0,0:0:0:0:
109,192,41629,1,0,0:0:0:0:
36,192,41629,1,0,0:0:0:0:
475,192,41629,1,0,0:0:0:0:
182,192,41746,1,0,0:0:0:0:
256,192,41805,1,0,0:0:0:0:
329,192,41864,1,0,0:0:0:0:
402,192,41942,1,0,0:0:0:0:
475,192,42020,1,0,0:0:0:0:
182,192,42098,1,0,0:0:0:0:
109,192,42176,1,0,0:0:0:0:
36,192,42254,1,0,0:0:0:0:
256,192,42332,1,0,0:0:0:0:
36,192,42449,1,0,0:0:0:0:
475,192,42449,1,0,0:0:0:0:
109,192,42508,1,0,0:0:0:0:
402,192,42508,1,0,0:0:0:0:
329,192,42567,128,0,42801:0:0:0:0:
182,192,42567,128,0,42801:0:0:0:0:
256,192,42801,1,0,0:0:0:0:
36,192,42918,1,0,0:0:0:0:
329,192,42918,1,0,0:0:0:0:
402,192,42977,1,0,0:0:0:0:
109,192,42977,1,0,0:0:0:0:
475,192,43035,1,0,0:0:0:0:
182,192,43035,1,0,0:0:0:0:
256,192,43153,1,0,0:0:0:0:
182,192,43270,1,0,0:0:0:0:
475,192,43270,1,0,0:0:0:0:
109,192,43328,1,0,0:0:0:0:
402,192,43328,1,0,0:0:0:0:
36,192,43387,1,0,0:0:0:0:
329,192,43387,1,0,0:0:0:0:
256,192,43504,1,0,0:0:0:0:
36,192,43621,1,0,0:0:0:0:
329,192,43621,1,0,0:0:0:0:
109,192,43680,1,0,0:0:0:0:
402,192,43680,1,0,0:0:0:0:
182,192,43739,1,0,0:0:0:0:
475,192,43739,1,0,0:0:0:0:
329,192,43817,1,0,0:0:0:0:
402,192,43895,1,0,0:0:0:0:
256,192,43973,1,0,0:0:0:0:
329,192,44051,1,0,0:0:0:0:
182,192,44129,1,0,0:0:0:0:
256,192,44207,1,0,0:0:0:0:
109,192,44285,1,0,0:0:0:0:
182,192,44364,1,0,0:0:0:0:
36,192,44442,1,0,0:0:0:0:
109,192,44520,1,0,0:0:0:0:
182,192,44598,1,0,0:0:0:0:
475,192,44676,1,0,0:0:0:0:
256,192,44676,1,0,0:0:0:0:
329,192,44735,1,0,0:0:0:0:
402,192,44793,1,0,0:0:0:0:
475,192,44852,1,0,0:0:0:0:
182,192,44910,1,0,0:0:0:0:
256,192,44969,1,0,0:0:0:0:
329,192,45028,1,0,0:0:0:0:
402,192,45086,1,0,0:0:0:0:
109,192,45145,1,0,0:0:0:0:
182,192,45203,1,0,0:0:0:0:
256,192,45262,1,0,0:0:0:0:
329,192,45321,1,0,0:0:0:0:
36,192,45379,1,0,0:0:0:0:
109,192,45438,1,0,0:0:0:0:
182,192,45496,1,0,0:0:0:0:
256,192,45555,1,0,0:0:0:0:
329,192,45614,1,0,0:0:0:0:
475,192,45614,1,0,0:0:0:0:
182,192,45731,1,0,0:0:0:0:
256,192,45789,1,0,0:0:0:0:
329,192,45848,1,0,0:0:0:0:
402,192,45906,1,0,0:0:0:0:
475,192,45965,1,0,0:0:0:0:
109,192,45965,1,0,0:0:0:0:
36,192,45965,1,0,0:0:0:0:
329,192,46082,1,0,0:0:0:0:
256,192,46141,1,0,0:0:0:0:
182,192,46199,1,0,0:0:0:0:
109,192,46258,1,0,0:0:0:0:
36,192,46317,1,0,0:0:0:0:
402,192,46317,1,0,0:0:0:0:
475,192,46317,1,0,0:0:0:0:
36,192,46551,1,0,0:0:0:0:
256,192,46610,1,0,0:0:0:0:
475,192,46668,1,0,0:0:0:0:
256,192,46727,1,0,0:0:0:0:
36,192,46785,1,0,0:0:0:0:
475,192,46903,1,0,0:0:0:0:
256,192,46961,1,0,0:0:0:0:
36,192,47020,1,0,0:0:0:0:
256,192,47078,1,0,0:0:0:0:
475,192,47137,128,0,47606:0:0:0:0:
109,192,47606,1,0,0:0:0:0:
256,192,47664,1,0,0:0:0:0:
402,192,47723,1,0,0:0:0:0:
256,192,47781,1,0,0:0:0:0:
109,192,47840,1,0,0:0:0:0:
402,192,47957,1,0,0:0:0:0:
256,192,48016,1,0,0:0:0:0:
109,192,48074,1,0,0:0:0:0:
256,192,48133,1,0,0:0:0:0:
402,192,48192,1,0,0:0:0:0:
182,192,48309,1,0,0:0:0:0:
329,192,48367,1,0,0:0:0:0:
109,192,48426,1,0,0:0:0:0:
402,192,48485,1,0,0:0:0:0:
36,192,48543,1,0,0:0:0:0:
475,192,48602,1,0,0:0:0:0:
256,192,48660,1,0,0:0:0:0:
182,192,48778,1,0,0:0:0:0:
329,192,48836,1,0,0:0:0:0:
109,192,48895,1,0,0:0:0:0:
402,192,48953,128,0,49364:0:0:0:0:
36,192,49364,128,0,50301:0:0:0:0:
109,192,49364,128,0,50301:0:0:0:0:
329,192,50301,1,0,0:0:0:0:
256,192,50360,1,0,0:0:0:0:
182,192,50418,1,0,0:0:0:0:
256,192,50477,1,0,0:0:0:0:
329,192,50535,1,0,0:0:0:0:
182,192,50653,1,0,0:0:0:0:
256,192,50711,1,0,0:0:0:0:
329,192,50770,1,0,0:0:0:0:
256,192,50828,1,0,0:0:0:0:
182,192,50887,128,0,51356:0:0:0:0:
109,192,51356,1,0,0:0:0:0:
256,192,51414,1,0,0:0:0:0:
402,192,51473,1,0,0:0:0:0:
256,192,51531,1,0,0:0:0:0:
109,192,51590,1,0,0:0:0:0:
402,192,51707,1,0,0:0:0:0:
256,192,51766,1,0,0:0:0:0:
109,192,51824,1,0,0:0:0:0:
256,192,51883,1,0,0:0:0:0:
402,192,51942,1,0,0:0:0:0:
329,192,52059,1,0,0:0:0:0:
182,192,52117,1,0,0:0:0:0:
402,192,52176,1,0,0:0:0:0:
109,192,52235,1,0,0:0:0:0:
475,192,52293,1,0,0:0:0:0:
36,192,52352,1,0,0:0:0:0:
256,192,52410,1,0,0:0:0:0:
329,192,52528,1,0,0:0:0:0:
182,192,52586,1,0,0:0:0:0:
402,192,52645,1,0,0:0:0:0:
109,192,52703,128,0,53114:0:0:0:0:
329,192,53114,1,0,0:0:0:0:
36,192,53114,1,0,0:0:0:0:
109,192,53172,1,0,0:0:0:0:
182,192,53231,1,0,0:0:0:0:
256,192,53289,1,0,0:0:0:0:
109,192,53348,1,0,0:0:0:0:
182,192,53406,1,0,0:0:0:0:
256,192,53465,1,0,0:0:0:0:
329,192,53524,1,0,0:0:0:0:
182,192,53582,1,0,0:0:0:0:
256,192,53641,1,0,0:0:0:0:
329,192,53699,1,0,0:0:0:0:
402,192,53758,1,0,0:0:0:0:
256,192,53817,1,0,0:0:0:0:
329,192,53875,1,0,0:0:0:0:
402,192,53934,1,0,0:0:0:0:
475,192,53992,1,0,0:0:0:0:
182,192,54051,1,0,0:0:0:0:
36,192,54051,1,0,0:0:0:0:
256,192,54110,1,0,0:0:0:0:
329,192,54168,1,0,0:0:0:0:
402,192,54227,1,0,0:0:0:0:
475,192,54285,1,0,0:0:0:0:
329,192,54403,1,0,0:0:0:0:
475,192,54403,1,0,0:0:0:0:
256,192,54461,1,0,0:0:0:0:
182,192,54520,1,0,0:0:0:0:
109,192,54578,1,0,0:0:0:0:
36,192,54637,1,0,0:0:0:0:
329,192,54754,1,0,0:0:0:0:
182,192,54754,1,0,0:0:0:0:
182,192,54930,1,0,0:0:0:0:
329,192,54930,1,0,0:0:0:0:
36,192,55106,1,0,0:0:0:0:
109,192,55106,1,0,0:0:0:0:
182,192,55164,1,0,0:0:0:0:
256,192,55223,1,0,0:0:0:0:
329,192,55281,1,0,0:0:0:0:
402,192,55340,1,0,0:0:0:0:
475,192,55340,1,0,0:0:0:0:
402,192,55457,1,0,0:0:0:0:
475,192,55457,1,0,0:0:0:0:
329,192,55516,1,0,0:0:0:0:
256,192,55574,1,0,0:0:0:0:
182,192,55633,1,0,0:0:0:0:
109,192,55692,1,0,0:0:0:0:
36,192,55692,1,0,0:0:0:0:
475,192,55809,1,0,0:0:0:0:
329,192,55867,1,0,0:0:0:0:
182,192,55926,1,0,0:0:0:0:
36,192,55985,1,0,0:0:0:0:
402,192,56043,1,0,0:0:0:0:
256,192,56102,1,0,0:0:0:0:
109,192,56160,1,0,0:0:0:0:
36,192,56278,1,0,0:0:0:0:
182,192,56336,1,0,0:0:0:0:
329,192,56395,1,0,0:0:0:0:
475,192,56453,128,0,56864:0:0:0:0:
182,192,56864,128,0,57801:0:0:0:0:
109,192,56864,128,0,57801:0:0:0:0:
36,192,57801,1,0,0:0:0:0:
475,192,57801,1,0,0:0:0:0:
109,192,57860,1,0,0:0:0:0:
402,192,57860,1,0,0:0:0:0:
329,192,57918,1,0,0:0:0:0:
182,192,57918,1,0,0:0:0:0:
256,192,57977,1,0,0:0:0:0:
36,192,58035,1,0,0:0:0:0:
475,192,58035,1,0,0:0:0:0:
36,192,58153,1,0,0:0:0:0:
475,192,58153,1,0,0:0:0:0:
109,192,58211,1,0,0:0:0:0:
402,192,58211,1,0,0:0:0:0:
182,192,58270,1,0,0:0:0:0:
329,192,58270,1,0,0:0:0:0:
256,192,58328,1,0,0:0:0:0:
475,192,58387,1,0,0:0:0:0:
36,192,58387,1,0,0:0:0:0:
475,192,58504,1,0,0:0:0:0:
36,192,58504,1,0,0:0:0:0:
36,192,58680,1,0,0:0:0:0:
475,192,58680,1,0,0:0:0:0:
256,192,58856,1,0,0:0:0:0:
182,192,58914,1,0,0:0:0:0:
329,192,58914,1,0,0:0:0:0:
109,192,58973,1,0,0:0:0:0:
402,192,58973,1,0,0:0:0:0:
36,192,59031,1,0,0:0:0:0:
475,192,59031,1,0,0:0:0:0:
256,192,59090,1,0,0:0:0:0:
256,192,59207,1,0,0:0:0:0:
182,192,59266,1,0,0:0:0:0:
329,192,59266,1,0,0:0:0:0:
109,192,59324,1,0,0:0:0:0:
402,192,59324,1,0,0:0:0:0:
36,192,59383,1,0,0:0:0:0:
475,192,59383,1,0,0:0:0:0:
256,192,59442,1,0,0:0:0:0:
329,192,59559,1,0,0:0:0:0:
402,192,59559,1,0,0:0:0:0:
182,192,59617,1,0,0:0:0:0:
109,192,59617,1,0,0:0:0:0:
329,192,59676,1,0,0:0:0:0:
402,192,59676,1,0,0:0:0:0:
182,192,59735,1,0,0:0:0:0:
109,192,59735,1,0,0:0:0:0:
329,192,59793,1,0,0:0:0:0:
402,192,59793,1,0,0:0:0:0:
182,192,59852,1,0,0:0:0:0:
109,192,59852,1,0,0:0:0:0:
329,192,59910,1,0,0:0:0:0:
402,192,59910,1,0,0:0:0:0:
182,192,59969,1,0,0:0:0:0:
109,192,59969,1,0,0:0:0:0:
329,192,60028,1,0,0:0:0:0:
402,192,60028,1,0,0:0:0:0:
182,192,60086,1,0,0:0:0:0:
109,192,60086,1,0,0:0:0:0:
329,192,60145,1,0,0:0:0:0:
402,192,60145,1,0,0:0:0:0:
182,192,60203,1,0,0:0:0:0:
109,192,60203,1,0,0:0:0:0:
329,192,60262,1,0,0:0:0:0:
402,192,60262,1,0,0:0:0:0:
182,192,60321,1,0,0:0:0:0:
109,192,60321,1,0,0:0:0:0:
329,192,60379,1,0,0:0:0:0:
402,192,60379,1,0,0:0:0:0:
182,192,60438,1,0,0:0:0:0:
109,192,60438,1,0,0:0:0:0:
329,192,60496,1,0,0:0:0:0:
402,192,60496,1,0,0:0:0:0:
182,192,60555,1,0,0:0:0:0:
109,192,60555,1,0,0:0:0:0:
329,192,60614,1,0,0:0:0:0:
402,192,60614,1,0,0:0:0:0:
36,192,60731,1,0,0:0:0:0:
109,192,60848,1,0,0:0:0:0:
182,192,60965,1,0,0:0:0:0:
256,192,61082,1,0,0:0:0:0:
329,192,61199,1,0,0:0:0:0:
36,192,61434,1,0,0:0:0:0:
402,192,61903,1,0,0:0:0:0:
109,192,62254,1,0,0:0:0:0:
475,192,62606,1,0,0:0:0:0:
402,192,62723,1,0,0:0:0:0:
329,192,62840,1,0,0:0:0:0:
256,192,62957,1,0,0:0:0:0:
182,192,63074,1,0,0:0:0:0:
329,192,63309,1,0,0:0:0:0:
109,192,63543,1,0,0:0:0:0:
256,192,63778,1,0,0:0:0:0:
36,192,64129,1,0,0:0:0:0:
182,192,64520,1,0,0:0:0:0:
329,192,64676,1,0,0:0:0:0:
475,192,64832,1,0,0:0:0:0:
256,192,65184,1,0,0:0:0:0:
402,192,65301,1,0,0:0:0:0:
182,192,65653,1,0,0:0:0:0:
36,192,66004,1,0,0:0:0:0:
109,192,66395,1,0,0:0:0:0:
256,192,66551,1,0,0:0:0:0:
402,192,66707,1,0,0:0:0:0:
36,192,67059,1,0,0:0:0:0:
182,192,67176,1,0,0:0:0:0:
402,192,67528,1,0,0:0:0:0:
256,192,67879,1,0,0:0:0:0:
475,192,68114,128,0,69989:0:0:0:0:
36,192,68231,1,0,0:0:0:0:
109,192,68348,1,0,0:0:0:0:
182,192,68465,1,0,0:0:0:0:
109,192,68582,1,0,0:0:0:0:
36,192,68699,1,0,0:0:0:0:
109,192,68934,1,0,0:0:0:0:
182,192,69403,1,0,0:0:0:0:
36,192,69403,1,0,0:0:0:0:
109,192,69754,1,0,0:0:0:0:
36,192,69989,128,0,71864:0:0:0:0:
475,192,70106,1,0,0:0:0:0:
402,192,70223,1,0,0:0:0:0:
329,192,70340,1,0,0:0:0:0:
402,192,70457,1,0,0:0:0:0:
475,192,70574,1,0,0:0:0:0:
402,192,70809,1,0,0:0:0:0:
329,192,71043,1,0,0:0:0:0:
475,192,71043,1,0,0:0:0:0:
402,192,71278,1,0,0:0:0:0:
329,192,71629,1,0,0:0:0:0:
402,192,71864,128,0,75379:0:0:0:0:
256,192,72020,1,0,0:0:0:0:
182,192,72176,1,0,0:0:0:0:
109,192,72332,1,0,0:0:0:0:
182,192,72684,1,0,0:0:0:0:
256,192,72801,1,0,0:0:0:0:
109,192,73153,1,0,0:0:0:0:
256,192,73153,1,0,0:0:0:0:
182,192,73504,1,0,0:0:0:0:
109,192,73739,128,0,75379:0:0:0:0:
329,192,73895,1,0,0:0:0:0:
256,192,74051,1,0,0:0:0:0:
182,192,74207,1,0,0:0:0:0:
475,192,74442,1,0,0:0:0:0:
36,192,74442,1,0,0:0:0:0:
256,192,74676,128,0,75379:0:0:0:0:
36,192,75614,1,0,0:0:0:0:
182,192,75614,1,0,0:0:0:0:
329,192,75614,1,0,0:0:0:0:
402,192,75731,1,0,0:0:0:0:
475,192,75848,1,0,0:0:0:0:
109,192,75965,1,0,0:0:0:0:
256,192,75965,1,0,0:0:0:0:
329,192,75965,1,0,0:0:0:0:
402,192,76082,1,0,0:0:0:0:
475,192,76199,1,0,0:0:0:0:
109,192,76317,1,0,0:0:0:0:
402,192,76434,1,0,0:0:0:0:
36,192,76551,1,0,0:0:0:0:
109,192,76610,1,0,0:0:0:0:
329,192,76668,1,0,0:0:0:0:
402,192,76727,1,0,0:0:0:0:
109,192,76785,1,0,0:0:0:0:
182,192,76844,1,0,0:0:0:0:
402,192,76903,1,0,0:0:0:0:
475,192,76961,1,0,0:0:0:0:
182,192,77020,1,0,0:0:0:0:
36,192,77020,1,0,0:0:0:0:
329,192,77137,1,0,0:0:0:0:
475,192,77137,1,0,0:0:0:0:
256,192,77254,1,0,0:0:0:0:
109,192,77254,1,0,0:0:0:0:
329,192,77371,1,0,0:0:0:0:
475,192,77371,1,0,0:0:0:0:
256,192,77489,1,0,0:0:0:0:
402,192,77489,1,0,0:0:0:0:
182,192,77489,1,0,0:0:0:0:
109,192,77606,1,0,0:0:0:0:
36,192,77723,1,0,0:0:0:0:
182,192,77840,1,0,0:0:0:0:
329,192,77840,1,0,0:0:0:0:
475,192,77840,1,0,0:0:0:0:
109,192,77957,1,0,0:0:0:0:
36,192,78074,1,0,0:0:0:0:
402,192,78192,1,0,0:0:0:0:
109,192,78309,1,0,0:0:0:0:
475,192,78426,1,0,0:0:0:0:
402,192,78485,1,0,0:0:0:0:
182,192,78543,1,0,0:0:0:0:
109,192,78602,1,0,0:0:0:0:
402,192,78660,1,0,0:0:0:0:
329,192,78719,1,0,0:0:0:0:
109,192,78778,1,0,0:0:0:0:
36,192,78836,1,0,0:0:0:0:
329,192,78895,1,0,0:0:0:0:
475,192,78895,1,0,0:0:0:0:
182,192,79012,1,0,0:0:0:0:
36,192,79012,1,0,0:0:0:0:
256,192,79129,1,0,0:0:0:0:
402,192,79129,1,0,0:0:0:0:
182,192,79246,1,0,0:0:0:0:
36,192,79246,1,0,0:0:0:0:
329,192,79364,1,0,0:0:0:0:
475,192,79364,1,0,0:0:0:0:
109,192,79364,1,0,0:0:0:0:
182,192,79481,1,0,0:0:0:0:
256,192,79598,1,0,0:0:0:0:
109,192,79715,1,0,0:0:0:0:
402,192,79715,1,0,0:0:0:0:
475,192,79715,1,0,0:0:0:0:
182,192,79832,1,0,0:0:0:0:
256,192,79949,1,0,0:0:0:0:
329,192,80067,1,0,0:0:0:0:
402,192,80184,1,0,0:0:0:0:
475,192,80301,1,0,0:0:0:0:
36,192,80301,1,0,0:0:0:0:
182,192,80360,1,0,0:0:0:0:
402,192,80418,1,0,0:0:0:0:
256,192,80477,1,0,0:0:0:0:
109,192,80535,1,0,0:0:0:0:
402,192,80653,1,0,0:0:0:0:
182,192,80770,1,0,0:0:0:0:
36,192,80770,1,0,0:0:0:0:
329,192,80887,1,0,0:0:0:0:
475,192,80887,1,0,0:0:0:0:
182,192,81004,1,0,0:0:0:0:
109,192,81004,1,0,0:0:0:0:
402,192,81121,1,0,0:0:0:0:
329,192,81121,1,0,0:0:0:0:
182,192,81239,1,0,0:0:0:0:
36,192,81239,1,0,0:0:0:0:
256,192,81356,1,0,0:0:0:0:
329,192,81473,1,0,0:0:0:0:
402,192,81590,1,0,0:0:0:0:
475,192,81590,1,0,0:0:0:0:
36,192,81590,1,0,0:0:0:0:
402,192,81707,1,0,0:0:0:0:
475,192,81707,1,0,0:0:0:0:
109,192,81707,1,0,0:0:0:0:
402,192,81824,1,0,0:0:0:0:
475,192,81824,1,0,0:0:0:0:
182,192,81824,1,0,0:0:0:0:
402,192,81942,1,0,0:0:0:0:
475,192,81942,1,0,0:0:0:0:
109,192,81942,1,0,0:0:0:0:
402,192,82059,1,0,0:0:0:0:
475,192,82059,1,0,0:0:0:0:
36,192,82059,1,0,0:0:0:0:
402,192,82176,1,0,0:0:0:0:
475,192,82176,1,0,0:0:0:0:
182,192,82176,1,0,0:0:0:0:
109,192,82235,1,0,0:0:0:0:
402,192,82293,1,0,0:0:0:0:
475,192,82293,1,0,0:0:0:0:
36,192,82293,1,0,0:0:0:0:
402,192,82410,1,0,0:0:0:0:
475,192,82410,1,0,0:0:0:0:
109,192,82410,1,0,0:0:0:0:
402,192,82528,1,0,0:0:0:0:
475,192,82528,1,0,0:0:0:0:
182,192,82528,1,0,0:0:0:0:
475,192,82645,1,0,0:0:0:0:
402,192,82645,1,0,0:0:0:0:
36,192,82645,1,0,0:0:0:0:
402,192,82762,1,0,0:0:0:0:
475,192,82762,1,0,0:0:0:0:
109,192,82762,1,0,0:0:0:0:
402,192,82879,1,0,0:0:0:0:
475,192,82879,1,0,0:0:0:0:
182,192,82879,1,0,0:0:0:0:
256,192,82996,1,0,0:0:0:0:
329,192,83114,1,0,0:0:0:0:
475,192,83114,1,0,0:0:0:0:
109,192,83114,1,0,0:0:0:0:
402,192,83289,1,0,0:0:0:0:
36,192,83289,1,0,0:0:0:0:
182,192,83289,1,0,0:0:0:0:
329,192,83465,1,0,0:0:0:0:
475,192,83465,1,0,0:0:0:0:
109,192,83465,1,0,0:0:0:0:
36,192,83641,1,0,0:0:0:0:
182,192,83641,1,0,0:0:0:0:
402,192,83641,1,0,0:0:0:0:
109,192,83817,1,0,0:0:0:0:
329,192,83817,1,0,0:0:0:0:
475,192,83817,1,0,0:0:0:0:
256,192,84051,1,0,0:0:0:0:
109,192,84051,1,0,0:0:0:0:
329,192,84051,1,0,0:0:0:0:
475,192,84051,1,0,0:0:0:0:
182,192,84227,1,0,0:0:0:0:
36,192,84227,1,0,0:0:0:0:
256,192,84227,1,0,0:0:0:0:
402,192,84227,1,0,0:0:0:0:
329,192,84403,1,0,0:0:0:0:
475,192,84403,1,0,0:0:0:0:
256,192,84403,1,0,0:0:0:0:
109,192,84403,1,0,0:0:0:0:
36,192,84578,1,0,0:0:0:0:
182,192,84578,1,0,0:0:0:0:
256,192,84578,1,0,0:0:0:0:
402,192,84578,1,0,0:0:0:0:
329,192,84754,1,0,0:0:0:0:
475,192,84754,1,0,0:0:0:0:
256,192,84754,1,0,0:0:0:0:
109,192,84754,1,0,0:0:0:0:
402,192,84871,1,0,0:0:0:0:
182,192,84871,1,0,0:0:0:0:
36,192,84989,1,0,0:0:0:0:
109,192,84989,1,0,0:0:0:0:
256,192,84989,1,0,0:0:0:0:
329,192,84989,1,0,0:0:0:0:
109,192,85164,1,0,0:0:0:0:
182,192,85164,1,0,0:0:0:0:
402,192,85164,1,0,0:0:0:0:
475,192,85164,1,0,0:0:0:0:
256,192,85340,1,0,0:0:0:0:
329,192,85340,1,0,0:0:0:0:
109,192,85340,1,0,0:0:0:0:
36,192,85340,1,0,0:0:0:0:
475,192,85516,1,0,0:0:0:0:
402,192,85516,1,0,0:0:0:0:
109,192,85516,1,0,0:0:0:0:
182,192,85516,1,0,0:0:0:0:
109,192,85692,1,0,0:0:0:0:
36,192,85692,1,0,0:0:0:0:
329,192,85692,1,0,0:0:0:0:
402,192,85692,1,0,0:0:0:0:
256,192,85692,1,0,0:0:0:0:
402,192,85926,1,0,0:0:0:0:
475,192,85926,1,0,0:0:0:0:
256,192,85926,1,0,0:0:0:0:
182,192,85926,1,0,0:0:0:0:
109,192,86102,1,0,0:0:0:0:
36,192,86102,1,0,0:0:0:0:
402,192,86102,1,0,0:0:0:0:
329,192,86102,1,0,0:0:0:0:
256,192,86278,1,0,0:0:0:0:
182,192,86278,1,0,0:0:0:0:
475,192,86278,1,0,0:0:0:0:
402,192,86278,1,0,0:0:0:0:
109,192,86453,1,0,0:0:0:0:
36,192,86453,1,0,0:0:0:0:
329,192,86453,1,0,0:0:0:0:
402,192,86453,1,0,0:0:0:0:
109,192,86629,1,0,0:0:0:0:
329,192,86688,1,0,0:0:0:0:
36,192,86746,1,0,0:0:0:0:
402,192,86805,1,0,0:0:0:0:
109,192,86864,1,0,0:0:0:0:
182,192,86864,1,0,0:0:0:0:
256,192,86864,1,0,0:0:0:0:
329,192,87039,1,0,0:0:0:0:
402,192,87215,1,0,0:0:0:0:
182,192,87332,1,0,0:0:0:0:
109,192,87332,1,0,0:0:0:0:
36,192,87332,1,0,0:0:0:0:
256,192,87508,1,0,0:0:0:0:
329,192,87684,1,0,0:0:0:0:
109,192,87801,1,0,0:0:0:0:
36,192,87801,1,0,0:0:0:0:
182,192,87977,1,0,0:0:0:0:
256,192,88153,1,0,0:0:0:0:
36,192,88270,1,0,0:0:0:0:
182,192,88270,1,0,0:0:0:0:
329,192,88270,1,0,0:0:0:0:
475,192,88270,1,0,0:0:0:0:
402,192,88387,1,0,0:0:0:0:
329,192,88446,1,0,0:0:0:0:
256,192,88504,1,0,0:0:0:0:
182,192,88563,1,0,0:0:0:0:
109,192,88621,1,0,0:0:0:0:
36,192,88680,1,0,0:0:0:0:
475,192,88739,1,0,0:0:0:0:
329,192,88797,1,0,0:0:0:0:
36,192,88856,1,0,0:0:0:0:
182,192,88914,1,0,0:0:0:0:
475,192,88973,1,0,0:0:0:0:
329,192,89031,1,0,0:0:0:0:
36,192,89090,1,0,0:0:0:0:
182,192,89149,1,0,0:0:0:0:
475,192,89207,1,0,0:0:0:0:
329,192,89266,1,0,0:0:0:0:
36,192,89324,1,0,0:0:0:0:
182,192,89383,1,0,0:0:0:0:
475,192,89442,1,0,0:0:0:0:
329,192,89500,1,0,0:0:0:0:
36,192,89559,1,0,0:0:0:0:
182,192,89617,1,0,0:0:0:0:
329,192,89676,128,0,90614:0:0:0:0:
475,192,89676,128,0,90614:0:0:0:0:
256,192,90086,1,0,0:0:0:0:
182,192,90145,1,0,0:0:0:0:
109,192,90203,1,0,0:0:0:0:
36,192,90262,1,0,0:0:0:0:
256,192,90321,1,0,0:0:0:0:
182,192,90379,1,0,0:0:0:0:
109,192,90438,1,0,0:0:0:0:
36,192,90496,1,0,0:0:0:0:
256,192,90555,1,0,0:0:0:0:
182,192,90614,1,0,0:0:0:0:
109,192,90614,1,0,0:0:0:0:
329,192,90848,1,0,0:0:0:0:
402,192,90848,1,0,0:0:0:0:
109,192,91082,1,0,0:0:0:0:
36,192,91082,1,0,0:0:0:0:
402,192,91317,1,0,0:0:0:0:
475,192,91317,1,0,0:0:0:0:
182,192,91551,1,0,0:0:0:0:
36,192,91551,1,0,0:0:0:0:
329,192,91551,1,0,0:0:0:0:
256,192,91668,1,0,0:0:0:0:
329,192,91668,1,0,0:0:0:0:
182,192,91727,1,0,0:0:0:0:
402,192,91727,1,0,0:0:0:0:
109,192,91785,1,0,0:0:0:0:
475,192,91785,1,0,0:0:0:0:
256,192,91903,1,0,0:0:0:0:
329,192,91903,1,0,0:0:0:0:
182,192,92020,1,0,0:0:0:0:
256,192,92020,1,0,0:0:0:0:
109,192,92078,1,0,0:0:0:0:
329,192,92078,1,0,0:0:0:0:
36,192,92137,1,0,0:0:0:0:
402,192,92137,1,0,0:0:0:0:
109,192,92254,1,0,0:0:0:0:
329,192,92254,1,0,0:0:0:0:
182,192,92371,1,0,0:0:0:0:
402,192,92371,1,0,0:0:0:0:
256,192,92489,1,0,0:0:0:0:
475,192,92489,1,0,0:0:0:0:
36,192,92489,1,0,0:0:0:0:
182,192,92606,1,0,0:0:0:0:
402,192,92606,1,0,0:0:0:0:
109,192,92664,1,0,0:0:0:0:
329,192,92664,1,0,0:0:0:0:
36,192,92723,1,0,0:0:0:0:
256,192,92723,1,0,0:0:0:0:
109,192,92840,1,0,0:0:0:0:
329,192,92840,1,0,0:0:0:0:
182,192,92899,1,0,0:0:0:0:
402,192,92899,1,0,0:0:0:0:
256,192,92957,1,0,0:0:0:0:
475,192,92957,1,0,0:0:0:0:
182,192,93074,1,0,0:0:0:0:
402,192,93074,1,0,0:0:0:0:
109,192,93133,1,0,0:0:0:0:
329,192,93133,1,0,0:0:0:0:
36,192,93192,1,0,0:0:0:0:
256,192,93192,1,0,0:0:0:0:
329,192,93250,1,0,0:0:0:0:
402,192,93309,1,0,0:0:0:0:
475,192,93367,1,0,0:0:0:0:
109,192,93426,1,0,0:0:0:0:
36,192,93426,1,0,0:0:0:0:
182,192,93426,1,0,0:0:0:0:
329,192,93543,1,0,0:0:0:0:
475,192,93543,1,0,0:0:0:0:
256,192,93602,1,0,0:0:0:0:
182,192,93660,1,0,0:0:0:0:
36,192,93660,1,0,0:0:0:0:
329,192,93778,1,0,0:0:0:0:
475,192,93778,1,0,0:0:0:0:
36,192,93895,1,0,0:0:0:0:
182,192,93895,1,0,0:0:0:0:
256,192,93953,1,0,0:0:0:0:
329,192,94012,1,0,0:0:0:0:
475,192,94012,1,0,0:0:0:0:
109,192,94129,1,0,0:0:0:0:
256,192,94129,1,0,0:0:0:0:
182,192,94246,1,0,0:0:0:0:
329,192,94246,1,0,0:0:0:0:
256,192,94364,1,0,0:0:0:0:
402,192,94364,1,0,0:0:0:0:
182,192,94481,1,0,0:0:0:0:
36,192,94481,1,0,0:0:0:0:
329,192,94598,1,0,0:0:0:0:
475,192,94598,1,0,0:0:0:0:
109,192,94715,1,0,0:0:0:0:
256,192,94715,1,0,0:0:0:0:
329,192,94832,1,0,0:0:0:0:
36,192,94832,1,0,0:0:0:0:
475,192,94832,1,0,0:0:0:0:
256,192,94891,1,0,0:0:0:0:
182,192,94949,1,0,0:0:0:0:
109,192,95008,1,0,0:0:0:0:
36,192,95067,1,0,0:0:0:0:
475,192,95067,1,0,0:0:0:0:
402,192,95125,1,0,0:0:0:0:
329,192,95184,1,0,0:0:0:0:
256,192,95242,1,0,0:0:0:0:
182,192,95301,1,0,0:0:0:0:
36,192,95301,1,0,0:0:0:0:
475,192,95301,1,0,0:0:0:0:
109,192,95418,1,0,0:0:0:0:
329,192,95418,1,0,0:0:0:0:
182,192,95477,1,0,0:0:0:0:
402,192,95477,1,0,0:0:0:0:
36,192,95535,1,0,0:0:0:0:
256,192,95535,1,0,0:0:0:0:
109,192,95653,1,0,0:0:0:0:
329,192,95653,1,0,0:0:0:0:
182,192,95770,1,0,0:0:0:0:
402,192,95770,1,0,0:0:0:0:
256,192,95887,1,0,0:0:0:0:
475,192,95887,1,0,0:0:0:0:
109,192,96004,1,0,0:0:0:0:
329,192,96004,1,0,0:0:0:0:
182,192,96121,1,0,0:0:0:0:
402,192,96121,1,0,0:0:0:0:
36,192,96239,1,0,0:0:0:0:
256,192,96239,1,0,0:0:0:0:
329,192,96297,1,0,0:0:0:0:
109,192,96297,1,0,0:0:0:0:
402,192,96356,1,0,0:0:0:0:
182,192,96356,1,0,0:0:0:0:
475,192,96414,1,0,0:0:0:0:
256,192,96414,1,0,0:0:0:0:
36,192,96473,1,0,0:0:0:0:
329,192,96473,1,0,0:0:0:0:
109,192,96590,1,0,0:0:0:0:
402,192,96590,1,0,0:0:0:0:
475,192,96707,1,0,0:0:0:0:
182,192,96707,1,0,0:0:0:0:
402,192,96766,1,0,0:0:0:0:
109,192,96766,1,0,0:0:0:0:
329,192,96824,1,0,0:0:0:0:
36,192,96824,1,0,0:0:0:0:
256,192,96883,1,0,0:0:0:0:
182,192,96942,1,0,0:0:0:0:
475,192,96942,1,0,0:0:0:0:
109,192,97000,1,0,0:0:0:0:
402,192,97000,1,0,0:0:0:0:
36,192,97059,1,0,0:0:0:0:
329,192,97059,1,0,0:0:0:0:
256,192,97117,1,0,0:0:0:0:
182,192,97176,1,0,0:0:0:0:
36,192,97235,1,0,0:0:0:0:
256,192,97293,1,0,0:0:0:0:
109,192,97352,1,0,0:0:0:0:
329,192,97410,1,0,0:0:0:0:
182,192,97469,1,0,0:0:0:0:
402,192,97528,1,0,0:0:0:0:
256,192,97586,1,0,0:0:0:0:
475,192,97645,1,0,0:0:0:0:
329,192,97703,1,0,0:0:0:0:
402,192,97762,1,0,0:0:0:0:
256,192,97821,1,0,0:0:0:0:
329,192,97879,1,0,0:0:0:0:
182,192,97938,1,0,0:0:0:0:
256,192,97996,1,0,0:0:0:0:
109,192,98055,1,0,0:0:0:0:
182,192,98114,1,0,0:0:0:0:
402,192,98114,1,0,0:0:0:0:
36,192,98172,1,0,0:0:0:0:
329,192,98231,1,0,0:0:0:0:
475,192,98289,1,0,0:0:0:0:
256,192,98348,1,0,0:0:0:0:
109,192,98406,1,0,0:0:0:0:
329,192,98465,1,0,0:0:0:0:
475,192,98524,1,0,0:0:0:0:
182,192,98582,1,0,0:0:0:0:
36,192,98641,1,0,0:0:0:0:
256,192,98699,1,0,0:0:0:0:
402,192,98758,1,0,0:0:0:0:
182,192,98817,1,0,0:0:0:0:
36,192,98875,1,0,0:0:0:0:
329,192,98934,1,0,0:0:0:0:
475,192,98992,1,0,0:0:0:0:
109,192,99051,1,0,0:0:0:0:
256,192,99051,1,0,0:0:0:0:
329,192,99110,1,0,0:0:0:0:
402,192,99168,1,0,0:0:0:0:
475,192,99227,1,0,0:0:0:0:
182,192,99285,1,0,0:0:0:0:
36,192,99285,1,0,0:0:0:0:
329,192,99285,1,0,0:0:0:0:
256,192,99403,1,0,0:0:0:0:
182,192,99520,1,0,0:0:0:0:
475,192,99520,1,0,0:0:0:0:
109,192,99578,1,0,0:0:0:0:
402,192,99578,1,0,0:0:0:0:
36,192,99637,1,0,0:0:0:0:
329,192,99637,1,0,0:0:0:0:
109,192,99754,1,0,0:0:0:0:
402,192,99754,1,0,0:0:0:0:
182,192,99871,1,0,0:0:0:0:
475,192,99871,1,0,0:0:0:0:
402,192,99930,1,0,0:0:0:0:
109,192,99930,1,0,0:0:0:0:
329,192,99989,1,0,0:0:0:0:
36,192,99989,1,0,0:0:0:0:
256,192,100106,1,0,0:0:0:0:
182,192,100106,1,0,0:0:0:0:
329,192,100164,1,0,0:0:0:0:
109,192,100164,1,0,0:0:0:0:
402,192,100223,1,0,0:0:0:0:
36,192,100223,1,0,0:0:0:0:
256,192,100340,1,0,0:0:0:0:
329,192,100340,1,0,0:0:0:0:
182,192,100399,1,0,0:0:0:0:
402,192,100399,1,0,0:0:0:0:
109,192,100457,1,0,0:0:0:0:
475,192,100457,1,0,0:0:0:0:
256,192,100574,1,0,0:0:0:0:
182,192,100574,1,0,0:0:0:0:
109,192,100633,1,0,0:0:0:0:
329,192,100633,1,0,0:0:0:0:
36,192,100692,1,0,0:0:0:0:
402,192,100692,1,0,0:0:0:0:
109,192,100809,1,0,0:0:0:0:
256,192,100809,1,0,0:0:0:0:
182,192,100926,1,0,0:0:0:0:
329,192,100926,1,0,0:0:0:0:
475,192,101043,1,0,0:0:0:0:
36,192,101043,1,0,0:0:0:0:
256,192,101102,1,0,0:0:0:0:
109,192,101160,1,0,0:0:0:0:
329,192,101160,1,0,0:0:0:0:
182,192,101278,1,0,0:0:0:0:
402,192,101278,1,0,0:0:0:0:
36,192,101395,1,0,0:0:0:0:
256,192,101395,1,0,0:0:0:0:
109,192,101473,1,0,0:0:0:0:
329,192,101473,1,0,0:0:0:0:
182,192,101551,1,0,0:0:0:0:
402,192,101551,1,0,0:0:0:0:
475,192,101629,1,0,0:0:0:0:
256,192,101629,1,0,0:0:0:0:
182,192,101707,1,0,0:0:0:0:
402,192,101707,1,0,0:0:0:0:
109,192,101785,1,0,0:0:0:0:
329,192,101785,1,0,0:0:0:0:
36,192,101864,1,0,0:0:0:0:
256,192,101864,1,0,0:0:0:0:
256,192,102039,1,0,0:0:0:0:
475,192,102039,1,0,0:0:0:0:
256,192,102215,1,0,0:0:0:0:
36,192,102215,1,0,0:0:0:0:
475,192,102332,1,0,0:0:0:0:
329,192,102362,1,0,0:0:0:0:
36,192,102391,1,0,0:0:0:0:
182,192,102420,1,0,0:0:0:0:
475,192,102449,1,0,0:0:0:0:
329,192,102479,1,0,0:0:0:0:
36,192,102508,1,0,0:0:0:0:
182,192,102537,1,0,0:0:0:0:
475,192,102567,1,0,0:0:0:0:
329,192,102596,1,0,0:0:0:0:
36,192,102625,1,0,0:0:0:0:
182,192,102655,1,0,0:0:0:0:
475,192,102684,1,0,0:0:0:0:
329,192,102713,1,0,0:0:0:0:
36,192,102742,1,0,0:0:0:0:
182,192,102772,1,0,0:0:0:0:
329,192,102801,1,0,0:0:0:0:
475,192,102801,1,0,0:0:0:0:
36,192,102918,1,0,0:0:0:0:
109,192,102977,1,0,0:0:0:0:
182,192,103035,1,0,0:0:0:0:
475,192,103035,1,0,0:0:0:0:
329,192,103035,1,0,0:0:0:0:
402,192,103270,1,0,0:0:0:0:
182,192,103270,1,0,0:0:0:0:
329,192,103328,1,0,0:0:0:0:
109,192,103328,1,0,0:0:0:0:
256,192,103387,1,0,0:0:0:0:
36,192,103387,1,0,0:0:0:0:
182,192,103504,1,0,0:0:0:0:
109,192,103504,1,0,0:0:0:0:
329,192,103621,1,0,0:0:0:0:
402,192,103621,1,0,0:0:0:0:
182,192,103739,1,0,0:0:0:0:
36,192,103739,1,0,0:0:0:0:
256,192,103797,1,0,0:0:0:0:
329,192,103856,1,0,0:0:0:0:
475,192,103856,1,0,0:0:0:0:
182,192,103914,1,0,0:0:0:0:
36,192,103914,1,0,0:0:0:0:
329,192,104207,1,0,0:0:0:0:
475,192,104207,1,0,0:0:0:0:
109,192,104207,1,0,0:0:0:0:
256,192,104324,1,0,0:0:0:0:
182,192,104442,1,0,0:0:0:0:
36,192,104442,1,0,0:0:0:0:
402,192,104442,1,0,0:0:0:0:
182,192,104676,1,0,0:0:0:0:
36,192,104676,1,0,0:0:0:0:
329,192,104735,1,0,0:0:0:0:
402,192,104735,1,0,0:0:0:0:
182,192,104793,1,0,0:0:0:0:
36,192,104793,1,0,0:0:0:0:
329,192,104852,1,0,0:0:0:0:
402,192,104852,1,0,0:0:0:0:
182,192,104910,1,0,0:0:0:0:
36,192,104910,1,0,0:0:0:0:
329,192,105028,1,0,0:0:0:0:
475,192,105028,1,0,0:0:0:0:
182,192,105086,1,0,0:0:0:0:
109,192,105086,1,0,0:0:0:0:
329,192,105145,1,0,0:0:0:0:
475,192,105145,1,0,0:0:0:0:
182,192,105203,1,0,0:0:0:0:
109,192,105203,1,0,0:0:0:0:
329,192,105262,1,0,0:0:0:0:
475,192,105262,1,0,0:0:0:0:
182,192,105379,1,0,0:0:0:0:
36,192,105379,1,0,0:0:0:0:
475,192,105614,5,0,0:0:0:0:
329,192,105614,1,0,0:0:0:0:
109,192,105672,1,0,0:0:0:0:
182,192,105672,1,0,0:0:0:0:
475,192,105731,1,0,0:0:0:0:
329,192,105731,1,0,0:0:0:0:
109,192,105789,1,0,0:0:0:0:
182,192,105789,1,0,0:0:0:0:
475,192,105848,1,0,0:0:0:0:
329,192,105848,1,0,0:0:0:0:
36,192,105965,1,0,0:0:0:0:
182,192,105965,1,0,0:0:0:0:
329,192,106024,1,0,0:0:0:0:
402,192,106024,1,0,0:0:0:0:
182,192,106082,1,0,0:0:0:0:
36,192,106082,1,0,0:0:0:0:
329,192,106141,1,0,0:0:0:0:
402,192,106141,1,0,0:0:0:0:
182,192,106199,1,0,0:0:0:0:
36,192,106199,1,0,0:0:0:0:
402,192,106317,1,0,0:0:0:0:
109,192,106375,1,0,0:0:0:0:
475,192,106434,1,0,0:0:0:0:
36,192,106492,1,0,0:0:0:0:
402,192,106551,1,0,0:0:0:0:
182,192,106610,1,0,0:0:0:0:
329,192,106668,1,0,0:0:0:0:
109,192,106727,1,0,0:0:0:0:
402,192,106785,1,0,0:0:0:0:
182,192,106844,1,0,0:0:0:0:
329,192,106903,1,0,0:0:0:0:
109,192,106961,1,0,0:0:0:0:
402,192,107020,1,0,0:0:0:0:
182,192,107078,1,0,0:0:0:0:
329,192,107137,1,0,0:0:0:0:
109,192,107196,1,0,0:0:0:0:
402,192,107254,1,0,0:0:0:0:
182,192,107313,1,0,0:0:0:0:
329,192,107371,1,0,0:0:0:0:
109,192,107430,1,0,0:0:0:0:
402,192,107489,1,0,0:0:0:0:
256,192,107489,1,0,0:0:0:0:
109,192,107723,1,0,0:0:0:0:
256,192,107723,1,0,0:0:0:0:
36,192,107957,1,0,0:0:0:0:
182,192,107957,1,0,0:0:0:0:
329,192,107957,1,0,0:0:0:0:
475,192,107957,1,0,0:0:0:0:
329,192,108426,1,0,0:0:0:0:
402,192,108426,1,0,0:0:0:0:
475,192,108426,128,0,108485:0:0:0:0:
109,192,108485,1,0,0:0:0:0:
36,192,108485,1,0,0:0:0:0:
182,192,108485,128,0,108543:0:0:0:0:
329,192,108543,1,0,0:0:0:0:
475,192,108543,1,0,0:0:0:0:
402,192,108543,128,0,108602:0:0:0:0:
182,192,108602,1,0,0:0:0:0:
36,192,108602,1,0,0:0:0:0:
109,192,108602,128,0,108660:0:0:0:0:
475,192,108660,1,0,0:0:0:0:
402,192,108660,1,0,0:0:0:0:
329,192,108660,128,0,108719:0:0:0:0:
182,192,108719,1,0,0:0:0:0:
109,192,108719,1,0,0:0:0:0:
36,192,108719,128,0,108778:0:0:0:0:
475,192,108778,1,0,0:0:0:0:
329,192,108778,1,0,0:0:0:0:
402,192,108778,128,0,108836:0:0:0:0:
182,192,108836,1,0,0:0:0:0:
36,192,108836,1,0,0:0:0:0:
109,192,108836,128,0,108895:0:0:0:0:
329,192,108895,1,0,0:0:0:0:
402,192,108895,1,0,0:0:0:0:
475,192,108895,128,0,108953:0:0:0:0:
109,192,108953,1,0,0:0:0:0:
36,192,108953,1,0,0:0:0:0:
182,192,108953,128,0,109012:0:0:0:0:
329,192,109012,1,0,0:0:0:0:
475,192,109012,1,0,0:0:0:0:
402,192,109012,128,0,109071:0:0:0:0:
182,192,109071,1,0,0:0:0:0:
36,192,109071,1,0,0:0:0:0:
109,192,109071,128,0,109129:0:0:0:0:
475,192,109129,1,0,0:0:0:0:
402,192,109129,1,0,0:0:0:0:
329,192,109129,128,0,109188:0:0:0:0:
182,192,109188,1,0,0:0:0:0:
109,192,109188,1,0,0:0:0:0:
36,192,109188,128,0,109246:0:0:0:0:
329,192,109246,1,0,0:0:0:0:
475,192,109246,1,0,0:0:0:0:
402,192,109246,128,0,109305:0:0:0:0:
182,192,109305,1,0,0:0:0:0:
36,192,109305,1,0,0:0:0:0:
109,192,109305,128,0,109364:0:0:0:0:
329,192,109364,1,0,0:0:0:0:
402,192,109364,1,0,0:0:0:0:
475,192,109364,128,0,109422:0:0:0:0:
109,192,109422,1,0,0:0:0:0:
36,192,109422,1,0,0:0:0:0:
182,192,109422,128,0,109481:0:0:0:0:
329,192,109481,1,0,0:0:0:0:
475,192,109481,1,0,0:0:0:0:
402,192,109481,128,0,109539:0:0:0:0:
182,192,109539,1,0,0:0:0:0:
36,192,109539,1,0,0:0:0:0:
109,192,109539,128,0,109598:0:0:0:0:
402,192,109598,1,0,0:0:0:0:
475,192,109598,1,0,0:0:0:0:
329,192,109598,128,0,109656:0:0:0:0:
182,192,109656,1,0,0:0:0:0:
109,192,109656,1,0,0:0:0:0:
36,192,109656,128,0,109715:0:0:0:0:
329,192,109715,1,0,0:0:0:0:
475,192,109715,1,0,0:0:0:0:
402,192,109715,128,0,109774:0:0:0:0:
182,192,109774,1,0,0:0:0:0:
36,192,109774,1,0,0:0:0:0:
109,192,109774,128,0,109832:0:0:0:0:
329,192,109832,1,0,0:0:0:0:
402,192,109832,1,0,0:0:0:0:
475,192,109832,128,0,109891:0:0:0:0:
109,192,109891,1,0,0:0:0:0:
36,192,109891,1,0,0:0:0:0:
182,192,109891,128,0,109949:0:0:0:0:
329,192,109949,1,0,0:0:0:0:
475,192,109949,1,0,0:0:0:0:
402,192,109949,128,0,110008:0:0:0:0:
182,192,110008,1,0,0:0:0:0:
36,192,110008,1,0,0:0:0:0:
109,192,110008,128,0,110067:0:0:0:0:
402,192,110067,1,0,0:0:0:0:
475,192,110067,1,0,0:0:0:0:
329,192,110067,128,0,110125:0:0:0:0:
109,192,110125,1,0,0:0:0:0:
182,192,110125,1,0,0:0:0:0:
36,192,110125,128,0,110184:0:0:0:0:
475,192,110184,1,0,0:0:0:0:
329,192,110184,1,0,0:0:0:0:
402,192,110184,128,0,110242:0:0:0:0:
182,192,110242,1,0,0:0:0:0:
36,192,110242,1,0,0:0:0:0:
109,192,110242,128,0,110301:0:0:0:0:
402,192,110301,1,0,0:0:0:0:
329,192,110301,1,0,0:0:0:0:
475,192,110301,128,0,110360:0:0:0:0:
36,192,110360,1,0,0:0:0:0:
109,192,110360,1,0,0:0:0:0:
182,192,110360,128,0,110418:0:0:0:0:
475,192,110418,1,0,0:0:0:0:
329,192,110418,1,0,0:0:0:0:
402,192,110418,128,0,110477:0:0:0:0:
182,192,110477,1,0,0:0:0:0:
36,192,110477,1,0,0:0:0:0:
109,192,110477,128,0,110535:0:0:0:0:
402,192,110535,1,0,0:0:0:0:
475,192,110535,1,0,0:0:0:0:
329,192,110535,128,0,110594:0:0:0:0:
109,192,110594,1,0,0:0:0:0:
182,192,110594,1,0,0:0:0:0:
36,192,110594,128,0,110653:0:0:0:0:
329,192,110653,1,0,0:0:0:0:
475,192,110653,1,0,0:0:0:0:
402,192,110653,128,0,110711:0:0:0:0:
36,192,110711,1,0,0:0:0:0:
182,192,110711,1,0,0:0:0:0:
109,192,110711,128,0,110770:0:0:0:0:
402,192,110770,1,0,0:0:0:0:
329,192,110770,1,0,0:0:0:0:
475,192,110770,128,0,110828:0:0:0:0:
109,192,110828,1,0,0:0:0:0:
36,192,110828,1,0,0:0:0:0:
182,192,110828,128,0,110887:0:0:0:0:
475,192,110887,1,0,0:0:0:0:
329,192,110887,1,0,0:0:0:0:
402,192,110887,128,0,110946:0:0:0:0:
182,192,110946,1,0,0:0:0:0:
36,192,110946,1,0,0:0:0:0:
109,192,110946,128,0,111004:0:0:0:0:
475,192,111004,1,0,0:0:0:0:
402,192,111004,1,0,0:0:0:0:
329,192,111004,128,0,111063:0:0:0:0:
182,192,111063,1,0,0:0:0:0:
109,192,111063,1,0,0:0:0:0:
36,192,111063,128,0,111121:0:0:0:0:
329,192,111121,1,0,0:0:0:0:
475,192,111121,1,0,0:0:0:0:
402,192,111121,128,0,111180:0:0:0:0:
182,192,111180,1,0,0:0:0:0:
36,192,111180,1,0,0:0:0:0:
109,192,111180,1,0,0:0:0:0:
329,192,111239,1,0,0:0:0:0:
402,192,111239,1,0,0:0:0:0:
475,192,111239,1,0,0:0:0:0:
329,192,111707,1,0,0:0:0:0:
475,192,111707,1,0,0:0:0:0:
182,192,111824,1,0,0:0:0:0:
36,192,111824,1,0,0:0:0:0:
329,192,111942,1,0,0:0:0:0:
475,192,111942,1,0,0:0:0:0:
182,192,112059,1,0,0:0:0:0:
36,192,112059,128,0,112117:0:0:0:0:
109,192,112059,128,0,112117:0:0:0:0:
475,192,112117,1,0,0:0:0:0:
329,192,112117,128,0,112176:0:0:0:0:
402,192,112117,128,0,112176:0:0:0:0:
36,192,112176,1,0,0:0:0:0:
109,192,112176,128,0,112235:0:0:0:0:
182,192,112176,128,0,112235:0:0:0:0:
329,192,112235,1,0,0:0:0:0:
402,192,112235,128,0,112293:0:0:0:0:
475,192,112235,128,0,112293:0:0:0:0:
182,192,112293,1,0,0:0:0:0:
109,192,112293,128,0,112352:0:0:0:0:
36,192,112293,128,0,112352:0:0:0:0:
402,192,112352,128,0,112410:0:0:0:0:
475,192,112352,1,0,0:0:0:0:
329,192,112352,128,0,112410:0:0:0:0:
182,192,112410,128,0,112469:0:0:0:0:
36,192,112410,1,0,0:0:0:0:
109,192,112410,128,0,112469:0:0:0:0:
329,192,112469,1,0,0:0:0:0:
402,192,112469,128,0,112528:0:0:0:0:
475,192,112469,128,0,112528:0:0:0:0:
182,192,112528,1,0,0:0:0:0:
109,192,112528,128,0,112586:0:0:0:0:
36,192,112528,128,0,112586:0:0:0:0:
475,192,112586,1,0,0:0:0:0:
329,192,112586,128,0,112645:0:0:0:0:
402,192,112586,128,0,112645:0:0:0:0:
36,192,112645,1,0,0:0:0:0:
109,192,112645,128,0,112703:0:0:0:0:
182,192,112645,128,0,112703:0:0:0:0:
329,192,112703,1,0,0:0:0:0:
475,192,112703,128,0,112762:0:0:0:0:
402,192,112703,128,0,112762:0:0:0:0:
182,192,112762,1,0,0:0:0:0:
109,192,112762,128,0,112821:0:0:0:0:
36,192,112762,128,0,112821:0:0:0:0:
475,192,112821,1,0,0:0:0:0:
329,192,112821,128,0,112879:0:0:0:0:
402,192,112821,128,0,112879:0:0:0:0:
36,192,112879,1,0,0:0:0:0:
109,192,112879,128,0,112938:0:0:0:0:
182,192,112879,128,0,112938:0:0:0:0:
329,192,112938,1,0,0:0:0:0:
475,192,112938,128,0,112996:0:0:0:0:
402,192,112938,128,0,112996:0:0:0:0:
182,192,112996,1,0,0:0:0:0:
109,192,112996,128,0,113055:0:0:0:0:
36,192,112996,128,0,113055:0:0:0:0:
475,192,113055,1,0,0:0:0:0:
402,192,113055,128,0,113114:0:0:0:0:
329,192,113055,128,0,113114:0:0:0:0:
36,192,113114,1,0,0:0:0:0:
109,192,113114,128,0,113172:0:0:0:0:
182,192,113114,128,0,113172:0:0:0:0:
329,192,113172,1,0,0:0:0:0:
402,192,113172,128,0,113231:0:0:0:0:
475,192,113172,128,0,113231:0:0:0:0:
182,192,113231,1,0,0:0:0:0:
109,192,113231,128,0,113289:0:0:0:0:
36,192,113231,128,0,113289:0:0:0:0:
475,192,113289,1,0,0:0:0:0:
402,192,113289,128,0,113348:0:0:0:0:
329,192,113289,128,0,113348:0:0:0:0:
36,192,113348,1,0,0:0:0:0:
182,192,113348,128,0,113406:0:0:0:0:
109,192,113348,128,0,113406:0:0:0:0:
329,192,113406,1,0,0:0:0:0:
402,192,113406,128,0,113465:0:0:0:0:
475,192,113406,128,0,113465:0:0:0:0:
182,192,113465,1,0,0:0:0:0:
109,192,113465,128,0,113524:0:0:0:0:
36,192,113465,128,0,113524:0:0:0:0:
475,192,113524,1,0,0:0:0:0:
402,192,113524,128,0,113582:0:0:0:0:
329,192,113524,128,0,113582:0:0:0:0:
36,192,113582,1,0,0:0:0:0:
109,192,113582,128,0,113641:0:0:0:0:
182,192,113582,128,0,113641:0:0:0:0:
329,192,113641,1,0,0:0:0:0:
402,192,113641,128,0,113699:0:0:0:0:
475,192,113641,128,0,113699:0:0:0:0:
182,192,113699,1,0,0:0:0:0:
109,192,113699,128,0,113758:0:0:0:0:
36,192,113699,128,0,113758:0:0:0:0:
475,192,113758,1,0,0:0:0:0:
329,192,113758,128,0,113817:0:0:0:0:
402,192,113758,128,0,113817:0:0:0:0:
36,192,113817,1,0,0:0:0:0:
109,192,113817,128,0,113875:0:0:0:0:
182,192,113817,128,0,113875:0:0:0:0:
329,192,113875,1,0,0:0:0:0:
475,192,113875,128,0,113934:0:0:0:0:
402,192,113875,128,0,113934:0:0:0:0:
182,192,113934,1,0,0:0:0:0:
109,192,113934,128,0,113992:0:0:0:0:
36,192,113934,128,0,113992:0:0:0:0:
475,192,113992,1,0,0:0:0:0:
402,192,113992,128,0,114051:0:0:0:0:
329,192,113992,128,0,114051:0:0:0:0:
36,192,114051,1,0,0:0:0:0:
109,192,114051,128,0,114110:0:0:0:0:
182,192,114051,128,0,114110:0:0:0:0:
329,192,114110,1,0,0:0:0:0:
402,192,114110,128,0,114168:0:0:0:0:
475,192,114110,128,0,114168:0:0:0:0:
182,192,114168,1,0,0:0:0:0:
109,192,114168,128,0,114227:0:0:0:0:
36,192,114168,128,0,114227:0:0:0:0:
475,192,114227,1,0,0:0:0:0:
402,192,114227,128,0,114285:0:0:0:0:
329,192,114227,128,0,114285:0:0:0:0:
36,192,114285,1,0,0:0:0:0:
182,192,114285,128,0,114344:0:0:0:0:
109,192,114285,128,0,114344:0:0:0:0:
329,192,114344,1,0,0:0:0:0:
402,192,114344,128,0,114403:0:0:0:0:
475,192,114344,128,0,114403:0:0:0:0:
182,192,114403,1,0,0:0:0:0:
109,192,114403,128,0,114461:0:0:0:0:
36,192,114403,128,0,114461:0:0:0:0:
475,192,114461,1,0,0:0:0:0:
329,192,114461,128,0,114520:0:0:0:0:
402,192,114461,128,0,114520:0:0:0:0:
36,192,114520,1,0,0:0:0:0:
109,192,114520,128,0,114578:0:0:0:0:
182,192,114520,128,0,114578:0:0:0:0:
329,192,114578,1,0,0:0:0:0:
475,192,114578,128,0,114637:0:0:0:0:
402,192,114578,128,0,114637:0:0:0:0:
182,192,114637,1,0,0:0:0:0:
109,192,114637,128,0,114696:0:0:0:0:
36,192,114637,128,0,114696:0:0:0:0:
475,192,114696,1,0,0:0:0:0:
329,192,114696,128,0,114754:0:0:0:0:
402,192,114696,128,0,114754:0:0:0:0:
36,192,114754,1,0,0:0:0:0:
182,192,114754,128,0,114813:0:0:0:0:
109,192,114754,128,0,114813:0:0:0:0:
329,192,114813,1,0,0:0:0:0:
475,192,114813,128,0,114871:0:0:0:0:
402,192,114813,128,0,114871:0:0:0:0:
182,192,114871,1,0,0:0:0:0:
109,192,114871,128,0,114930:0:0:0:0:
36,192,114871,128,0,114930:0:0:0:0:
475,192,114930,1,0,0:0:0:0:
402,192,114930,128,0,114989:0:0:0:0:
329,192,114930,128,0,114989:0:0:0:0:
109,192,114989,1,0,0:0:0:0:
36,192,114989,1,0,0:0:0:0:
182,192,114989,128,0,115028:0:0:0:0:
402,192,115028,1,0,0:0:0:0:
475,192,115028,128,0,115067:0:0:0:0:
329,192,115028,1,0,0:0:0:0:
36,192,115067,1,0,0:0:0:0:
182,192,115067,1,0,0:0:0:0:
109,192,115067,128,0,115106:0:0:0:0:
329,192,115106,1,0,0:0:0:0:
475,192,115106,1,0,0:0:0:0:
402,192,115106,128,0,115145:0:0:0:0:
109,192,115145,1,0,0:0:0:0:
182,192,115145,1,0,0:0:0:0:
36,192,115145,128,0,115184:0:0:0:0:
402,192,115184,1,0,0:0:0:0:
329,192,115184,128,0,115223:0:0:0:0:
475,192,115184,1,0,0:0:0:0:
36,192,115223,1,0,0:0:0:0:
182,192,115223,1,0,0:0:0:0:
109,192,115223,128,0,115262:0:0:0:0:
329,192,115262,1,0,0:0:0:0:
475,192,115262,1,0,0:0:0:0:
402,192,115262,128,0,115301:0:0:0:0:
109,192,115301,1,0,0:0:0:0:
182,192,115301,128,0,115340:0:0:0:0:
36,192,115301,1,0,0:0:0:0:
402,192,115340,1,0,0:0:0:0:
475,192,115340,128,0,115379:0:0:0:0:
329,192,115340,1,0,0:0:0:0:
182,192,115379,1,0,0:0:0:0:
36,192,115379,1,0,0:0:0:0:
109,192,115379,128,0,115418:0:0:0:0:
475,192,115418,1,0,0:0:0:0:
329,192,115418,1,0,0:0:0:0:
402,192,115418,128,0,115457:0:0:0:0:
109,192,115457,1,0,0:0:0:0:
36,192,115457,128,0,115496:0:0:0:0:
182,192,115457,1,0,0:0:0:0:
402,192,115496,1,0,0:0:0:0:
329,192,115496,128,0,115535:0:0:0:0:
475,192,115496,1,0,0:0:0:0:
36,192,115535,1,0,0:0:0:0:
182,192,115535,1,0,0:0:0:0:
109,192,115535,128,0,115574:0:0:0:0:
329,192,115574,1,0,0:0:0:0:
475,192,115574,1,0,0:0:0:0:
402,192,115574,128,0,115614:0:0:0:0:
109,192,115614,1,0,0:0:0:0:
182,192,115614,128,0,115653:0:0:0:0:
36,192,115614,1,0,0:0:0:0:
402,192,115653,1,0,0:0:0:0:
475,192,115653,128,0,115692:0:0:0:0:
329,192,115653,1,0,0:0:0:0:
182,192,115692,1,0,0:0:0:0:
36,192,115692,1,0,0:0:0:0:
109,192,115692,128,0,115731:0:0:0:0:
329,192,115731,1,0,0:0:0:0:
475,192,115731,1,0,0:0:0:0:
402,192,115731,128,0,115770:0:0:0:0:
109,192,115770,1,0,0:0:0:0:
36,192,115770,128,0,115809:0:0:0:0:
182,192,115770,1,0,0:0:0:0:
402,192,115809,1,0,0:0:0:0:
329,192,115809,128,0,115848:0:0:0:0:
475,192,115809,1,0,0:0:0:0:
182,192,115848,1,0,0:0:0:0:
36,192,115848,1,0,0:0:0:0:
109,192,115848,128,0,115887:0:0:0:0:
329,192,115887,1,0,0:0:0:0:
475,192,115887,1,0,0:0:0:0:
402,192,115887,1,0,0:0:0:0:
182,192,115926,1,0,0:0:0:0:
109,192,115926,1,0,0:0:0:0:
36,192,115926,1,0,0:0:0:0:
256,192,116278,1,0,0:0:0:0:
329,192,116278,1,0,0:0:0:0:
402,192,116278,1,0,0:0:0:0:
475,192,116278,1,0,0:0:0:0:
182,192,116278,1,0,0:0:0:0:
109,192,116278,1,0,0:0:0:0:
36,192,116278,1,0,0:0:0:0:
329,192,116864,1,0,0:0:0:0:
475,192,116864,1,0,0:0:0:0:
182,192,116981,1,0,0:0:0:0:
256,192,117098,1,0,0:0:0:0:
402,192,117098,1,0,0:0:0:0:
109,192,117215,1,0,0:0:0:0:
182,192,117332,1,0,0:0:0:0:
329,192,117332,1,0,0:0:0:0:
36,192,117449,1,0,0:0:0:0:
256,192,117567,1,0,0:0:0:0:
475,192,117684,1,0,0:0:0:0:
109,192,117801,1,0,0:0:0:0:
256,192,117801,1,0,0:0:0:0:
402,192,117801,1,0,0:0:0:0:
36,192,118153,1,0,0:0:0:0:
182,192,118153,1,0,0:0:0:0:
256,192,118153,1,0,0:0:0:0:
329,192,118153,1,0,0:0:0:0:
402,192,118153,1,0,0:0:0:0:
475,192,118153,1,0,0:0:0:0:
109,192,118153,1,0,0:0:0:0:
402,192,118739,1,0,0:0:0:0:
182,192,118739,1,0,0:0:0:0:
475,192,118856,1,0,0:0:0:0:
109,192,118973,1,0,0:0:0:0:
329,192,118973,1,0,0:0:0:0:
402,192,119090,1,0,0:0:0:0:
256,192,119207,1,0,0:0:0:0:
182,192,119207,1,0,0:0:0:0:
329,192,119324,1,0,0:0:0:0:
182,192,119442,1,0,0:0:0:0:
109,192,119442,1,0,0:0:0:0:
256,192,119559,1,0,0:0:0:0:
109,192,119676,1,0,0:0:0:0:
182,192,119676,1,0,0:0:0:0:
329,192,119676,1,0,0:0:0:0:
402,192,119676,1,0,0:0:0:0:
36,192,120028,1,0,0:0:0:0:
109,192,120028,1,0,0:0:0:0:
182,192,120028,1,0,0:0:0:0:
256,192,120028,1,0,0:0:0:0:
329,192,120028,1,0,0:0:0:0:
402,192,120028,1,0,0:0:0:0:
475,192,120028,1,0,0:0:0:0:
36,192,120614,1,0,0:0:0:0:
329,192,120614,1,0,0:0:0:0:
475,192,120614,1,0,0:0:0:0:
256,192,120731,1,0,0:0:0:0:
402,192,120848,1,0,0:0:0:0:
109,192,120848,1,0,0:0:0:0:
182,192,120965,1,0,0:0:0:0:
329,192,121082,1,0,0:0:0:0:
256,192,121082,1,0,0:0:0:0:
109,192,121199,1,0,0:0:0:0:
36,192,121199,1,0,0:0:0:0:
402,192,121317,1,0,0:0:0:0:
329,192,121317,1,0,0:0:0:0:
109,192,121434,1,0,0:0:0:0:
182,192,121434,1,0,0:0:0:0:
36,192,121551,1,0,0:0:0:0:
256,192,121551,1,0,0:0:0:0:
475,192,121551,1,0,0:0:0:0:
36,192,121903,1,0,0:0:0:0:
109,192,121903,1,0,0:0:0:0:
182,192,121903,1,0,0:0:0:0:
256,192,121903,1,0,0:0:0:0:
329,192,121903,1,0,0:0:0:0:
402,192,121903,1,0,0:0:0:0:
475,192,121903,1,0,0:0:0:0:
36,192,122489,1,0,0:0:0:0:
182,192,122489,1,0,0:0:0:0:
329,192,122489,1,0,0:0:0:0:
475,192,122489,1,0,0:0:0:0:
182,192,122723,1,0,0:0:0:0:
36,192,122723,1,0,0:0:0:0:
329,192,122723,1,0,0:0:0:0:
475,192,122723,1,0,0:0:0:0:
109,192,122957,128,0,123192:0:0:0:0:
256,192,122957,128,0,123192:0:0:0:0:
402,192,122957,128,0,123192:0:0:0:0:
36,192,123192,1,0,0:0:0:0:
182,192,123192,1,0,0:0:0:0:
329,192,123192,1,0,0:0:0:0:
475,192,123192,1,0,0:0:0:0:
256,192,123426,1,0,0:0:0:0:
256,192,123485,1,0,0:0:0:0:
256,192,123543,1,0,0:0:0:0:
256,192,123602,1,0,0:0:0:0:
256,192,123660,1,0,0:0:0:0:
256,192,123719,1,0,0:0:0:0:
256,192,123778,1,0,0:0:0:0:
256,192,123836,1,0,0:0:0:0:
256,192,123895,1,0,0:0:0:0:
256,192,123953,1,0,0:0:0:0:
256,192,124012,1,0,0:0:0:0:
256,192,124071,1,0,0:0:0:0:
256,192,124129,1,0,0:0:0:0:
256,192,124188,1,0,0:0:0:0:
256,192,124246,1,0,0:0:0:0:
256,192,124305,1,0,0:0:0:0:
256,192,124364,1,0,0:0:0:0:
256,192,124422,1,0,0:0:0:0:
256,192,124481,1,0,0:0:0:0:
256,192,124539,1,0,0:0:0:0:
256,192,124598,1,0,0:0:0:0:
256,192,124656,1,0,0:0:0:0:
256,192,124715,1,0,0:0:0:0:
256,192,124774,1,0,0:0:0:0:
256,192,124832,1,0,0:0:0:0:
256,192,124891,1,0,0:0:0:0:
256,192,124949,1,0,0:0:0:0:
256,192,125008,1,0,0:0:0:0:
256,192,125067,1,0,0:0:0:0:
256,192,125125,1,0,0:0:0:0:
256,192,125184,1,0,0:0:0:0:
256,192,125242,1,0,0:0:0:0:
256,192,125301,1,0,0:0:0:0:
256,192,125594,1,0,0:0:0:0:
256,192,125828,1,0,0:0:0:0:
256,192,126063,1,0,0:0:0:0:
256,192,126297,1,0,0:0:0:0:
