osu file format v14

[General]
AudioFilename: Dynasty (INF).mp3
AudioLeadIn: 0
PreviewTime: 67400
Countdown: 0
SampleSet: Soft
StackLeniency: 0.7
Mode: 3
LetterboxInBreaks: 0
SpecialStyle: 0
WidescreenStoryboard: 0

[Editor]
DistanceSpacing: 0.8
BeatDivisor: 4
GridSize: 8
TimelineZoom: 2.6

[Metadata]
Title:__M A S__ Vol. 1
TitleUnicode:__M A S__ Vol. 1
Artist:Various
ArtistUnicode:Various
Creator:[ C r a c k ]
Version:Yooh - Dynasty [INF Version] - 7K INF
Source:
Tags:
BeatmapID:1144432
BeatmapSetID:539584

[Difficulty]
HPDrainRate:7
CircleSize:7
OverallDifficulty:5
ApproachRate:5
SliderMultiplier:1.4
SliderTickRate:1

[Events]
//Background and Video events
0,0,"IMG.png",0,0
//Break Periods
//Storyboard Layer 0 (Background)
//Storyboard Layer 1 (Fail)
//Storyboard Layer 2 (Pass)
//Storyboard Layer 3 (Foreground)
//Storyboard Sound Samples

[TimingPoints]
440,317.460317460317,4,2,0,20,1,0
8059,-50,4,2,0,20,0,0
8376,-1000,4,2,0,20,0,0
8535,-50,4,2,0,20,0,0
8852,-1000,4,2,0,20,0,0
9011,-50,4,2,0,20,0,0
9328,-1000,4,2,0,20,0,0
9487,-100,4,2,0,20,0,0
15678,-66.6666666666667,4,2,0,20,0,0
15757,-133.333333333333,4,2,0,20,0,0
15836,-100,4,2,0,20,0,0
16154,-66.6666666666667,4,2,0,20,0,0
16233,-133.333333333333,4,2,0,20,0,0
16313,-100,4,2,0,20,0,0
16630,-66.6666666666667,4,2,0,20,0,0
16709,-133.333333333333,4,2,0,20,0,0
16789,-100,4,2,0,20,0,0
17106,-66.6666666666667,4,2,0,20,0,0
17186,-133.333333333333,4,2,0,20,0,0
17265,-100,4,2,0,20,0,0
19486,6.000600060006,4,2,0,20,1,0
19487,999999999,4,2,0,20,1,0
19962,6.000600060006,4,2,0,20,1,0
19963,999999999,4,2,0,20,1,0
20438,6.000600060006,4,2,0,20,1,0
20439,999999999,4,2,0,20,1,0
20914,6.000600060006,4,2,0,20,1,0
20915,999999999,4,2,0,20,1,0
21391,317.460317460317,4,2,0,20,1,0
29089,-333.333333333333,4,2,0,20,0,0
29208,-66.6666666666667,4,2,0,20,0,0
29327,-100,4,2,0,20,0,0
29406,-333.333333333333,4,2,0,20,0,0
29525,-66.6666666666667,4,2,0,20,0,0
29644,-100,4,2,0,20,0,0
29724,-333.333333333333,4,2,0,20,0,0
29843,-66.6666666666667,4,2,0,20,0,0
29962,-100,4,2,0,20,0,0
30994,-333.333333333333,4,2,0,20,0,0
31113,-66.6666666666667,4,2,0,20,0,0
31232,-100,4,2,0,20,0,0
31311,-333.333333333333,4,2,0,20,0,0
31430,-66.6666666666667,4,2,0,20,0,0
31549,-100,4,2,0,20,0,0
31629,-333.333333333333,4,2,0,20,0,0
31748,-66.6666666666667,4,2,0,20,0,0
31867,-100,4,2,0,20,0,0
37581,-66.6666666666667,4,2,0,20,0,0
37660,-133.333333333333,4,2,0,20,0,0
37740,-100,4,2,0,20,0,0
37898,-66.6666666666667,4,2,0,20,0,0
37978,-133.333333333333,4,2,0,20,0,0
38057,-100,4,2,0,20,0,0
38216,-66.6666666666667,4,2,0,20,0,0
38295,-133.333333333333,4,2,0,20,0,0
38375,-100,4,2,0,20,0,0
39486,-66.6666666666667,4,2,0,20,0,0
39565,-133.333333333333,4,2,0,20,0,0
39644,-100,4,2,0,20,0,0
39803,-66.6666666666667,4,2,0,20,0,0
39883,-133.333333333333,4,2,0,20,0,0
39962,-100,4,2,0,20,0,0
40121,-66.6666666666667,4,2,0,20,0,0
40200,-133.333333333333,4,2,0,20,0,0
40279,-100,4,2,0,20,0,0
41390,-66.6666666666667,4,2,0,20,0,0
41470,-133.333333333333,4,2,0,20,0,0
41549,-100,4,2,0,20,0,0
41708,-66.6666666666667,4,2,0,20,0,0
41787,-133.333333333333,4,2,0,20,0,0
41867,-100,4,2,0,20,0,0
42025,-66.6666666666667,4,2,0,20,0,0
42105,-133.333333333333,4,2,0,20,0,0
42184,-100,4,2,0,20,0,0
43295,-66.6666666666667,4,2,0,20,0,0
43375,-133.333333333333,4,2,0,20,0,0
43454,-100,4,2,0,20,0,0
43613,-66.6666666666667,4,2,0,20,0,0
43692,-133.333333333333,4,2,0,20,0,0
43771,-100,4,2,0,20,0,0
43930,-66.6666666666667,4,2,0,20,0,0
44010,-133.333333333333,4,2,0,20,0,0
44089,-100,4,2,0,20,0,0
44248,-50,4,2,0,20,0,0
44287,-200,4,2,0,20,0,0
44644,-100,4,2,0,20,0,0
46152,-50,4,2,0,20,0,0
46192,-200,4,2,0,20,0,0
46549,-100,4,2,0,20,0,0
49962,-10,4,2,0,20,0,0
50041,-1000,4,2,0,20,0,0
50438,-100,4,2,0,20,0,0
52819,-333.333333333333,4,2,0,20,0,0
52898,-66.6666666666667,4,2,0,20,0,0
52978,-333.333333333333,4,2,0,20,0,0
53057,-66.6666666666667,4,2,0,20,0,0
53137,-333.333333333333,4,2,0,20,0,0
53216,-66.6666666666667,4,2,0,20,0,0
53295,-333.333333333333,4,2,0,20,0,0
53375,-66.6666666666667,4,2,0,20,0,0
53454,-333.333333333333,4,2,0,20,0,0
53533,-66.6666666666667,4,2,0,20,0,0
53613,-333.333333333333,4,2,0,20,0,0
53692,-66.6666666666667,4,2,0,20,0,0
53771,-100,4,2,0,20,0,0
54724,-333.333333333333,4,2,0,20,0,0
54803,-66.6666666666667,4,2,0,20,0,0
54883,-333.333333333333,4,2,0,20,0,0
54962,-66.6666666666667,4,2,0,20,0,0
55041,-333.333333333333,4,2,0,20,0,0
55121,-66.6666666666667,4,2,0,20,0,0
55200,-333.333333333333,4,2,0,20,0,0
55279,-66.6666666666667,4,2,0,20,0,0
55359,-333.333333333333,4,2,0,20,0,0
55438,-66.6666666666667,4,2,0,20,0,0
55517,-333.333333333333,4,2,0,20,0,0
55597,-66.6666666666667,4,2,0,20,0,0
55676,-100,4,2,0,20,0,0
56629,-333.333333333333,4,2,0,20,0,0
56708,-66.6666666666667,4,2,0,20,0,0
56787,-333.333333333333,4,2,0,20,0,0
56867,-66.6666666666667,4,2,0,20,0,0
56946,-333.333333333333,4,2,0,20,0,0
57025,-66.6666666666667,4,2,0,20,0,0
57105,-333.333333333333,4,2,0,20,0,0
57184,-66.6666666666667,4,2,0,20,0,0
57264,-333.333333333333,4,2,0,20,0,0
57343,-66.6666666666667,4,2,0,20,0,0
57422,-333.333333333333,4,2,0,20,0,0
57502,-66.6666666666667,4,2,0,20,0,0
57581,-100,4,2,0,20,0,0
63930,-66.6666666666667,4,2,0,20,0,0
64089,-1000,4,2,0,20,0,0
64248,-50,4,2,0,20,0,0
64406,-1000,4,2,0,20,0,0
64565,-50,4,2,0,20,0,0
64724,-1000,4,2,0,20,0,0
64883,-50,4,2,0,20,0,0
65041,-1000,4,2,0,20,0,0
65200,-100,4,2,0,20,0,0
66152,-50,4,2,0,20,0,0
66311,-1000,4,2,0,20,0,0
66470,-50,4,2,0,20,0,0
66629,-1000,4,2,0,20,0,0
66787,-33.3333333333333,4,2,0,20,0,0
66946,-66.6666666666667,4,2,0,20,0,0
67105,-90.9090909090909,4,2,0,20,0,0
67264,-111.111111111111,4,2,0,20,0,0
67343,-125,4,2,0,20,0,0
67422,-100,4,2,0,20,0,0
68057,-66.6666666666667,4,2,0,20,0,0
68097,-1000,4,2,0,20,0,0
68137,-66.6666666666667,4,2,0,20,0,0
68176,-1000,4,2,0,20,0,0
68216,-66.6666666666667,4,2,0,20,0,0
68256,-1000,4,2,0,20,0,0
68295,-66.6666666666667,4,2,0,20,0,0
68335,-1000,4,2,0,20,0,0
68375,-100,4,2,0,20,0,0
69962,-66.6666666666667,4,2,0,20,0,0
70002,-1000,4,2,0,20,0,0
70041,-66.6666666666667,4,2,0,20,0,0
70081,-1000,4,2,0,20,0,0
70121,-66.6666666666667,4,2,0,20,0,0
70160,-1000,4,2,0,20,0,0
70200,-66.6666666666667,4,2,0,20,0,0
70240,-1000,4,2,0,20,0,0
70279,-100,4,2,0,20,0,0
73613,-333.333333333333,4,2,0,20,0,0
73692,-66.6666666666667,4,2,0,20,0,0
73771,-100,4,2,0,20,0,0
73930,-333.333333333333,4,2,0,20,0,0
74010,-66.6666666666667,4,2,0,20,0,0
74089,-100,4,2,0,20,0,0
74248,-333.333333333333,4,2,0,20,0,0
74327,-66.6666666666667,4,2,0,20,0,0
74406,-50,4,2,0,20,0,0
74565,-1000,4,2,0,20,0,0
74724,-50,4,2,0,20,0,0
74883,-1000,4,2,0,20,0,0
75041,-50,4,2,0,20,0,0
75200,-1000,4,2,0,20,0,0
75359,-100,4,2,0,20,0,0
75676,-66.6666666666667,4,2,0,20,0,0
75716,-1000,4,2,0,20,0,0
75756,-66.6666666666667,4,2,0,20,0,0
75795,-1000,4,2,0,20,0,0
75835,-66.6666666666667,4,2,0,20,0,0
75875,-1000,4,2,0,20,0,0
75914,-66.6666666666667,4,2,0,20,0,0
75954,-1000,4,2,0,20,0,0
75994,-100,4,2,0,20,0,0
77581,-66.6666666666667,4,2,0,20,0,0
77621,-1000,4,2,0,20,0,0
77660,-66.6666666666667,4,2,0,20,0,0
77700,-1000,4,2,0,20,0,0
77740,-66.6666666666667,4,2,0,20,0,0
77779,-1000,4,2,0,20,0,0
77819,-66.6666666666667,4,2,0,20,0,0
77859,-1000,4,2,0,20,0,0
77898,-100,4,2,0,20,0,0
78216,-333.333333333333,4,2,0,20,0,0
78295,-66.6666666666667,4,2,0,20,0,0
78375,-333.333333333333,4,2,0,20,0,0
78454,-66.6666666666667,4,2,0,20,0,0
78533,-333.333333333333,4,2,0,20,0,0
78613,-66.6666666666667,4,2,0,20,0,0
78692,-333.333333333333,4,2,0,20,0,0
78771,-66.6666666666667,4,2,0,20,0,0
78851,-333.333333333333,4,2,0,20,0,0
78930,-66.6666666666667,4,2,0,20,0,0
79010,-333.333333333333,4,2,0,20,0,0
79089,-66.6666666666667,4,2,0,20,0,0
79168,-100,4,2,0,20,0,0
81073,-66.6666666666667,4,2,0,20,0,0
81113,-1000,4,2,0,20,0,0
81152,-66.6666666666667,4,2,0,20,0,0
81192,-1000,4,2,0,20,0,0
81232,-66.6666666666667,4,2,0,20,0,0
81271,-1000,4,2,0,20,0,0
81311,-66.6666666666667,4,2,0,20,0,0
81351,-1000,4,2,0,20,0,0
81390,-100,4,2,0,20,0,0
82025,-333.333333333333,4,2,0,20,0,0
82105,-66.6666666666667,4,2,0,20,0,0
82184,-100,4,2,0,20,0,0
82343,-333.333333333333,4,2,0,20,0,0
82422,-66.6666666666667,4,2,0,20,0,0
82502,-100,4,2,0,20,0,0
82660,-333.333333333333,4,2,0,20,0,0
82740,-66.6666666666667,4,2,0,20,0,0
82819,-100,4,2,0,20,0,0
83930,-333.333333333333,4,2,0,20,0,0
83983,-66.6666666666667,4,2,0,20,0,0
84036,-333.333333333333,4,2,0,20,0,0
84089,-66.6666666666667,4,2,0,20,0,0
84142,-333.333333333333,4,2,0,20,0,0
84195,-66.6666666666667,4,2,0,20,0,0
84248,-333.333333333333,4,2,0,20,0,0
84301,-66.6666666666667,4,2,0,20,0,0
84353,-333.333333333333,4,2,0,20,0,0
84406,-66.6666666666667,4,2,0,20,0,0
84459,-333.333333333333,4,2,0,20,0,0
84512,-66.6666666666667,4,2,0,20,0,0
84565,-100,4,2,0,20,0,0
85835,-333.333333333333,4,2,0,20,0,0
85888,-66.6666666666667,4,2,0,20,0,0
85941,-333.333333333333,4,2,0,20,0,0
85994,-66.6666666666667,4,2,0,20,0,0
86047,-333.333333333333,4,2,0,20,0,0
86099,-66.6666666666667,4,2,0,20,0,0
86152,-333.333333333333,4,2,0,20,0,0
86205,-66.6666666666667,4,2,0,20,0,0
86258,-333.333333333333,4,2,0,20,0,0
86311,-66.6666666666667,4,2,0,20,0,0
86364,-333.333333333333,4,2,0,20,0,0
86417,-66.6666666666667,4,2,0,20,0,0
86470,-100,4,2,0,20,0,0
91549,-333.333333333333,4,2,0,20,0,0
91629,-66.6666666666667,4,2,0,20,0,0
91708,-100,4,2,0,20,0,0
91867,-333.333333333333,4,2,0,20,0,0
91946,-66.6666666666667,4,2,0,20,0,0
92025,-100,4,2,0,20,0,0
92184,-333.333333333333,4,2,0,20,0,0
92264,-66.6666666666667,4,2,0,20,0,0
92343,-100,4,2,0,20,0,0
94406,-66.6666666666667,4,2,0,20,0,0
94486,-133.333333333333,4,2,0,20,0,0
94565,-100,4,2,0,20,0,0
95041,-66.6666666666667,4,2,0,20,0,0
95121,-133.333333333333,4,2,0,20,0,0
95200,-66.6666666666667,4,2,0,20,0,0
95279,-133.333333333333,4,2,0,20,0,0
95359,-333.333333333333,4,2,0,20,0,0
95438,-66.6666666666667,4,2,0,20,0,0
95517,-100,4,2,0,20,0,0
95676,-333.333333333333,4,2,0,20,0,0
95756,-66.6666666666667,4,2,0,20,0,0
95835,-100,4,2,0,20,0,0
95994,-333.333333333333,4,2,0,20,0,0
96073,-66.6666666666667,4,2,0,20,0,0
96152,-100,4,2,0,20,0,0
96311,-50,4,2,0,20,0,0
96629,-100,4,2,0,20,0,0
96708,-1000,4,2,0,20,0,0
96787,-100,4,2,0,20,0,0
97264,-50,4,2,0,20,0,0
97422,-1000,4,2,0,20,0,0
97581,-50,4,2,0,20,0,0
97740,-1000,4,2,0,20,0,0
97898,-50,4,2,0,20,0,0
98057,-1000,4,2,0,20,0,0
98216,-50,4,2,0,20,0,0
98375,-1000,4,2,0,20,0,0
98533,-50,4,2,0,20,0,0
98692,-1000,4,2,0,20,0,0
98851,-50,4,2,0,20,0,0
99010,-1000,4,2,0,20,0,0
99168,-50,4,2,0,20,0,0
99327,-1000,4,2,0,20,0,0
99486,-50,4,2,0,20,0,0
99644,-1000,4,2,0,20,0,0
99803,-50,4,2,0,20,0,0
99962,-1000,4,2,0,20,0,0
100121,-333.333333333333,4,2,0,20,0,0
100279,-66.6666666666667,4,2,0,20,0,0
100438,-100,4,2,0,20,0,0
101073,-333.333333333333,4,2,0,20,0,0
101232,-66.6666666666667,4,2,0,20,0,0
101390,-100,4,2,0,20,0,0
102343,-333.333333333333,4,2,0,20,0,0
102422,-66.6666666666667,4,2,0,20,0,0
102502,-333.333333333333,4,2,0,20,0,0
102581,-66.6666666666667,4,2,0,20,0,0
102660,-100,4,2,0,20,0,0
102978,-333.333333333333,4,2,0,20,0,0
103057,-66.6666666666667,4,2,0,20,0,0
103137,-100,4,2,0,20,0,0
103930,-333.333333333333,4,2,0,20,0,0
104010,-66.6666666666667,4,2,0,20,0,0
104089,-100,4,2,0,20,0,0
104883,-333.333333333333,4,2,0,20,0,0
105041,-66.6666666666667,4,2,0,20,0,0
105200,-100,4,2,0,20,0,0
106787,-333.333333333333,4,2,0,20,0,0
106867,-66.6666666666667,4,2,0,20,0,0
106946,-333.333333333333,4,2,0,20,0,0
107025,-66.6666666666667,4,2,0,20,0,0
107105,-100,4,2,0,20,0,0
108692,-66.6666666666667,4,2,0,20,0,0
108732,-1000,4,2,0,20,0,0
108771,-66.6666666666667,4,2,0,20,0,0
108811,-1000,4,2,0,20,0,0
108851,-66.6666666666667,4,2,0,20,0,0
108890,-1000,4,2,0,20,0,0
108930,-66.6666666666667,4,2,0,20,0,0
108970,-1000,4,2,0,20,0,0
109010,-66.6666666666667,4,2,0,20,0,0
109049,-1000,4,2,0,20,0,0
109089,-66.6666666666667,4,2,0,20,0,0
109129,-1000,4,2,0,20,0,0
109168,-333.333333333333,4,2,0,20,0,0
109248,-66.6666666666667,4,2,0,20,0,0
109327,-333.333333333333,4,2,0,20,0,0
109406,-66.6666666666667,4,2,0,20,0,0
109486,-333.333333333333,4,2,0,20,0,0
109565,-66.6666666666667,4,2,0,20,0,0
109644,-100,4,2,0,20,0,0
110279,-66.6666666666667,4,2,0,20,0,0
110319,-1000,4,2,0,20,0,0
110359,-66.6666666666667,4,2,0,20,0,0
110398,-1000,4,2,0,20,0,0
110438,-66.6666666666667,4,2,0,20,0,0
110517,-1000,4,2,0,20,0,0
110597,-100,4,2,0,20,0,0

[HitObjects]
36,192,122,5,0,0:0:0:0:
182,192,201,1,0,0:0:0:0:
329,192,281,1,0,0:0:0:0:
475,192,360,1,0,0:0:0:0:
109,192,440,1,0,0:0:0:0:
256,192,440,1,0,0:0:0:0:
402,192,440,1,0,0:0:0:0:
329,192,598,1,0,0:0:0:0:
182,192,757,1,0,0:0:0:0:
109,192,916,1,0,0:0:0:0:
36,192,916,1,0,0:0:0:0:
402,192,916,1,0,0:0:0:0:
182,192,1074,1,0,0:0:0:0:
329,192,1233,1,0,0:0:0:0:
402,192,1392,1,0,0:0:0:0:
475,192,1392,1,0,0:0:0:0:
36,192,1392,1,0,0:0:0:0:
329,192,1551,1,0,0:0:0:0:
182,192,1709,1,0,0:0:0:0:
36,192,1868,1,0,0:0:0:0:
109,192,1868,1,0,0:0:0:0:
402,192,1868,1,0,0:0:0:0:
256,192,2027,1,0,0:0:0:0:
475,192,2186,1,0,0:0:0:0:
36,192,2344,1,0,0:0:0:0:
109,192,2344,1,0,0:0:0:0:
329,192,2344,1,0,0:0:0:0:
402,192,2344,1,0,0:0:0:0:
256,192,2503,1,0,0:0:0:0:
109,192,2662,1,0,0:0:0:0:
182,192,2662,1,0,0:0:0:0:
402,192,2662,1,0,0:0:0:0:
475,192,2662,1,0,0:0:0:0:
256,192,2820,1,0,0:0:0:0:
182,192,2979,1,0,0:0:0:0:
402,192,2979,1,0,0:0:0:0:
329,192,2979,1,0,0:0:0:0:
109,192,3138,1,0,0:0:0:0:
36,192,3297,1,0,0:0:0:0:
182,192,3455,1,0,0:0:0:0:
329,192,3455,1,0,0:0:0:0:
475,192,3455,1,0,0:0:0:0:
109,192,3614,1,0,0:0:0:0:
256,192,3773,1,0,0:0:0:0:
402,192,3932,1,0,0:0:0:0:
475,192,3932,1,0,0:0:0:0:
182,192,3932,1,0,0:0:0:0:
329,192,4090,1,0,0:0:0:0:
256,192,4249,1,0,0:0:0:0:
182,192,4408,1,0,0:0:0:0:
475,192,4408,1,0,0:0:0:0:
36,192,4408,1,0,0:0:0:0:
402,192,4566,1,0,0:0:0:0:
329,192,4725,1,0,0:0:0:0:
109,192,4884,1,0,0:0:0:0:
475,192,4884,1,0,0:0:0:0:
402,192,4884,1,0,0:0:0:0:
182,192,4884,1,0,0:0:0:0:
256,192,5043,1,0,0:0:0:0:
109,192,5201,1,0,0:0:0:0:
36,192,5201,1,0,0:0:0:0:
402,192,5201,1,0,0:0:0:0:
329,192,5201,1,0,0:0:0:0:
256,192,5360,1,0,0:0:0:0:
109,192,5519,1,0,0:0:0:0:
182,192,5519,1,0,0:0:0:0:
475,192,5519,1,0,0:0:0:0:
329,192,5519,1,0,0:0:0:0:
256,192,5678,1,0,0:0:0:0:
256,192,5836,1,0,0:0:0:0:
36,192,5995,1,0,0:0:0:0:
182,192,5995,1,0,0:0:0:0:
329,192,5995,1,0,0:0:0:0:
402,192,5995,1,0,0:0:0:0:
256,192,6154,1,0,0:0:0:0:
256,192,6313,1,0,0:0:0:0:
36,192,6471,1,0,0:0:0:0:
109,192,6471,1,0,0:0:0:0:
329,192,6471,1,0,0:0:0:0:
182,192,6471,1,0,0:0:0:0:
256,192,6630,1,0,0:0:0:0:
256,192,6789,1,0,0:0:0:0:
182,192,6947,1,0,0:0:0:0:
329,192,6947,1,0,0:0:0:0:
402,192,6947,1,0,0:0:0:0:
475,192,6947,1,0,0:0:0:0:
256,192,7106,1,0,0:0:0:0:
256,192,7265,1,0,0:0:0:0:
36,192,7424,1,0,0:0:0:0:
182,192,7424,1,0,0:0:0:0:
329,192,7424,1,0,0:0:0:0:
475,192,7424,1,0,0:0:0:0:
256,192,7529,1,0,0:0:0:0:
402,192,7529,1,0,0:0:0:0:
182,192,7635,1,0,0:0:0:0:
329,192,7635,1,0,0:0:0:0:
109,192,7741,1,0,0:0:0:0:
256,192,7741,1,0,0:0:0:0:
475,192,7741,1,0,0:0:0:0:
402,192,7820,1,0,0:0:0:0:
329,192,7900,1,0,0:0:0:0:
256,192,7979,1,0,0:0:0:0:
36,192,8059,1,0,0:0:0:0:
109,192,8059,1,0,0:0:0:0:
182,192,8059,1,0,0:0:0:0:
182,192,8535,1,0,0:0:0:0:
256,192,8535,1,0,0:0:0:0:
329,192,8535,1,0,0:0:0:0:
329,192,9011,1,0,0:0:0:0:
402,192,9011,1,0,0:0:0:0:
475,192,9011,1,0,0:0:0:0:
109,192,9487,1,0,0:0:0:0:
182,192,9487,1,0,0:0:0:0:
402,192,9487,1,0,0:0:0:0:
329,192,9487,1,0,0:0:0:0:
256,192,9487,1,0,0:0:0:0:
36,192,9646,1,0,0:0:0:0:
475,192,9646,1,0,0:0:0:0:
109,192,9805,1,0,0:0:0:0:
402,192,9805,1,0,0:0:0:0:
36,192,9805,1,0,0:0:0:0:
475,192,9805,1,0,0:0:0:0:
402,192,9963,1,0,0:0:0:0:
475,192,9963,1,0,0:0:0:0:
402,192,10043,1,0,0:0:0:0:
329,192,10043,1,0,0:0:0:0:
109,192,10122,1,0,0:0:0:0:
36,192,10122,1,0,0:0:0:0:
109,192,10201,1,0,0:0:0:0:
182,192,10201,1,0,0:0:0:0:
475,192,10281,1,0,0:0:0:0:
402,192,10334,1,0,0:0:0:0:
329,192,10387,1,0,0:0:0:0:
256,192,10439,1,0,0:0:0:0:
182,192,10492,1,0,0:0:0:0:
109,192,10545,1,0,0:0:0:0:
36,192,10598,1,0,0:0:0:0:
402,192,10598,1,0,0:0:0:0:
475,192,10598,1,0,0:0:0:0:
182,192,10757,1,0,0:0:0:0:
182,192,10916,1,0,0:0:0:0:
329,192,11074,1,0,0:0:0:0:
402,192,11074,1,0,0:0:0:0:
109,192,11233,1,0,0:0:0:0:
109,192,11392,1,0,0:0:0:0:
256,192,11551,1,0,0:0:0:0:
329,192,11551,1,0,0:0:0:0:
36,192,11709,1,0,0:0:0:0:
36,192,11868,1,0,0:0:0:0:
329,192,12027,1,0,0:0:0:0:
402,192,12027,1,0,0:0:0:0:
109,192,12186,1,0,0:0:0:0:
109,192,12344,1,0,0:0:0:0:
402,192,12503,1,0,0:0:0:0:
475,192,12503,1,0,0:0:0:0:
182,192,12662,1,0,0:0:0:0:
329,192,12820,1,0,0:0:0:0:
402,192,12820,1,0,0:0:0:0:
109,192,12979,1,0,0:0:0:0:
36,192,13138,1,0,0:0:0:0:
109,192,13138,1,0,0:0:0:0:
329,192,13297,1,0,0:0:0:0:
329,192,13455,1,0,0:0:0:0:
109,192,13614,1,0,0:0:0:0:
182,192,13614,1,0,0:0:0:0:
402,192,13773,1,0,0:0:0:0:
402,192,13932,1,0,0:0:0:0:
182,192,14090,1,0,0:0:0:0:
256,192,14090,1,0,0:0:0:0:
475,192,14249,1,0,0:0:0:0:
475,192,14408,1,0,0:0:0:0:
109,192,14566,1,0,0:0:0:0:
182,192,14566,1,0,0:0:0:0:
402,192,14725,1,0,0:0:0:0:
402,192,14884,1,0,0:0:0:0:
36,192,15043,1,0,0:0:0:0:
109,192,15043,1,0,0:0:0:0:
329,192,15201,1,0,0:0:0:0:
109,192,15360,1,0,0:0:0:0:
182,192,15360,1,0,0:0:0:0:
36,192,15360,1,0,0:0:0:0:
402,192,15519,1,0,0:0:0:0:
109,192,15678,1,0,0:0:0:0:
182,192,15678,1,0,0:0:0:0:
329,192,15678,1,0,0:0:0:0:
256,192,15678,1,0,0:0:0:0:
402,192,15836,1,0,0:0:0:0:
329,192,15916,1,0,0:0:0:0:
256,192,15995,1,0,0:0:0:0:
182,192,16154,1,0,0:0:0:0:
256,192,16154,1,0,0:0:0:0:
329,192,16154,1,0,0:0:0:0:
402,192,16154,1,0,0:0:0:0:
329,192,16313,1,0,0:0:0:0:
256,192,16392,1,0,0:0:0:0:
182,192,16471,1,0,0:0:0:0:
109,192,16630,1,0,0:0:0:0:
182,192,16630,1,0,0:0:0:0:
256,192,16630,1,0,0:0:0:0:
329,192,16630,1,0,0:0:0:0:
256,192,16789,1,0,0:0:0:0:
182,192,16868,1,0,0:0:0:0:
109,192,16947,1,0,0:0:0:0:
109,192,17106,1,0,0:0:0:0:
36,192,17106,1,0,0:0:0:0:
182,192,17106,1,0,0:0:0:0:
256,192,17106,1,0,0:0:0:0:
256,192,17265,1,0,0:0:0:0:
329,192,17265,1,0,0:0:0:0:
402,192,17265,1,0,0:0:0:0:
182,192,17265,1,0,0:0:0:0:
475,192,17424,1,0,0:0:0:0:
329,192,17503,1,0,0:0:0:0:
182,192,17582,1,0,0:0:0:0:
329,192,17741,1,0,0:0:0:0:
402,192,17741,1,0,0:0:0:0:
329,192,17900,1,0,0:0:0:0:
402,192,17900,1,0,0:0:0:0:
36,192,18059,1,0,0:0:0:0:
109,192,18059,1,0,0:0:0:0:
36,192,18217,1,0,0:0:0:0:
109,192,18217,1,0,0:0:0:0:
402,192,18376,1,0,0:0:0:0:
475,192,18376,1,0,0:0:0:0:
402,192,18535,1,0,0:0:0:0:
475,192,18535,1,0,0:0:0:0:
182,192,18693,1,0,0:0:0:0:
109,192,18693,1,0,0:0:0:0:
256,192,18773,1,0,0:0:0:0:
36,192,18852,1,0,0:0:0:0:
109,192,18852,1,0,0:0:0:0:
329,192,18852,1,0,0:0:0:0:
256,192,18932,1,0,0:0:0:0:
182,192,19011,1,0,0:0:0:0:
109,192,19090,1,0,0:0:0:0:
36,192,19170,1,0,0:0:0:0:
109,192,19209,1,0,0:0:0:0:
182,192,19249,1,0,0:0:0:0:
256,192,19289,1,0,0:0:0:0:
475,192,19328,1,0,0:0:0:0:
402,192,19368,1,0,0:0:0:0:
329,192,19408,1,0,0:0:0:0:
256,192,19447,1,0,0:0:0:0:
182,192,19486,1,0,0:0:0:0:
256,192,19963,1,0,0:0:0:0:
329,192,20439,1,0,0:0:0:0:
402,192,20916,1,0,0:0:0:0:
402,192,20955,1,0,0:0:0:0:
402,192,20995,1,0,0:0:0:0:
402,192,21035,1,0,0:0:0:0:
402,192,21074,1,0,0:0:0:0:
402,192,21114,1,0,0:0:0:0:
402,192,21154,1,0,0:0:0:0:
402,192,21193,1,0,0:0:0:0:
402,192,21233,1,0,0:0:0:0:
402,192,21273,1,0,0:0:0:0:
402,192,21313,1,0,0:0:0:0:
402,192,21352,1,0,0:0:0:0:
36,192,21392,1,0,0:0:0:0:
109,192,21471,1,0,0:0:0:0:
36,192,21551,1,0,0:0:0:0:
182,192,21708,1,0,0:0:0:0:
256,192,21867,1,0,0:0:0:0:
329,192,22025,1,0,0:0:0:0:
402,192,22184,1,0,0:0:0:0:
182,192,22343,1,0,0:0:0:0:
475,192,22343,1,0,0:0:0:0:
256,192,22502,1,0,0:0:0:0:
109,192,22660,1,0,0:0:0:0:
402,192,22660,1,0,0:0:0:0:
182,192,22819,1,0,0:0:0:0:
36,192,22978,1,0,0:0:0:0:
329,192,22978,1,0,0:0:0:0:
109,192,23137,1,0,0:0:0:0:
36,192,23295,1,0,0:0:0:0:
109,192,23375,1,0,0:0:0:0:
36,192,23454,1,0,0:0:0:0:
182,192,23613,1,0,0:0:0:0:
109,192,23771,1,0,0:0:0:0:
256,192,23930,1,0,0:0:0:0:
182,192,24089,1,0,0:0:0:0:
329,192,24248,1,0,0:0:0:0:
475,192,24248,1,0,0:0:0:0:
402,192,24406,1,0,0:0:0:0:
182,192,24565,1,0,0:0:0:0:
329,192,24565,1,0,0:0:0:0:
256,192,24724,1,0,0:0:0:0:
36,192,24883,1,0,0:0:0:0:
182,192,24883,1,0,0:0:0:0:
109,192,25041,1,0,0:0:0:0:
36,192,25200,1,0,0:0:0:0:
109,192,25279,1,0,0:0:0:0:
36,192,25359,1,0,0:0:0:0:
182,192,25517,1,0,0:0:0:0:
256,192,25676,1,0,0:0:0:0:
182,192,25835,1,0,0:0:0:0:
109,192,25994,1,0,0:0:0:0:
36,192,26152,1,0,0:0:0:0:
329,192,26152,1,0,0:0:0:0:
256,192,26311,1,0,0:0:0:0:
109,192,26470,1,0,0:0:0:0:
402,192,26470,1,0,0:0:0:0:
329,192,26629,1,0,0:0:0:0:
182,192,26787,1,0,0:0:0:0:
475,192,26787,1,0,0:0:0:0:
402,192,26946,1,0,0:0:0:0:
182,192,27105,1,0,0:0:0:0:
475,192,27105,1,0,0:0:0:0:
256,192,27264,1,0,0:0:0:0:
109,192,27422,1,0,0:0:0:0:
402,192,27422,1,0,0:0:0:0:
182,192,27581,1,0,0:0:0:0:
36,192,27740,1,0,0:0:0:0:
329,192,27740,1,0,0:0:0:0:
109,192,27898,1,0,0:0:0:0:
182,192,28057,1,0,0:0:0:0:
475,192,28057,1,0,0:0:0:0:
256,192,28216,1,0,0:0:0:0:
329,192,28375,1,0,0:0:0:0:
36,192,28375,1,0,0:0:0:0:
402,192,28533,1,0,0:0:0:0:
475,192,28692,1,0,0:0:0:0:
182,192,28692,1,0,0:0:0:0:
475,192,29010,1,0,0:0:0:0:
402,192,29010,1,0,0:0:0:0:
182,192,29089,1,0,0:0:0:0:
109,192,29089,1,0,0:0:0:0:
329,192,29327,1,0,0:0:0:0:
402,192,29327,1,0,0:0:0:0:
109,192,29406,1,0,0:0:0:0:
36,192,29406,1,0,0:0:0:0:
475,192,29644,1,0,0:0:0:0:
402,192,29644,1,0,0:0:0:0:
182,192,29724,1,0,0:0:0:0:
109,192,29724,1,0,0:0:0:0:
329,192,29962,1,0,0:0:0:0:
256,192,30279,1,0,0:0:0:0:
182,192,30597,1,0,0:0:0:0:
36,192,30914,1,0,0:0:0:0:
109,192,30914,1,0,0:0:0:0:
329,192,30994,1,0,0:0:0:0:
402,192,30994,1,0,0:0:0:0:
109,192,31232,1,0,0:0:0:0:
182,192,31232,1,0,0:0:0:0:
402,192,31311,1,0,0:0:0:0:
475,192,31311,1,0,0:0:0:0:
36,192,31549,1,0,0:0:0:0:
109,192,31549,1,0,0:0:0:0:
329,192,31629,1,0,0:0:0:0:
402,192,31629,1,0,0:0:0:0:
182,192,31867,1,0,0:0:0:0:
256,192,32184,1,0,0:0:0:0:
329,192,32502,1,0,0:0:0:0:
475,192,32819,128,0,33573:0:0:0:0:
402,192,32819,128,0,33533:0:0:0:0:
329,192,33137,128,0,33494:0:0:0:0:
256,192,33137,128,0,33454:0:0:0:0:
182,192,33454,1,0,0:0:0:0:
256,192,33494,1,0,0:0:0:0:
329,192,33533,1,0,0:0:0:0:
402,192,33573,1,0,0:0:0:0:
475,192,33613,1,0,0:0:0:0:
36,192,33771,128,0,34671:0:0:0:0:
109,192,33771,128,0,34618:0:0:0:0:
182,192,33771,128,0,34565:0:0:0:0:
329,192,34089,128,0,34459:0:0:0:0:
256,192,34089,128,0,34512:0:0:0:0:
402,192,34089,128,0,34406:0:0:0:0:
475,192,34406,1,0,0:0:0:0:
402,192,34459,1,0,0:0:0:0:
329,192,34512,1,0,0:0:0:0:
256,192,34565,1,0,0:0:0:0:
182,192,34618,1,0,0:0:0:0:
109,192,34671,1,0,0:0:0:0:
36,192,34724,1,0,0:0:0:0:
475,192,34724,1,0,0:0:0:0:
402,192,34803,1,0,0:0:0:0:
256,192,34883,1,0,0:0:0:0:
329,192,34962,1,0,0:0:0:0:
36,192,35041,1,0,0:0:0:0:
109,192,35121,1,0,0:0:0:0:
256,192,35200,1,0,0:0:0:0:
182,192,35279,1,0,0:0:0:0:
329,192,35359,1,0,0:0:0:0:
402,192,35398,1,0,0:0:0:0:
475,192,35438,1,0,0:0:0:0:
182,192,35478,1,0,0:0:0:0:
256,192,35517,1,0,0:0:0:0:
329,192,35557,1,0,0:0:0:0:
36,192,35597,1,0,0:0:0:0:
109,192,35637,1,0,0:0:0:0:
182,192,35676,1,0,0:0:0:0:
475,192,35676,1,0,0:0:0:0:
402,192,35716,1,0,0:0:0:0:
329,192,35756,1,0,0:0:0:0:
256,192,35795,1,0,0:0:0:0:
182,192,35835,1,0,0:0:0:0:
109,192,35875,1,0,0:0:0:0:
36,192,35914,1,0,0:0:0:0:
475,192,35914,1,0,0:0:0:0:
402,192,35954,1,0,0:0:0:0:
329,192,35994,1,0,0:0:0:0:
182,192,36073,1,0,0:0:0:0:
402,192,36152,1,0,0:0:0:0:
256,192,36232,1,0,0:0:0:0:
475,192,36311,1,0,0:0:0:0:
329,192,36390,1,0,0:0:0:0:
475,192,36470,1,0,0:0:0:0:
402,192,36549,1,0,0:0:0:0:
329,192,36629,1,0,0:0:0:0:
256,192,36629,1,0,0:0:0:0:
182,192,36629,1,0,0:0:0:0:
109,192,36787,1,0,0:0:0:0:
109,192,36946,1,0,0:0:0:0:
256,192,37105,1,0,0:0:0:0:
329,192,37105,1,0,0:0:0:0:
402,192,37105,1,0,0:0:0:0:
182,192,37264,1,0,0:0:0:0:
182,192,37422,1,0,0:0:0:0:
329,192,37581,1,0,0:0:0:0:
402,192,37581,1,0,0:0:0:0:
475,192,37581,1,0,0:0:0:0:
182,192,37740,1,0,0:0:0:0:
256,192,37898,1,0,0:0:0:0:
329,192,37898,1,0,0:0:0:0:
402,192,37898,1,0,0:0:0:0:
109,192,38057,1,0,0:0:0:0:
182,192,38216,1,0,0:0:0:0:
256,192,38216,1,0,0:0:0:0:
329,192,38216,1,0,0:0:0:0:
36,192,38375,1,0,0:0:0:0:
182,192,38533,1,0,0:0:0:0:
256,192,38533,1,0,0:0:0:0:
329,192,38533,1,0,0:0:0:0:
402,192,38692,1,0,0:0:0:0:
402,192,38851,1,0,0:0:0:0:
109,192,39010,1,0,0:0:0:0:
182,192,39010,1,0,0:0:0:0:
256,192,39010,1,0,0:0:0:0:
329,192,39168,1,0,0:0:0:0:
329,192,39327,1,0,0:0:0:0:
36,192,39486,1,0,0:0:0:0:
109,192,39486,1,0,0:0:0:0:
182,192,39486,1,0,0:0:0:0:
329,192,39644,1,0,0:0:0:0:
109,192,39803,1,0,0:0:0:0:
182,192,39803,1,0,0:0:0:0:
256,192,39803,1,0,0:0:0:0:
402,192,39962,1,0,0:0:0:0:
182,192,40121,1,0,0:0:0:0:
256,192,40121,1,0,0:0:0:0:
329,192,40121,1,0,0:0:0:0:
475,192,40279,1,0,0:0:0:0:
256,192,40438,1,0,0:0:0:0:
329,192,40438,1,0,0:0:0:0:
402,192,40438,1,0,0:0:0:0:
182,192,40597,1,0,0:0:0:0:
182,192,40756,1,0,0:0:0:0:
329,192,40914,1,0,0:0:0:0:
402,192,40914,1,0,0:0:0:0:
475,192,40914,1,0,0:0:0:0:
256,192,41073,1,0,0:0:0:0:
256,192,41232,1,0,0:0:0:0:
329,192,41390,1,0,0:0:0:0:
402,192,41390,1,0,0:0:0:0:
402,192,41549,1,0,0:0:0:0:
475,192,41549,1,0,0:0:0:0:
256,192,41708,1,0,0:0:0:0:
329,192,41708,1,0,0:0:0:0:
329,192,41867,1,0,0:0:0:0:
402,192,41867,1,0,0:0:0:0:
256,192,42025,1,0,0:0:0:0:
182,192,42025,1,0,0:0:0:0:
256,192,42184,1,0,0:0:0:0:
329,192,42184,1,0,0:0:0:0:
36,192,42343,1,0,0:0:0:0:
109,192,42343,1,0,0:0:0:0:
182,192,42343,1,0,0:0:0:0:
329,192,42502,1,0,0:0:0:0:
402,192,42502,1,0,0:0:0:0:
329,192,42660,1,0,0:0:0:0:
402,192,42660,1,0,0:0:0:0:
109,192,42819,1,0,0:0:0:0:
182,192,42819,1,0,0:0:0:0:
256,192,42819,1,0,0:0:0:0:
402,192,42978,1,0,0:0:0:0:
475,192,42978,1,0,0:0:0:0:
402,192,43137,1,0,0:0:0:0:
475,192,43137,1,0,0:0:0:0:
109,192,43295,1,0,0:0:0:0:
182,192,43295,1,0,0:0:0:0:
109,192,43454,1,0,0:0:0:0:
36,192,43454,1,0,0:0:0:0:
256,192,43613,1,0,0:0:0:0:
182,192,43613,1,0,0:0:0:0:
182,192,43771,1,0,0:0:0:0:
109,192,43771,1,0,0:0:0:0:
256,192,43930,1,0,0:0:0:0:
329,192,43930,1,0,0:0:0:0:
256,192,44089,1,0,0:0:0:0:
182,192,44089,1,0,0:0:0:0:
475,192,44248,128,0,44724:0:0:0:0:
36,192,44248,128,0,44883:0:0:0:0:
402,192,44724,1,0,0:0:0:0:
329,192,44764,1,0,0:0:0:0:
256,192,44803,1,0,0:0:0:0:
182,192,44843,1,0,0:0:0:0:
109,192,44883,1,0,0:0:0:0:
36,192,45041,1,0,0:0:0:0:
475,192,45041,1,0,0:0:0:0:
182,192,45200,1,0,0:0:0:0:
402,192,45200,1,0,0:0:0:0:
256,192,45359,1,0,0:0:0:0:
109,192,45517,1,0,0:0:0:0:
329,192,45517,1,0,0:0:0:0:
182,192,45676,1,0,0:0:0:0:
36,192,45835,1,0,0:0:0:0:
256,192,45835,1,0,0:0:0:0:
109,192,45994,1,0,0:0:0:0:
329,192,45994,1,0,0:0:0:0:
182,192,46152,128,0,46629:0:0:0:0:
402,192,46152,128,0,46787:0:0:0:0:
329,192,46629,1,0,0:0:0:0:
256,192,46668,1,0,0:0:0:0:
182,192,46708,1,0,0:0:0:0:
109,192,46748,1,0,0:0:0:0:
36,192,46787,1,0,0:0:0:0:
182,192,46946,1,0,0:0:0:0:
402,192,46946,1,0,0:0:0:0:
256,192,47105,1,0,0:0:0:0:
475,192,47105,1,0,0:0:0:0:
329,192,47264,1,0,0:0:0:0:
182,192,47422,1,0,0:0:0:0:
402,192,47422,1,0,0:0:0:0:
256,192,47581,1,0,0:0:0:0:
109,192,47740,1,0,0:0:0:0:
329,192,47740,1,0,0:0:0:0:
182,192,47898,1,0,0:0:0:0:
402,192,47898,1,0,0:0:0:0:
256,192,48057,1,0,0:0:0:0:
475,192,48057,1,0,0:0:0:0:
329,192,48216,1,0,0:0:0:0:
402,192,48216,1,0,0:0:0:0:
36,192,48375,1,0,0:0:0:0:
256,192,48375,1,0,0:0:0:0:
109,192,48533,1,0,0:0:0:0:
182,192,48533,1,0,0:0:0:0:
256,192,48692,1,0,0:0:0:0:
475,192,48692,1,0,0:0:0:0:
329,192,48851,1,0,0:0:0:0:
402,192,48851,1,0,0:0:0:0:
109,192,49010,1,0,0:0:0:0:
182,192,49010,1,0,0:0:0:0:
36,192,49168,1,0,0:0:0:0:
256,192,49168,1,0,0:0:0:0:
329,192,49327,1,0,0:0:0:0:
402,192,49327,1,0,0:0:0:0:
256,192,49486,1,0,0:0:0:0:
475,192,49486,1,0,0:0:0:0:
109,192,49644,1,0,0:0:0:0:
182,192,49644,1,0,0:0:0:0:
329,192,49644,1,0,0:0:0:0:
402,192,49644,1,0,0:0:0:0:
36,192,49803,1,0,0:0:0:0:
256,192,49803,1,0,0:0:0:0:
475,192,49803,1,0,0:0:0:0:
109,192,49962,1,0,0:0:0:0:
36,192,49962,1,0,0:0:0:0:
182,192,49962,1,0,0:0:0:0:
329,192,49962,1,0,0:0:0:0:
475,192,49962,1,0,0:0:0:0:
402,192,49962,1,0,0:0:0:0:
329,192,50438,1,0,0:0:0:0:
182,192,50438,1,0,0:0:0:0:
256,192,50517,1,0,0:0:0:0:
182,192,50597,1,0,0:0:0:0:
329,192,50597,1,0,0:0:0:0:
109,192,50756,1,0,0:0:0:0:
402,192,50756,1,0,0:0:0:0:
36,192,50914,1,0,0:0:0:0:
475,192,50914,1,0,0:0:0:0:
182,192,51073,1,0,0:0:0:0:
329,192,51232,1,0,0:0:0:0:
475,192,51390,1,0,0:0:0:0:
329,192,51549,1,0,0:0:0:0:
182,192,51708,1,0,0:0:0:0:
36,192,51867,1,0,0:0:0:0:
475,192,51867,1,0,0:0:0:0:
402,192,52025,1,0,0:0:0:0:
329,192,52184,1,0,0:0:0:0:
109,192,52184,1,0,0:0:0:0:
256,192,52343,1,0,0:0:0:0:
182,192,52502,1,0,0:0:0:0:
109,192,52660,1,0,0:0:0:0:
36,192,52819,1,0,0:0:0:0:
475,192,52819,1,0,0:0:0:0:
109,192,52978,1,0,0:0:0:0:
475,192,52978,1,0,0:0:0:0:
182,192,53137,1,0,0:0:0:0:
475,192,53137,1,0,0:0:0:0:
256,192,53295,1,0,0:0:0:0:
475,192,53295,1,0,0:0:0:0:
329,192,53454,1,0,0:0:0:0:
475,192,53454,1,0,0:0:0:0:
402,192,53613,1,0,0:0:0:0:
475,192,53613,1,0,0:0:0:0:
36,192,53771,1,0,0:0:0:0:
475,192,53771,1,0,0:0:0:0:
109,192,53930,1,0,0:0:0:0:
182,192,54089,1,0,0:0:0:0:
402,192,54089,1,0,0:0:0:0:
256,192,54248,1,0,0:0:0:0:
329,192,54406,1,0,0:0:0:0:
402,192,54565,1,0,0:0:0:0:
475,192,54724,1,0,0:0:0:0:
36,192,54724,1,0,0:0:0:0:
36,192,54883,1,0,0:0:0:0:
402,192,54883,1,0,0:0:0:0:
36,192,55041,1,0,0:0:0:0:
329,192,55041,1,0,0:0:0:0:
36,192,55200,1,0,0:0:0:0:
256,192,55200,1,0,0:0:0:0:
36,192,55359,1,0,0:0:0:0:
182,192,55359,1,0,0:0:0:0:
36,192,55517,1,0,0:0:0:0:
109,192,55517,1,0,0:0:0:0:
36,192,55676,1,0,0:0:0:0:
329,192,55676,1,0,0:0:0:0:
256,192,55835,1,0,0:0:0:0:
182,192,55994,1,0,0:0:0:0:
109,192,56152,1,0,0:0:0:0:
182,192,56232,1,0,0:0:0:0:
256,192,56311,1,0,0:0:0:0:
329,192,56390,1,0,0:0:0:0:
402,192,56470,1,0,0:0:0:0:
475,192,56629,1,0,0:0:0:0:
36,192,56629,1,0,0:0:0:0:
329,192,56787,1,0,0:0:0:0:
36,192,56787,1,0,0:0:0:0:
402,192,56946,1,0,0:0:0:0:
36,192,56946,1,0,0:0:0:0:
256,192,57105,1,0,0:0:0:0:
36,192,57105,1,0,0:0:0:0:
329,192,57264,1,0,0:0:0:0:
36,192,57264,1,0,0:0:0:0:
182,192,57422,1,0,0:0:0:0:
36,192,57422,1,0,0:0:0:0:
36,192,57581,1,0,0:0:0:0:
475,192,57581,1,0,0:0:0:0:
256,192,57581,1,0,0:0:0:0:
475,192,57898,1,0,0:0:0:0:
402,192,57898,1,0,0:0:0:0:
36,192,57978,1,0,0:0:0:0:
109,192,57978,1,0,0:0:0:0:
402,192,58057,1,0,0:0:0:0:
329,192,58057,1,0,0:0:0:0:
109,192,58137,1,0,0:0:0:0:
182,192,58137,1,0,0:0:0:0:
475,192,58216,1,0,0:0:0:0:
36,192,58256,1,0,0:0:0:0:
402,192,58295,1,0,0:0:0:0:
109,192,58335,1,0,0:0:0:0:
475,192,58375,1,0,0:0:0:0:
36,192,58414,1,0,0:0:0:0:
402,192,58454,1,0,0:0:0:0:
109,192,58494,1,0,0:0:0:0:
256,192,58533,1,0,0:0:0:0:
329,192,58533,1,0,0:0:0:0:
182,192,58533,1,0,0:0:0:0:
402,192,58692,1,0,0:0:0:0:
109,192,58851,1,0,0:0:0:0:
182,192,58851,1,0,0:0:0:0:
256,192,58851,1,0,0:0:0:0:
329,192,59010,1,0,0:0:0:0:
36,192,59168,1,0,0:0:0:0:
182,192,59168,1,0,0:0:0:0:
109,192,59168,1,0,0:0:0:0:
256,192,59327,1,0,0:0:0:0:
329,192,59486,1,0,0:0:0:0:
402,192,59486,1,0,0:0:0:0:
475,192,59486,1,0,0:0:0:0:
256,192,59644,1,0,0:0:0:0:
109,192,59803,1,0,0:0:0:0:
109,192,59883,1,0,0:0:0:0:
182,192,59962,1,0,0:0:0:0:
182,192,60041,1,0,0:0:0:0:
256,192,60121,1,0,0:0:0:0:
256,192,60200,1,0,0:0:0:0:
329,192,60279,1,0,0:0:0:0:
329,192,60359,1,0,0:0:0:0:
402,192,60438,1,0,0:0:0:0:
475,192,60438,1,0,0:0:0:0:
256,192,60597,1,0,0:0:0:0:
109,192,60756,1,0,0:0:0:0:
36,192,60756,1,0,0:0:0:0:
256,192,60914,1,0,0:0:0:0:
402,192,61073,1,0,0:0:0:0:
475,192,61073,1,0,0:0:0:0:
256,192,61232,1,0,0:0:0:0:
329,192,61232,1,0,0:0:0:0:
182,192,61390,1,0,0:0:0:0:
109,192,61390,1,0,0:0:0:0:
36,192,61390,1,0,0:0:0:0:
329,192,61549,1,0,0:0:0:0:
475,192,61708,1,0,0:0:0:0:
475,192,61787,1,0,0:0:0:0:
402,192,61867,1,0,0:0:0:0:
402,192,61946,1,0,0:0:0:0:
329,192,62025,1,0,0:0:0:0:
329,192,62105,1,0,0:0:0:0:
256,192,62184,1,0,0:0:0:0:
256,192,62264,1,0,0:0:0:0:
182,192,62343,1,0,0:0:0:0:
109,192,62343,1,0,0:0:0:0:
109,192,62502,1,0,0:0:0:0:
36,192,62502,1,0,0:0:0:0:
256,192,62660,1,0,0:0:0:0:
182,192,62660,1,0,0:0:0:0:
182,192,62819,1,0,0:0:0:0:
109,192,62819,1,0,0:0:0:0:
256,192,62978,1,0,0:0:0:0:
329,192,62978,1,0,0:0:0:0:
256,192,63137,1,0,0:0:0:0:
182,192,63137,1,0,0:0:0:0:
402,192,63295,1,0,0:0:0:0:
36,192,63295,1,0,0:0:0:0:
109,192,63454,1,0,0:0:0:0:
402,192,63454,1,0,0:0:0:0:
182,192,63613,1,0,0:0:0:0:
475,192,63613,1,0,0:0:0:0:
182,192,63771,1,0,0:0:0:0:
402,192,63771,1,0,0:0:0:0:
329,192,63930,1,0,0:0:0:0:
182,192,63930,1,0,0:0:0:0:
256,192,63930,128,0,64248:0:0:0:0:
109,192,64248,1,0,0:0:0:0:
402,192,64248,1,0,0:0:0:0:
182,192,64248,1,0,0:0:0:0:
329,192,64248,1,0,0:0:0:0:
36,192,64565,1,0,0:0:0:0:
475,192,64565,1,0,0:0:0:0:
256,192,64565,1,0,0:0:0:0:
182,192,64565,1,0,0:0:0:0:
329,192,64565,1,0,0:0:0:0:
109,192,64883,1,0,0:0:0:0:
402,192,64883,1,0,0:0:0:0:
36,192,64883,1,0,0:0:0:0:
475,192,64883,1,0,0:0:0:0:
36,192,65200,1,0,0:0:0:0:
475,192,65200,1,0,0:0:0:0:
109,192,65279,1,0,0:0:0:0:
402,192,65279,1,0,0:0:0:0:
182,192,65359,1,0,0:0:0:0:
329,192,65359,1,0,0:0:0:0:
109,192,65438,1,0,0:0:0:0:
402,192,65438,1,0,0:0:0:0:
36,192,65517,1,0,0:0:0:0:
475,192,65517,1,0,0:0:0:0:
402,192,65597,1,0,0:0:0:0:
109,192,65597,1,0,0:0:0:0:
182,192,65676,1,0,0:0:0:0:
329,192,65676,1,0,0:0:0:0:
109,192,65756,1,0,0:0:0:0:
402,192,65756,1,0,0:0:0:0:
36,192,65835,1,0,0:0:0:0:
475,192,65835,1,0,0:0:0:0:
109,192,65914,1,0,0:0:0:0:
402,192,65914,1,0,0:0:0:0:
182,192,65994,1,0,0:0:0:0:
329,192,65994,1,0,0:0:0:0:
402,192,66073,1,0,0:0:0:0:
109,192,66073,1,0,0:0:0:0:
36,192,66152,1,0,0:0:0:0:
475,192,66152,1,0,0:0:0:0:
109,192,66470,1,0,0:0:0:0:
182,192,66470,1,0,0:0:0:0:
256,192,66470,1,0,0:0:0:0:
329,192,66470,1,0,0:0:0:0:
402,192,66470,1,0,0:0:0:0:
36,192,66787,1,0,0:0:0:0:
475,192,66787,1,0,0:0:0:0:
182,192,66787,128,0,67422:0:0:0:0:
329,192,66787,128,0,67422:0:0:0:0:
475,192,67422,1,0,0:0:0:0:
329,192,67502,1,0,0:0:0:0:
182,192,67581,1,0,0:0:0:0:
36,192,67660,1,0,0:0:0:0:
475,192,67740,1,0,0:0:0:0:
402,192,67819,1,0,0:0:0:0:
475,192,67898,1,0,0:0:0:0:
182,192,68057,1,0,0:0:0:0:
256,192,68137,1,0,0:0:0:0:
402,192,68216,1,0,0:0:0:0:
329,192,68295,1,0,0:0:0:0:
475,192,68375,1,0,0:0:0:0:
36,192,68375,1,0,0:0:0:0:
329,192,68533,1,0,0:0:0:0:
182,192,68533,1,0,0:0:0:0:
109,192,68692,1,0,0:0:0:0:
402,192,68692,1,0,0:0:0:0:
36,192,68851,1,0,0:0:0:0:
475,192,68851,1,0,0:0:0:0:
182,192,69010,1,0,0:0:0:0:
329,192,69010,1,0,0:0:0:0:
109,192,69168,1,0,0:0:0:0:
402,192,69168,1,0,0:0:0:0:
256,192,69327,1,0,0:0:0:0:
182,192,69486,1,0,0:0:0:0:
329,192,69486,1,0,0:0:0:0:
36,192,69644,1,0,0:0:0:0:
109,192,69724,1,0,0:0:0:0:
36,192,69803,1,0,0:0:0:0:
329,192,69962,1,0,0:0:0:0:
256,192,70041,1,0,0:0:0:0:
109,192,70121,1,0,0:0:0:0:
182,192,70200,1,0,0:0:0:0:
36,192,70279,1,0,0:0:0:0:
475,192,70279,1,0,0:0:0:0:
402,192,70438,1,0,0:0:0:0:
109,192,70438,1,0,0:0:0:0:
182,192,70597,1,0,0:0:0:0:
329,192,70597,1,0,0:0:0:0:
256,192,70756,1,0,0:0:0:0:
109,192,70914,1,0,0:0:0:0:
402,192,70914,1,0,0:0:0:0:
182,192,71073,1,0,0:0:0:0:
329,192,71073,1,0,0:0:0:0:
36,192,71232,1,0,0:0:0:0:
475,192,71232,1,0,0:0:0:0:
109,192,71390,1,0,0:0:0:0:
402,192,71390,1,0,0:0:0:0:
329,192,71549,1,0,0:0:0:0:
182,192,71629,1,0,0:0:0:0:
329,192,71708,1,0,0:0:0:0:
475,192,71787,1,0,0:0:0:0:
109,192,71867,1,0,0:0:0:0:
256,192,71946,1,0,0:0:0:0:
402,192,72025,1,0,0:0:0:0:
256,192,72105,1,0,0:0:0:0:
36,192,72184,1,0,0:0:0:0:
329,192,72264,1,0,0:0:0:0:
182,192,72343,1,0,0:0:0:0:
36,192,72422,1,0,0:0:0:0:
256,192,72502,1,0,0:0:0:0:
475,192,72581,1,0,0:0:0:0:
329,192,72660,1,0,0:0:0:0:
182,192,72740,1,0,0:0:0:0:
329,192,72819,1,0,0:0:0:0:
475,192,72898,1,0,0:0:0:0:
256,192,72978,1,0,0:0:0:0:
109,192,73057,1,0,0:0:0:0:
256,192,73137,1,0,0:0:0:0:
402,192,73216,1,0,0:0:0:0:
182,192,73295,1,0,0:0:0:0:
36,192,73375,1,0,0:0:0:0:
182,192,73454,1,0,0:0:0:0:
329,192,73533,1,0,0:0:0:0:
475,192,73613,1,0,0:0:0:0:
109,192,73771,1,0,0:0:0:0:
256,192,73851,1,0,0:0:0:0:
402,192,73930,1,0,0:0:0:0:
36,192,74089,1,0,0:0:0:0:
182,192,74168,1,0,0:0:0:0:
329,192,74248,1,0,0:0:0:0:
36,192,74406,1,0,0:0:0:0:
475,192,74406,1,0,0:0:0:0:
109,192,74724,1,0,0:0:0:0:
402,192,74724,1,0,0:0:0:0:
182,192,75041,1,0,0:0:0:0:
329,192,75041,1,0,0:0:0:0:
36,192,75359,1,0,0:0:0:0:
475,192,75359,1,0,0:0:0:0:
109,192,75438,1,0,0:0:0:0:
402,192,75438,1,0,0:0:0:0:
36,192,75517,1,0,0:0:0:0:
475,192,75517,1,0,0:0:0:0:
402,192,75676,1,0,0:0:0:0:
329,192,75756,1,0,0:0:0:0:
109,192,75835,1,0,0:0:0:0:
182,192,75914,1,0,0:0:0:0:
256,192,75994,1,0,0:0:0:0:
475,192,75994,1,0,0:0:0:0:
402,192,76152,1,0,0:0:0:0:
36,192,76311,1,0,0:0:0:0:
329,192,76311,1,0,0:0:0:0:
109,192,76470,1,0,0:0:0:0:
256,192,76470,1,0,0:0:0:0:
182,192,76629,1,0,0:0:0:0:
475,192,76629,1,0,0:0:0:0:
256,192,76787,1,0,0:0:0:0:
402,192,76787,1,0,0:0:0:0:
329,192,76946,1,0,0:0:0:0:
36,192,76946,1,0,0:0:0:0:
109,192,77105,1,0,0:0:0:0:
256,192,77105,1,0,0:0:0:0:
182,192,77264,1,0,0:0:0:0:
475,192,77264,1,0,0:0:0:0:
256,192,77343,1,0,0:0:0:0:
402,192,77343,1,0,0:0:0:0:
182,192,77422,1,0,0:0:0:0:
475,192,77422,1,0,0:0:0:0:
109,192,77581,1,0,0:0:0:0:
182,192,77660,1,0,0:0:0:0:
402,192,77740,1,0,0:0:0:0:
329,192,77819,1,0,0:0:0:0:
256,192,77898,1,0,0:0:0:0:
36,192,77898,1,0,0:0:0:0:
109,192,78057,1,0,0:0:0:0:
182,192,78216,1,0,0:0:0:0:
475,192,78216,1,0,0:0:0:0:
182,192,78375,1,0,0:0:0:0:
475,192,78375,1,0,0:0:0:0:
36,192,78533,1,0,0:0:0:0:
329,192,78533,1,0,0:0:0:0:
36,192,78692,1,0,0:0:0:0:
329,192,78692,1,0,0:0:0:0:
182,192,78851,1,0,0:0:0:0:
475,192,78851,1,0,0:0:0:0:
109,192,79010,1,0,0:0:0:0:
402,192,79010,1,0,0:0:0:0:
36,192,79168,1,0,0:0:0:0:
329,192,79168,1,0,0:0:0:0:
256,192,79248,1,0,0:0:0:0:
109,192,79248,1,0,0:0:0:0:
402,192,79327,1,0,0:0:0:0:
182,192,79327,1,0,0:0:0:0:
329,192,79406,1,0,0:0:0:0:
109,192,79406,1,0,0:0:0:0:
475,192,79486,1,0,0:0:0:0:
36,192,79486,1,0,0:0:0:0:
402,192,79565,1,0,0:0:0:0:
109,192,79565,1,0,0:0:0:0:
256,192,79644,1,0,0:0:0:0:
475,192,79644,1,0,0:0:0:0:
182,192,79724,1,0,0:0:0:0:
402,192,79724,1,0,0:0:0:0:
109,192,79803,1,0,0:0:0:0:
329,192,79803,1,0,0:0:0:0:
36,192,79883,1,0,0:0:0:0:
256,192,79883,1,0,0:0:0:0:
109,192,79962,1,0,0:0:0:0:
329,192,79962,1,0,0:0:0:0:
182,192,80041,1,0,0:0:0:0:
402,192,80041,1,0,0:0:0:0:
256,192,80121,1,0,0:0:0:0:
475,192,80121,1,0,0:0:0:0:
182,192,80200,1,0,0:0:0:0:
36,192,80279,1,0,0:0:0:0:
329,192,80279,1,0,0:0:0:0:
182,192,80359,1,0,0:0:0:0:
475,192,80438,1,0,0:0:0:0:
256,192,80438,1,0,0:0:0:0:
36,192,80438,1,0,0:0:0:0:
329,192,80517,1,0,0:0:0:0:
109,192,80517,1,0,0:0:0:0:
402,192,80597,1,0,0:0:0:0:
182,192,80597,1,0,0:0:0:0:
475,192,80676,1,0,0:0:0:0:
109,192,80676,1,0,0:0:0:0:
36,192,80756,1,0,0:0:0:0:
402,192,80756,1,0,0:0:0:0:
329,192,80835,1,0,0:0:0:0:
109,192,80835,1,0,0:0:0:0:
182,192,80914,1,0,0:0:0:0:
256,192,80914,1,0,0:0:0:0:
109,192,80994,1,0,0:0:0:0:
329,192,80994,1,0,0:0:0:0:
36,192,81073,1,0,0:0:0:0:
475,192,81073,1,0,0:0:0:0:
256,192,81073,1,0,0:0:0:0:
182,192,81152,1,0,0:0:0:0:
402,192,81152,1,0,0:0:0:0:
109,192,81232,1,0,0:0:0:0:
329,192,81232,1,0,0:0:0:0:
36,192,81311,1,0,0:0:0:0:
256,192,81311,1,0,0:0:0:0:
329,192,81390,1,0,0:0:0:0:
109,192,81390,1,0,0:0:0:0:
256,192,81549,1,0,0:0:0:0:
36,192,81549,1,0,0:0:0:0:
475,192,81549,1,0,0:0:0:0:
475,192,81708,1,0,0:0:0:0:
329,192,81787,1,0,0:0:0:0:
182,192,81867,1,0,0:0:0:0:
36,192,81946,1,0,0:0:0:0:
109,192,82025,1,0,0:0:0:0:
402,192,82025,1,0,0:0:0:0:
256,192,82184,1,0,0:0:0:0:
182,192,82343,1,0,0:0:0:0:
329,192,82343,1,0,0:0:0:0:
256,192,82502,1,0,0:0:0:0:
109,192,82660,1,0,0:0:0:0:
402,192,82660,1,0,0:0:0:0:
36,192,82819,1,0,0:0:0:0:
475,192,82819,1,0,0:0:0:0:
109,192,82978,1,0,0:0:0:0:
402,192,82978,1,0,0:0:0:0:
36,192,83057,1,0,0:0:0:0:
475,192,83057,1,0,0:0:0:0:
402,192,83137,1,0,0:0:0:0:
109,192,83137,1,0,0:0:0:0:
256,192,83295,1,0,0:0:0:0:
182,192,83375,1,0,0:0:0:0:
329,192,83375,1,0,0:0:0:0:
109,192,83454,1,0,0:0:0:0:
402,192,83454,1,0,0:0:0:0:
36,192,83533,1,0,0:0:0:0:
475,192,83533,1,0,0:0:0:0:
402,192,83613,1,0,0:0:0:0:
109,192,83613,1,0,0:0:0:0:
182,192,83692,1,0,0:0:0:0:
329,192,83692,1,0,0:0:0:0:
256,192,83771,1,0,0:0:0:0:
182,192,83851,1,0,0:0:0:0:
329,192,83851,1,0,0:0:0:0:
109,192,83930,1,0,0:0:0:0:
402,192,83930,1,0,0:0:0:0:
109,192,84036,1,0,0:0:0:0:
402,192,84036,1,0,0:0:0:0:
109,192,84142,1,0,0:0:0:0:
402,192,84142,1,0,0:0:0:0:
36,192,84248,1,0,0:0:0:0:
329,192,84248,1,0,0:0:0:0:
36,192,84353,1,0,0:0:0:0:
329,192,84353,1,0,0:0:0:0:
36,192,84459,1,0,0:0:0:0:
329,192,84459,1,0,0:0:0:0:
182,192,84565,1,0,0:0:0:0:
475,192,84565,1,0,0:0:0:0:
109,192,84724,1,0,0:0:0:0:
402,192,84724,1,0,0:0:0:0:
36,192,84883,1,0,0:0:0:0:
329,192,84883,1,0,0:0:0:0:
109,192,84962,1,0,0:0:0:0:
256,192,84962,1,0,0:0:0:0:
36,192,85041,1,0,0:0:0:0:
329,192,85041,1,0,0:0:0:0:
182,192,85200,1,0,0:0:0:0:
329,192,85200,1,0,0:0:0:0:
256,192,85279,1,0,0:0:0:0:
182,192,85359,1,0,0:0:0:0:
329,192,85359,1,0,0:0:0:0:
109,192,85438,1,0,0:0:0:0:
402,192,85438,1,0,0:0:0:0:
36,192,85517,1,0,0:0:0:0:
475,192,85517,1,0,0:0:0:0:
109,192,85597,1,0,0:0:0:0:
402,192,85597,1,0,0:0:0:0:
182,192,85676,1,0,0:0:0:0:
329,192,85676,1,0,0:0:0:0:
256,192,85756,1,0,0:0:0:0:
182,192,85835,1,0,0:0:0:0:
329,192,85835,1,0,0:0:0:0:
182,192,85941,1,0,0:0:0:0:
329,192,85941,1,0,0:0:0:0:
329,192,86047,1,0,0:0:0:0:
182,192,86047,1,0,0:0:0:0:
109,192,86152,1,0,0:0:0:0:
402,192,86152,1,0,0:0:0:0:
109,192,86258,1,0,0:0:0:0:
402,192,86258,1,0,0:0:0:0:
109,192,86364,1,0,0:0:0:0:
402,192,86364,1,0,0:0:0:0:
36,192,86470,1,0,0:0:0:0:
329,192,86470,1,0,0:0:0:0:
109,192,86629,1,0,0:0:0:0:
402,192,86629,1,0,0:0:0:0:
182,192,86787,1,0,0:0:0:0:
475,192,86787,1,0,0:0:0:0:
109,192,86867,1,0,0:0:0:0:
402,192,86867,1,0,0:0:0:0:
36,192,86946,1,0,0:0:0:0:
329,192,86946,1,0,0:0:0:0:
109,192,87025,1,0,0:0:0:0:
402,192,87025,1,0,0:0:0:0:
182,192,87105,1,0,0:0:0:0:
475,192,87105,1,0,0:0:0:0:
256,192,87184,1,0,0:0:0:0:
402,192,87184,1,0,0:0:0:0:
182,192,87264,1,0,0:0:0:0:
475,192,87264,1,0,0:0:0:0:
109,192,87343,1,0,0:0:0:0:
402,192,87343,1,0,0:0:0:0:
36,192,87422,1,0,0:0:0:0:
329,192,87422,1,0,0:0:0:0:
256,192,87502,1,0,0:0:0:0:
109,192,87502,1,0,0:0:0:0:
329,192,87581,1,0,0:0:0:0:
182,192,87581,1,0,0:0:0:0:
402,192,87660,1,0,0:0:0:0:
109,192,87660,1,0,0:0:0:0:
329,192,87740,1,0,0:0:0:0:
256,192,87740,1,0,0:0:0:0:
36,192,87740,1,0,0:0:0:0:
475,192,87819,1,0,0:0:0:0:
402,192,87819,1,0,0:0:0:0:
256,192,87898,1,0,0:0:0:0:
182,192,87898,1,0,0:0:0:0:
402,192,87978,1,0,0:0:0:0:
475,192,87978,1,0,0:0:0:0:
182,192,88057,1,0,0:0:0:0:
109,192,88057,1,0,0:0:0:0:
329,192,88137,1,0,0:0:0:0:
402,192,88137,1,0,0:0:0:0:
109,192,88216,1,0,0:0:0:0:
36,192,88216,1,0,0:0:0:0:
256,192,88295,1,0,0:0:0:0:
329,192,88295,1,0,0:0:0:0:
36,192,88375,1,0,0:0:0:0:
109,192,88375,1,0,0:0:0:0:
182,192,88454,1,0,0:0:0:0:
256,192,88454,1,0,0:0:0:0:
329,192,88533,1,0,0:0:0:0:
402,192,88533,1,0,0:0:0:0:
475,192,88613,1,0,0:0:0:0:
329,192,88692,1,0,0:0:0:0:
182,192,88692,1,0,0:0:0:0:
475,192,88771,1,0,0:0:0:0:
329,192,88851,1,0,0:0:0:0:
182,192,88851,1,0,0:0:0:0:
36,192,88930,1,0,0:0:0:0:
182,192,89010,1,0,0:0:0:0:
329,192,89010,1,0,0:0:0:0:
475,192,89089,1,0,0:0:0:0:
329,192,89168,1,0,0:0:0:0:
182,192,89248,1,0,0:0:0:0:
36,192,89327,1,0,0:0:0:0:
402,192,89327,1,0,0:0:0:0:
256,192,89406,1,0,0:0:0:0:
109,192,89486,1,0,0:0:0:0:
36,192,89565,1,0,0:0:0:0:
475,192,89644,1,0,0:0:0:0:
182,192,89644,1,0,0:0:0:0:
402,192,89724,1,0,0:0:0:0:
256,192,89724,1,0,0:0:0:0:
36,192,89803,1,0,0:0:0:0:
329,192,89803,1,0,0:0:0:0:
109,192,89883,1,0,0:0:0:0:
256,192,89883,1,0,0:0:0:0:
402,192,89962,1,0,0:0:0:0:
182,192,89962,1,0,0:0:0:0:
329,192,90041,1,0,0:0:0:0:
256,192,90041,1,0,0:0:0:0:
109,192,90121,1,0,0:0:0:0:
475,192,90121,1,0,0:0:0:0:
182,192,90200,1,0,0:0:0:0:
402,192,90200,1,0,0:0:0:0:
329,192,90279,1,0,0:0:0:0:
109,192,90279,1,0,0:0:0:0:
402,192,90359,1,0,0:0:0:0:
36,192,90359,1,0,0:0:0:0:
475,192,90438,1,0,0:0:0:0:
109,192,90438,1,0,0:0:0:0:
402,192,90517,1,0,0:0:0:0:
182,192,90517,1,0,0:0:0:0:
36,192,90597,1,0,0:0:0:0:
256,192,90597,1,0,0:0:0:0:
475,192,90597,1,0,0:0:0:0:
182,192,90676,1,0,0:0:0:0:
402,192,90676,1,0,0:0:0:0:
109,192,90756,1,0,0:0:0:0:
329,192,90756,1,0,0:0:0:0:
36,192,90914,1,0,0:0:0:0:
256,192,90914,1,0,0:0:0:0:
109,192,90994,1,0,0:0:0:0:
329,192,90994,1,0,0:0:0:0:
182,192,91073,1,0,0:0:0:0:
402,192,91073,1,0,0:0:0:0:
256,192,91152,1,0,0:0:0:0:
475,192,91152,1,0,0:0:0:0:
182,192,91232,1,0,0:0:0:0:
402,192,91232,1,0,0:0:0:0:
109,192,91390,1,0,0:0:0:0:
329,192,91390,1,0,0:0:0:0:
36,192,91549,1,0,0:0:0:0:
256,192,91549,1,0,0:0:0:0:
475,192,91549,1,0,0:0:0:0:
256,192,91708,1,0,0:0:0:0:
109,192,91867,1,0,0:0:0:0:
402,192,91867,1,0,0:0:0:0:
256,192,91867,1,0,0:0:0:0:
256,192,92025,1,0,0:0:0:0:
182,192,92184,1,0,0:0:0:0:
256,192,92184,1,0,0:0:0:0:
329,192,92184,1,0,0:0:0:0:
256,192,92343,1,0,0:0:0:0:
256,192,92502,1,0,0:0:0:0:
475,192,92502,1,0,0:0:0:0:
36,192,92502,1,0,0:0:0:0:
109,192,92581,1,0,0:0:0:0:
329,192,92581,1,0,0:0:0:0:
182,192,92660,1,0,0:0:0:0:
402,192,92660,1,0,0:0:0:0:
256,192,92819,1,0,0:0:0:0:
475,192,92819,1,0,0:0:0:0:
182,192,92898,1,0,0:0:0:0:
402,192,92898,1,0,0:0:0:0:
109,192,92978,1,0,0:0:0:0:
329,192,92978,1,0,0:0:0:0:
36,192,93057,1,0,0:0:0:0:
256,192,93057,1,0,0:0:0:0:
109,192,93137,1,0,0:0:0:0:
329,192,93137,1,0,0:0:0:0:
182,192,93295,1,0,0:0:0:0:
402,192,93295,1,0,0:0:0:0:
256,192,93454,1,0,0:0:0:0:
475,192,93454,1,0,0:0:0:0:
182,192,93533,1,0,0:0:0:0:
402,192,93533,1,0,0:0:0:0:
109,192,93613,1,0,0:0:0:0:
329,192,93613,1,0,0:0:0:0:
36,192,93771,1,0,0:0:0:0:
256,192,93771,1,0,0:0:0:0:
109,192,93851,1,0,0:0:0:0:
329,192,93851,1,0,0:0:0:0:
182,192,93930,1,0,0:0:0:0:
402,192,93930,1,0,0:0:0:0:
256,192,94010,1,0,0:0:0:0:
475,192,94010,1,0,0:0:0:0:
182,192,94089,1,0,0:0:0:0:
402,192,94089,1,0,0:0:0:0:
109,192,94168,1,0,0:0:0:0:
329,192,94168,1,0,0:0:0:0:
36,192,94248,1,0,0:0:0:0:
256,192,94248,1,0,0:0:0:0:
109,192,94327,1,0,0:0:0:0:
329,192,94327,1,0,0:0:0:0:
182,192,94406,1,0,0:0:0:0:
402,192,94406,1,0,0:0:0:0:
475,192,94406,1,0,0:0:0:0:
256,192,94565,1,0,0:0:0:0:
109,192,94724,1,0,0:0:0:0:
402,192,94724,1,0,0:0:0:0:
329,192,94724,1,0,0:0:0:0:
182,192,94883,1,0,0:0:0:0:
36,192,95041,1,0,0:0:0:0:
256,192,95041,1,0,0:0:0:0:
329,192,95041,1,0,0:0:0:0:
109,192,95200,1,0,0:0:0:0:
329,192,95200,1,0,0:0:0:0:
402,192,95200,1,0,0:0:0:0:
182,192,95359,1,0,0:0:0:0:
402,192,95359,1,0,0:0:0:0:
475,192,95359,1,0,0:0:0:0:
256,192,95517,1,0,0:0:0:0:
109,192,95676,1,0,0:0:0:0:
329,192,95676,1,0,0:0:0:0:
402,192,95676,1,0,0:0:0:0:
182,192,95835,1,0,0:0:0:0:
36,192,95994,1,0,0:0:0:0:
256,192,95994,1,0,0:0:0:0:
329,192,95994,1,0,0:0:0:0:
109,192,96152,1,0,0:0:0:0:
182,192,96311,1,0,0:0:0:0:
256,192,96311,1,0,0:0:0:0:
329,192,96311,1,0,0:0:0:0:
402,192,96311,1,0,0:0:0:0:
475,192,96311,1,0,0:0:0:0:
475,192,96787,1,0,0:0:0:0:
256,192,96787,1,0,0:0:0:0:
182,192,96787,1,0,0:0:0:0:
402,192,96787,1,0,0:0:0:0:
36,192,96946,1,0,0:0:0:0:
329,192,96946,1,0,0:0:0:0:
402,192,97025,1,0,0:0:0:0:
109,192,97025,1,0,0:0:0:0:
475,192,97105,1,0,0:0:0:0:
182,192,97105,1,0,0:0:0:0:
182,192,97264,1,0,0:0:0:0:
256,192,97264,1,0,0:0:0:0:
402,192,97264,1,0,0:0:0:0:
475,192,97264,1,0,0:0:0:0:
109,192,97581,1,0,0:0:0:0:
182,192,97581,1,0,0:0:0:0:
329,192,97581,1,0,0:0:0:0:
402,192,97581,1,0,0:0:0:0:
36,192,97898,1,0,0:0:0:0:
109,192,97898,1,0,0:0:0:0:
256,192,97898,1,0,0:0:0:0:
329,192,97898,1,0,0:0:0:0:
36,192,98216,1,0,0:0:0:0:
182,192,98216,1,0,0:0:0:0:
329,192,98216,1,0,0:0:0:0:
109,192,98533,1,0,0:0:0:0:
256,192,98533,1,0,0:0:0:0:
402,192,98533,1,0,0:0:0:0:
329,192,98851,1,0,0:0:0:0:
475,192,98851,1,0,0:0:0:0:
182,192,98851,1,0,0:0:0:0:
256,192,99168,1,0,0:0:0:0:
329,192,99168,1,0,0:0:0:0:
182,192,99168,1,0,0:0:0:0:
402,192,99168,1,0,0:0:0:0:
475,192,99168,1,0,0:0:0:0:
182,192,99486,1,0,0:0:0:0:
256,192,99486,1,0,0:0:0:0:
109,192,99486,1,0,0:0:0:0:
329,192,99486,1,0,0:0:0:0:
402,192,99486,1,0,0:0:0:0:
36,192,99803,1,0,0:0:0:0:
109,192,99803,1,0,0:0:0:0:
182,192,99803,1,0,0:0:0:0:
256,192,99803,1,0,0:0:0:0:
329,192,99803,1,0,0:0:0:0:
329,192,100121,1,0,0:0:0:0:
402,192,100121,1,0,0:0:0:0:
475,192,100121,1,0,0:0:0:0:
182,192,100438,1,0,0:0:0:0:
475,192,100438,1,0,0:0:0:0:
109,192,100517,1,0,0:0:0:0:
402,192,100517,1,0,0:0:0:0:
36,192,100597,1,0,0:0:0:0:
329,192,100597,1,0,0:0:0:0:
109,192,100676,1,0,0:0:0:0:
402,192,100676,1,0,0:0:0:0:
182,192,100756,1,0,0:0:0:0:
475,192,100756,1,0,0:0:0:0:
402,192,100835,1,0,0:0:0:0:
109,192,100835,1,0,0:0:0:0:
329,192,100914,1,0,0:0:0:0:
36,192,100914,1,0,0:0:0:0:
256,192,100994,1,0,0:0:0:0:
109,192,100994,1,0,0:0:0:0:
329,192,101073,1,0,0:0:0:0:
402,192,101073,1,0,0:0:0:0:
475,192,101073,1,0,0:0:0:0:
329,192,101390,1,0,0:0:0:0:
36,192,101390,1,0,0:0:0:0:
109,192,101470,1,0,0:0:0:0:
402,192,101470,1,0,0:0:0:0:
182,192,101549,1,0,0:0:0:0:
475,192,101549,1,0,0:0:0:0:
402,192,101629,1,0,0:0:0:0:
109,192,101629,1,0,0:0:0:0:
329,192,101708,1,0,0:0:0:0:
36,192,101708,1,0,0:0:0:0:
402,192,101787,1,0,0:0:0:0:
109,192,101787,1,0,0:0:0:0:
182,192,101867,1,0,0:0:0:0:
475,192,101867,1,0,0:0:0:0:
402,192,101946,1,0,0:0:0:0:
256,192,101946,1,0,0:0:0:0:
36,192,102025,1,0,0:0:0:0:
109,192,102025,1,0,0:0:0:0:
182,192,102025,1,0,0:0:0:0:
256,192,102105,1,0,0:0:0:0:
329,192,102184,1,0,0:0:0:0:
402,192,102264,1,0,0:0:0:0:
329,192,102343,1,0,0:0:0:0:
256,192,102343,1,0,0:0:0:0:
182,192,102343,1,0,0:0:0:0:
36,192,102343,1,0,0:0:0:0:
109,192,102343,1,0,0:0:0:0:
256,192,102502,1,0,0:0:0:0:
182,192,102502,1,0,0:0:0:0:
329,192,102502,1,0,0:0:0:0:
402,192,102502,1,0,0:0:0:0:
475,192,102502,1,0,0:0:0:0:
402,192,102660,1,0,0:0:0:0:
109,192,102660,1,0,0:0:0:0:
329,192,102740,1,0,0:0:0:0:
182,192,102740,1,0,0:0:0:0:
475,192,102819,1,0,0:0:0:0:
36,192,102819,1,0,0:0:0:0:
402,192,102898,1,0,0:0:0:0:
109,192,102898,1,0,0:0:0:0:
329,192,102978,1,0,0:0:0:0:
256,192,102978,1,0,0:0:0:0:
182,192,102978,1,0,0:0:0:0:
182,192,103137,1,0,0:0:0:0:
256,192,103137,1,0,0:0:0:0:
329,192,103137,1,0,0:0:0:0:
109,192,103295,1,0,0:0:0:0:
402,192,103295,1,0,0:0:0:0:
109,192,103454,1,0,0:0:0:0:
402,192,103454,1,0,0:0:0:0:
329,192,103454,1,0,0:0:0:0:
182,192,103454,1,0,0:0:0:0:
256,192,103613,1,0,0:0:0:0:
182,192,103692,1,0,0:0:0:0:
329,192,103692,1,0,0:0:0:0:
109,192,103771,1,0,0:0:0:0:
402,192,103771,1,0,0:0:0:0:
36,192,103851,1,0,0:0:0:0:
475,192,103851,1,0,0:0:0:0:
109,192,103930,1,0,0:0:0:0:
182,192,103930,1,0,0:0:0:0:
256,192,103930,1,0,0:0:0:0:
329,192,103930,1,0,0:0:0:0:
402,192,103930,1,0,0:0:0:0:
36,192,104089,1,0,0:0:0:0:
182,192,104089,1,0,0:0:0:0:
329,192,104089,1,0,0:0:0:0:
475,192,104089,1,0,0:0:0:0:
182,192,104248,1,0,0:0:0:0:
475,192,104248,1,0,0:0:0:0:
109,192,104287,1,0,0:0:0:0:
402,192,104287,1,0,0:0:0:0:
36,192,104327,1,0,0:0:0:0:
329,192,104327,1,0,0:0:0:0:
256,192,104367,1,0,0:0:0:0:
182,192,104406,1,0,0:0:0:0:
256,192,104446,1,0,0:0:0:0:
329,192,104486,1,0,0:0:0:0:
36,192,104486,1,0,0:0:0:0:
402,192,104525,1,0,0:0:0:0:
109,192,104525,1,0,0:0:0:0:
475,192,104565,1,0,0:0:0:0:
182,192,104565,1,0,0:0:0:0:
256,192,104605,1,0,0:0:0:0:
329,192,104644,1,0,0:0:0:0:
256,192,104684,1,0,0:0:0:0:
182,192,104724,1,0,0:0:0:0:
475,192,104724,1,0,0:0:0:0:
109,192,104764,1,0,0:0:0:0:
402,192,104764,1,0,0:0:0:0:
36,192,104803,1,0,0:0:0:0:
329,192,104803,1,0,0:0:0:0:
256,192,104843,1,0,0:0:0:0:
182,192,104883,1,0,0:0:0:0:
329,192,105200,1,0,0:0:0:0:
182,192,105240,1,0,0:0:0:0:
36,192,105279,1,0,0:0:0:0:
402,192,105319,1,0,0:0:0:0:
256,192,105359,1,0,0:0:0:0:
109,192,105398,1,0,0:0:0:0:
475,192,105438,1,0,0:0:0:0:
329,192,105478,1,0,0:0:0:0:
182,192,105517,1,0,0:0:0:0:
256,192,105557,1,0,0:0:0:0:
329,192,105597,1,0,0:0:0:0:
402,192,105637,1,0,0:0:0:0:
475,192,105676,1,0,0:0:0:0:
36,192,105676,1,0,0:0:0:0:
109,192,105716,1,0,0:0:0:0:
182,192,105756,1,0,0:0:0:0:
256,192,105795,1,0,0:0:0:0:
329,192,105835,1,0,0:0:0:0:
402,192,105835,1,0,0:0:0:0:
475,192,105835,1,0,0:0:0:0:
36,192,105941,1,0,0:0:0:0:
256,192,105941,1,0,0:0:0:0:
109,192,106047,1,0,0:0:0:0:
329,192,106047,1,0,0:0:0:0:
182,192,106152,1,0,0:0:0:0:
402,192,106152,1,0,0:0:0:0:
109,192,106258,1,0,0:0:0:0:
329,192,106258,1,0,0:0:0:0:
36,192,106364,1,0,0:0:0:0:
256,192,106364,1,0,0:0:0:0:
182,192,106470,1,0,0:0:0:0:
402,192,106470,1,0,0:0:0:0:
475,192,106470,1,0,0:0:0:0:
329,192,106549,1,0,0:0:0:0:
109,192,106549,1,0,0:0:0:0:
256,192,106629,1,0,0:0:0:0:
36,192,106629,1,0,0:0:0:0:
109,192,106708,1,0,0:0:0:0:
329,192,106708,1,0,0:0:0:0:
182,192,106787,1,0,0:0:0:0:
402,192,106787,1,0,0:0:0:0:
475,192,106787,1,0,0:0:0:0:
36,192,106946,1,0,0:0:0:0:
256,192,106946,1,0,0:0:0:0:
329,192,106946,1,0,0:0:0:0:
36,192,107105,1,0,0:0:0:0:
329,192,107105,1,0,0:0:0:0:
109,192,107144,1,0,0:0:0:0:
402,192,107144,1,0,0:0:0:0:
182,192,107184,1,0,0:0:0:0:
475,192,107184,1,0,0:0:0:0:
256,192,107224,1,0,0:0:0:0:
329,192,107264,1,0,0:0:0:0:
256,192,107303,1,0,0:0:0:0:
182,192,107343,1,0,0:0:0:0:
475,192,107343,1,0,0:0:0:0:
109,192,107383,1,0,0:0:0:0:
402,192,107383,1,0,0:0:0:0:
36,192,107422,1,0,0:0:0:0:
329,192,107422,1,0,0:0:0:0:
109,192,107502,1,0,0:0:0:0:
402,192,107502,1,0,0:0:0:0:
182,192,107581,1,0,0:0:0:0:
475,192,107581,1,0,0:0:0:0:
256,192,107660,1,0,0:0:0:0:
402,192,107660,1,0,0:0:0:0:
36,192,107740,128,0,108692:0:0:0:0:
329,192,107740,128,0,108692:0:0:0:0:
182,192,108692,1,0,0:0:0:0:
475,192,108692,1,0,0:0:0:0:
109,192,108771,1,0,0:0:0:0:
402,192,108771,1,0,0:0:0:0:
36,192,108851,1,0,0:0:0:0:
329,192,108851,1,0,0:0:0:0:
109,192,108930,1,0,0:0:0:0:
402,192,108930,1,0,0:0:0:0:
182,192,109010,1,0,0:0:0:0:
475,192,109010,1,0,0:0:0:0:
109,192,109089,1,0,0:0:0:0:
402,192,109089,1,0,0:0:0:0:
36,192,109168,1,0,0:0:0:0:
329,192,109168,1,0,0:0:0:0:
36,192,109327,1,0,0:0:0:0:
329,192,109327,1,0,0:0:0:0:
109,192,109327,1,0,0:0:0:0:
402,192,109327,1,0,0:0:0:0:
36,192,109486,1,0,0:0:0:0:
329,192,109486,1,0,0:0:0:0:
109,192,109486,1,0,0:0:0:0:
182,192,109486,1,0,0:0:0:0:
402,192,109486,1,0,0:0:0:0:
475,192,109486,1,0,0:0:0:0:
402,192,109644,1,0,0:0:0:0:
329,192,109724,1,0,0:0:0:0:
182,192,109803,1,0,0:0:0:0:
109,192,109883,1,0,0:0:0:0:
182,192,109962,1,0,0:0:0:0:
329,192,110041,1,0,0:0:0:0:
402,192,110121,1,0,0:0:0:0:
329,192,110200,1,0,0:0:0:0:
182,192,110279,1,0,0:0:0:0:
182,192,110359,1,0,0:0:0:0:
182,192,110438,1,0,0:0:0:0:
402,192,110597,1,0,0:0:0:0:
475,192,110676,1,0,0:0:0:0:
402,192,110756,1,0,0:0:0:0:
109,192,110835,1,0,0:0:0:0:
36,192,110914,1,0,0:0:0:0:
109,192,110994,1,0,0:0:0:0:
402,192,111073,1,0,0:0:0:0:
475,192,111152,1,0,0:0:0:0:
402,192,111232,1,0,0:0:0:0:
109,192,111311,1,0,0:0:0:0:
36,192,111390,1,0,0:0:0:0:
109,192,111470,1,0,0:0:0:0:
182,192,111549,1,0,0:0:0:0:
256,192,111549,1,0,0:0:0:0:
329,192,111549,1,0,0:0:0:0:
402,192,111549,1,0,0:0:0:0:
475,192,111549,1,0,0:0:0:0:
