osu file format v14

[General]
AudioFilename: BEDLAM.mp3
AudioLeadIn: 0
PreviewTime: 22351
Countdown: 0
SampleSet: Normal
StackLeniency: 0.7
Mode: 3
LetterboxInBreaks: 0
SpecialStyle: 0
WidescreenStoryboard: 0

[Editor]
DistanceSpacing: 0.8
BeatDivisor: 4
GridSize: 16
TimelineZoom: 3.599998

[Metadata]
Title:__M A S__ Vol. 1
TitleUnicode:__M A S__ Vol. 1
Artist:Various
ArtistUnicode:Various
Creator:[ C r a c k ]
Version:SANY-ON - BEDLAM - 7K EX
Source:
Tags:
BeatmapID:1144428
BeatmapSetID:539584

[Difficulty]
HPDrainRate:8
CircleSize:7
OverallDifficulty:5
ApproachRate:5
SliderMultiplier:1.4
SliderTickRate:1

[Events]
//Background and Video events
0,0,"BG 2.png",0,0
//Break Periods
//Storyboard Layer 0 (Background)
//Storyboard Layer 1 (Fail)
//Storyboard Layer 2 (Pass)
//Storyboard Layer 3 (Foreground)
//Storyboard Sound Samples

[TimingPoints]
1460,327.868852459016,4,1,0,0,1,0
12443,0.91552734375,4,1,0,0,1,0
12463,999999999,4,1,0,0,1,0
12735,327.868852459016,4,1,0,0,1,0
13755,0.91552734375,4,1,0,0,1,0
13775,999999999,4,1,0,0,1,0
14046,327.868852459016,4,1,0,0,1,0
15066,0.91552734375,4,1,0,0,1,0
15086,999999999,4,1,0,0,1,0
15358,327.868852459016,4,1,0,0,1,0
17689,0.91552734375,4,1,0,0,1,0
17709,999999999,4,1,0,0,1,0
17981,327.868852459016,4,1,0,0,1,0
19000,0.91552734375,4,1,0,0,1,0
19020,999999999,4,1,0,0,1,0
19292,327.868852459016,4,1,0,0,1,0
20312,0.91552734375,4,1,0,0,1,0
20332,999999999,4,1,0,0,1,0
20604,327.868852459016,4,1,0,0,1,0
21132,327.868852459016,4,1,0,0,1,0
34902,-50,4,1,0,0,0,0
34923,-1000,4,1,0,0,0,0
34943,-50,4,1,0,0,0,0
34964,-1000,4,1,0,0,0,0
34984,-50,4,1,0,0,0,0
35005,-1000,4,1,0,0,0,0
35025,-50,4,1,0,0,0,0
35046,-1000,4,1,0,0,0,0
35066,-50,4,1,0,0,0,0
35087,-1000,4,1,0,0,0,0
35107,-50,4,1,0,0,0,0
35128,-1000,4,1,0,0,0,0
35148,-50,4,1,0,0,0,0
35169,-1000,4,1,0,0,0,0
35189,-50,4,1,0,0,0,0
35209,-1000,4,1,0,0,0,0
35230,-50,4,1,0,0,0,0
35250,-1000,4,1,0,0,0,0
35271,-50,4,1,0,0,0,0
35291,-1000,4,1,0,0,0,0
35312,-50,4,1,0,0,0,0
35332,-1000,4,1,0,0,0,0
35353,-50,4,1,0,0,0,0
35373,-1000,4,1,0,0,0,0
35394,-50,4,1,0,0,0,0
35414,-1000,4,1,0,0,0,0
35435,-50,4,1,0,0,0,0
35455,-1000,4,1,0,0,0,0
35476,-50,4,1,0,0,0,0
35496,-1000,4,1,0,0,0,0
35517,-50,4,1,0,0,0,0
35537,-1000,4,1,0,0,0,0
35558,-100,4,1,0,0,0,0
58837,-50,4,1,0,0,0,0
58857,-1000,4,1,0,0,0,0
58878,-50,4,1,0,0,0,0
58898,-1000,4,1,0,0,0,0
58919,-50,4,1,0,0,0,0
58939,-1000,4,1,0,0,0,0
58959,-50,4,1,0,0,0,0
58980,-1000,4,1,0,0,0,0
59000,-50,4,1,0,0,0,0
59021,-1000,4,1,0,0,0,0
59041,-50,4,1,0,0,0,0
59062,-1000,4,1,0,0,0,0
59082,-50,4,1,0,0,0,0
59103,-1000,4,1,0,0,0,0
59123,-50,4,1,0,0,0,0
59144,-1000,4,1,0,0,0,0
59164,-100,4,1,0,0,0,0
64000,-125,4,1,0,0,0,0
64410,-142.857142857143,4,1,0,0,0,0
64574,-166.666666666667,4,1,0,0,0,0
65066,-200,4,1,0,0,0,0
65558,-250.000000000001,4,1,0,0,0,0
65886,-333.333333333334,4,1,0,0,0,0
72279,-250,4,1,0,0,0,0
74902,-200,4,1,0,0,0,0
75558,-166.666666666667,4,1,0,0,0,0
76214,-142.857142857143,4,1,0,0,0,0
76869,-125,4,1,0,0,0,0
77525,-111.111111111111,4,1,0,0,0,0
78181,-100,4,1,0,0,0,0
85394,-66.6666666666667,4,1,0,0,0,0
85476,-133.333333333333,4,1,0,0,0,0
85558,-66.6666666666667,4,1,0,0,0,0
85640,-133.333333333333,4,1,0,0,0,0
85722,-66.6666666666667,4,1,0,0,0,0
85804,-133.333333333333,4,1,0,0,0,0
85886,-66.6666666666667,4,1,0,0,0,0
85968,-133.333333333333,4,1,0,0,0,0
86050,-100,4,1,0,0,0,0
86705,-66.6666666666667,4,1,0,0,0,0
86787,-133.333333333333,4,1,0,0,0,0
86869,-66.6666666666667,4,1,0,0,0,0
86951,-133.333333333333,4,1,0,0,0,0
87033,-66.6666666666667,4,1,0,0,0,0
87115,-133.333333333333,4,1,0,0,0,0
87197,-66.6666666666667,4,1,0,0,0,0
87279,-133.333333333333,4,1,0,0,0,0
87361,-100,4,1,0,0,0,0
88017,-66.6666666666667,4,1,0,0,0,0
88099,-133.333333333333,4,1,0,0,0,0
88181,-66.6666666666667,4,1,0,0,0,0
88263,-133.333333333333,4,1,0,0,0,0
88345,-66.6666666666667,4,1,0,0,0,0
88427,-133.333333333333,4,1,0,0,0,0
88509,-66.6666666666667,4,1,0,0,0,0
88591,-133.333333333333,4,1,0,0,0,0
88673,-100,4,1,0,0,0,0
90640,-66.6666666666667,4,1,0,0,0,0
90722,-133.333333333333,4,1,0,0,0,0
90804,-66.6666666666667,4,1,0,0,0,0
90886,-133.333333333333,4,1,0,0,0,0
90968,-66.6666666666667,4,1,0,0,0,0
91050,-133.333333333333,4,1,0,0,0,0
91132,-66.6666666666667,4,1,0,0,0,0
91214,-133.333333333333,4,1,0,0,0,0
91296,-100,4,1,0,0,0,0
91951,-66.6666666666667,4,1,0,0,0,0
92033,-133.333333333333,4,1,0,0,0,0
92115,-66.6666666666667,4,1,0,0,0,0
92197,-133.333333333333,4,1,0,0,0,0
92279,-66.6666666666667,4,1,0,0,0,0
92361,-133.333333333333,4,1,0,0,0,0
92443,-66.6666666666667,4,1,0,0,0,0
92525,-133.333333333333,4,1,0,0,0,0
92607,-100,4,1,0,0,0,0
93263,-66.6666666666667,4,1,0,0,0,0
93345,-133.333333333333,4,1,0,0,0,0
93427,-66.6666666666667,4,1,0,0,0,0
93509,-133.333333333333,4,1,0,0,0,0
93591,-66.6666666666667,4,1,0,0,0,0
93673,-133.333333333333,4,1,0,0,0,0
93755,-66.6666666666667,4,1,0,0,0,0
93837,-133.333333333333,4,1,0,0,0,0
93919,-100,4,1,0,0,0,0
95886,-66.6666666666667,4,1,0,0,0,0
95968,-133.333333333333,4,1,0,0,0,0
96050,-66.6666666666667,4,1,0,0,0,0
96132,-133.333333333333,4,1,0,0,0,0
96214,-66.6666666666667,4,1,0,0,0,0
96296,-133.333333333333,4,1,0,0,0,0
96378,-66.6666666666667,4,1,0,0,0,0
96459,-133.333333333333,4,1,0,0,0,0
96541,-100,4,1,0,0,0,0
97197,-66.6666666666667,4,1,0,0,0,0
97279,-133.333333333333,4,1,0,0,0,0
97361,-66.6666666666667,4,1,0,0,0,0
97443,-133.333333333333,4,1,0,0,0,0
97525,-66.6666666666667,4,1,0,0,0,0
97607,-133.333333333333,4,1,0,0,0,0
97689,-66.6666666666667,4,1,0,0,0,0
97771,-133.333333333333,4,1,0,0,0,0
97853,-100,4,1,0,0,0,0
98509,-66.6666666666667,4,1,0,0,0,0
98591,-133.333333333333,4,1,0,0,0,0
98673,-66.6666666666667,4,1,0,0,0,0
98755,-133.333333333333,4,1,0,0,0,0
98837,-66.6666666666667,4,1,0,0,0,0
98919,-133.333333333333,4,1,0,0,0,0
99000,-66.6666666666667,4,1,0,0,0,0
99082,-133.333333333333,4,1,0,0,0,0
99164,-100,4,1,0,0,0,0
101132,-76.9230769230769,4,1,0,0,0,0
101241,-133.333333333333,4,1,0,0,0,0
101350,-100,4,1,0,0,0,0
101459,-76.9230769230769,4,1,0,0,0,0
101569,-133.333333333333,4,1,0,0,0,0
101678,-100,4,1,0,0,0,0
101787,-76.9230769230769,4,1,0,0,0,0
101897,-133.333333333333,4,1,0,0,0,0
102006,-100,4,1,0,0,0,0
102115,-76.9230769230769,4,1,0,0,0,0
102225,-133.333333333333,4,1,0,0,0,0
102334,-100,4,1,0,0,0,0
102443,-76.9230769230769,4,1,0,0,0,0
102552,-133.333333333333,4,1,0,0,0,0
102662,-100,4,1,0,0,0,0
102771,-76.9230769230769,4,1,0,0,0,0
102880,-133.333333333333,4,1,0,0,0,0
102990,-100,4,1,0,0,0,0
103755,-76.9230769230769,4,1,0,0,0,0
103864,-133.333333333333,4,1,0,0,0,0
103973,-100,4,1,0,0,0,0
104082,-76.9230769230769,4,1,0,0,0,0
104192,-133.333333333333,4,1,0,0,0,0
104301,-100,4,1,0,0,0,0
104410,-76.9230769230769,4,1,0,0,0,0
104520,-133.333333333333,4,1,0,0,0,0
104629,-100,4,1,0,0,0,0

[HitObjects]
36,192,1460,5,0,0:0:0:0:
182,192,1460,1,0,0:0:0:0:
402,192,1460,1,0,0:0:0:0:
256,192,1623,1,0,0:0:0:0:
182,192,1787,1,0,0:0:0:0:
36,192,1787,1,0,0:0:0:0:
402,192,1787,1,0,0:0:0:0:
256,192,1951,1,0,0:0:0:0:
109,192,2115,1,0,0:0:0:0:
182,192,2115,1,0,0:0:0:0:
329,192,2115,1,0,0:0:0:0:
475,192,2115,1,0,0:0:0:0:
256,192,2279,1,0,0:0:0:0:
182,192,2361,1,0,0:0:0:0:
109,192,2361,1,0,0:0:0:0:
402,192,2361,1,0,0:0:0:0:
475,192,2361,1,0,0:0:0:0:
256,192,2525,1,0,0:0:0:0:
182,192,2607,1,0,0:0:0:0:
109,192,2607,1,0,0:0:0:0:
402,192,2607,1,0,0:0:0:0:
475,192,2607,1,0,0:0:0:0:
329,192,2771,1,0,0:0:0:0:
109,192,2771,1,0,0:0:0:0:
475,192,2771,1,0,0:0:0:0:
256,192,2935,1,0,0:0:0:0:
329,192,3099,1,0,0:0:0:0:
109,192,3099,1,0,0:0:0:0:
475,192,3099,1,0,0:0:0:0:
256,192,3263,1,0,0:0:0:0:
182,192,3427,1,0,0:0:0:0:
36,192,3427,1,0,0:0:0:0:
329,192,3427,1,0,0:0:0:0:
402,192,3427,1,0,0:0:0:0:
256,192,3591,1,0,0:0:0:0:
182,192,3673,1,0,0:0:0:0:
109,192,3673,1,0,0:0:0:0:
329,192,3673,1,0,0:0:0:0:
475,192,3673,1,0,0:0:0:0:
256,192,3837,1,0,0:0:0:0:
182,192,3919,1,0,0:0:0:0:
109,192,3919,1,0,0:0:0:0:
329,192,3919,1,0,0:0:0:0:
475,192,3919,1,0,0:0:0:0:
36,192,4082,1,0,0:0:0:0:
256,192,4082,1,0,0:0:0:0:
402,192,4082,1,0,0:0:0:0:
182,192,4246,1,0,0:0:0:0:
36,192,4410,1,0,0:0:0:0:
256,192,4410,1,0,0:0:0:0:
402,192,4410,1,0,0:0:0:0:
182,192,4574,1,0,0:0:0:0:
329,192,4738,1,0,0:0:0:0:
475,192,4738,1,0,0:0:0:0:
256,192,4738,1,0,0:0:0:0:
109,192,4738,1,0,0:0:0:0:
182,192,4902,1,0,0:0:0:0:
109,192,4902,1,0,0:0:0:0:
256,192,4984,1,0,0:0:0:0:
329,192,4984,1,0,0:0:0:0:
402,192,4984,1,0,0:0:0:0:
475,192,4984,1,0,0:0:0:0:
182,192,5148,1,0,0:0:0:0:
109,192,5148,1,0,0:0:0:0:
256,192,5230,1,0,0:0:0:0:
402,192,5230,1,0,0:0:0:0:
329,192,5230,1,0,0:0:0:0:
475,192,5230,1,0,0:0:0:0:
109,192,5394,1,0,0:0:0:0:
36,192,5394,1,0,0:0:0:0:
182,192,5394,1,0,0:0:0:0:
402,192,5558,1,0,0:0:0:0:
475,192,5558,1,0,0:0:0:0:
329,192,5640,1,0,0:0:0:0:
256,192,5640,1,0,0:0:0:0:
182,192,5722,1,0,0:0:0:0:
109,192,5722,1,0,0:0:0:0:
36,192,5722,1,0,0:0:0:0:
36,192,5886,1,0,0:0:0:0:
109,192,5886,1,0,0:0:0:0:
182,192,5968,1,0,0:0:0:0:
256,192,5968,1,0,0:0:0:0:
329,192,6050,1,0,0:0:0:0:
402,192,6050,1,0,0:0:0:0:
475,192,6050,1,0,0:0:0:0:
109,192,6132,1,0,0:0:0:0:
36,192,6132,1,0,0:0:0:0:
329,192,6214,1,0,0:0:0:0:
402,192,6214,1,0,0:0:0:0:
256,192,6214,1,0,0:0:0:0:
182,192,6296,1,0,0:0:0:0:
109,192,6296,1,0,0:0:0:0:
256,192,6541,1,0,0:0:0:0:
329,192,6541,1,0,0:0:0:0:
402,192,6541,1,0,0:0:0:0:
475,192,6541,1,0,0:0:0:0:
36,192,6705,1,0,0:0:0:0:
182,192,6705,1,0,0:0:0:0:
109,192,6705,1,0,0:0:0:0:
329,192,6869,1,0,0:0:0:0:
402,192,6869,1,0,0:0:0:0:
182,192,7033,1,0,0:0:0:0:
109,192,7033,1,0,0:0:0:0:
36,192,7033,1,0,0:0:0:0:
329,192,7197,1,0,0:0:0:0:
402,192,7197,1,0,0:0:0:0:
256,192,7361,1,0,0:0:0:0:
182,192,7361,1,0,0:0:0:0:
109,192,7361,1,0,0:0:0:0:
36,192,7361,1,0,0:0:0:0:
329,192,7525,1,0,0:0:0:0:
402,192,7525,1,0,0:0:0:0:
475,192,7525,1,0,0:0:0:0:
256,192,7607,1,0,0:0:0:0:
182,192,7607,1,0,0:0:0:0:
109,192,7607,1,0,0:0:0:0:
36,192,7607,1,0,0:0:0:0:
329,192,7771,1,0,0:0:0:0:
402,192,7771,1,0,0:0:0:0:
475,192,7771,1,0,0:0:0:0:
256,192,7853,1,0,0:0:0:0:
182,192,7853,1,0,0:0:0:0:
109,192,7853,1,0,0:0:0:0:
36,192,7853,1,0,0:0:0:0:
329,192,8017,1,0,0:0:0:0:
402,192,8017,1,0,0:0:0:0:
475,192,8017,1,0,0:0:0:0:
182,192,8181,1,0,0:0:0:0:
109,192,8181,1,0,0:0:0:0:
329,192,8345,1,0,0:0:0:0:
402,192,8345,1,0,0:0:0:0:
475,192,8345,1,0,0:0:0:0:
182,192,8509,1,0,0:0:0:0:
109,192,8509,1,0,0:0:0:0:
256,192,8673,1,0,0:0:0:0:
329,192,8673,1,0,0:0:0:0:
402,192,8673,1,0,0:0:0:0:
475,192,8673,1,0,0:0:0:0:
182,192,8837,1,0,0:0:0:0:
109,192,8837,1,0,0:0:0:0:
36,192,8837,1,0,0:0:0:0:
256,192,8919,1,0,0:0:0:0:
329,192,8919,1,0,0:0:0:0:
402,192,8919,1,0,0:0:0:0:
475,192,8919,1,0,0:0:0:0:
182,192,9082,1,0,0:0:0:0:
109,192,9082,1,0,0:0:0:0:
36,192,9082,1,0,0:0:0:0:
256,192,9164,1,0,0:0:0:0:
329,192,9164,1,0,0:0:0:0:
402,192,9164,1,0,0:0:0:0:
475,192,9164,1,0,0:0:0:0:
182,192,9328,1,0,0:0:0:0:
109,192,9328,1,0,0:0:0:0:
36,192,9328,1,0,0:0:0:0:
402,192,9492,1,0,0:0:0:0:
475,192,9492,1,0,0:0:0:0:
182,192,9656,1,0,0:0:0:0:
109,192,9656,1,0,0:0:0:0:
36,192,9656,1,0,0:0:0:0:
402,192,9820,1,0,0:0:0:0:
475,192,9820,1,0,0:0:0:0:
182,192,9984,1,0,0:0:0:0:
109,192,9984,1,0,0:0:0:0:
36,192,9984,1,0,0:0:0:0:
256,192,9984,1,0,0:0:0:0:
329,192,9984,1,0,0:0:0:0:
329,192,10148,1,0,0:0:0:0:
256,192,10148,1,0,0:0:0:0:
182,192,10148,1,0,0:0:0:0:
402,192,10230,1,0,0:0:0:0:
475,192,10230,1,0,0:0:0:0:
109,192,10230,1,0,0:0:0:0:
36,192,10230,1,0,0:0:0:0:
182,192,10394,1,0,0:0:0:0:
256,192,10394,1,0,0:0:0:0:
329,192,10394,1,0,0:0:0:0:
402,192,10476,1,0,0:0:0:0:
475,192,10476,1,0,0:0:0:0:
109,192,10476,1,0,0:0:0:0:
36,192,10476,1,0,0:0:0:0:
256,192,10640,1,0,0:0:0:0:
182,192,10640,1,0,0:0:0:0:
329,192,10640,1,0,0:0:0:0:
402,192,10640,1,0,0:0:0:0:
475,192,10640,1,0,0:0:0:0:
182,192,10886,1,0,0:0:0:0:
256,192,10886,1,0,0:0:0:0:
329,192,10886,1,0,0:0:0:0:
36,192,10968,1,0,0:0:0:0:
109,192,10968,1,0,0:0:0:0:
402,192,10968,1,0,0:0:0:0:
475,192,10968,1,0,0:0:0:0:
329,192,11132,1,0,0:0:0:0:
182,192,11132,1,0,0:0:0:0:
256,192,11132,1,0,0:0:0:0:
109,192,11296,1,0,0:0:0:0:
402,192,11296,1,0,0:0:0:0:
36,192,11296,1,0,0:0:0:0:
475,192,11296,1,0,0:0:0:0:
182,192,11378,1,0,0:0:0:0:
256,192,11378,1,0,0:0:0:0:
402,192,11459,1,0,0:0:0:0:
475,192,11459,1,0,0:0:0:0:
329,192,11459,1,0,0:0:0:0:
256,192,11541,1,0,0:0:0:0:
182,192,11541,1,0,0:0:0:0:
109,192,11623,1,0,0:0:0:0:
36,192,11623,1,0,0:0:0:0:
402,192,11705,1,0,0:0:0:0:
475,192,11705,1,0,0:0:0:0:
256,192,11787,1,0,0:0:0:0:
182,192,11787,1,0,0:0:0:0:
329,192,11787,1,0,0:0:0:0:
109,192,11869,1,0,0:0:0:0:
36,192,11869,1,0,0:0:0:0:
182,192,11951,1,0,0:0:0:0:
256,192,11951,1,0,0:0:0:0:
329,192,11951,1,0,0:0:0:0:
402,192,11951,1,0,0:0:0:0:
475,192,11951,1,0,0:0:0:0:
36,192,12115,1,0,0:0:0:0:
182,192,12115,1,0,0:0:0:0:
475,192,12115,1,0,0:0:0:0:
402,192,12197,1,0,0:0:0:0:
329,192,12279,1,0,0:0:0:0:
109,192,12279,1,0,0:0:0:0:
182,192,12279,1,0,0:0:0:0:
256,192,12443,1,0,0:0:0:0:
182,192,12443,1,0,0:0:0:0:
329,192,12443,1,0,0:0:0:0:
36,192,12443,1,0,0:0:0:0:
475,192,12443,1,0,0:0:0:0:
256,192,12935,1,0,0:0:0:0:
329,192,12935,1,0,0:0:0:0:
402,192,12935,1,0,0:0:0:0:
475,192,12935,1,0,0:0:0:0:
182,192,13017,1,0,0:0:0:0:
109,192,13017,1,0,0:0:0:0:
36,192,13017,1,0,0:0:0:0:
329,192,13099,1,0,0:0:0:0:
256,192,13099,1,0,0:0:0:0:
402,192,13099,1,0,0:0:0:0:
475,192,13099,1,0,0:0:0:0:
36,192,13263,1,0,0:0:0:0:
109,192,13263,1,0,0:0:0:0:
182,192,13263,1,0,0:0:0:0:
256,192,13263,1,0,0:0:0:0:
329,192,13263,1,0,0:0:0:0:
36,192,13427,1,0,0:0:0:0:
329,192,13427,1,0,0:0:0:0:
475,192,13427,1,0,0:0:0:0:
109,192,13509,1,0,0:0:0:0:
182,192,13591,1,0,0:0:0:0:
329,192,13591,1,0,0:0:0:0:
402,192,13591,1,0,0:0:0:0:
36,192,13755,1,0,0:0:0:0:
109,192,13755,1,0,0:0:0:0:
256,192,13755,1,0,0:0:0:0:
402,192,13755,1,0,0:0:0:0:
475,192,13755,1,0,0:0:0:0:
36,192,14246,1,0,0:0:0:0:
109,192,14246,1,0,0:0:0:0:
182,192,14246,1,0,0:0:0:0:
256,192,14246,1,0,0:0:0:0:
329,192,14328,1,0,0:0:0:0:
402,192,14328,1,0,0:0:0:0:
475,192,14328,1,0,0:0:0:0:
182,192,14410,1,0,0:0:0:0:
109,192,14410,1,0,0:0:0:0:
36,192,14410,1,0,0:0:0:0:
256,192,14492,1,0,0:0:0:0:
329,192,14492,1,0,0:0:0:0:
402,192,14492,1,0,0:0:0:0:
475,192,14492,1,0,0:0:0:0:
109,192,14574,1,0,0:0:0:0:
36,192,14574,1,0,0:0:0:0:
182,192,14574,1,0,0:0:0:0:
475,192,14738,1,0,0:0:0:0:
182,192,14738,1,0,0:0:0:0:
402,192,14738,1,0,0:0:0:0:
109,192,14820,1,0,0:0:0:0:
36,192,14902,1,0,0:0:0:0:
329,192,14902,1,0,0:0:0:0:
475,192,14902,1,0,0:0:0:0:
256,192,15066,1,0,0:0:0:0:
402,192,15066,1,0,0:0:0:0:
182,192,15066,1,0,0:0:0:0:
109,192,15066,1,0,0:0:0:0:
329,192,15066,1,0,0:0:0:0:
475,192,15558,1,0,0:0:0:0:
402,192,15558,1,0,0:0:0:0:
329,192,15558,1,0,0:0:0:0:
256,192,15558,1,0,0:0:0:0:
182,192,15640,1,0,0:0:0:0:
109,192,15640,1,0,0:0:0:0:
36,192,15640,1,0,0:0:0:0:
329,192,15722,1,0,0:0:0:0:
402,192,15722,1,0,0:0:0:0:
475,192,15722,1,0,0:0:0:0:
256,192,15804,1,0,0:0:0:0:
182,192,15804,1,0,0:0:0:0:
36,192,15804,1,0,0:0:0:0:
109,192,15804,1,0,0:0:0:0:
402,192,15886,1,0,0:0:0:0:
475,192,15886,1,0,0:0:0:0:
329,192,15886,1,0,0:0:0:0:
36,192,16050,1,0,0:0:0:0:
109,192,16050,1,0,0:0:0:0:
329,192,16050,1,0,0:0:0:0:
402,192,16132,1,0,0:0:0:0:
36,192,16214,1,0,0:0:0:0:
182,192,16214,1,0,0:0:0:0:
475,192,16214,1,0,0:0:0:0:
256,192,16378,1,0,0:0:0:0:
402,192,16378,1,0,0:0:0:0:
475,192,16541,1,0,0:0:0:0:
36,192,16541,1,0,0:0:0:0:
109,192,16541,1,0,0:0:0:0:
329,192,16541,1,0,0:0:0:0:
182,192,16705,1,0,0:0:0:0:
402,192,16705,1,0,0:0:0:0:
475,192,16869,1,0,0:0:0:0:
256,192,16869,1,0,0:0:0:0:
329,192,16869,1,0,0:0:0:0:
36,192,16869,1,0,0:0:0:0:
109,192,17033,1,0,0:0:0:0:
182,192,17033,1,0,0:0:0:0:
256,192,17197,1,0,0:0:0:0:
329,192,17197,1,0,0:0:0:0:
402,192,17197,1,0,0:0:0:0:
475,192,17197,1,0,0:0:0:0:
36,192,17361,1,0,0:0:0:0:
182,192,17361,1,0,0:0:0:0:
402,192,17361,1,0,0:0:0:0:
475,192,17361,1,0,0:0:0:0:
329,192,17443,1,0,0:0:0:0:
256,192,17525,1,0,0:0:0:0:
109,192,17525,1,0,0:0:0:0:
182,192,17689,1,0,0:0:0:0:
256,192,17689,1,0,0:0:0:0:
329,192,17689,1,0,0:0:0:0:
402,192,17689,1,0,0:0:0:0:
475,192,17689,1,0,0:0:0:0:
109,192,18181,1,0,0:0:0:0:
36,192,18181,1,0,0:0:0:0:
182,192,18181,1,0,0:0:0:0:
329,192,18181,1,0,0:0:0:0:
256,192,18181,1,0,0:0:0:0:
402,192,18263,1,0,0:0:0:0:
475,192,18263,1,0,0:0:0:0:
109,192,18345,1,0,0:0:0:0:
256,192,18345,1,0,0:0:0:0:
36,192,18345,1,0,0:0:0:0:
182,192,18345,1,0,0:0:0:0:
329,192,18427,1,0,0:0:0:0:
402,192,18427,1,0,0:0:0:0:
182,192,18509,1,0,0:0:0:0:
109,192,18509,1,0,0:0:0:0:
36,192,18509,1,0,0:0:0:0:
329,192,18673,1,0,0:0:0:0:
475,192,18673,1,0,0:0:0:0:
36,192,18673,1,0,0:0:0:0:
109,192,18673,1,0,0:0:0:0:
182,192,18755,1,0,0:0:0:0:
256,192,18837,1,0,0:0:0:0:
402,192,18837,1,0,0:0:0:0:
109,192,19000,1,0,0:0:0:0:
36,192,19000,1,0,0:0:0:0:
182,192,19000,1,0,0:0:0:0:
256,192,19000,1,0,0:0:0:0:
329,192,19000,1,0,0:0:0:0:
402,192,19492,1,0,0:0:0:0:
475,192,19492,1,0,0:0:0:0:
329,192,19492,1,0,0:0:0:0:
182,192,19492,1,0,0:0:0:0:
256,192,19492,1,0,0:0:0:0:
109,192,19574,1,0,0:0:0:0:
36,192,19574,1,0,0:0:0:0:
402,192,19656,1,0,0:0:0:0:
475,192,19656,1,0,0:0:0:0:
329,192,19656,1,0,0:0:0:0:
256,192,19656,1,0,0:0:0:0:
182,192,19738,1,0,0:0:0:0:
109,192,19738,1,0,0:0:0:0:
329,192,19820,1,0,0:0:0:0:
475,192,19820,1,0,0:0:0:0:
402,192,19820,1,0,0:0:0:0:
109,192,19984,1,0,0:0:0:0:
256,192,19984,1,0,0:0:0:0:
402,192,19984,1,0,0:0:0:0:
182,192,20066,1,0,0:0:0:0:
329,192,20066,1,0,0:0:0:0:
256,192,20148,1,0,0:0:0:0:
402,192,20148,1,0,0:0:0:0:
109,192,20148,1,0,0:0:0:0:
182,192,20312,1,0,0:0:0:0:
36,192,20312,1,0,0:0:0:0:
329,192,20312,1,0,0:0:0:0:
475,192,20312,1,0,0:0:0:0:
36,192,20804,1,0,0:0:0:0:
182,192,20804,1,0,0:0:0:0:
402,192,20804,1,0,0:0:0:0:
256,192,20886,1,0,0:0:0:0:
329,192,20968,1,0,0:0:0:0:
475,192,20968,1,0,0:0:0:0:
109,192,20968,1,0,0:0:0:0:
256,192,21050,1,0,0:0:0:0:
182,192,21132,1,0,0:0:0:0:
36,192,21132,1,0,0:0:0:0:
475,192,21132,1,0,0:0:0:0:
256,192,21296,1,0,0:0:0:0:
36,192,21296,1,0,0:0:0:0:
329,192,21378,1,0,0:0:0:0:
109,192,21378,1,0,0:0:0:0:
402,192,21459,1,0,0:0:0:0:
182,192,21459,1,0,0:0:0:0:
256,192,21541,1,0,0:0:0:0:
475,192,21541,1,0,0:0:0:0:
109,192,21623,1,0,0:0:0:0:
329,192,21623,1,0,0:0:0:0:
182,192,21705,1,0,0:0:0:0:
402,192,21705,1,0,0:0:0:0:
36,192,21787,1,0,0:0:0:0:
256,192,21787,1,0,0:0:0:0:
109,192,21951,1,0,0:0:0:0:
329,192,21951,1,0,0:0:0:0:
256,192,22033,1,0,0:0:0:0:
475,192,22033,1,0,0:0:0:0:
36,192,22197,1,0,0:0:0:0:
256,192,22197,1,0,0:0:0:0:
182,192,22279,1,0,0:0:0:0:
402,192,22279,1,0,0:0:0:0:
36,192,22443,1,0,0:0:0:0:
109,192,22484,1,0,0:0:0:0:
182,192,22525,1,0,0:0:0:0:
256,192,22566,1,0,0:0:0:0:
329,192,22607,1,0,0:0:0:0:
109,192,22648,1,0,0:0:0:0:
182,192,22689,1,0,0:0:0:0:
256,192,22730,1,0,0:0:0:0:
329,192,22771,1,0,0:0:0:0:
402,192,22812,1,0,0:0:0:0:
182,192,22853,1,0,0:0:0:0:
256,192,22894,1,0,0:0:0:0:
329,192,22935,1,0,0:0:0:0:
402,192,22976,1,0,0:0:0:0:
475,192,23017,1,0,0:0:0:0:
109,192,23058,1,0,0:0:0:0:
182,192,23099,1,0,0:0:0:0:
256,192,23140,1,0,0:0:0:0:
329,192,23181,1,0,0:0:0:0:
402,192,23222,1,0,0:0:0:0:
36,192,23263,1,0,0:0:0:0:
109,192,23304,1,0,0:0:0:0:
182,192,23345,1,0,0:0:0:0:
256,192,23386,1,0,0:0:0:0:
329,192,23427,1,0,0:0:0:0:
402,192,23468,1,0,0:0:0:0:
475,192,23509,1,0,0:0:0:0:
109,192,23550,1,0,0:0:0:0:
182,192,23591,1,0,0:0:0:0:
256,192,23632,1,0,0:0:0:0:
329,192,23673,1,0,0:0:0:0:
402,192,23714,1,0,0:0:0:0:
475,192,23755,1,0,0:0:0:0:
402,192,23796,1,0,0:0:0:0:
329,192,23837,1,0,0:0:0:0:
256,192,23878,1,0,0:0:0:0:
182,192,23919,1,0,0:0:0:0:
402,192,23959,1,0,0:0:0:0:
329,192,24000,1,0,0:0:0:0:
256,192,24041,1,0,0:0:0:0:
182,192,24082,1,0,0:0:0:0:
109,192,24123,1,0,0:0:0:0:
329,192,24164,1,0,0:0:0:0:
256,192,24205,1,0,0:0:0:0:
182,192,24246,1,0,0:0:0:0:
109,192,24287,1,0,0:0:0:0:
36,192,24328,1,0,0:0:0:0:
402,192,24369,1,0,0:0:0:0:
329,192,24410,1,0,0:0:0:0:
256,192,24451,1,0,0:0:0:0:
182,192,24492,1,0,0:0:0:0:
109,192,24533,1,0,0:0:0:0:
475,192,24574,1,0,0:0:0:0:
402,192,24615,1,0,0:0:0:0:
329,192,24656,1,0,0:0:0:0:
256,192,24697,1,0,0:0:0:0:
182,192,24738,1,0,0:0:0:0:
109,192,24779,1,0,0:0:0:0:
36,192,24820,1,0,0:0:0:0:
402,192,24861,1,0,0:0:0:0:
329,192,24902,1,0,0:0:0:0:
256,192,24943,1,0,0:0:0:0:
182,192,24984,1,0,0:0:0:0:
109,192,25025,1,0,0:0:0:0:
36,192,25066,1,0,0:0:0:0:
109,192,25107,1,0,0:0:0:0:
182,192,25148,1,0,0:0:0:0:
256,192,25189,1,0,0:0:0:0:
329,192,25230,1,0,0:0:0:0:
109,192,25271,1,0,0:0:0:0:
182,192,25312,1,0,0:0:0:0:
256,192,25353,1,0,0:0:0:0:
329,192,25394,1,0,0:0:0:0:
402,192,25435,1,0,0:0:0:0:
182,192,25476,1,0,0:0:0:0:
256,192,25517,1,0,0:0:0:0:
329,192,25558,1,0,0:0:0:0:
402,192,25599,1,0,0:0:0:0:
475,192,25640,1,0,0:0:0:0:
109,192,25681,1,0,0:0:0:0:
182,192,25722,1,0,0:0:0:0:
256,192,25763,1,0,0:0:0:0:
329,192,25804,1,0,0:0:0:0:
402,192,25845,1,0,0:0:0:0:
36,192,25886,1,0,0:0:0:0:
109,192,25927,1,0,0:0:0:0:
182,192,25968,1,0,0:0:0:0:
256,192,26009,1,0,0:0:0:0:
329,192,26050,1,0,0:0:0:0:
402,192,26091,1,0,0:0:0:0:
475,192,26132,1,0,0:0:0:0:
109,192,26173,1,0,0:0:0:0:
182,192,26214,1,0,0:0:0:0:
256,192,26255,1,0,0:0:0:0:
329,192,26296,1,0,0:0:0:0:
402,192,26337,1,0,0:0:0:0:
475,192,26378,1,0,0:0:0:0:
402,192,26419,1,0,0:0:0:0:
329,192,26459,1,0,0:0:0:0:
256,192,26500,1,0,0:0:0:0:
182,192,26541,1,0,0:0:0:0:
109,192,26582,1,0,0:0:0:0:
402,192,26623,1,0,0:0:0:0:
329,192,26664,1,0,0:0:0:0:
256,192,26705,1,0,0:0:0:0:
182,192,26746,1,0,0:0:0:0:
109,192,26787,1,0,0:0:0:0:
36,192,26828,1,0,0:0:0:0:
109,192,26869,1,0,0:0:0:0:
182,192,26910,1,0,0:0:0:0:
256,192,26951,1,0,0:0:0:0:
329,192,26992,1,0,0:0:0:0:
475,192,27033,1,0,0:0:0:0:
36,192,27033,1,0,0:0:0:0:
402,192,27033,1,0,0:0:0:0:
256,192,27197,1,0,0:0:0:0:
182,192,27197,1,0,0:0:0:0:
329,192,27197,1,0,0:0:0:0:
36,192,27361,1,0,0:0:0:0:
475,192,27361,1,0,0:0:0:0:
109,192,27361,1,0,0:0:0:0:
256,192,27525,1,0,0:0:0:0:
182,192,27525,1,0,0:0:0:0:
329,192,27525,1,0,0:0:0:0:
475,192,27689,1,0,0:0:0:0:
402,192,27730,1,0,0:0:0:0:
329,192,27771,1,0,0:0:0:0:
256,192,27812,1,0,0:0:0:0:
182,192,27853,1,0,0:0:0:0:
402,192,27894,1,0,0:0:0:0:
329,192,27935,1,0,0:0:0:0:
256,192,27976,1,0,0:0:0:0:
182,192,28017,1,0,0:0:0:0:
109,192,28058,1,0,0:0:0:0:
329,192,28099,1,0,0:0:0:0:
256,192,28140,1,0,0:0:0:0:
182,192,28181,1,0,0:0:0:0:
109,192,28222,1,0,0:0:0:0:
36,192,28263,1,0,0:0:0:0:
402,192,28304,1,0,0:0:0:0:
329,192,28345,1,0,0:0:0:0:
256,192,28386,1,0,0:0:0:0:
182,192,28427,1,0,0:0:0:0:
109,192,28468,1,0,0:0:0:0:
475,192,28509,1,0,0:0:0:0:
402,192,28550,1,0,0:0:0:0:
329,192,28591,1,0,0:0:0:0:
256,192,28632,1,0,0:0:0:0:
182,192,28673,1,0,0:0:0:0:
109,192,28714,1,0,0:0:0:0:
36,192,28755,1,0,0:0:0:0:
402,192,28796,1,0,0:0:0:0:
329,192,28837,1,0,0:0:0:0:
256,192,28878,1,0,0:0:0:0:
182,192,28919,1,0,0:0:0:0:
109,192,28959,1,0,0:0:0:0:
36,192,29000,1,0,0:0:0:0:
109,192,29041,1,0,0:0:0:0:
182,192,29082,1,0,0:0:0:0:
256,192,29123,1,0,0:0:0:0:
329,192,29164,1,0,0:0:0:0:
109,192,29205,1,0,0:0:0:0:
182,192,29246,1,0,0:0:0:0:
256,192,29287,1,0,0:0:0:0:
329,192,29328,1,0,0:0:0:0:
402,192,29369,1,0,0:0:0:0:
182,192,29410,1,0,0:0:0:0:
256,192,29451,1,0,0:0:0:0:
329,192,29492,1,0,0:0:0:0:
402,192,29533,1,0,0:0:0:0:
475,192,29574,1,0,0:0:0:0:
109,192,29615,1,0,0:0:0:0:
182,192,29656,1,0,0:0:0:0:
256,192,29697,1,0,0:0:0:0:
329,192,29738,1,0,0:0:0:0:
402,192,29779,1,0,0:0:0:0:
36,192,29820,1,0,0:0:0:0:
109,192,29861,1,0,0:0:0:0:
182,192,29902,1,0,0:0:0:0:
256,192,29943,1,0,0:0:0:0:
329,192,29984,1,0,0:0:0:0:
402,192,30025,1,0,0:0:0:0:
475,192,30066,1,0,0:0:0:0:
109,192,30107,1,0,0:0:0:0:
182,192,30148,1,0,0:0:0:0:
256,192,30189,1,0,0:0:0:0:
329,192,30230,1,0,0:0:0:0:
402,192,30271,1,0,0:0:0:0:
475,192,30312,1,0,0:0:0:0:
402,192,30353,1,0,0:0:0:0:
329,192,30394,1,0,0:0:0:0:
256,192,30435,1,0,0:0:0:0:
182,192,30476,1,0,0:0:0:0:
402,192,30517,1,0,0:0:0:0:
329,192,30558,1,0,0:0:0:0:
256,192,30599,1,0,0:0:0:0:
182,192,30640,1,0,0:0:0:0:
109,192,30681,1,0,0:0:0:0:
329,192,30722,1,0,0:0:0:0:
256,192,30763,1,0,0:0:0:0:
182,192,30804,1,0,0:0:0:0:
109,192,30845,1,0,0:0:0:0:
36,192,30886,1,0,0:0:0:0:
402,192,30927,1,0,0:0:0:0:
329,192,30968,1,0,0:0:0:0:
256,192,31009,1,0,0:0:0:0:
182,192,31050,1,0,0:0:0:0:
109,192,31091,1,0,0:0:0:0:
475,192,31132,1,0,0:0:0:0:
402,192,31173,1,0,0:0:0:0:
329,192,31214,1,0,0:0:0:0:
256,192,31255,1,0,0:0:0:0:
182,192,31296,1,0,0:0:0:0:
109,192,31337,1,0,0:0:0:0:
36,192,31378,1,0,0:0:0:0:
109,192,31419,1,0,0:0:0:0:
182,192,31459,1,0,0:0:0:0:
256,192,31500,1,0,0:0:0:0:
329,192,31541,1,0,0:0:0:0:
402,192,31582,1,0,0:0:0:0:
475,192,31623,1,0,0:0:0:0:
36,192,31623,1,0,0:0:0:0:
182,192,31623,1,0,0:0:0:0:
329,192,31705,1,0,0:0:0:0:
402,192,31787,1,0,0:0:0:0:
109,192,31787,1,0,0:0:0:0:
36,192,31787,1,0,0:0:0:0:
256,192,31869,1,0,0:0:0:0:
36,192,31951,1,0,0:0:0:0:
329,192,31951,1,0,0:0:0:0:
182,192,31951,1,0,0:0:0:0:
182,192,32115,1,0,0:0:0:0:
109,192,32115,1,0,0:0:0:0:
36,192,32115,1,0,0:0:0:0:
402,192,32115,1,0,0:0:0:0:
329,192,32115,1,0,0:0:0:0:
475,192,32115,1,0,0:0:0:0:
256,192,32279,1,0,0:0:0:0:
109,192,32279,1,0,0:0:0:0:
402,192,32279,1,0,0:0:0:0:
182,192,32443,1,0,0:0:0:0:
475,192,32443,1,0,0:0:0:0:
109,192,32525,1,0,0:0:0:0:
402,192,32525,1,0,0:0:0:0:
36,192,32607,1,0,0:0:0:0:
329,192,32607,1,0,0:0:0:0:
182,192,32771,1,0,0:0:0:0:
475,192,32771,1,0,0:0:0:0:
109,192,32853,1,0,0:0:0:0:
402,192,32853,1,0,0:0:0:0:
36,192,32935,1,0,0:0:0:0:
329,192,32935,1,0,0:0:0:0:
109,192,33099,1,0,0:0:0:0:
256,192,33099,1,0,0:0:0:0:
329,192,33099,1,0,0:0:0:0:
402,192,33099,1,0,0:0:0:0:
475,192,33099,1,0,0:0:0:0:
36,192,33099,1,0,0:0:0:0:
402,192,33263,1,0,0:0:0:0:
329,192,33263,1,0,0:0:0:0:
475,192,33263,1,0,0:0:0:0:
182,192,33263,1,0,0:0:0:0:
109,192,33263,1,0,0:0:0:0:
182,192,33427,1,0,0:0:0:0:
36,192,33427,1,0,0:0:0:0:
329,192,33427,1,0,0:0:0:0:
475,192,33427,1,0,0:0:0:0:
256,192,33427,1,0,0:0:0:0:
329,192,33591,1,0,0:0:0:0:
182,192,33591,1,0,0:0:0:0:
109,192,33591,1,0,0:0:0:0:
402,192,33591,1,0,0:0:0:0:
475,192,33591,1,0,0:0:0:0:
36,192,33591,1,0,0:0:0:0:
109,192,33755,1,0,0:0:0:0:
402,192,33755,1,0,0:0:0:0:
329,192,33755,1,0,0:0:0:0:
36,192,33755,1,0,0:0:0:0:
475,192,33837,1,0,0:0:0:0:
182,192,33837,1,0,0:0:0:0:
256,192,33919,1,0,0:0:0:0:
329,192,33919,1,0,0:0:0:0:
402,192,33919,1,0,0:0:0:0:
109,192,34082,1,0,0:0:0:0:
329,192,34082,1,0,0:0:0:0:
402,192,34082,1,0,0:0:0:0:
475,192,34082,1,0,0:0:0:0:
182,192,34082,1,0,0:0:0:0:
109,192,34246,1,0,0:0:0:0:
256,192,34246,1,0,0:0:0:0:
329,192,34246,1,0,0:0:0:0:
475,192,34246,1,0,0:0:0:0:
36,192,34246,1,0,0:0:0:0:
402,192,34410,1,0,0:0:0:0:
256,192,34410,1,0,0:0:0:0:
182,192,34410,1,0,0:0:0:0:
475,192,34410,1,0,0:0:0:0:
109,192,34410,1,0,0:0:0:0:
36,192,34574,1,0,0:0:0:0:
256,192,34574,1,0,0:0:0:0:
402,192,34574,1,0,0:0:0:0:
329,192,34574,1,0,0:0:0:0:
182,192,34574,1,0,0:0:0:0:
402,192,34738,1,0,0:0:0:0:
329,192,34738,1,0,0:0:0:0:
475,192,34738,1,0,0:0:0:0:
109,192,34738,1,0,0:0:0:0:
182,192,34738,1,0,0:0:0:0:
109,192,34902,128,0,35558:0:0:0:0:
36,192,34902,128,0,35558:0:0:0:0:
475,192,34902,128,0,35558:0:0:0:0:
402,192,34902,128,0,35558:0:0:0:0:
256,192,35558,1,0,0:0:0:0:
182,192,35558,1,0,0:0:0:0:
329,192,35558,1,0,0:0:0:0:
329,192,35722,1,0,0:0:0:0:
475,192,35722,1,0,0:0:0:0:
402,192,35722,1,0,0:0:0:0:
182,192,35722,1,0,0:0:0:0:
36,192,35722,1,0,0:0:0:0:
182,192,35886,1,0,0:0:0:0:
329,192,35886,1,0,0:0:0:0:
256,192,35886,1,0,0:0:0:0:
475,192,35886,1,0,0:0:0:0:
109,192,35886,1,0,0:0:0:0:
36,192,36050,1,0,0:0:0:0:
109,192,36050,1,0,0:0:0:0:
256,192,36050,1,0,0:0:0:0:
402,192,36050,1,0,0:0:0:0:
329,192,36050,1,0,0:0:0:0:
182,192,36214,1,0,0:0:0:0:
329,192,36214,1,0,0:0:0:0:
475,192,36214,1,0,0:0:0:0:
36,192,36214,1,0,0:0:0:0:
109,192,36378,1,0,0:0:0:0:
402,192,36378,1,0,0:0:0:0:
475,192,36378,1,0,0:0:0:0:
182,192,36378,1,0,0:0:0:0:
329,192,36459,1,0,0:0:0:0:
36,192,36459,1,0,0:0:0:0:
109,192,36541,1,0,0:0:0:0:
182,192,36541,1,0,0:0:0:0:
256,192,36541,1,0,0:0:0:0:
36,192,36705,1,0,0:0:0:0:
109,192,36705,1,0,0:0:0:0:
182,192,36705,1,0,0:0:0:0:
256,192,36705,1,0,0:0:0:0:
329,192,36705,1,0,0:0:0:0:
475,192,36705,1,0,0:0:0:0:
329,192,36869,1,0,0:0:0:0:
475,192,36869,1,0,0:0:0:0:
402,192,36869,1,0,0:0:0:0:
256,192,36869,1,0,0:0:0:0:
182,192,36869,1,0,0:0:0:0:
36,192,36869,1,0,0:0:0:0:
402,192,37033,1,0,0:0:0:0:
36,192,37033,1,0,0:0:0:0:
182,192,37033,1,0,0:0:0:0:
475,192,37033,1,0,0:0:0:0:
329,192,37115,1,0,0:0:0:0:
402,192,37197,1,0,0:0:0:0:
109,192,37197,1,0,0:0:0:0:
475,192,37197,1,0,0:0:0:0:
256,192,37197,1,0,0:0:0:0:
109,192,37361,1,0,0:0:0:0:
475,192,37361,1,0,0:0:0:0:
36,192,37361,1,0,0:0:0:0:
329,192,37361,1,0,0:0:0:0:
182,192,37443,1,0,0:0:0:0:
256,192,37525,1,0,0:0:0:0:
36,192,37525,1,0,0:0:0:0:
109,192,37525,1,0,0:0:0:0:
402,192,37525,1,0,0:0:0:0:
402,192,37689,1,0,0:0:0:0:
36,192,37689,1,0,0:0:0:0:
475,192,37689,1,0,0:0:0:0:
182,192,37689,1,0,0:0:0:0:
329,192,37771,1,0,0:0:0:0:
256,192,37853,1,0,0:0:0:0:
475,192,37853,1,0,0:0:0:0:
402,192,37853,1,0,0:0:0:0:
109,192,37853,1,0,0:0:0:0:
182,192,38017,1,0,0:0:0:0:
36,192,38017,1,0,0:0:0:0:
329,192,38017,1,0,0:0:0:0:
402,192,38017,1,0,0:0:0:0:
256,192,38181,1,0,0:0:0:0:
475,192,38181,1,0,0:0:0:0:
109,192,38181,1,0,0:0:0:0:
36,192,38181,1,0,0:0:0:0:
402,192,38181,1,0,0:0:0:0:
402,192,38345,1,0,0:0:0:0:
329,192,38345,1,0,0:0:0:0:
109,192,38345,1,0,0:0:0:0:
475,192,38345,1,0,0:0:0:0:
182,192,38345,1,0,0:0:0:0:
182,192,38509,1,0,0:0:0:0:
36,192,38509,1,0,0:0:0:0:
256,192,38509,1,0,0:0:0:0:
402,192,38509,1,0,0:0:0:0:
109,192,38509,1,0,0:0:0:0:
475,192,38673,1,0,0:0:0:0:
329,192,38673,1,0,0:0:0:0:
402,192,38673,1,0,0:0:0:0:
182,192,38673,1,0,0:0:0:0:
36,192,38673,1,0,0:0:0:0:
256,192,38837,1,0,0:0:0:0:
402,192,38837,1,0,0:0:0:0:
475,192,38837,1,0,0:0:0:0:
109,192,38837,1,0,0:0:0:0:
182,192,38837,1,0,0:0:0:0:
36,192,39000,1,0,0:0:0:0:
182,192,39000,1,0,0:0:0:0:
402,192,39000,1,0,0:0:0:0:
475,192,39000,1,0,0:0:0:0:
329,192,39082,1,0,0:0:0:0:
475,192,39164,1,0,0:0:0:0:
256,192,39164,1,0,0:0:0:0:
109,192,39164,1,0,0:0:0:0:
182,192,39328,1,0,0:0:0:0:
329,192,39328,1,0,0:0:0:0:
402,192,39328,1,0,0:0:0:0:
36,192,39328,1,0,0:0:0:0:
256,192,39492,1,0,0:0:0:0:
329,192,39492,1,0,0:0:0:0:
475,192,39492,1,0,0:0:0:0:
402,192,39492,1,0,0:0:0:0:
109,192,39492,1,0,0:0:0:0:
182,192,39656,1,0,0:0:0:0:
109,192,39656,1,0,0:0:0:0:
329,192,39656,1,0,0:0:0:0:
36,192,39656,1,0,0:0:0:0:
402,192,39656,1,0,0:0:0:0:
256,192,39820,1,0,0:0:0:0:
329,192,39820,1,0,0:0:0:0:
475,192,39820,1,0,0:0:0:0:
109,192,39820,1,0,0:0:0:0:
36,192,39820,1,0,0:0:0:0:
182,192,39984,1,0,0:0:0:0:
329,192,39984,1,0,0:0:0:0:
256,192,39984,1,0,0:0:0:0:
475,192,39984,1,0,0:0:0:0:
36,192,39984,1,0,0:0:0:0:
329,192,40148,1,0,0:0:0:0:
402,192,40148,1,0,0:0:0:0:
329,192,40230,1,0,0:0:0:0:
402,192,40230,1,0,0:0:0:0:
402,192,40312,1,0,0:0:0:0:
329,192,40312,1,0,0:0:0:0:
329,192,40394,1,0,0:0:0:0:
402,192,40394,1,0,0:0:0:0:
182,192,40476,128,0,40640:0:0:0:0:
109,192,40476,128,0,40640:0:0:0:0:
36,192,40476,128,0,40640:0:0:0:0:
329,192,40640,1,0,0:0:0:0:
402,192,40640,1,0,0:0:0:0:
475,192,40640,1,0,0:0:0:0:
36,192,40804,1,0,0:0:0:0:
182,192,40804,1,0,0:0:0:0:
256,192,40804,1,0,0:0:0:0:
329,192,40804,1,0,0:0:0:0:
109,192,40804,1,0,0:0:0:0:
256,192,40968,1,0,0:0:0:0:
182,192,40968,1,0,0:0:0:0:
329,192,40968,1,0,0:0:0:0:
475,192,40968,1,0,0:0:0:0:
402,192,40968,1,0,0:0:0:0:
109,192,41132,1,0,0:0:0:0:
402,192,41132,1,0,0:0:0:0:
182,192,41459,1,0,0:0:0:0:
256,192,41459,1,0,0:0:0:0:
329,192,41459,1,0,0:0:0:0:
402,192,41459,1,0,0:0:0:0:
475,192,41459,1,0,0:0:0:0:
329,192,41623,1,0,0:0:0:0:
256,192,41623,1,0,0:0:0:0:
182,192,41623,1,0,0:0:0:0:
109,192,41623,1,0,0:0:0:0:
36,192,41623,1,0,0:0:0:0:
182,192,41787,1,0,0:0:0:0:
329,192,41787,1,0,0:0:0:0:
36,192,42115,1,0,0:0:0:0:
182,192,42115,1,0,0:0:0:0:
182,192,42279,1,0,0:0:0:0:
329,192,42279,1,0,0:0:0:0:
109,192,42443,1,0,0:0:0:0:
256,192,42443,1,0,0:0:0:0:
256,192,42607,1,0,0:0:0:0:
402,192,42607,1,0,0:0:0:0:
182,192,42771,1,0,0:0:0:0:
329,192,42771,1,0,0:0:0:0:
329,192,42853,1,0,0:0:0:0:
475,192,42853,1,0,0:0:0:0:
182,192,43017,1,0,0:0:0:0:
36,192,43017,1,0,0:0:0:0:
329,192,43017,1,0,0:0:0:0:
36,192,43427,1,0,0:0:0:0:
182,192,43427,1,0,0:0:0:0:
329,192,43427,1,0,0:0:0:0:
402,192,43427,1,0,0:0:0:0:
256,192,43509,1,0,0:0:0:0:
109,192,43509,1,0,0:0:0:0:
182,192,43591,1,0,0:0:0:0:
329,192,43591,1,0,0:0:0:0:
475,192,43591,1,0,0:0:0:0:
36,192,43673,1,0,0:0:0:0:
256,192,43673,1,0,0:0:0:0:
182,192,43755,1,0,0:0:0:0:
475,192,43755,1,0,0:0:0:0:
109,192,43755,1,0,0:0:0:0:
402,192,43755,1,0,0:0:0:0:
256,192,43837,1,0,0:0:0:0:
329,192,43837,1,0,0:0:0:0:
109,192,43919,1,0,0:0:0:0:
36,192,43919,1,0,0:0:0:0:
402,192,43919,1,0,0:0:0:0:
182,192,44000,1,0,0:0:0:0:
329,192,44000,1,0,0:0:0:0:
256,192,44082,1,0,0:0:0:0:
475,192,44082,1,0,0:0:0:0:
402,192,44082,1,0,0:0:0:0:
109,192,44082,1,0,0:0:0:0:
182,192,44164,1,0,0:0:0:0:
36,192,44164,1,0,0:0:0:0:
256,192,44246,1,0,0:0:0:0:
329,192,44246,1,0,0:0:0:0:
475,192,44246,1,0,0:0:0:0:
109,192,44328,1,0,0:0:0:0:
182,192,44328,1,0,0:0:0:0:
329,192,44410,1,0,0:0:0:0:
402,192,44410,1,0,0:0:0:0:
36,192,44410,1,0,0:0:0:0:
475,192,44410,1,0,0:0:0:0:
109,192,44492,1,0,0:0:0:0:
256,192,44492,1,0,0:0:0:0:
402,192,44574,1,0,0:0:0:0:
475,192,44574,1,0,0:0:0:0:
182,192,44574,1,0,0:0:0:0:
256,192,44656,1,0,0:0:0:0:
36,192,44656,1,0,0:0:0:0:
329,192,44738,1,0,0:0:0:0:
182,192,44738,1,0,0:0:0:0:
475,192,44738,1,0,0:0:0:0:
109,192,44738,1,0,0:0:0:0:
256,192,44820,1,0,0:0:0:0:
402,192,44820,1,0,0:0:0:0:
36,192,44902,1,0,0:0:0:0:
109,192,44902,1,0,0:0:0:0:
329,192,44902,1,0,0:0:0:0:
182,192,44984,1,0,0:0:0:0:
402,192,44984,1,0,0:0:0:0:
36,192,45066,1,0,0:0:0:0:
475,192,45066,1,0,0:0:0:0:
256,192,45066,1,0,0:0:0:0:
329,192,45066,1,0,0:0:0:0:
109,192,45148,1,0,0:0:0:0:
182,192,45148,1,0,0:0:0:0:
329,192,45230,1,0,0:0:0:0:
475,192,45230,1,0,0:0:0:0:
36,192,45230,1,0,0:0:0:0:
182,192,45312,1,0,0:0:0:0:
256,192,45312,1,0,0:0:0:0:
402,192,45394,1,0,0:0:0:0:
475,192,45394,1,0,0:0:0:0:
109,192,45394,1,0,0:0:0:0:
36,192,45394,1,0,0:0:0:0:
329,192,45476,1,0,0:0:0:0:
256,192,45476,1,0,0:0:0:0:
402,192,45558,1,0,0:0:0:0:
182,192,45558,1,0,0:0:0:0:
36,192,45558,1,0,0:0:0:0:
475,192,45640,1,0,0:0:0:0:
256,192,45640,1,0,0:0:0:0:
182,192,45722,1,0,0:0:0:0:
329,192,45722,1,0,0:0:0:0:
109,192,45722,1,0,0:0:0:0:
36,192,45722,1,0,0:0:0:0:
475,192,45804,1,0,0:0:0:0:
402,192,45804,1,0,0:0:0:0:
109,192,45886,1,0,0:0:0:0:
256,192,45886,1,0,0:0:0:0:
36,192,45886,1,0,0:0:0:0:
329,192,45968,1,0,0:0:0:0:
182,192,45968,1,0,0:0:0:0:
256,192,46050,1,0,0:0:0:0:
402,192,46050,1,0,0:0:0:0:
475,192,46050,1,0,0:0:0:0:
109,192,46050,1,0,0:0:0:0:
182,192,46132,1,0,0:0:0:0:
329,192,46132,1,0,0:0:0:0:
256,192,46214,1,0,0:0:0:0:
475,192,46214,1,0,0:0:0:0:
36,192,46214,1,0,0:0:0:0:
329,192,46296,1,0,0:0:0:0:
182,192,46296,1,0,0:0:0:0:
109,192,46378,1,0,0:0:0:0:
256,192,46378,1,0,0:0:0:0:
402,192,46378,1,0,0:0:0:0:
475,192,46378,1,0,0:0:0:0:
36,192,46459,1,0,0:0:0:0:
182,192,46459,1,0,0:0:0:0:
329,192,46541,1,0,0:0:0:0:
475,192,46541,1,0,0:0:0:0:
109,192,46541,1,0,0:0:0:0:
256,192,46623,1,0,0:0:0:0:
402,192,46623,1,0,0:0:0:0:
182,192,46623,1,0,0:0:0:0:
109,192,46705,1,0,0:0:0:0:
36,192,46705,1,0,0:0:0:0:
329,192,46705,1,0,0:0:0:0:
475,192,46705,1,0,0:0:0:0:
182,192,46787,1,0,0:0:0:0:
402,192,46787,1,0,0:0:0:0:
36,192,46869,1,0,0:0:0:0:
256,192,46869,1,0,0:0:0:0:
475,192,46869,1,0,0:0:0:0:
329,192,46951,1,0,0:0:0:0:
402,192,46951,1,0,0:0:0:0:
182,192,47033,1,0,0:0:0:0:
109,192,47033,1,0,0:0:0:0:
475,192,47033,1,0,0:0:0:0:
36,192,47033,1,0,0:0:0:0:
182,192,47197,1,0,0:0:0:0:
329,192,47197,1,0,0:0:0:0:
36,192,47197,1,0,0:0:0:0:
256,192,47279,1,0,0:0:0:0:
109,192,47279,1,0,0:0:0:0:
329,192,47361,1,0,0:0:0:0:
475,192,47361,1,0,0:0:0:0:
402,192,47361,1,0,0:0:0:0:
182,192,47361,1,0,0:0:0:0:
256,192,47525,1,0,0:0:0:0:
36,192,47689,1,0,0:0:0:0:
109,192,47689,1,0,0:0:0:0:
182,192,47689,1,0,0:0:0:0:
329,192,47689,1,0,0:0:0:0:
256,192,47853,1,0,0:0:0:0:
182,192,48017,1,0,0:0:0:0:
256,192,48017,1,0,0:0:0:0:
329,192,48017,1,0,0:0:0:0:
402,192,48099,1,0,0:0:0:0:
475,192,48099,1,0,0:0:0:0:
109,192,48099,1,0,0:0:0:0:
36,192,48099,1,0,0:0:0:0:
182,192,48263,1,0,0:0:0:0:
109,192,48263,1,0,0:0:0:0:
256,192,48263,1,0,0:0:0:0:
329,192,48263,1,0,0:0:0:0:
402,192,48263,1,0,0:0:0:0:
329,192,48673,1,0,0:0:0:0:
109,192,48673,1,0,0:0:0:0:
182,192,48673,1,0,0:0:0:0:
475,192,48673,1,0,0:0:0:0:
256,192,48755,1,0,0:0:0:0:
402,192,48755,1,0,0:0:0:0:
182,192,48837,1,0,0:0:0:0:
329,192,48837,1,0,0:0:0:0:
36,192,48837,1,0,0:0:0:0:
475,192,48919,1,0,0:0:0:0:
256,192,48919,1,0,0:0:0:0:
402,192,49000,1,0,0:0:0:0:
109,192,49000,1,0,0:0:0:0:
36,192,49000,1,0,0:0:0:0:
329,192,49000,1,0,0:0:0:0:
182,192,49082,1,0,0:0:0:0:
256,192,49082,1,0,0:0:0:0:
475,192,49164,1,0,0:0:0:0:
402,192,49164,1,0,0:0:0:0:
109,192,49164,1,0,0:0:0:0:
329,192,49246,1,0,0:0:0:0:
182,192,49246,1,0,0:0:0:0:
36,192,49328,1,0,0:0:0:0:
256,192,49328,1,0,0:0:0:0:
109,192,49328,1,0,0:0:0:0:
402,192,49328,1,0,0:0:0:0:
329,192,49410,1,0,0:0:0:0:
475,192,49410,1,0,0:0:0:0:
182,192,49492,1,0,0:0:0:0:
36,192,49492,1,0,0:0:0:0:
256,192,49492,1,0,0:0:0:0:
329,192,49574,1,0,0:0:0:0:
402,192,49574,1,0,0:0:0:0:
109,192,49656,1,0,0:0:0:0:
36,192,49656,1,0,0:0:0:0:
182,192,49656,1,0,0:0:0:0:
475,192,49656,1,0,0:0:0:0:
256,192,49738,1,0,0:0:0:0:
402,192,49738,1,0,0:0:0:0:
329,192,49820,1,0,0:0:0:0:
109,192,49820,1,0,0:0:0:0:
36,192,49820,1,0,0:0:0:0:
475,192,49902,1,0,0:0:0:0:
256,192,49902,1,0,0:0:0:0:
402,192,49984,1,0,0:0:0:0:
36,192,49984,1,0,0:0:0:0:
182,192,49984,1,0,0:0:0:0:
329,192,49984,1,0,0:0:0:0:
109,192,50066,1,0,0:0:0:0:
256,192,50066,1,0,0:0:0:0:
475,192,50148,1,0,0:0:0:0:
402,192,50148,1,0,0:0:0:0:
182,192,50148,1,0,0:0:0:0:
329,192,50230,1,0,0:0:0:0:
109,192,50230,1,0,0:0:0:0:
36,192,50312,1,0,0:0:0:0:
475,192,50312,1,0,0:0:0:0:
182,192,50312,1,0,0:0:0:0:
256,192,50312,1,0,0:0:0:0:
329,192,50394,1,0,0:0:0:0:
402,192,50394,1,0,0:0:0:0:
475,192,50476,1,0,0:0:0:0:
36,192,50476,1,0,0:0:0:0:
182,192,50476,1,0,0:0:0:0:
329,192,50558,1,0,0:0:0:0:
256,192,50558,1,0,0:0:0:0:
109,192,50640,1,0,0:0:0:0:
402,192,50640,1,0,0:0:0:0:
475,192,50640,1,0,0:0:0:0:
36,192,50640,1,0,0:0:0:0:
182,192,50722,1,0,0:0:0:0:
256,192,50722,1,0,0:0:0:0:
329,192,50804,1,0,0:0:0:0:
109,192,50804,1,0,0:0:0:0:
475,192,50804,1,0,0:0:0:0:
36,192,50886,1,0,0:0:0:0:
256,192,50886,1,0,0:0:0:0:
402,192,50968,1,0,0:0:0:0:
475,192,50968,1,0,0:0:0:0:
182,192,50968,1,0,0:0:0:0:
329,192,50968,1,0,0:0:0:0:
36,192,51050,1,0,0:0:0:0:
109,192,51050,1,0,0:0:0:0:
402,192,51132,1,0,0:0:0:0:
475,192,51132,1,0,0:0:0:0:
256,192,51132,1,0,0:0:0:0:
182,192,51214,1,0,0:0:0:0:
329,192,51214,1,0,0:0:0:0:
402,192,51296,1,0,0:0:0:0:
256,192,51296,1,0,0:0:0:0:
36,192,51296,1,0,0:0:0:0:
109,192,51296,1,0,0:0:0:0:
182,192,51378,1,0,0:0:0:0:
329,192,51378,1,0,0:0:0:0:
256,192,51459,1,0,0:0:0:0:
475,192,51459,1,0,0:0:0:0:
36,192,51459,1,0,0:0:0:0:
329,192,51541,1,0,0:0:0:0:
182,192,51541,1,0,0:0:0:0:
109,192,51623,1,0,0:0:0:0:
402,192,51623,1,0,0:0:0:0:
36,192,51623,1,0,0:0:0:0:
256,192,51623,1,0,0:0:0:0:
475,192,51705,1,0,0:0:0:0:
329,192,51705,1,0,0:0:0:0:
402,192,51787,1,0,0:0:0:0:
182,192,51787,1,0,0:0:0:0:
36,192,51787,1,0,0:0:0:0:
329,192,51869,1,0,0:0:0:0:
256,192,51869,1,0,0:0:0:0:
109,192,51869,1,0,0:0:0:0:
36,192,51951,1,0,0:0:0:0:
475,192,51951,1,0,0:0:0:0:
402,192,51951,1,0,0:0:0:0:
182,192,51951,1,0,0:0:0:0:
329,192,52033,1,0,0:0:0:0:
109,192,52033,1,0,0:0:0:0:
256,192,52115,1,0,0:0:0:0:
475,192,52115,1,0,0:0:0:0:
36,192,52115,1,0,0:0:0:0:
109,192,52197,1,0,0:0:0:0:
182,192,52197,1,0,0:0:0:0:
329,192,52279,1,0,0:0:0:0:
36,192,52279,1,0,0:0:0:0:
475,192,52279,1,0,0:0:0:0:
402,192,52279,1,0,0:0:0:0:
109,192,52443,1,0,0:0:0:0:
256,192,52443,1,0,0:0:0:0:
402,192,52443,1,0,0:0:0:0:
329,192,52525,1,0,0:0:0:0:
182,192,52525,1,0,0:0:0:0:
256,192,52607,1,0,0:0:0:0:
109,192,52607,1,0,0:0:0:0:
402,192,52607,1,0,0:0:0:0:
182,192,52771,1,0,0:0:0:0:
329,192,52771,1,0,0:0:0:0:
256,192,52935,1,0,0:0:0:0:
36,192,52935,1,0,0:0:0:0:
475,192,52935,1,0,0:0:0:0:
329,192,53099,1,0,0:0:0:0:
402,192,53099,1,0,0:0:0:0:
182,192,53099,1,0,0:0:0:0:
109,192,53099,1,0,0:0:0:0:
109,192,53263,1,0,0:0:0:0:
36,192,53263,1,0,0:0:0:0:
475,192,53263,1,0,0:0:0:0:
402,192,53263,1,0,0:0:0:0:
182,192,53345,1,0,0:0:0:0:
329,192,53345,1,0,0:0:0:0:
256,192,53345,1,0,0:0:0:0:
109,192,53509,1,0,0:0:0:0:
182,192,53509,1,0,0:0:0:0:
256,192,53509,1,0,0:0:0:0:
329,192,53509,1,0,0:0:0:0:
402,192,53509,1,0,0:0:0:0:
36,192,53919,1,0,0:0:0:0:
109,192,53919,1,0,0:0:0:0:
256,192,53919,1,0,0:0:0:0:
329,192,53919,1,0,0:0:0:0:
475,192,53919,1,0,0:0:0:0:
402,192,54082,1,0,0:0:0:0:
475,192,54082,1,0,0:0:0:0:
36,192,54082,1,0,0:0:0:0:
329,192,54082,1,0,0:0:0:0:
109,192,54164,1,0,0:0:0:0:
182,192,54246,1,0,0:0:0:0:
256,192,54246,1,0,0:0:0:0:
329,192,54246,1,0,0:0:0:0:
402,192,54246,1,0,0:0:0:0:
109,192,54410,1,0,0:0:0:0:
36,192,54410,1,0,0:0:0:0:
402,192,54410,1,0,0:0:0:0:
329,192,54410,1,0,0:0:0:0:
475,192,54410,1,0,0:0:0:0:
182,192,54574,1,0,0:0:0:0:
402,192,54574,1,0,0:0:0:0:
329,192,54574,1,0,0:0:0:0:
109,192,54574,1,0,0:0:0:0:
36,192,54738,1,0,0:0:0:0:
256,192,54738,1,0,0:0:0:0:
475,192,54738,1,0,0:0:0:0:
109,192,54902,1,0,0:0:0:0:
329,192,54902,1,0,0:0:0:0:
182,192,55066,1,0,0:0:0:0:
402,192,55066,1,0,0:0:0:0:
256,192,55230,1,0,0:0:0:0:
475,192,55230,1,0,0:0:0:0:
36,192,55230,1,0,0:0:0:0:
109,192,55394,1,0,0:0:0:0:
36,192,55394,1,0,0:0:0:0:
182,192,55394,1,0,0:0:0:0:
475,192,55394,1,0,0:0:0:0:
402,192,55476,1,0,0:0:0:0:
109,192,55558,1,0,0:0:0:0:
182,192,55558,1,0,0:0:0:0:
329,192,55558,1,0,0:0:0:0:
256,192,55558,1,0,0:0:0:0:
329,192,55722,1,0,0:0:0:0:
36,192,55722,1,0,0:0:0:0:
475,192,55722,1,0,0:0:0:0:
109,192,55722,1,0,0:0:0:0:
256,192,55722,1,0,0:0:0:0:
475,192,55886,1,0,0:0:0:0:
256,192,55886,1,0,0:0:0:0:
182,192,55886,1,0,0:0:0:0:
36,192,55886,1,0,0:0:0:0:
402,192,55886,1,0,0:0:0:0:
109,192,56050,1,0,0:0:0:0:
329,192,56050,1,0,0:0:0:0:
36,192,56050,1,0,0:0:0:0:
256,192,56050,1,0,0:0:0:0:
182,192,56050,1,0,0:0:0:0:
402,192,56132,1,0,0:0:0:0:
475,192,56214,1,0,0:0:0:0:
109,192,56214,1,0,0:0:0:0:
182,192,56214,1,0,0:0:0:0:
256,192,56214,1,0,0:0:0:0:
329,192,56214,1,0,0:0:0:0:
402,192,56378,1,0,0:0:0:0:
36,192,56378,1,0,0:0:0:0:
109,192,56541,1,0,0:0:0:0:
256,192,56541,1,0,0:0:0:0:
329,192,56541,1,0,0:0:0:0:
475,192,56541,1,0,0:0:0:0:
36,192,56705,1,0,0:0:0:0:
182,192,56705,1,0,0:0:0:0:
329,192,56705,1,0,0:0:0:0:
402,192,56705,1,0,0:0:0:0:
256,192,56787,1,0,0:0:0:0:
329,192,56869,1,0,0:0:0:0:
475,192,56869,1,0,0:0:0:0:
182,192,56869,1,0,0:0:0:0:
109,192,56869,1,0,0:0:0:0:
256,192,57033,1,0,0:0:0:0:
402,192,57033,1,0,0:0:0:0:
36,192,57033,1,0,0:0:0:0:
109,192,57197,1,0,0:0:0:0:
182,192,57197,1,0,0:0:0:0:
329,192,57197,1,0,0:0:0:0:
475,192,57197,1,0,0:0:0:0:
256,192,57361,1,0,0:0:0:0:
36,192,57525,1,0,0:0:0:0:
182,192,57525,1,0,0:0:0:0:
329,192,57525,1,0,0:0:0:0:
402,192,57525,1,0,0:0:0:0:
256,192,57689,1,0,0:0:0:0:
329,192,57853,1,0,0:0:0:0:
475,192,57853,1,0,0:0:0:0:
182,192,57853,1,0,0:0:0:0:
109,192,57853,1,0,0:0:0:0:
329,192,58017,1,0,0:0:0:0:
475,192,58017,1,0,0:0:0:0:
182,192,58017,1,0,0:0:0:0:
109,192,58017,1,0,0:0:0:0:
475,192,58181,1,0,0:0:0:0:
329,192,58181,1,0,0:0:0:0:
109,192,58181,1,0,0:0:0:0:
36,192,58181,1,0,0:0:0:0:
329,192,58345,1,0,0:0:0:0:
475,192,58345,1,0,0:0:0:0:
109,192,58345,1,0,0:0:0:0:
36,192,58345,1,0,0:0:0:0:
256,192,58509,1,0,0:0:0:0:
402,192,58509,1,0,0:0:0:0:
109,192,58509,1,0,0:0:0:0:
329,192,58591,1,0,0:0:0:0:
475,192,58591,1,0,0:0:0:0:
36,192,58591,1,0,0:0:0:0:
109,192,58755,128,0,59164:0:0:0:0:
256,192,58755,128,0,59164:0:0:0:0:
402,192,58755,128,0,59164:0:0:0:0:
36,192,59164,1,0,0:0:0:0:
329,192,59164,1,0,0:0:0:0:
475,192,59164,1,0,0:0:0:0:
182,192,59328,1,0,0:0:0:0:
109,192,59328,1,0,0:0:0:0:
329,192,59328,1,0,0:0:0:0:
402,192,59328,1,0,0:0:0:0:
475,192,59328,1,0,0:0:0:0:
182,192,59492,1,0,0:0:0:0:
475,192,59492,1,0,0:0:0:0:
402,192,59492,1,0,0:0:0:0:
256,192,59492,1,0,0:0:0:0:
36,192,59492,1,0,0:0:0:0:
109,192,59656,1,0,0:0:0:0:
182,192,59656,1,0,0:0:0:0:
329,192,59656,1,0,0:0:0:0:
402,192,59656,1,0,0:0:0:0:
36,192,59656,1,0,0:0:0:0:
329,192,59820,1,0,0:0:0:0:
475,192,59820,1,0,0:0:0:0:
402,192,59820,1,0,0:0:0:0:
109,192,59820,1,0,0:0:0:0:
182,192,59902,1,0,0:0:0:0:
36,192,59984,1,0,0:0:0:0:
402,192,59984,1,0,0:0:0:0:
329,192,59984,1,0,0:0:0:0:
256,192,59984,1,0,0:0:0:0:
109,192,59984,1,0,0:0:0:0:
256,192,60148,1,0,0:0:0:0:
182,192,60148,1,0,0:0:0:0:
109,192,60148,1,0,0:0:0:0:
329,192,60148,1,0,0:0:0:0:
475,192,60148,1,0,0:0:0:0:
402,192,60312,1,0,0:0:0:0:
329,192,60312,1,0,0:0:0:0:
182,192,60312,1,0,0:0:0:0:
36,192,60312,1,0,0:0:0:0:
256,192,60312,1,0,0:0:0:0:
329,192,60476,1,0,0:0:0:0:
402,192,60476,1,0,0:0:0:0:
475,192,60476,1,0,0:0:0:0:
256,192,60476,1,0,0:0:0:0:
182,192,60476,1,0,0:0:0:0:
36,192,60640,1,0,0:0:0:0:
109,192,60640,1,0,0:0:0:0:
182,192,60640,1,0,0:0:0:0:
256,192,60640,1,0,0:0:0:0:
329,192,60640,1,0,0:0:0:0:
109,192,60804,1,0,0:0:0:0:
182,192,60804,1,0,0:0:0:0:
256,192,60804,1,0,0:0:0:0:
329,192,60804,1,0,0:0:0:0:
402,192,60804,1,0,0:0:0:0:
182,192,60968,1,0,0:0:0:0:
256,192,60968,1,0,0:0:0:0:
329,192,60968,1,0,0:0:0:0:
402,192,60968,1,0,0:0:0:0:
475,192,60968,1,0,0:0:0:0:
109,192,61132,1,0,0:0:0:0:
36,192,61132,1,0,0:0:0:0:
109,192,61214,1,0,0:0:0:0:
36,192,61214,1,0,0:0:0:0:
329,192,61296,1,0,0:0:0:0:
402,192,61296,1,0,0:0:0:0:
329,192,61378,1,0,0:0:0:0:
402,192,61378,1,0,0:0:0:0:
182,192,61459,128,0,61623:0:0:0:0:
109,192,61459,128,0,61623:0:0:0:0:
402,192,61623,128,0,61787:0:0:0:0:
475,192,61623,128,0,61787:0:0:0:0:
109,192,61787,1,0,0:0:0:0:
36,192,61787,1,0,0:0:0:0:
182,192,61787,1,0,0:0:0:0:
256,192,61787,1,0,0:0:0:0:
329,192,61787,1,0,0:0:0:0:
182,192,61951,1,0,0:0:0:0:
256,192,61951,1,0,0:0:0:0:
329,192,61951,1,0,0:0:0:0:
402,192,61951,1,0,0:0:0:0:
475,192,61951,1,0,0:0:0:0:
109,192,62115,1,0,0:0:0:0:
36,192,62115,1,0,0:0:0:0:
109,192,62197,1,0,0:0:0:0:
36,192,62197,1,0,0:0:0:0:
36,192,62279,1,0,0:0:0:0:
109,192,62279,1,0,0:0:0:0:
182,192,62443,1,0,0:0:0:0:
256,192,62443,1,0,0:0:0:0:
329,192,62443,1,0,0:0:0:0:
402,192,62443,1,0,0:0:0:0:
475,192,62443,1,0,0:0:0:0:
109,192,62607,1,0,0:0:0:0:
182,192,62607,1,0,0:0:0:0:
36,192,62607,1,0,0:0:0:0:
256,192,62607,1,0,0:0:0:0:
329,192,62607,1,0,0:0:0:0:
402,192,62771,1,0,0:0:0:0:
475,192,62771,1,0,0:0:0:0:
329,192,62935,1,0,0:0:0:0:
402,192,62935,1,0,0:0:0:0:
329,192,63099,1,0,0:0:0:0:
256,192,63099,1,0,0:0:0:0:
256,192,63263,1,0,0:0:0:0:
182,192,63263,1,0,0:0:0:0:
182,192,63427,1,0,0:0:0:0:
109,192,63427,1,0,0:0:0:0:
109,192,63591,1,0,0:0:0:0:
36,192,63591,1,0,0:0:0:0:
402,192,63755,1,0,0:0:0:0:
475,192,63755,1,0,0:0:0:0:
475,192,63837,1,0,0:0:0:0:
402,192,63837,1,0,0:0:0:0:
109,192,64000,1,0,0:0:0:0:
36,192,64000,1,0,0:0:0:0:
36,192,64410,1,0,0:0:0:0:
475,192,64574,1,0,0:0:0:0:
109,192,65066,1,0,0:0:0:0:
402,192,65394,1,0,0:0:0:0:
182,192,65558,1,0,0:0:0:0:
329,192,65886,1,0,0:0:0:0:
109,192,66214,1,0,0:0:0:0:
402,192,66296,1,0,0:0:0:0:
36,192,66378,1,0,0:0:0:0:
475,192,66705,1,0,0:0:0:0:
109,192,67033,1,0,0:0:0:0:
402,192,67197,1,0,0:0:0:0:
182,192,67689,1,0,0:0:0:0:
329,192,68017,1,0,0:0:0:0:
109,192,68181,1,0,0:0:0:0:
402,192,68509,1,0,0:0:0:0:
36,192,68673,1,0,0:0:0:0:
475,192,68755,1,0,0:0:0:0:
109,192,68837,1,0,0:0:0:0:
402,192,68919,1,0,0:0:0:0:
182,192,69000,1,0,0:0:0:0:
329,192,69328,1,0,0:0:0:0:
109,192,69656,1,0,0:0:0:0:
402,192,69820,1,0,0:0:0:0:
36,192,70312,1,0,0:0:0:0:
475,192,70640,1,0,0:0:0:0:
109,192,70804,1,0,0:0:0:0:
402,192,71132,1,0,0:0:0:0:
182,192,71459,1,0,0:0:0:0:
329,192,71541,1,0,0:0:0:0:
109,192,71623,1,0,0:0:0:0:
402,192,71951,1,0,0:0:0:0:
36,192,72279,1,0,0:0:0:0:
182,192,72279,1,0,0:0:0:0:
475,192,72443,1,0,0:0:0:0:
329,192,72443,1,0,0:0:0:0:
109,192,72935,1,0,0:0:0:0:
182,192,72935,1,0,0:0:0:0:
329,192,73263,1,0,0:0:0:0:
402,192,73263,1,0,0:0:0:0:
109,192,73427,1,0,0:0:0:0:
36,192,73427,1,0,0:0:0:0:
402,192,73755,1,0,0:0:0:0:
475,192,73755,1,0,0:0:0:0:
109,192,73919,1,0,0:0:0:0:
36,192,73919,1,0,0:0:0:0:
329,192,74000,1,0,0:0:0:0:
402,192,74000,1,0,0:0:0:0:
182,192,74082,1,0,0:0:0:0:
109,192,74082,1,0,0:0:0:0:
402,192,74164,1,0,0:0:0:0:
475,192,74164,1,0,0:0:0:0:
256,192,74246,1,0,0:0:0:0:
182,192,74246,1,0,0:0:0:0:
402,192,74574,1,0,0:0:0:0:
475,192,74574,1,0,0:0:0:0:
182,192,74656,1,0,0:0:0:0:
109,192,74656,1,0,0:0:0:0:
329,192,74738,1,0,0:0:0:0:
402,192,74738,1,0,0:0:0:0:
109,192,74820,1,0,0:0:0:0:
36,192,74820,1,0,0:0:0:0:
256,192,74902,1,0,0:0:0:0:
329,192,74902,1,0,0:0:0:0:
402,192,75066,1,0,0:0:0:0:
475,192,75066,1,0,0:0:0:0:
182,192,75230,1,0,0:0:0:0:
256,192,75230,1,0,0:0:0:0:
329,192,75394,1,0,0:0:0:0:
402,192,75394,1,0,0:0:0:0:
109,192,75558,1,0,0:0:0:0:
182,192,75558,1,0,0:0:0:0:
256,192,75722,1,0,0:0:0:0:
329,192,75722,1,0,0:0:0:0:
109,192,75886,1,0,0:0:0:0:
36,192,75886,1,0,0:0:0:0:
182,192,76050,1,0,0:0:0:0:
256,192,76050,1,0,0:0:0:0:
182,192,76214,1,0,0:0:0:0:
109,192,76214,1,0,0:0:0:0:
256,192,76378,1,0,0:0:0:0:
329,192,76378,1,0,0:0:0:0:
182,192,76541,1,0,0:0:0:0:
256,192,76541,1,0,0:0:0:0:
329,192,76705,1,0,0:0:0:0:
402,192,76705,1,0,0:0:0:0:
329,192,76869,1,0,0:0:0:0:
256,192,76869,1,0,0:0:0:0:
402,192,77033,1,0,0:0:0:0:
475,192,77033,1,0,0:0:0:0:
182,192,77197,1,0,0:0:0:0:
256,192,77197,1,0,0:0:0:0:
329,192,77361,1,0,0:0:0:0:
402,192,77361,1,0,0:0:0:0:
182,192,77525,1,0,0:0:0:0:
109,192,77525,1,0,0:0:0:0:
256,192,77689,1,0,0:0:0:0:
329,192,77689,1,0,0:0:0:0:
36,192,77853,1,0,0:0:0:0:
109,192,77853,1,0,0:0:0:0:
182,192,78017,1,0,0:0:0:0:
256,192,78017,1,0,0:0:0:0:
182,192,78181,1,0,0:0:0:0:
109,192,78181,1,0,0:0:0:0:
256,192,78345,1,0,0:0:0:0:
329,192,78345,1,0,0:0:0:0:
256,192,78509,1,0,0:0:0:0:
182,192,78509,1,0,0:0:0:0:
329,192,78673,1,0,0:0:0:0:
402,192,78673,1,0,0:0:0:0:
329,192,78837,1,0,0:0:0:0:
256,192,78837,1,0,0:0:0:0:
402,192,79000,1,0,0:0:0:0:
475,192,79000,1,0,0:0:0:0:
182,192,79164,1,0,0:0:0:0:
256,192,79164,1,0,0:0:0:0:
402,192,79246,1,0,0:0:0:0:
475,192,79246,1,0,0:0:0:0:
182,192,79328,1,0,0:0:0:0:
109,192,79328,1,0,0:0:0:0:
329,192,79410,1,0,0:0:0:0:
402,192,79410,1,0,0:0:0:0:
109,192,79492,1,0,0:0:0:0:
36,192,79492,1,0,0:0:0:0:
402,192,79656,1,0,0:0:0:0:
475,192,79656,1,0,0:0:0:0:
402,192,79738,1,0,0:0:0:0:
475,192,79738,1,0,0:0:0:0:
109,192,79820,1,0,0:0:0:0:
182,192,79820,1,0,0:0:0:0:
329,192,79984,1,0,0:0:0:0:
402,192,79984,1,0,0:0:0:0:
36,192,80148,1,0,0:0:0:0:
109,192,80148,1,0,0:0:0:0:
329,192,80312,1,0,0:0:0:0:
402,192,80312,1,0,0:0:0:0:
329,192,80394,1,0,0:0:0:0:
402,192,80394,1,0,0:0:0:0:
109,192,80476,1,0,0:0:0:0:
182,192,80476,1,0,0:0:0:0:
402,192,80640,1,0,0:0:0:0:
475,192,80640,1,0,0:0:0:0:
475,192,80722,1,0,0:0:0:0:
402,192,80722,1,0,0:0:0:0:
182,192,80804,1,0,0:0:0:0:
256,192,80804,1,0,0:0:0:0:
36,192,80968,1,0,0:0:0:0:
109,192,80968,1,0,0:0:0:0:
36,192,81050,1,0,0:0:0:0:
109,192,81050,1,0,0:0:0:0:
256,192,81132,1,0,0:0:0:0:
329,192,81132,1,0,0:0:0:0:
182,192,81296,1,0,0:0:0:0:
109,192,81296,1,0,0:0:0:0:
109,192,81378,1,0,0:0:0:0:
182,192,81378,1,0,0:0:0:0:
329,192,81459,1,0,0:0:0:0:
402,192,81459,1,0,0:0:0:0:
256,192,81623,1,0,0:0:0:0:
182,192,81623,1,0,0:0:0:0:
256,192,81705,1,0,0:0:0:0:
182,192,81705,1,0,0:0:0:0:
402,192,81787,1,0,0:0:0:0:
475,192,81787,1,0,0:0:0:0:
329,192,81951,1,0,0:0:0:0:
256,192,81951,1,0,0:0:0:0:
329,192,82033,1,0,0:0:0:0:
256,192,82033,1,0,0:0:0:0:
109,192,82115,1,0,0:0:0:0:
36,192,82115,1,0,0:0:0:0:
402,192,82279,1,0,0:0:0:0:
329,192,82279,1,0,0:0:0:0:
402,192,82361,1,0,0:0:0:0:
329,192,82361,1,0,0:0:0:0:
182,192,82443,1,0,0:0:0:0:
109,192,82443,1,0,0:0:0:0:
402,192,82607,1,0,0:0:0:0:
475,192,82607,1,0,0:0:0:0:
329,192,82607,1,0,0:0:0:0:
109,192,82771,1,0,0:0:0:0:
36,192,82771,1,0,0:0:0:0:
109,192,82853,1,0,0:0:0:0:
36,192,82853,1,0,0:0:0:0:
109,192,82935,1,0,0:0:0:0:
36,192,82935,1,0,0:0:0:0:
109,192,83017,1,0,0:0:0:0:
36,192,83017,1,0,0:0:0:0:
402,192,83099,1,0,0:0:0:0:
475,192,83099,1,0,0:0:0:0:
475,192,83181,1,0,0:0:0:0:
402,192,83181,1,0,0:0:0:0:
402,192,83263,1,0,0:0:0:0:
475,192,83263,1,0,0:0:0:0:
475,192,83345,1,0,0:0:0:0:
402,192,83345,1,0,0:0:0:0:
182,192,83427,1,0,0:0:0:0:
109,192,83427,1,0,0:0:0:0:
182,192,83509,1,0,0:0:0:0:
109,192,83509,1,0,0:0:0:0:
109,192,83591,1,0,0:0:0:0:
182,192,83591,1,0,0:0:0:0:
182,192,83673,1,0,0:0:0:0:
109,192,83673,1,0,0:0:0:0:
329,192,83755,1,0,0:0:0:0:
402,192,83755,1,0,0:0:0:0:
402,192,83837,1,0,0:0:0:0:
329,192,83837,1,0,0:0:0:0:
329,192,83919,1,0,0:0:0:0:
402,192,83919,1,0,0:0:0:0:
402,192,84000,1,0,0:0:0:0:
329,192,84000,1,0,0:0:0:0:
36,192,85066,1,0,0:0:0:0:
329,192,85066,1,0,0:0:0:0:
475,192,85066,1,0,0:0:0:0:
402,192,85066,1,0,0:0:0:0:
182,192,85066,1,0,0:0:0:0:
109,192,85066,1,0,0:0:0:0:
182,192,85394,1,0,0:0:0:0:
329,192,85394,1,0,0:0:0:0:
256,192,85558,1,0,0:0:0:0:
109,192,85558,1,0,0:0:0:0:
402,192,85558,1,0,0:0:0:0:
402,192,85722,1,0,0:0:0:0:
256,192,85722,1,0,0:0:0:0:
109,192,85722,1,0,0:0:0:0:
109,192,85886,1,0,0:0:0:0:
256,192,85886,1,0,0:0:0:0:
402,192,85886,1,0,0:0:0:0:
329,192,86050,1,0,0:0:0:0:
475,192,86050,1,0,0:0:0:0:
182,192,86132,1,0,0:0:0:0:
36,192,86132,1,0,0:0:0:0:
329,192,86214,1,0,0:0:0:0:
475,192,86214,1,0,0:0:0:0:
182,192,86296,1,0,0:0:0:0:
36,192,86296,1,0,0:0:0:0:
329,192,86378,1,0,0:0:0:0:
402,192,86378,1,0,0:0:0:0:
475,192,86378,1,0,0:0:0:0:
256,192,86459,1,0,0:0:0:0:
182,192,86541,1,0,0:0:0:0:
109,192,86541,1,0,0:0:0:0:
36,192,86541,1,0,0:0:0:0:
182,192,86705,1,0,0:0:0:0:
329,192,86705,1,0,0:0:0:0:
109,192,86869,1,0,0:0:0:0:
256,192,86869,1,0,0:0:0:0:
402,192,86869,1,0,0:0:0:0:
402,192,87033,1,0,0:0:0:0:
256,192,87033,1,0,0:0:0:0:
109,192,87033,1,0,0:0:0:0:
109,192,87197,1,0,0:0:0:0:
256,192,87197,1,0,0:0:0:0:
402,192,87197,1,0,0:0:0:0:
182,192,87361,1,0,0:0:0:0:
36,192,87361,1,0,0:0:0:0:
329,192,87443,1,0,0:0:0:0:
475,192,87443,1,0,0:0:0:0:
182,192,87525,1,0,0:0:0:0:
36,192,87525,1,0,0:0:0:0:
329,192,87607,1,0,0:0:0:0:
475,192,87607,1,0,0:0:0:0:
182,192,87689,1,0,0:0:0:0:
109,192,87689,1,0,0:0:0:0:
36,192,87689,1,0,0:0:0:0:
256,192,87771,1,0,0:0:0:0:
329,192,87853,1,0,0:0:0:0:
475,192,87853,1,0,0:0:0:0:
402,192,87853,1,0,0:0:0:0:
182,192,88017,1,0,0:0:0:0:
329,192,88017,1,0,0:0:0:0:
256,192,88181,1,0,0:0:0:0:
109,192,88181,1,0,0:0:0:0:
402,192,88181,1,0,0:0:0:0:
402,192,88345,1,0,0:0:0:0:
256,192,88345,1,0,0:0:0:0:
109,192,88345,1,0,0:0:0:0:
109,192,88509,1,0,0:0:0:0:
256,192,88509,1,0,0:0:0:0:
402,192,88509,1,0,0:0:0:0:
329,192,88673,1,0,0:0:0:0:
475,192,88673,1,0,0:0:0:0:
182,192,88837,1,0,0:0:0:0:
36,192,88837,1,0,0:0:0:0:
256,192,89000,1,0,0:0:0:0:
402,192,89000,1,0,0:0:0:0:
329,192,89082,1,0,0:0:0:0:
182,192,89082,1,0,0:0:0:0:
256,192,89164,1,0,0:0:0:0:
109,192,89164,1,0,0:0:0:0:
36,192,89328,1,0,0:0:0:0:
182,192,89328,1,0,0:0:0:0:
402,192,89328,1,0,0:0:0:0:
109,192,89328,1,0,0:0:0:0:
475,192,89328,1,0,0:0:0:0:
329,192,89492,1,0,0:0:0:0:
402,192,89492,1,0,0:0:0:0:
475,192,89492,1,0,0:0:0:0:
109,192,89492,1,0,0:0:0:0:
36,192,89492,1,0,0:0:0:0:
475,192,89656,1,0,0:0:0:0:
402,192,89656,1,0,0:0:0:0:
329,192,89656,1,0,0:0:0:0:
109,192,89656,1,0,0:0:0:0:
36,192,89656,1,0,0:0:0:0:
402,192,89820,1,0,0:0:0:0:
475,192,89820,1,0,0:0:0:0:
36,192,89820,1,0,0:0:0:0:
329,192,89820,1,0,0:0:0:0:
109,192,89820,1,0,0:0:0:0:
109,192,89984,1,0,0:0:0:0:
256,192,89984,1,0,0:0:0:0:
182,192,90066,1,0,0:0:0:0:
329,192,90066,1,0,0:0:0:0:
256,192,90148,1,0,0:0:0:0:
402,192,90148,1,0,0:0:0:0:
329,192,90312,1,0,0:0:0:0:
475,192,90312,1,0,0:0:0:0:
182,192,90312,1,0,0:0:0:0:
36,192,90312,1,0,0:0:0:0:
109,192,90312,1,0,0:0:0:0:
402,192,90312,1,0,0:0:0:0:
182,192,90640,1,0,0:0:0:0:
329,192,90640,1,0,0:0:0:0:
109,192,90804,1,0,0:0:0:0:
256,192,90804,1,0,0:0:0:0:
402,192,90804,1,0,0:0:0:0:
402,192,90968,1,0,0:0:0:0:
256,192,90968,1,0,0:0:0:0:
109,192,90968,1,0,0:0:0:0:
109,192,91132,1,0,0:0:0:0:
256,192,91132,1,0,0:0:0:0:
402,192,91132,1,0,0:0:0:0:
182,192,91296,1,0,0:0:0:0:
36,192,91296,1,0,0:0:0:0:
329,192,91296,1,0,0:0:0:0:
256,192,91459,1,0,0:0:0:0:
402,192,91459,1,0,0:0:0:0:
402,192,91541,1,0,0:0:0:0:
256,192,91541,1,0,0:0:0:0:
182,192,91623,1,0,0:0:0:0:
36,192,91623,1,0,0:0:0:0:
329,192,91623,1,0,0:0:0:0:
109,192,91787,1,0,0:0:0:0:
256,192,91787,1,0,0:0:0:0:
182,192,91869,1,0,0:0:0:0:
329,192,91869,1,0,0:0:0:0:
256,192,91951,1,0,0:0:0:0:
402,192,91951,1,0,0:0:0:0:
182,192,92115,1,0,0:0:0:0:
329,192,92115,1,0,0:0:0:0:
475,192,92115,1,0,0:0:0:0:
475,192,92279,1,0,0:0:0:0:
329,192,92279,1,0,0:0:0:0:
182,192,92279,1,0,0:0:0:0:
182,192,92443,1,0,0:0:0:0:
329,192,92443,1,0,0:0:0:0:
475,192,92443,1,0,0:0:0:0:
256,192,92607,1,0,0:0:0:0:
402,192,92607,1,0,0:0:0:0:
329,192,92689,1,0,0:0:0:0:
182,192,92689,1,0,0:0:0:0:
256,192,92771,1,0,0:0:0:0:
109,192,92771,1,0,0:0:0:0:
329,192,92935,1,0,0:0:0:0:
475,192,92935,1,0,0:0:0:0:
256,192,93017,1,0,0:0:0:0:
402,192,93017,1,0,0:0:0:0:
182,192,93099,1,0,0:0:0:0:
329,192,93099,1,0,0:0:0:0:
109,192,93181,1,0,0:0:0:0:
256,192,93181,1,0,0:0:0:0:
36,192,93263,1,0,0:0:0:0:
182,192,93263,1,0,0:0:0:0:
109,192,93427,1,0,0:0:0:0:
256,192,93427,1,0,0:0:0:0:
402,192,93427,1,0,0:0:0:0:
402,192,93591,1,0,0:0:0:0:
256,192,93591,1,0,0:0:0:0:
109,192,93591,1,0,0:0:0:0:
109,192,93755,1,0,0:0:0:0:
256,192,93755,1,0,0:0:0:0:
402,192,93755,1,0,0:0:0:0:
182,192,93919,1,0,0:0:0:0:
329,192,93919,1,0,0:0:0:0:
36,192,93919,1,0,0:0:0:0:
36,192,94082,1,0,0:0:0:0:
182,192,94082,1,0,0:0:0:0:
329,192,94082,1,0,0:0:0:0:
256,192,94246,1,0,0:0:0:0:
475,192,94246,1,0,0:0:0:0:
182,192,94328,1,0,0:0:0:0:
402,192,94328,1,0,0:0:0:0:
109,192,94410,1,0,0:0:0:0:
329,192,94410,1,0,0:0:0:0:
36,192,94574,1,0,0:0:0:0:
256,192,94574,1,0,0:0:0:0:
182,192,94738,1,0,0:0:0:0:
402,192,94738,1,0,0:0:0:0:
256,192,94738,1,0,0:0:0:0:
475,192,94738,1,0,0:0:0:0:
109,192,94820,1,0,0:0:0:0:
329,192,94820,1,0,0:0:0:0:
256,192,94902,1,0,0:0:0:0:
36,192,94902,1,0,0:0:0:0:
182,192,95066,1,0,0:0:0:0:
402,192,95066,1,0,0:0:0:0:
256,192,95230,1,0,0:0:0:0:
475,192,95230,1,0,0:0:0:0:
182,192,95394,1,0,0:0:0:0:
402,192,95394,1,0,0:0:0:0:
329,192,95558,1,0,0:0:0:0:
109,192,95558,1,0,0:0:0:0:
256,192,95722,1,0,0:0:0:0:
36,192,95722,1,0,0:0:0:0:
109,192,95886,1,0,0:0:0:0:
182,192,95886,1,0,0:0:0:0:
329,192,95886,1,0,0:0:0:0:
402,192,95886,1,0,0:0:0:0:
475,192,96050,1,0,0:0:0:0:
402,192,96050,1,0,0:0:0:0:
109,192,96050,1,0,0:0:0:0:
36,192,96050,1,0,0:0:0:0:
402,192,96214,1,0,0:0:0:0:
475,192,96214,1,0,0:0:0:0:
109,192,96214,1,0,0:0:0:0:
36,192,96214,1,0,0:0:0:0:
475,192,96378,1,0,0:0:0:0:
402,192,96378,1,0,0:0:0:0:
36,192,96378,1,0,0:0:0:0:
109,192,96378,1,0,0:0:0:0:
182,192,96541,1,0,0:0:0:0:
256,192,96541,1,0,0:0:0:0:
329,192,96541,1,0,0:0:0:0:
402,192,96705,1,0,0:0:0:0:
475,192,96705,1,0,0:0:0:0:
109,192,96705,1,0,0:0:0:0:
36,192,96705,1,0,0:0:0:0:
182,192,96869,1,0,0:0:0:0:
256,192,96869,1,0,0:0:0:0:
329,192,96869,1,0,0:0:0:0:
329,192,97033,1,0,0:0:0:0:
256,192,97033,1,0,0:0:0:0:
182,192,97033,1,0,0:0:0:0:
36,192,97197,1,0,0:0:0:0:
109,192,97197,1,0,0:0:0:0:
402,192,97197,1,0,0:0:0:0:
475,192,97197,1,0,0:0:0:0:
329,192,97361,1,0,0:0:0:0:
256,192,97361,1,0,0:0:0:0:
182,192,97361,1,0,0:0:0:0:
182,192,97525,1,0,0:0:0:0:
256,192,97525,1,0,0:0:0:0:
329,192,97525,1,0,0:0:0:0:
329,192,97689,1,0,0:0:0:0:
182,192,97689,1,0,0:0:0:0:
256,192,97689,1,0,0:0:0:0:
182,192,97853,1,0,0:0:0:0:
256,192,97853,1,0,0:0:0:0:
329,192,97853,1,0,0:0:0:0:
402,192,97935,1,0,0:0:0:0:
475,192,97935,1,0,0:0:0:0:
109,192,97935,1,0,0:0:0:0:
36,192,97935,1,0,0:0:0:0:
182,192,98017,1,0,0:0:0:0:
256,192,98017,1,0,0:0:0:0:
329,192,98017,1,0,0:0:0:0:
402,192,98099,1,0,0:0:0:0:
475,192,98099,1,0,0:0:0:0:
109,192,98099,1,0,0:0:0:0:
36,192,98099,1,0,0:0:0:0:
182,192,98181,1,0,0:0:0:0:
329,192,98181,1,0,0:0:0:0:
402,192,98263,1,0,0:0:0:0:
475,192,98263,1,0,0:0:0:0:
109,192,98263,1,0,0:0:0:0:
36,192,98263,1,0,0:0:0:0:
329,192,98345,1,0,0:0:0:0:
182,192,98345,1,0,0:0:0:0:
109,192,98427,1,0,0:0:0:0:
36,192,98427,1,0,0:0:0:0:
402,192,98427,1,0,0:0:0:0:
475,192,98427,1,0,0:0:0:0:
182,192,98509,1,0,0:0:0:0:
256,192,98509,1,0,0:0:0:0:
329,192,98509,1,0,0:0:0:0:
109,192,98673,1,0,0:0:0:0:
36,192,98673,1,0,0:0:0:0:
402,192,98673,1,0,0:0:0:0:
475,192,98673,1,0,0:0:0:0:
475,192,98837,1,0,0:0:0:0:
402,192,98837,1,0,0:0:0:0:
109,192,98837,1,0,0:0:0:0:
36,192,98837,1,0,0:0:0:0:
36,192,99000,1,0,0:0:0:0:
109,192,99000,1,0,0:0:0:0:
402,192,99000,1,0,0:0:0:0:
475,192,99000,1,0,0:0:0:0:
109,192,99164,1,0,0:0:0:0:
182,192,99164,1,0,0:0:0:0:
329,192,99164,1,0,0:0:0:0:
402,192,99164,1,0,0:0:0:0:
402,192,99328,1,0,0:0:0:0:
329,192,99328,1,0,0:0:0:0:
182,192,99328,1,0,0:0:0:0:
109,192,99328,1,0,0:0:0:0:
402,192,99492,1,0,0:0:0:0:
475,192,99492,1,0,0:0:0:0:
109,192,99492,1,0,0:0:0:0:
36,192,99492,1,0,0:0:0:0:
329,192,99574,1,0,0:0:0:0:
182,192,99574,1,0,0:0:0:0:
36,192,99656,1,0,0:0:0:0:
109,192,99656,1,0,0:0:0:0:
402,192,99656,1,0,0:0:0:0:
475,192,99656,1,0,0:0:0:0:
182,192,99738,1,0,0:0:0:0:
329,192,99738,1,0,0:0:0:0:
256,192,99820,128,0,100804:0:0:0:0:
109,192,99984,1,0,0:0:0:0:
402,192,99984,1,0,0:0:0:0:
475,192,99984,1,0,0:0:0:0:
36,192,99984,1,0,0:0:0:0:
402,192,100148,1,0,0:0:0:0:
475,192,100148,1,0,0:0:0:0:
109,192,100148,1,0,0:0:0:0:
36,192,100148,1,0,0:0:0:0:
109,192,100312,1,0,0:0:0:0:
36,192,100312,1,0,0:0:0:0:
402,192,100312,1,0,0:0:0:0:
475,192,100312,1,0,0:0:0:0:
182,192,100476,1,0,0:0:0:0:
329,192,100476,1,0,0:0:0:0:
402,192,100558,1,0,0:0:0:0:
109,192,100558,1,0,0:0:0:0:
475,192,100640,1,0,0:0:0:0:
36,192,100640,1,0,0:0:0:0:
36,192,100804,128,0,101132:0:0:0:0:
475,192,100804,128,0,101132:0:0:0:0:
109,192,101132,1,0,0:0:0:0:
182,192,101132,1,0,0:0:0:0:
329,192,101132,1,0,0:0:0:0:
402,192,101132,1,0,0:0:0:0:
256,192,101350,1,0,0:0:0:0:
329,192,101350,1,0,0:0:0:0:
402,192,101350,1,0,0:0:0:0:
475,192,101350,1,0,0:0:0:0:
402,192,101459,1,0,0:0:0:0:
329,192,101459,1,0,0:0:0:0:
256,192,101459,1,0,0:0:0:0:
182,192,101459,1,0,0:0:0:0:
329,192,101678,1,0,0:0:0:0:
256,192,101678,1,0,0:0:0:0:
182,192,101678,1,0,0:0:0:0:
109,192,101678,1,0,0:0:0:0:
256,192,101787,1,0,0:0:0:0:
109,192,101787,1,0,0:0:0:0:
182,192,101787,1,0,0:0:0:0:
36,192,101787,1,0,0:0:0:0:
109,192,102006,1,0,0:0:0:0:
182,192,102006,1,0,0:0:0:0:
256,192,102006,1,0,0:0:0:0:
329,192,102006,1,0,0:0:0:0:
182,192,102115,1,0,0:0:0:0:
256,192,102115,1,0,0:0:0:0:
329,192,102115,1,0,0:0:0:0:
402,192,102115,1,0,0:0:0:0:
256,192,102334,1,0,0:0:0:0:
329,192,102334,1,0,0:0:0:0:
402,192,102334,1,0,0:0:0:0:
475,192,102334,1,0,0:0:0:0:
402,192,102443,1,0,0:0:0:0:
329,192,102443,1,0,0:0:0:0:
256,192,102443,1,0,0:0:0:0:
182,192,102443,1,0,0:0:0:0:
36,192,102662,1,0,0:0:0:0:
182,192,102662,1,0,0:0:0:0:
256,192,102662,1,0,0:0:0:0:
109,192,102662,1,0,0:0:0:0:
329,192,102771,1,0,0:0:0:0:
256,192,102771,1,0,0:0:0:0:
402,192,102771,1,0,0:0:0:0:
182,192,102771,1,0,0:0:0:0:
256,192,102990,1,0,0:0:0:0:
329,192,102990,1,0,0:0:0:0:
402,192,102990,1,0,0:0:0:0:
475,192,102990,1,0,0:0:0:0:
182,192,103099,1,0,0:0:0:0:
109,192,103099,1,0,0:0:0:0:
36,192,103099,1,0,0:0:0:0:
182,192,103208,1,0,0:0:0:0:
109,192,103208,1,0,0:0:0:0:
36,192,103208,1,0,0:0:0:0:
36,192,103317,1,0,0:0:0:0:
109,192,103317,1,0,0:0:0:0:
182,192,103317,1,0,0:0:0:0:
329,192,103427,1,0,0:0:0:0:
402,192,103427,1,0,0:0:0:0:
475,192,103427,1,0,0:0:0:0:
402,192,103536,1,0,0:0:0:0:
329,192,103536,1,0,0:0:0:0:
475,192,103536,1,0,0:0:0:0:
329,192,103645,1,0,0:0:0:0:
402,192,103645,1,0,0:0:0:0:
475,192,103645,1,0,0:0:0:0:
182,192,103755,1,0,0:0:0:0:
109,192,103755,1,0,0:0:0:0:
36,192,103755,1,0,0:0:0:0:
256,192,103755,1,0,0:0:0:0:
256,192,103973,1,0,0:0:0:0:
329,192,103973,1,0,0:0:0:0:
402,192,103973,1,0,0:0:0:0:
475,192,103973,1,0,0:0:0:0:
329,192,104082,1,0,0:0:0:0:
256,192,104082,1,0,0:0:0:0:
182,192,104082,1,0,0:0:0:0:
109,192,104082,1,0,0:0:0:0:
36,192,104301,1,0,0:0:0:0:
109,192,104301,1,0,0:0:0:0:
182,192,104301,1,0,0:0:0:0:
256,192,104301,1,0,0:0:0:0:
182,192,104410,1,0,0:0:0:0:
256,192,104410,1,0,0:0:0:0:
329,192,104410,1,0,0:0:0:0:
402,192,104410,1,0,0:0:0:0:
256,192,104629,1,0,0:0:0:0:
329,192,104629,1,0,0:0:0:0:
402,192,104629,1,0,0:0:0:0:
475,192,104629,1,0,0:0:0:0:
182,192,104738,1,0,0:0:0:0:
109,192,104738,1,0,0:0:0:0:
36,192,104738,1,0,0:0:0:0:
36,192,104847,1,0,0:0:0:0:
109,192,104847,1,0,0:0:0:0:
182,192,104847,1,0,0:0:0:0:
182,192,104957,1,0,0:0:0:0:
109,192,104957,1,0,0:0:0:0:
36,192,104957,1,0,0:0:0:0:
329,192,105066,1,0,0:0:0:0:
402,192,105066,1,0,0:0:0:0:
475,192,105066,1,0,0:0:0:0:
329,192,105230,1,0,0:0:0:0:
402,192,105230,1,0,0:0:0:0:
475,192,105230,1,0,0:0:0:0:
475,192,105394,1,0,0:0:0:0:
402,192,105394,1,0,0:0:0:0:
329,192,105394,1,0,0:0:0:0:
182,192,105394,1,0,0:0:0:0:
109,192,105394,1,0,0:0:0:0:
36,192,105394,1,0,0:0:0:0:
36,192,105558,1,0,0:0:0:0:
109,192,105558,1,0,0:0:0:0:
182,192,105558,1,0,0:0:0:0:
182,192,105722,1,0,0:0:0:0:
109,192,105722,1,0,0:0:0:0:
36,192,105722,1,0,0:0:0:0:
329,192,105804,1,0,0:0:0:0:
402,192,105804,1,0,0:0:0:0:
475,192,105804,1,0,0:0:0:0:
182,192,105886,1,0,0:0:0:0:
109,192,105886,1,0,0:0:0:0:
36,192,105886,1,0,0:0:0:0:
329,192,105968,1,0,0:0:0:0:
402,192,105968,1,0,0:0:0:0:
475,192,105968,1,0,0:0:0:0:
256,192,106050,1,0,0:0:0:0:
182,192,106050,1,0,0:0:0:0:
109,192,106050,1,0,0:0:0:0:
36,192,106050,1,0,0:0:0:0:
109,192,106378,1,0,0:0:0:0:
402,192,106378,1,0,0:0:0:0:
475,192,106378,1,0,0:0:0:0:
256,192,106378,1,0,0:0:0:0:
182,192,106459,1,0,0:0:0:0:
329,192,106459,1,0,0:0:0:0:
36,192,106541,1,0,0:0:0:0:
109,192,106541,1,0,0:0:0:0:
402,192,106541,1,0,0:0:0:0:
256,192,106623,1,0,0:0:0:0:
329,192,106623,1,0,0:0:0:0:
182,192,106705,1,0,0:0:0:0:
109,192,106705,1,0,0:0:0:0:
36,192,106705,1,0,0:0:0:0:
475,192,106705,1,0,0:0:0:0:
329,192,106787,1,0,0:0:0:0:
402,192,106787,1,0,0:0:0:0:
182,192,106869,1,0,0:0:0:0:
36,192,106869,1,0,0:0:0:0:
256,192,106869,1,0,0:0:0:0:
402,192,106951,1,0,0:0:0:0:
475,192,106951,1,0,0:0:0:0:
182,192,107033,1,0,0:0:0:0:
109,192,107033,1,0,0:0:0:0:
36,192,107033,1,0,0:0:0:0:
329,192,107033,1,0,0:0:0:0:
256,192,107115,1,0,0:0:0:0:
402,192,107115,1,0,0:0:0:0:
329,192,107197,1,0,0:0:0:0:
182,192,107197,1,0,0:0:0:0:
475,192,107197,1,0,0:0:0:0:
182,192,107361,1,0,0:0:0:0:
109,192,107361,1,0,0:0:0:0:
36,192,107361,1,0,0:0:0:0:
475,192,107525,1,0,0:0:0:0:
402,192,107525,1,0,0:0:0:0:
329,192,107525,1,0,0:0:0:0:
109,192,107689,1,0,0:0:0:0:
402,192,107689,1,0,0:0:0:0:
36,192,107689,1,0,0:0:0:0:
256,192,107689,1,0,0:0:0:0:
182,192,107771,1,0,0:0:0:0:
329,192,107771,1,0,0:0:0:0:
475,192,107853,1,0,0:0:0:0:
109,192,107853,1,0,0:0:0:0:
402,192,107853,1,0,0:0:0:0:
182,192,107935,1,0,0:0:0:0:
256,192,107935,1,0,0:0:0:0:
36,192,108017,1,0,0:0:0:0:
475,192,108017,1,0,0:0:0:0:
402,192,108017,1,0,0:0:0:0:
329,192,108017,1,0,0:0:0:0:
182,192,108099,1,0,0:0:0:0:
109,192,108099,1,0,0:0:0:0:
475,192,108181,1,0,0:0:0:0:
256,192,108181,1,0,0:0:0:0:
329,192,108181,1,0,0:0:0:0:
109,192,108263,1,0,0:0:0:0:
36,192,108263,1,0,0:0:0:0:
182,192,108345,1,0,0:0:0:0:
475,192,108345,1,0,0:0:0:0:
329,192,108345,1,0,0:0:0:0:
402,192,108345,1,0,0:0:0:0:
109,192,108427,1,0,0:0:0:0:
256,192,108427,1,0,0:0:0:0:
329,192,108509,1,0,0:0:0:0:
182,192,108509,1,0,0:0:0:0:
36,192,108509,1,0,0:0:0:0:
329,192,108673,1,0,0:0:0:0:
475,192,108673,1,0,0:0:0:0:
402,192,108673,1,0,0:0:0:0:
182,192,108837,1,0,0:0:0:0:
109,192,108837,1,0,0:0:0:0:
36,192,108837,1,0,0:0:0:0:
475,192,109000,1,0,0:0:0:0:
256,192,109000,1,0,0:0:0:0:
402,192,109000,1,0,0:0:0:0:
109,192,109000,1,0,0:0:0:0:
182,192,109082,1,0,0:0:0:0:
329,192,109082,1,0,0:0:0:0:
109,192,109164,1,0,0:0:0:0:
402,192,109164,1,0,0:0:0:0:
36,192,109164,1,0,0:0:0:0:
256,192,109246,1,0,0:0:0:0:
329,192,109246,1,0,0:0:0:0:
109,192,109328,1,0,0:0:0:0:
182,192,109328,1,0,0:0:0:0:
475,192,109328,1,0,0:0:0:0:
36,192,109328,1,0,0:0:0:0:
402,192,109410,1,0,0:0:0:0:
329,192,109410,1,0,0:0:0:0:
182,192,109492,1,0,0:0:0:0:
256,192,109492,1,0,0:0:0:0:
36,192,109492,1,0,0:0:0:0:
475,192,109574,1,0,0:0:0:0:
402,192,109574,1,0,0:0:0:0:
182,192,109656,1,0,0:0:0:0:
109,192,109656,1,0,0:0:0:0:
329,192,109656,1,0,0:0:0:0:
36,192,109656,1,0,0:0:0:0:
256,192,109738,1,0,0:0:0:0:
402,192,109738,1,0,0:0:0:0:
329,192,109820,1,0,0:0:0:0:
475,192,109820,1,0,0:0:0:0:
182,192,109820,1,0,0:0:0:0:
109,192,109984,1,0,0:0:0:0:
36,192,109984,1,0,0:0:0:0:
182,192,109984,1,0,0:0:0:0:
329,192,110148,1,0,0:0:0:0:
402,192,110148,1,0,0:0:0:0:
475,192,110148,1,0,0:0:0:0:
182,192,110312,1,0,0:0:0:0:
109,192,110312,1,0,0:0:0:0:
36,192,110312,1,0,0:0:0:0:
182,192,110476,1,0,0:0:0:0:
109,192,110476,1,0,0:0:0:0:
36,192,110476,1,0,0:0:0:0:
329,192,110640,1,0,0:0:0:0:
402,192,110640,1,0,0:0:0:0:
475,192,110640,1,0,0:0:0:0:
475,192,110804,1,0,0:0:0:0:
402,192,110804,1,0,0:0:0:0:
329,192,110804,1,0,0:0:0:0:
256,192,110968,1,0,0:0:0:0:
182,192,110968,1,0,0:0:0:0:
109,192,110968,1,0,0:0:0:0:
36,192,110968,1,0,0:0:0:0:
329,192,111050,1,0,0:0:0:0:
402,192,111050,1,0,0:0:0:0:
475,192,111050,1,0,0:0:0:0:
256,192,111214,1,0,0:0:0:0:
329,192,111214,1,0,0:0:0:0:
402,192,111214,1,0,0:0:0:0:
475,192,111214,1,0,0:0:0:0:
182,192,111214,1,0,0:0:0:0:
109,192,111214,1,0,0:0:0:0:
182,192,111623,1,0,0:0:0:0:
109,192,111623,1,0,0:0:0:0:
329,192,111623,1,0,0:0:0:0:
475,192,111623,1,0,0:0:0:0:
256,192,111705,1,0,0:0:0:0:
402,192,111705,1,0,0:0:0:0:
182,192,111787,1,0,0:0:0:0:
36,192,111787,1,0,0:0:0:0:
329,192,111787,1,0,0:0:0:0:
402,192,111869,1,0,0:0:0:0:
475,192,111869,1,0,0:0:0:0:
256,192,111951,1,0,0:0:0:0:
109,192,111951,1,0,0:0:0:0:
329,192,111951,1,0,0:0:0:0:
36,192,111951,1,0,0:0:0:0:
402,192,112033,1,0,0:0:0:0:
182,192,112033,1,0,0:0:0:0:
256,192,112115,1,0,0:0:0:0:
475,192,112115,1,0,0:0:0:0:
36,192,112115,1,0,0:0:0:0:
329,192,112197,1,0,0:0:0:0:
109,192,112197,1,0,0:0:0:0:
475,192,112279,1,0,0:0:0:0:
182,192,112279,1,0,0:0:0:0:
36,192,112279,1,0,0:0:0:0:
402,192,112279,1,0,0:0:0:0:
329,192,112361,1,0,0:0:0:0:
256,192,112361,1,0,0:0:0:0:
182,192,112443,1,0,0:0:0:0:
109,192,112443,1,0,0:0:0:0:
36,192,112443,1,0,0:0:0:0:
402,192,112443,1,0,0:0:0:0:
475,192,112443,1,0,0:0:0:0:
256,192,112607,1,0,0:0:0:0:
329,192,112607,1,0,0:0:0:0:
402,192,112607,1,0,0:0:0:0:
182,192,112607,1,0,0:0:0:0:
109,192,112607,1,0,0:0:0:0:
329,192,112935,1,0,0:0:0:0:
402,192,112935,1,0,0:0:0:0:
182,192,112935,1,0,0:0:0:0:
36,192,112935,1,0,0:0:0:0:
109,192,113017,1,0,0:0:0:0:
256,192,113017,1,0,0:0:0:0:
182,192,113099,1,0,0:0:0:0:
329,192,113099,1,0,0:0:0:0:
475,192,113099,1,0,0:0:0:0:
109,192,113181,1,0,0:0:0:0:
36,192,113181,1,0,0:0:0:0:
475,192,113263,1,0,0:0:0:0:
182,192,113263,1,0,0:0:0:0:
402,192,113263,1,0,0:0:0:0:
256,192,113263,1,0,0:0:0:0:
109,192,113345,1,0,0:0:0:0:
329,192,113345,1,0,0:0:0:0:
475,192,113427,1,0,0:0:0:0:
256,192,113427,1,0,0:0:0:0:
36,192,113427,1,0,0:0:0:0:
182,192,113509,1,0,0:0:0:0:
402,192,113509,1,0,0:0:0:0:
329,192,113591,1,0,0:0:0:0:
475,192,113591,1,0,0:0:0:0:
36,192,113591,1,0,0:0:0:0:
109,192,113591,1,0,0:0:0:0:
182,192,113673,1,0,0:0:0:0:
256,192,113673,1,0,0:0:0:0:
36,192,113755,1,0,0:0:0:0:
402,192,113755,1,0,0:0:0:0:
109,192,113755,1,0,0:0:0:0:
329,192,113755,1,0,0:0:0:0:
475,192,113755,1,0,0:0:0:0:
182,192,113919,1,0,0:0:0:0:
256,192,113919,1,0,0:0:0:0:
329,192,113919,1,0,0:0:0:0:
109,192,113919,1,0,0:0:0:0:
402,192,113919,1,0,0:0:0:0:
329,192,114246,1,0,0:0:0:0:
475,192,114246,1,0,0:0:0:0:
182,192,114246,1,0,0:0:0:0:
109,192,114246,1,0,0:0:0:0:
256,192,114328,1,0,0:0:0:0:
402,192,114328,1,0,0:0:0:0:
36,192,114410,1,0,0:0:0:0:
182,192,114410,1,0,0:0:0:0:
329,192,114410,1,0,0:0:0:0:
475,192,114492,1,0,0:0:0:0:
402,192,114492,1,0,0:0:0:0:
109,192,114574,1,0,0:0:0:0:
256,192,114574,1,0,0:0:0:0:
36,192,114574,1,0,0:0:0:0:
329,192,114574,1,0,0:0:0:0:
182,192,114656,1,0,0:0:0:0:
402,192,114656,1,0,0:0:0:0:
475,192,114738,1,0,0:0:0:0:
256,192,114738,1,0,0:0:0:0:
36,192,114738,1,0,0:0:0:0:
109,192,114820,1,0,0:0:0:0:
329,192,114820,1,0,0:0:0:0:
475,192,114902,1,0,0:0:0:0:
402,192,114902,1,0,0:0:0:0:
182,192,114902,1,0,0:0:0:0:
36,192,114902,1,0,0:0:0:0:
256,192,114984,1,0,0:0:0:0:
329,192,114984,1,0,0:0:0:0:
182,192,115066,1,0,0:0:0:0:
36,192,115066,1,0,0:0:0:0:
402,192,115066,1,0,0:0:0:0:
475,192,115066,1,0,0:0:0:0:
109,192,115066,1,0,0:0:0:0:
402,192,115230,1,0,0:0:0:0:
109,192,115230,1,0,0:0:0:0:
182,192,115230,1,0,0:0:0:0:
329,192,115230,1,0,0:0:0:0:
256,192,115230,1,0,0:0:0:0:
182,192,115394,1,0,0:0:0:0:
109,192,115394,1,0,0:0:0:0:
36,192,115394,1,0,0:0:0:0:
329,192,115394,1,0,0:0:0:0:
402,192,115394,1,0,0:0:0:0:
475,192,115394,1,0,0:0:0:0:
36,192,115558,1,0,0:0:0:0:
109,192,115558,1,0,0:0:0:0:
182,192,115558,1,0,0:0:0:0:
256,192,115558,1,0,0:0:0:0:
329,192,115558,1,0,0:0:0:0:
402,192,115558,1,0,0:0:0:0:
402,192,115722,1,0,0:0:0:0:
329,192,115722,1,0,0:0:0:0:
256,192,115722,1,0,0:0:0:0:
182,192,115722,1,0,0:0:0:0:
109,192,115722,1,0,0:0:0:0:
36,192,115722,1,0,0:0:0:0:
402,192,115886,1,0,0:0:0:0:
475,192,115886,1,0,0:0:0:0:
182,192,115886,1,0,0:0:0:0:
256,192,115886,1,0,0:0:0:0:
329,192,115886,1,0,0:0:0:0:
109,192,115886,1,0,0:0:0:0:
256,192,116050,1,0,0:0:0:0:
329,192,116050,1,0,0:0:0:0:
402,192,116050,1,0,0:0:0:0:
475,192,116050,1,0,0:0:0:0:
182,192,116050,1,0,0:0:0:0:
109,192,116050,1,0,0:0:0:0:
36,192,116214,1,0,0:0:0:0:
109,192,116214,1,0,0:0:0:0:
182,192,116214,1,0,0:0:0:0:
329,192,116296,1,0,0:0:0:0:
402,192,116296,1,0,0:0:0:0:
475,192,116296,1,0,0:0:0:0:
256,192,116296,1,0,0:0:0:0:
182,192,116459,1,0,0:0:0:0:
109,192,116459,1,0,0:0:0:0:
36,192,116459,1,0,0:0:0:0:
256,192,116459,1,0,0:0:0:0:
329,192,116459,1,0,0:0:0:0:
402,192,116459,1,0,0:0:0:0:
36,192,116869,1,0,0:0:0:0:
475,192,116869,1,0,0:0:0:0:
109,192,116910,1,0,0:0:0:0:
182,192,116951,1,0,0:0:0:0:
256,192,116992,1,0,0:0:0:0:
329,192,117033,1,0,0:0:0:0:
475,192,117074,1,0,0:0:0:0:
36,192,117074,1,0,0:0:0:0:
402,192,117115,1,0,0:0:0:0:
329,192,117156,1,0,0:0:0:0:
256,192,117197,1,0,0:0:0:0:
182,192,117238,1,0,0:0:0:0:
36,192,117279,1,0,0:0:0:0:
475,192,117279,1,0,0:0:0:0:
109,192,117320,1,0,0:0:0:0:
182,192,117361,1,0,0:0:0:0:
256,192,117402,1,0,0:0:0:0:
329,192,117443,1,0,0:0:0:0:
475,192,117484,1,0,0:0:0:0:
36,192,117484,1,0,0:0:0:0:
402,192,117525,1,0,0:0:0:0:
329,192,117566,1,0,0:0:0:0:
256,192,117607,1,0,0:0:0:0:
182,192,117648,1,0,0:0:0:0:
36,192,117689,1,0,0:0:0:0:
109,192,117730,1,0,0:0:0:0:
182,192,117771,1,0,0:0:0:0:
256,192,117812,1,0,0:0:0:0:
329,192,117853,1,0,0:0:0:0:
475,192,117853,1,0,0:0:0:0:
182,192,117935,1,0,0:0:0:0:
36,192,117935,1,0,0:0:0:0:
329,192,118017,1,0,0:0:0:0:
475,192,118017,1,0,0:0:0:0:
475,192,118181,1,0,0:0:0:0:
109,192,118181,1,0,0:0:0:0:
402,192,118222,1,0,0:0:0:0:
329,192,118263,1,0,0:0:0:0:
256,192,118304,1,0,0:0:0:0:
182,192,118345,1,0,0:0:0:0:
36,192,118386,1,0,0:0:0:0:
402,192,118386,1,0,0:0:0:0:
109,192,118427,1,0,0:0:0:0:
182,192,118468,1,0,0:0:0:0:
256,192,118509,1,0,0:0:0:0:
329,192,118550,1,0,0:0:0:0:
475,192,118591,1,0,0:0:0:0:
109,192,118591,1,0,0:0:0:0:
402,192,118632,1,0,0:0:0:0:
329,192,118673,1,0,0:0:0:0:
256,192,118714,1,0,0:0:0:0:
182,192,118755,1,0,0:0:0:0:
36,192,118796,1,0,0:0:0:0:
402,192,118796,1,0,0:0:0:0:
109,192,118837,1,0,0:0:0:0:
182,192,118878,1,0,0:0:0:0:
256,192,118919,1,0,0:0:0:0:
329,192,118959,1,0,0:0:0:0:
475,192,119000,1,0,0:0:0:0:
402,192,119041,1,0,0:0:0:0:
329,192,119082,1,0,0:0:0:0:
256,192,119123,1,0,0:0:0:0:
182,192,119164,1,0,0:0:0:0:
36,192,119164,1,0,0:0:0:0:
109,192,119164,1,0,0:0:0:0:
329,192,119328,1,0,0:0:0:0:
475,192,119328,1,0,0:0:0:0:
402,192,119328,1,0,0:0:0:0:
36,192,119492,1,0,0:0:0:0:
402,192,119492,1,0,0:0:0:0:
329,192,119492,1,0,0:0:0:0:
475,192,119492,1,0,0:0:0:0:
109,192,119533,1,0,0:0:0:0:
182,192,119574,1,0,0:0:0:0:
256,192,119615,1,0,0:0:0:0:
329,192,119656,1,0,0:0:0:0:
402,192,119697,1,0,0:0:0:0:
475,192,119738,1,0,0:0:0:0:
109,192,119738,1,0,0:0:0:0:
182,192,119738,1,0,0:0:0:0:
36,192,119738,1,0,0:0:0:0:
402,192,119779,1,0,0:0:0:0:
329,192,119820,1,0,0:0:0:0:
256,192,119861,1,0,0:0:0:0:
182,192,119902,1,0,0:0:0:0:
109,192,119943,1,0,0:0:0:0:
36,192,119984,1,0,0:0:0:0:
329,192,119984,1,0,0:0:0:0:
402,192,119984,1,0,0:0:0:0:
475,192,119984,1,0,0:0:0:0:
109,192,120025,1,0,0:0:0:0:
182,192,120066,1,0,0:0:0:0:
256,192,120107,1,0,0:0:0:0:
329,192,120148,1,0,0:0:0:0:
402,192,120189,1,0,0:0:0:0:
475,192,120230,1,0,0:0:0:0:
109,192,120230,1,0,0:0:0:0:
182,192,120230,1,0,0:0:0:0:
36,192,120230,1,0,0:0:0:0:
402,192,120271,1,0,0:0:0:0:
329,192,120312,1,0,0:0:0:0:
256,192,120353,1,0,0:0:0:0:
182,192,120394,1,0,0:0:0:0:
109,192,120435,1,0,0:0:0:0:
36,192,120476,1,0,0:0:0:0:
109,192,120517,1,0,0:0:0:0:
182,192,120558,1,0,0:0:0:0:
256,192,120599,1,0,0:0:0:0:
329,192,120640,1,0,0:0:0:0:
402,192,120681,1,0,0:0:0:0:
475,192,120722,1,0,0:0:0:0:
36,192,120804,1,0,0:0:0:0:
182,192,120804,1,0,0:0:0:0:
256,192,120804,1,0,0:0:0:0:
329,192,120804,1,0,0:0:0:0:
402,192,120804,1,0,0:0:0:0:
109,192,120804,1,0,0:0:0:0:
36,192,120968,1,0,0:0:0:0:
109,192,120968,1,0,0:0:0:0:
182,192,120968,1,0,0:0:0:0:
256,192,120968,1,0,0:0:0:0:
402,192,120968,1,0,0:0:0:0:
329,192,120968,1,0,0:0:0:0:
182,192,121132,1,0,0:0:0:0:
109,192,121132,1,0,0:0:0:0:
402,192,121132,1,0,0:0:0:0:
329,192,121132,1,0,0:0:0:0:
475,192,121132,1,0,0:0:0:0:
256,192,121132,1,0,0:0:0:0:
109,192,121296,1,0,0:0:0:0:
402,192,121296,1,0,0:0:0:0:
256,192,121296,1,0,0:0:0:0:
475,192,121296,1,0,0:0:0:0:
182,192,121296,1,0,0:0:0:0:
329,192,121296,1,0,0:0:0:0:
475,192,121459,1,0,0:0:0:0:
402,192,121459,1,0,0:0:0:0:
329,192,121459,1,0,0:0:0:0:
256,192,121541,1,0,0:0:0:0:
182,192,121541,1,0,0:0:0:0:
109,192,121541,1,0,0:0:0:0:
36,192,121541,1,0,0:0:0:0:
109,192,121705,1,0,0:0:0:0:
182,192,121705,1,0,0:0:0:0:
256,192,121705,1,0,0:0:0:0:
329,192,121705,1,0,0:0:0:0:
402,192,121705,1,0,0:0:0:0:
475,192,121705,1,0,0:0:0:0:
36,192,121787,1,0,0:0:0:0:
109,192,121828,1,0,0:0:0:0:
182,192,121869,1,0,0:0:0:0:
256,192,121910,1,0,0:0:0:0:
329,192,121951,1,0,0:0:0:0:
402,192,121992,1,0,0:0:0:0:
475,192,122033,1,0,0:0:0:0:
36,192,122115,1,0,0:0:0:0:
109,192,122156,1,0,0:0:0:0:
182,192,122197,1,0,0:0:0:0:
256,192,122238,1,0,0:0:0:0:
36,192,122279,1,0,0:0:0:0:
329,192,122279,1,0,0:0:0:0:
402,192,122320,1,0,0:0:0:0:
182,192,122361,1,0,0:0:0:0:
475,192,122361,1,0,0:0:0:0:
402,192,122402,1,0,0:0:0:0:
36,192,122443,1,0,0:0:0:0:
329,192,122443,1,0,0:0:0:0:
256,192,122484,1,0,0:0:0:0:
182,192,122525,1,0,0:0:0:0:
109,192,122566,1,0,0:0:0:0:
36,192,122607,1,0,0:0:0:0:
109,192,122648,1,0,0:0:0:0:
182,192,122689,1,0,0:0:0:0:
256,192,122730,1,0,0:0:0:0:
36,192,122771,1,0,0:0:0:0:
329,192,122771,1,0,0:0:0:0:
402,192,122812,1,0,0:0:0:0:
182,192,122853,1,0,0:0:0:0:
475,192,122853,1,0,0:0:0:0:
402,192,122894,1,0,0:0:0:0:
36,192,122935,1,0,0:0:0:0:
329,192,122935,1,0,0:0:0:0:
256,192,122976,1,0,0:0:0:0:
182,192,123017,1,0,0:0:0:0:
109,192,123058,1,0,0:0:0:0:
36,192,123099,1,0,0:0:0:0:
475,192,123099,1,0,0:0:0:0:
402,192,123099,1,0,0:0:0:0:
182,192,123263,1,0,0:0:0:0:
109,192,123263,1,0,0:0:0:0:
329,192,123345,1,0,0:0:0:0:
402,192,123345,1,0,0:0:0:0:
475,192,123427,1,0,0:0:0:0:
402,192,123468,1,0,0:0:0:0:
329,192,123509,1,0,0:0:0:0:
256,192,123550,1,0,0:0:0:0:
475,192,123591,1,0,0:0:0:0:
182,192,123591,1,0,0:0:0:0:
109,192,123632,1,0,0:0:0:0:
329,192,123673,1,0,0:0:0:0:
36,192,123673,1,0,0:0:0:0:
109,192,123714,1,0,0:0:0:0:
475,192,123755,1,0,0:0:0:0:
182,192,123755,1,0,0:0:0:0:
256,192,123796,1,0,0:0:0:0:
329,192,123837,1,0,0:0:0:0:
402,192,123878,1,0,0:0:0:0:
475,192,123919,1,0,0:0:0:0:
402,192,123959,1,0,0:0:0:0:
329,192,124000,1,0,0:0:0:0:
256,192,124041,1,0,0:0:0:0:
475,192,124082,1,0,0:0:0:0:
182,192,124082,1,0,0:0:0:0:
109,192,124123,1,0,0:0:0:0:
329,192,124164,1,0,0:0:0:0:
36,192,124164,1,0,0:0:0:0:
109,192,124205,1,0,0:0:0:0:
475,192,124246,1,0,0:0:0:0:
182,192,124246,1,0,0:0:0:0:
256,192,124287,1,0,0:0:0:0:
329,192,124328,1,0,0:0:0:0:
402,192,124369,1,0,0:0:0:0:
475,192,124410,1,0,0:0:0:0:
182,192,124492,1,0,0:0:0:0:
402,192,124574,1,0,0:0:0:0:
109,192,124656,1,0,0:0:0:0:
36,192,124738,1,0,0:0:0:0:
329,192,124738,1,0,0:0:0:0:
109,192,124779,1,0,0:0:0:0:
182,192,124820,1,0,0:0:0:0:
475,192,124820,1,0,0:0:0:0:
256,192,124861,1,0,0:0:0:0:
329,192,124902,1,0,0:0:0:0:
36,192,124902,1,0,0:0:0:0:
402,192,124943,1,0,0:0:0:0:
475,192,124984,1,0,0:0:0:0:
182,192,124984,1,0,0:0:0:0:
402,192,125025,1,0,0:0:0:0:
329,192,125066,1,0,0:0:0:0:
36,192,125066,1,0,0:0:0:0:
256,192,125107,1,0,0:0:0:0:
182,192,125148,1,0,0:0:0:0:
475,192,125148,1,0,0:0:0:0:
109,192,125189,1,0,0:0:0:0:
36,192,125230,1,0,0:0:0:0:
329,192,125230,1,0,0:0:0:0:
109,192,125271,1,0,0:0:0:0:
182,192,125312,1,0,0:0:0:0:
475,192,125312,1,0,0:0:0:0:
256,192,125353,1,0,0:0:0:0:
36,192,125394,1,0,0:0:0:0:
329,192,125394,1,0,0:0:0:0:
402,192,125435,1,0,0:0:0:0:
182,192,125476,1,0,0:0:0:0:
475,192,125476,1,0,0:0:0:0:
402,192,125517,1,0,0:0:0:0:
36,192,125558,1,0,0:0:0:0:
329,192,125558,1,0,0:0:0:0:
256,192,125599,1,0,0:0:0:0:
182,192,125640,1,0,0:0:0:0:
475,192,125640,1,0,0:0:0:0:
109,192,125681,1,0,0:0:0:0:
36,192,125722,1,0,0:0:0:0:
329,192,125722,1,0,0:0:0:0:
475,192,125886,1,0,0:0:0:0:
329,192,125886,1,0,0:0:0:0:
475,192,125968,1,0,0:0:0:0:
329,192,125968,1,0,0:0:0:0:
182,192,126050,1,0,0:0:0:0:
36,192,126050,1,0,0:0:0:0:
256,192,126214,1,0,0:0:0:0:
402,192,126214,1,0,0:0:0:0:
256,192,126378,1,0,0:0:0:0:
109,192,126378,1,0,0:0:0:0:
329,192,126541,1,0,0:0:0:0:
475,192,126541,1,0,0:0:0:0:
109,192,126705,1,0,0:0:0:0:
256,192,126705,1,0,0:0:0:0:
256,192,126787,1,0,0:0:0:0:
402,192,126787,1,0,0:0:0:0:
36,192,126951,1,0,0:0:0:0:
182,192,126951,1,0,0:0:0:0:
329,192,126951,1,0,0:0:0:0:
475,192,126951,1,0,0:0:0:0:
