osu file format v14

[General]
AudioFilename: Iro wa Jou e to Izanau11.mp3
AudioLeadIn: 0
PreviewTime: 98786
Countdown: 1
SampleSet: Normal
StackLeniency: 0.7
Mode: 3
LetterboxInBreaks: 0
SpecialStyle: 0
WidescreenStoryboard: 1

[Editor]
DistanceSpacing: 0.8
BeatDivisor: 4
GridSize: 4
TimelineZoom: 2

[Metadata]
Title:Sizuka's Favorite Songs Pack
TitleUnicode:Sizuka's Favorite Songs Pack
Artist:Various
ArtistUnicode:Various
Creator:_Sizuka_
Version:senya - Iro wa Jou e to Izanau[x1.1]
Source:
Tags:
BeatmapID:990888
BeatmapSetID:461969

[Difficulty]
HPDrainRate:8
CircleSize:4
OverallDifficulty:8
ApproachRate:5
SliderMultiplier:1.4
SliderTickRate:1

[Events]
//Background and Video events
0,0,"52826716_p0.jpg",0,0
//Break Periods
//Storyboard Layer 0 (Background)
//Storyboard Layer 1 (Fail)
//Storyboard Layer 2 (Pass)
//Storyboard Layer 3 (Foreground)
//Storyboard Sound Samples

[TimingPoints]
675,272.719999999999,4,1,0,17,1,0

[HitObjects]
320,192,675,5,0,0:0:0:0:
448,192,675,1,0,0:0:0:0:
192,192,811,1,0,0:0:0:0:
64,192,947,1,0,0:0:0:0:
320,192,947,1,0,0:0:0:0:
192,192,1084,1,0,0:0:0:0:
320,192,1220,1,0,0:0:0:0:
448,192,1220,1,0,0:0:0:0:
64,192,1356,1,0,0:0:0:0:
192,192,1493,1,0,0:0:0:0:
448,192,1493,1,0,0:0:0:0:
64,192,1629,1,0,0:0:0:0:
192,192,1765,1,0,0:0:0:0:
320,192,1765,1,0,0:0:0:0:
448,192,1902,1,0,0:0:0:0:
64,192,2038,1,0,0:0:0:0:
320,192,2038,1,0,0:0:0:0:
192,192,2174,1,0,0:0:0:0:
448,192,2311,1,0,0:0:0:0:
64,192,2311,1,0,0:0:0:0:
320,192,2447,1,0,0:0:0:0:
192,192,2584,1,0,0:0:0:0:
64,192,2584,1,0,0:0:0:0:
320,192,2720,1,0,0:0:0:0:
192,192,2856,1,0,0:0:0:0:
320,192,2856,1,0,0:0:0:0:
64,192,2993,1,0,0:0:0:0:
192,192,3129,1,0,0:0:0:0:
448,192,3129,1,0,0:0:0:0:
64,192,3265,1,0,0:0:0:0:
448,192,3402,1,0,0:0:0:0:
320,192,3402,1,0,0:0:0:0:
192,192,3538,1,0,0:0:0:0:
64,192,3674,1,0,0:0:0:0:
448,192,3674,1,0,0:0:0:0:
320,192,3811,1,0,0:0:0:0:
192,192,3947,1,0,0:0:0:0:
448,192,3947,1,0,0:0:0:0:
64,192,4083,1,0,0:0:0:0:
192,192,4220,1,0,0:0:0:0:
320,192,4220,1,0,0:0:0:0:
448,192,4356,1,0,0:0:0:0:
64,192,4493,1,0,0:0:0:0:
320,192,4493,1,0,0:0:0:0:
448,192,4629,1,0,0:0:0:0:
320,192,4765,1,0,0:0:0:0:
192,192,4765,1,0,0:0:0:0:
64,192,4902,1,0,0:0:0:0:
192,192,5038,1,0,0:0:0:0:
448,192,5038,1,0,0:0:0:0:
320,192,5174,1,0,0:0:0:0:
192,192,5311,1,0,0:0:0:0:
64,192,5311,1,0,0:0:0:0:
320,192,5447,1,0,0:0:0:0:
192,192,5583,1,0,0:0:0:0:
448,192,5583,1,0,0:0:0:0:
64,192,5720,1,0,0:0:0:0:
320,192,5856,1,0,0:0:0:0:
448,192,5856,1,0,0:0:0:0:
192,192,5993,1,0,0:0:0:0:
448,192,6129,1,0,0:0:0:0:
64,192,6129,1,0,0:0:0:0:
320,192,6265,1,0,0:0:0:0:
192,192,6402,1,0,0:0:0:0:
448,192,6402,1,0,0:0:0:0:
64,192,6538,1,0,0:0:0:0:
192,192,6674,1,0,0:0:0:0:
320,192,6674,1,0,0:0:0:0:
64,192,6811,1,0,0:0:0:0:
448,192,6947,1,0,0:0:0:0:
320,192,6947,1,0,0:0:0:0:
64,192,7083,1,0,0:0:0:0:
192,192,7220,1,0,0:0:0:0:
320,192,7220,1,0,0:0:0:0:
448,192,7356,1,0,0:0:0:0:
192,192,7492,1,0,0:0:0:0:
64,192,7492,1,0,0:0:0:0:
320,192,7629,1,0,0:0:0:0:
192,192,7765,1,0,0:0:0:0:
448,192,7765,1,0,0:0:0:0:
64,192,7902,1,0,0:0:0:0:
320,192,8038,1,0,0:0:0:0:
448,192,8038,1,0,0:0:0:0:
192,192,8174,1,0,0:0:0:0:
448,192,8311,1,0,0:0:0:0:
64,192,8311,1,0,0:0:0:0:
320,192,8447,1,0,0:0:0:0:
192,192,8583,1,0,0:0:0:0:
64,192,8583,1,0,0:0:0:0:
448,192,8720,1,0,0:0:0:0:
320,192,8856,1,0,0:0:0:0:
192,192,8856,1,0,0:0:0:0:
448,192,8992,1,0,0:0:0:0:
64,192,9129,1,0,0:0:0:0:
192,192,9129,1,0,0:0:0:0:
320,192,9265,1,0,0:0:0:0:
64,192,9402,1,0,0:0:0:0:
192,192,9402,1,0,0:0:0:0:
448,192,9402,1,0,0:0:0:0:
320,192,9538,1,0,0:0:0:0:
448,192,9538,1,0,0:0:0:0:
320,192,9674,1,0,0:0:0:0:
192,192,9674,1,0,0:0:0:0:
64,192,9811,1,0,0:0:0:0:
320,192,9811,1,0,0:0:0:0:
64,192,9947,1,0,0:0:0:0:
448,192,9947,1,0,0:0:0:0:
448,192,10083,1,0,0:0:0:0:
192,192,10083,1,0,0:0:0:0:
64,192,10220,1,0,0:0:0:0:
192,192,10220,1,0,0:0:0:0:
448,192,10220,1,0,0:0:0:0:
320,192,10356,1,0,0:0:0:0:
192,192,10492,1,0,0:0:0:0:
64,192,10492,1,0,0:0:0:0:
320,192,10629,1,0,0:0:0:0:
448,192,10697,1,0,0:0:0:0:
192,192,10765,1,0,0:0:0:0:
320,192,10765,1,0,0:0:0:0:
64,192,10901,1,0,0:0:0:0:
448,192,10901,1,0,0:0:0:0:
64,192,11038,1,0,0:0:0:0:
320,192,11038,1,0,0:0:0:0:
192,192,11174,1,0,0:0:0:0:
320,192,11242,1,0,0:0:0:0:
448,192,11311,1,0,0:0:0:0:
192,192,11311,1,0,0:0:0:0:
64,192,11311,1,0,0:0:0:0:
320,192,11447,1,0,0:0:0:0:
448,192,11447,1,0,0:0:0:0:
64,192,11583,1,0,0:0:0:0:
192,192,11583,1,0,0:0:0:0:
448,192,11583,1,0,0:0:0:0:
64,192,11720,1,0,0:0:0:0:
320,192,11720,1,0,0:0:0:0:
192,192,11856,1,0,0:0:0:0:
320,192,11856,1,0,0:0:0:0:
64,192,11992,1,0,0:0:0:0:
448,192,11992,1,0,0:0:0:0:
320,192,12129,1,0,0:0:0:0:
448,192,12129,1,0,0:0:0:0:
192,192,12265,1,0,0:0:0:0:
320,192,12265,1,0,0:0:0:0:
64,192,12401,1,0,0:0:0:0:
320,192,12401,1,0,0:0:0:0:
448,192,12401,1,0,0:0:0:0:
192,192,12538,1,0,0:0:0:0:
320,192,12674,1,0,0:0:0:0:
448,192,12674,1,0,0:0:0:0:
192,192,12674,1,0,0:0:0:0:
64,192,12811,1,0,0:0:0:0:
320,192,12947,1,0,0:0:0:0:
448,192,12947,1,0,0:0:0:0:
192,192,12947,1,0,0:0:0:0:
320,192,13083,1,0,0:0:0:0:
448,192,13117,1,0,0:0:0:0:
192,192,13220,1,0,0:0:0:0:
64,192,13220,1,0,0:0:0:0:
320,192,13220,1,0,0:0:0:0:
448,192,13356,1,0,0:0:0:0:
192,192,13492,1,0,0:0:0:0:
320,192,13629,1,0,0:0:0:0:
448,192,13765,1,0,0:0:0:0:
64,192,13765,1,0,0:0:0:0:
192,192,13765,1,0,0:0:0:0:
192,192,13901,1,0,0:0:0:0:
448,192,13901,1,0,0:0:0:0:
320,192,14038,1,0,0:0:0:0:
64,192,14038,1,0,0:0:0:0:
192,192,14174,1,0,0:0:0:0:
320,192,14174,1,0,0:0:0:0:
64,192,14310,1,0,0:0:0:0:
448,192,14310,1,0,0:0:0:0:
192,192,14310,1,0,0:0:0:0:
320,192,14447,1,0,0:0:0:0:
448,192,14447,1,0,0:0:0:0:
320,192,14583,1,0,0:0:0:0:
192,192,14583,1,0,0:0:0:0:
64,192,14583,1,0,0:0:0:0:
64,192,14720,1,0,0:0:0:0:
320,192,14856,1,0,0:0:0:0:
448,192,14856,1,0,0:0:0:0:
192,192,14992,1,0,0:0:0:0:
64,192,15060,1,0,0:0:0:0:
320,192,15060,1,0,0:0:0:0:
192,192,15129,1,0,0:0:0:0:
448,192,15129,1,0,0:0:0:0:
64,192,15197,1,0,0:0:0:0:
320,192,15265,1,0,0:0:0:0:
448,192,15265,1,0,0:0:0:0:
192,192,15401,1,0,0:0:0:0:
64,192,15401,1,0,0:0:0:0:
448,192,15401,1,0,0:0:0:0:
320,192,15538,1,0,0:0:0:0:
192,192,15606,1,0,0:0:0:0:
64,192,15674,1,0,0:0:0:0:
320,192,15674,1,0,0:0:0:0:
448,192,15674,1,0,0:0:0:0:
64,192,15810,1,0,0:0:0:0:
192,192,15810,1,0,0:0:0:0:
192,192,15947,1,0,0:0:0:0:
448,192,15947,1,0,0:0:0:0:
320,192,15947,1,0,0:0:0:0:
64,192,16083,1,0,0:0:0:0:
320,192,16083,1,0,0:0:0:0:
448,192,16220,1,0,0:0:0:0:
192,192,16220,1,0,0:0:0:0:
320,192,16356,1,0,0:0:0:0:
448,192,16356,1,0,0:0:0:0:
320,192,16492,1,0,0:0:0:0:
64,192,16492,1,0,0:0:0:0:
64,192,16629,1,0,0:0:0:0:
448,192,16629,1,0,0:0:0:0:
320,192,16765,1,0,0:0:0:0:
192,192,16765,1,0,0:0:0:0:
64,192,16765,1,0,0:0:0:0:
192,192,16901,1,0,0:0:0:0:
448,192,16901,1,0,0:0:0:0:
448,192,17038,1,0,0:0:0:0:
192,192,17174,1,0,0:0:0:0:
320,192,17242,1,0,0:0:0:0:
64,192,17310,1,0,0:0:0:0:
192,192,17447,1,0,0:0:0:0:
320,192,17583,1,0,0:0:0:0:
192,192,17719,1,0,0:0:0:0:
320,192,17856,1,0,0:0:0:0:
448,192,17992,1,0,0:0:0:0:
192,192,18129,1,0,0:0:0:0:
320,192,18129,1,0,0:0:0:0:
64,192,18129,1,0,0:0:0:0:
192,192,18265,1,0,0:0:0:0:
448,192,18265,1,0,0:0:0:0:
320,192,18401,1,0,0:0:0:0:
448,192,18401,1,0,0:0:0:0:
64,192,18538,1,0,0:0:0:0:
320,192,18538,1,0,0:0:0:0:
64,192,18674,1,0,0:0:0:0:
192,192,18674,1,0,0:0:0:0:
448,192,18674,1,0,0:0:0:0:
320,192,18810,1,0,0:0:0:0:
448,192,18810,1,0,0:0:0:0:
320,192,18947,1,0,0:0:0:0:
192,192,18947,1,0,0:0:0:0:
64,192,18947,1,0,0:0:0:0:
64,192,19083,1,0,0:0:0:0:
192,192,19083,1,0,0:0:0:0:
448,192,19083,1,0,0:0:0:0:
320,192,19219,1,0,0:0:0:0:
448,192,19219,1,0,0:0:0:0:
192,192,19219,1,0,0:0:0:0:
64,192,19356,1,0,0:0:0:0:
192,192,19424,1,0,0:0:0:0:
320,192,19492,1,0,0:0:0:0:
448,192,19492,1,0,0:0:0:0:
192,192,19629,1,0,0:0:0:0:
448,192,19629,1,0,0:0:0:0:
320,192,19697,1,0,0:0:0:0:
192,192,19765,1,0,0:0:0:0:
64,192,19765,1,0,0:0:0:0:
64,192,19901,1,0,0:0:0:0:
448,192,19901,1,0,0:0:0:0:
320,192,19969,1,0,0:0:0:0:
192,192,20038,1,0,0:0:0:0:
64,192,20038,1,0,0:0:0:0:
192,192,20174,1,0,0:0:0:0:
448,192,20174,1,0,0:0:0:0:
320,192,20310,1,0,0:0:0:0:
448,192,20310,1,0,0:0:0:0:
64,192,20310,1,0,0:0:0:0:
64,192,20447,1,0,0:0:0:0:
320,192,20447,1,0,0:0:0:0:
192,192,20583,1,0,0:0:0:0:
64,192,20583,1,0,0:0:0:0:
320,192,20583,1,0,0:0:0:0:
192,192,20719,1,0,0:0:0:0:
448,192,20719,1,0,0:0:0:0:
320,192,20856,1,0,0:0:0:0:
448,192,20856,1,0,0:0:0:0:
64,192,20856,1,0,0:0:0:0:
64,192,20992,1,0,0:0:0:0:
192,192,20992,1,0,0:0:0:0:
320,192,21128,1,0,0:0:0:0:
448,192,21128,1,0,0:0:0:0:
64,192,21265,1,0,0:0:0:0:
192,192,21265,1,0,0:0:0:0:
448,192,21265,1,0,0:0:0:0:
192,192,21401,1,0,0:0:0:0:
320,192,21401,1,0,0:0:0:0:
448,192,21401,1,0,0:0:0:0:
64,192,21469,1,0,0:0:0:0:
192,192,21538,1,0,0:0:0:0:
448,192,21606,1,0,0:0:0:0:
320,192,21674,1,0,0:0:0:0:
192,192,21674,1,0,0:0:0:0:
64,192,21810,1,0,0:0:0:0:
320,192,21810,1,0,0:0:0:0:
192,192,21878,1,0,0:0:0:0:
320,192,21947,1,0,0:0:0:0:
448,192,21947,1,0,0:0:0:0:
64,192,21947,1,0,0:0:0:0:
192,192,22083,1,0,0:0:0:0:
448,192,22083,1,0,0:0:0:0:
320,192,22219,1,0,0:0:0:0:
448,192,22219,1,0,0:0:0:0:
64,192,22219,1,0,0:0:0:0:
192,192,22356,1,0,0:0:0:0:
64,192,22492,1,0,0:0:0:0:
192,192,22492,1,0,0:0:0:0:
320,192,22492,1,0,0:0:0:0:
320,192,22628,1,0,0:0:0:0:
448,192,22628,1,0,0:0:0:0:
448,192,22765,1,0,0:0:0:0:
320,192,22765,1,0,0:0:0:0:
64,192,22765,1,0,0:0:0:0:
192,192,22901,1,0,0:0:0:0:
64,192,22901,1,0,0:0:0:0:
64,192,23038,1,0,0:0:0:0:
192,192,23038,1,0,0:0:0:0:
320,192,23038,1,0,0:0:0:0:
192,192,23174,1,0,0:0:0:0:
448,192,23174,1,0,0:0:0:0:
320,192,23310,1,0,0:0:0:0:
448,192,23310,1,0,0:0:0:0:
64,192,23447,1,0,0:0:0:0:
192,192,23447,1,0,0:0:0:0:
320,192,23447,1,0,0:0:0:0:
64,192,23583,1,0,0:0:0:0:
192,192,23583,1,0,0:0:0:0:
320,192,23583,1,0,0:0:0:0:
320,192,23719,1,0,0:0:0:0:
448,192,23719,1,0,0:0:0:0:
192,192,23788,1,0,0:0:0:0:
64,192,23856,1,0,0:0:0:0:
320,192,23856,1,0,0:0:0:0:
448,192,23856,1,0,0:0:0:0:
64,192,23992,1,0,0:0:0:0:
192,192,23992,1,0,0:0:0:0:
320,192,24060,1,0,0:0:0:0:
448,192,24128,1,0,0:0:0:0:
192,192,24128,1,0,0:0:0:0:
64,192,24265,1,0,0:0:0:0:
320,192,24265,1,0,0:0:0:0:
192,192,24333,1,0,0:0:0:0:
320,192,24401,1,0,0:0:0:0:
448,192,24401,1,0,0:0:0:0:
64,192,24401,1,0,0:0:0:0:
64,192,24537,1,0,0:0:0:0:
192,192,24537,1,0,0:0:0:0:
192,192,24674,1,0,0:0:0:0:
320,192,24674,1,0,0:0:0:0:
448,192,24674,1,0,0:0:0:0:
64,192,24810,1,0,0:0:0:0:
192,192,24810,1,0,0:0:0:0:
448,192,24810,1,0,0:0:0:0:
320,192,24947,1,0,0:0:0:0:
448,192,24947,1,0,0:0:0:0:
64,192,24947,1,0,0:0:0:0:
448,192,25083,1,0,0:0:0:0:
320,192,25083,1,0,0:0:0:0:
192,192,25083,1,0,0:0:0:0:
64,192,25219,1,0,0:0:0:0:
320,192,25219,1,0,0:0:0:0:
448,192,25219,1,0,0:0:0:0:
64,192,25356,1,0,0:0:0:0:
448,192,25356,1,0,0:0:0:0:
192,192,25356,1,0,0:0:0:0:
64,192,25492,1,0,0:0:0:0:
192,192,25492,1,0,0:0:0:0:
320,192,25492,1,0,0:0:0:0:
448,192,25628,1,0,0:0:0:0:
320,192,25628,1,0,0:0:0:0:
192,192,25628,1,0,0:0:0:0:
64,192,25628,1,0,0:0:0:0:
64,192,25765,1,0,0:0:0:0:
192,192,25765,1,0,0:0:0:0:
320,192,25833,1,0,0:0:0:0:
448,192,25833,1,0,0:0:0:0:
192,192,25901,1,0,0:0:0:0:
64,192,25901,1,0,0:0:0:0:
320,192,25969,1,0,0:0:0:0:
448,192,25969,1,0,0:0:0:0:
192,192,26037,1,0,0:0:0:0:
64,192,26037,1,0,0:0:0:0:
320,192,26106,1,0,0:0:0:0:
448,192,26106,1,0,0:0:0:0:
192,192,26174,1,0,0:0:0:0:
64,192,26174,1,0,0:0:0:0:
320,192,26242,1,0,0:0:0:0:
448,192,26242,1,0,0:0:0:0:
192,192,26310,1,0,0:0:0:0:
64,192,26310,1,0,0:0:0:0:
320,192,26378,1,0,0:0:0:0:
448,192,26378,1,0,0:0:0:0:
192,192,26447,1,0,0:0:0:0:
64,192,26447,1,0,0:0:0:0:
320,192,26515,1,0,0:0:0:0:
448,192,26515,1,0,0:0:0:0:
192,192,26583,1,0,0:0:0:0:
64,192,26583,1,0,0:0:0:0:
320,192,26651,1,0,0:0:0:0:
448,192,26651,1,0,0:0:0:0:
192,192,26719,1,0,0:0:0:0:
64,192,26719,1,0,0:0:0:0:
320,192,26787,1,0,0:0:0:0:
448,192,26787,1,0,0:0:0:0:
192,192,26856,1,0,0:0:0:0:
64,192,26856,1,0,0:0:0:0:
320,192,26924,1,0,0:0:0:0:
448,192,26992,1,0,0:0:0:0:
64,192,26992,1,0,0:0:0:0:
192,192,27060,1,0,0:0:0:0:
320,192,27128,1,0,0:0:0:0:
448,192,27128,1,0,0:0:0:0:
192,192,27197,1,0,0:0:0:0:
64,192,27265,1,0,0:0:0:0:
448,192,27265,1,0,0:0:0:0:
320,192,27333,1,0,0:0:0:0:
192,192,27401,1,0,0:0:0:0:
64,192,27401,1,0,0:0:0:0:
320,192,27469,1,0,0:0:0:0:
448,192,27537,1,0,0:0:0:0:
192,192,27537,1,0,0:0:0:0:
64,192,27606,1,0,0:0:0:0:
320,192,27674,1,0,0:0:0:0:
448,192,27674,1,0,0:0:0:0:
192,192,27742,1,0,0:0:0:0:
64,192,27810,1,0,0:0:0:0:
448,192,27810,1,0,0:0:0:0:
320,192,27878,1,0,0:0:0:0:
192,192,27946,1,0,0:0:0:0:
64,192,27946,1,0,0:0:0:0:
320,192,28015,1,0,0:0:0:0:
448,192,28083,1,0,0:0:0:0:
192,192,28083,1,0,0:0:0:0:
64,192,28151,1,0,0:0:0:0:
192,192,28219,1,0,0:0:0:0:
320,192,28219,1,0,0:0:0:0:
448,192,28287,1,0,0:0:0:0:
64,192,28356,1,0,0:0:0:0:
320,192,28356,1,0,0:0:0:0:
192,192,28424,1,0,0:0:0:0:
320,192,28492,1,0,0:0:0:0:
448,192,28492,1,0,0:0:0:0:
64,192,28560,1,0,0:0:0:0:
192,192,28628,1,0,0:0:0:0:
448,192,28628,1,0,0:0:0:0:
320,192,28696,1,0,0:0:0:0:
192,192,28765,1,0,0:0:0:0:
64,192,28765,1,0,0:0:0:0:
448,192,28833,1,0,0:0:0:0:
64,192,28901,1,0,0:0:0:0:
320,192,28901,1,0,0:0:0:0:
192,192,28969,1,0,0:0:0:0:
320,192,29037,1,0,0:0:0:0:
448,192,29037,1,0,0:0:0:0:
64,192,29037,1,0,0:0:0:0:
192,192,29106,1,0,0:0:0:0:
448,192,29174,1,0,0:0:0:0:
320,192,29174,1,0,0:0:0:0:
64,192,29242,1,0,0:0:0:0:
448,192,29310,1,0,0:0:0:0:
192,192,29310,1,0,0:0:0:0:
320,192,29378,1,0,0:0:0:0:
64,192,29446,1,0,0:0:0:0:
192,192,29446,1,0,0:0:0:0:
448,192,29515,1,0,0:0:0:0:
64,192,29583,1,0,0:0:0:0:
192,192,29583,1,0,0:0:0:0:
320,192,29651,1,0,0:0:0:0:
448,192,29719,1,0,0:0:0:0:
64,192,29719,1,0,0:0:0:0:
192,192,29787,1,0,0:0:0:0:
320,192,29856,1,0,0:0:0:0:
448,192,29856,1,0,0:0:0:0:
192,192,29924,1,0,0:0:0:0:
64,192,29992,1,0,0:0:0:0:
448,192,29992,1,0,0:0:0:0:
320,192,30060,1,0,0:0:0:0:
192,192,30128,1,0,0:0:0:0:
64,192,30128,1,0,0:0:0:0:
448,192,30196,1,0,0:0:0:0:
192,192,30265,1,0,0:0:0:0:
320,192,30265,1,0,0:0:0:0:
64,192,30333,1,0,0:0:0:0:
320,192,30401,1,0,0:0:0:0:
448,192,30401,1,0,0:0:0:0:
64,192,30469,1,0,0:0:0:0:
192,192,30537,1,0,0:0:0:0:
448,192,30537,1,0,0:0:0:0:
320,192,30606,1,0,0:0:0:0:
192,192,30674,1,0,0:0:0:0:
64,192,30674,1,0,0:0:0:0:
448,192,30742,1,0,0:0:0:0:
320,192,30810,1,0,0:0:0:0:
64,192,30810,1,0,0:0:0:0:
192,192,30878,1,0,0:0:0:0:
448,192,30946,1,0,0:0:0:0:
320,192,30946,1,0,0:0:0:0:
64,192,31015,1,0,0:0:0:0:
192,192,31083,1,0,0:0:0:0:
320,192,31083,1,0,0:0:0:0:
448,192,31151,1,0,0:0:0:0:
192,192,31219,1,0,0:0:0:0:
64,192,31219,1,0,0:0:0:0:
320,192,31219,1,0,0:0:0:0:
448,192,31287,1,0,0:0:0:0:
320,192,31355,1,0,0:0:0:0:
64,192,31355,1,0,0:0:0:0:
192,192,31424,1,0,0:0:0:0:
320,192,31492,1,0,0:0:0:0:
448,192,31492,1,0,0:0:0:0:
64,192,31560,1,0,0:0:0:0:
192,192,31628,1,0,0:0:0:0:
448,192,31628,1,0,0:0:0:0:
64,192,31696,1,0,0:0:0:0:
320,192,31765,1,0,0:0:0:0:
192,192,31765,1,0,0:0:0:0:
448,192,31833,1,0,0:0:0:0:
192,192,31901,1,0,0:0:0:0:
64,192,31901,1,0,0:0:0:0:
320,192,31969,1,0,0:0:0:0:
448,192,32037,1,0,0:0:0:0:
64,192,32037,1,0,0:0:0:0:
192,192,32105,1,0,0:0:0:0:
320,192,32174,1,0,0:0:0:0:
448,192,32174,1,0,0:0:0:0:
64,192,32242,1,0,0:0:0:0:
192,192,32310,1,0,0:0:0:0:
448,192,32310,1,0,0:0:0:0:
320,192,32378,1,0,0:0:0:0:
192,192,32446,1,0,0:0:0:0:
64,192,32446,1,0,0:0:0:0:
448,192,32515,1,0,0:0:0:0:
320,192,32583,1,0,0:0:0:0:
192,192,32583,1,0,0:0:0:0:
64,192,32651,1,0,0:0:0:0:
192,192,32719,1,0,0:0:0:0:
448,192,32719,1,0,0:0:0:0:
320,192,32787,1,0,0:0:0:0:
192,192,32855,1,0,0:0:0:0:
64,192,32855,1,0,0:0:0:0:
448,192,32924,1,0,0:0:0:0:
64,192,32992,1,0,0:0:0:0:
320,192,32992,1,0,0:0:0:0:
192,192,33060,1,0,0:0:0:0:
320,192,33128,1,0,0:0:0:0:
448,192,33128,1,0,0:0:0:0:
64,192,33196,1,0,0:0:0:0:
192,192,33265,1,0,0:0:0:0:
448,192,33265,1,0,0:0:0:0:
320,192,33333,1,0,0:0:0:0:
192,192,33401,1,0,0:0:0:0:
64,192,33401,1,0,0:0:0:0:
448,192,33401,1,0,0:0:0:0:
320,192,33469,1,0,0:0:0:0:
192,192,33537,1,0,0:0:0:0:
448,192,33537,1,0,0:0:0:0:
64,192,33605,1,0,0:0:0:0:
192,192,33674,1,0,0:0:0:0:
320,192,33674,1,0,0:0:0:0:
448,192,33742,1,0,0:0:0:0:
64,192,33810,1,0,0:0:0:0:
320,192,33810,1,0,0:0:0:0:
192,192,33878,1,0,0:0:0:0:
320,192,33946,1,0,0:0:0:0:
448,192,33946,1,0,0:0:0:0:
64,192,34015,1,0,0:0:0:0:
192,192,34083,1,0,0:0:0:0:
448,192,34083,1,0,0:0:0:0:
64,192,34151,1,0,0:0:0:0:
320,192,34219,1,0,0:0:0:0:
448,192,34219,1,0,0:0:0:0:
192,192,34287,1,0,0:0:0:0:
64,192,34355,1,0,0:0:0:0:
320,192,34355,1,0,0:0:0:0:
448,192,34424,1,0,0:0:0:0:
192,192,34492,1,0,0:0:0:0:
64,192,34492,1,0,0:0:0:0:
320,192,34560,1,0,0:0:0:0:
448,192,34628,1,0,0:0:0:0:
64,192,34628,1,0,0:0:0:0:
192,192,34696,1,0,0:0:0:0:
320,192,34764,1,0,0:0:0:0:
448,192,34764,1,0,0:0:0:0:
64,192,34833,1,0,0:0:0:0:
192,192,34901,1,0,0:0:0:0:
448,192,34901,1,0,0:0:0:0:
320,192,34969,1,0,0:0:0:0:
64,192,35037,1,0,0:0:0:0:
448,192,35037,1,0,0:0:0:0:
192,192,35105,1,0,0:0:0:0:
320,192,35174,1,0,0:0:0:0:
448,192,35174,1,0,0:0:0:0:
192,192,35242,1,0,0:0:0:0:
64,192,35310,1,0,0:0:0:0:
320,192,35310,1,0,0:0:0:0:
448,192,35378,1,0,0:0:0:0:
320,192,35446,1,0,0:0:0:0:
192,192,35446,1,0,0:0:0:0:
64,192,35514,1,0,0:0:0:0:
320,192,35583,1,0,0:0:0:0:
448,192,35583,1,0,0:0:0:0:
192,192,35617,1,0,0:0:0:0:
64,192,35685,1,0,0:0:0:0:
320,192,35719,1,0,0:0:0:0:
448,192,35719,1,0,0:0:0:0:
192,192,35753,1,0,0:0:0:0:
64,192,35821,1,0,0:0:0:0:
320,192,35855,1,0,0:0:0:0:
448,192,35889,1,0,0:0:0:0:
192,192,35958,1,0,0:0:0:0:
320,192,35992,1,0,0:0:0:0:
448,192,36026,1,0,0:0:0:0:
192,192,36094,1,0,0:0:0:0:
64,192,36128,1,0,0:0:0:0:
448,192,36162,1,0,0:0:0:0:
320,192,36230,1,0,0:0:0:0:
192,192,36264,1,0,0:0:0:0:
64,192,36299,1,0,0:0:0:0:
320,192,36367,1,0,0:0:0:0:
448,192,36401,1,0,0:0:0:0:
192,192,36435,1,0,0:0:0:0:
64,192,36503,1,0,0:0:0:0:
320,192,36537,1,0,0:0:0:0:
192,192,36571,1,0,0:0:0:0:
64,192,36639,1,0,0:0:0:0:
320,192,36674,1,0,0:0:0:0:
448,192,36674,1,0,0:0:0:0:
192,192,36708,1,0,0:0:0:0:
64,192,36776,1,0,0:0:0:0:
448,192,36810,1,0,0:0:0:0:
320,192,36844,1,0,0:0:0:0:
192,192,36912,1,0,0:0:0:0:
64,192,36946,1,0,0:0:0:0:
320,192,36980,1,0,0:0:0:0:
192,192,37049,1,0,0:0:0:0:
448,192,37083,1,0,0:0:0:0:
320,192,37117,1,0,0:0:0:0:
192,192,37185,1,0,0:0:0:0:
64,192,37219,1,0,0:0:0:0:
192,192,37253,1,0,0:0:0:0:
320,192,37321,1,0,0:0:0:0:
64,192,37355,1,0,0:0:0:0:
192,192,37389,1,0,0:0:0:0:
320,192,37458,1,0,0:0:0:0:
448,192,37492,1,0,0:0:0:0:
192,192,37526,1,0,0:0:0:0:
320,192,37594,1,0,0:0:0:0:
64,192,37628,1,0,0:0:0:0:
192,192,37662,1,0,0:0:0:0:
320,192,37730,1,0,0:0:0:0:
448,192,37764,1,0,0:0:0:0:
64,192,37799,1,0,0:0:0:0:
192,192,37867,1,0,0:0:0:0:
320,192,37901,1,0,0:0:0:0:
448,192,37935,1,0,0:0:0:0:
192,192,38003,1,0,0:0:0:0:
64,192,38037,1,0,0:0:0:0:
320,192,38071,1,0,0:0:0:0:
192,192,38139,1,0,0:0:0:0:
64,192,38173,1,0,0:0:0:0:
448,192,38173,1,0,0:0:0:0:
320,192,38208,1,0,0:0:0:0:
192,192,38276,1,0,0:0:0:0:
64,192,38310,1,0,0:0:0:0:
320,192,38344,1,0,0:0:0:0:
448,192,38412,1,0,0:0:0:0:
64,192,38446,1,0,0:0:0:0:
192,192,38480,1,0,0:0:0:0:
320,192,38548,1,0,0:0:0:0:
448,192,38583,1,0,0:0:0:0:
64,192,38617,1,0,0:0:0:0:
320,192,38685,1,0,0:0:0:0:
192,192,38719,1,0,0:0:0:0:
64,192,38719,1,0,0:0:0:0:
448,192,38753,1,0,0:0:0:0:
320,192,38821,1,0,0:0:0:0:
192,192,38855,1,0,0:0:0:0:
64,192,38889,1,0,0:0:0:0:
320,192,38958,1,0,0:0:0:0:
448,192,38992,1,0,0:0:0:0:
64,192,39026,1,0,0:0:0:0:
192,192,39094,1,0,0:0:0:0:
320,192,39128,1,0,0:0:0:0:
448,192,39162,1,0,0:0:0:0:
192,192,39230,1,0,0:0:0:0:
64,192,39264,1,0,0:0:0:0:
320,192,39298,1,0,0:0:0:0:
192,192,39367,1,0,0:0:0:0:
64,192,39401,1,0,0:0:0:0:
448,192,39401,1,0,0:0:0:0:
320,192,39435,1,0,0:0:0:0:
192,192,39503,1,0,0:0:0:0:
64,192,39537,1,0,0:0:0:0:
448,192,39537,1,0,0:0:0:0:
320,192,39571,1,0,0:0:0:0:
192,192,39639,1,0,0:0:0:0:
64,192,39673,1,0,0:0:0:0:
320,192,39708,1,0,0:0:0:0:
448,192,39776,1,0,0:0:0:0:
192,192,39810,1,0,0:0:0:0:
64,192,39844,1,0,0:0:0:0:
320,192,39912,1,0,0:0:0:0:
448,192,39946,1,0,0:0:0:0:
192,192,39946,1,0,0:0:0:0:
64,192,39980,1,0,0:0:0:0:
320,192,40048,1,0,0:0:0:0:
192,192,40083,1,0,0:0:0:0:
448,192,40117,1,0,0:0:0:0:
64,192,40185,1,0,0:0:0:0:
192,192,40219,1,0,0:0:0:0:
320,192,40219,1,0,0:0:0:0:
448,192,40253,1,0,0:0:0:0:
192,192,40321,1,0,0:0:0:0:
64,192,40355,1,0,0:0:0:0:
320,192,40389,1,0,0:0:0:0:
448,192,40458,1,0,0:0:0:0:
64,192,40492,1,0,0:0:0:0:
192,192,40492,1,0,0:0:0:0:
320,192,40526,1,0,0:0:0:0:
448,192,40594,1,0,0:0:0:0:
192,192,40628,1,0,0:0:0:0:
64,192,40662,1,0,0:0:0:0:
448,192,40730,1,0,0:0:0:0:
320,192,40764,1,0,0:0:0:0:
192,192,40764,1,0,0:0:0:0:
64,192,40798,1,0,0:0:0:0:
320,192,40867,1,0,0:0:0:0:
448,192,40901,1,0,0:0:0:0:
192,192,40935,1,0,0:0:0:0:
64,192,41003,1,0,0:0:0:0:
320,192,41037,1,0,0:0:0:0:
448,192,41037,1,0,0:0:0:0:
192,192,41071,1,0,0:0:0:0:
64,192,41139,1,0,0:0:0:0:
320,192,41173,1,0,0:0:0:0:
448,192,41208,1,0,0:0:0:0:
192,192,41276,1,0,0:0:0:0:
320,192,41310,1,0,0:0:0:0:
448,192,41344,1,0,0:0:0:0:
192,192,41412,1,0,0:0:0:0:
320,192,41446,1,0,0:0:0:0:
448,192,41480,1,0,0:0:0:0:
192,192,41548,1,0,0:0:0:0:
64,192,41582,1,0,0:0:0:0:
320,192,41582,1,0,0:0:0:0:
448,192,41617,1,0,0:0:0:0:
192,192,41685,1,0,0:0:0:0:
64,192,41719,1,0,0:0:0:0:
320,192,41753,1,0,0:0:0:0:
192,192,41821,1,0,0:0:0:0:
64,192,41855,1,0,0:0:0:0:
320,192,41889,1,0,0:0:0:0:
192,192,41957,1,0,0:0:0:0:
64,192,41992,1,0,0:0:0:0:
448,192,42026,1,0,0:0:0:0:
320,192,42094,1,0,0:0:0:0:
192,192,42128,1,0,0:0:0:0:
64,192,42128,1,0,0:0:0:0:
448,192,42162,1,0,0:0:0:0:
320,192,42230,1,0,0:0:0:0:
64,192,42264,1,0,0:0:0:0:
448,192,42298,1,0,0:0:0:0:
320,192,42367,1,0,0:0:0:0:
192,192,42401,1,0,0:0:0:0:
64,192,42401,1,0,0:0:0:0:
448,192,42435,1,0,0:0:0:0:
64,192,42503,1,0,0:0:0:0:
192,192,42537,1,0,0:0:0:0:
320,192,42537,1,0,0:0:0:0:
448,192,42571,1,0,0:0:0:0:
64,192,42639,1,0,0:0:0:0:
192,192,42673,1,0,0:0:0:0:
320,192,42673,1,0,0:0:0:0:
448,192,42707,1,0,0:0:0:0:
192,192,42776,1,0,0:0:0:0:
64,192,42810,1,0,0:0:0:0:
320,192,42810,1,0,0:0:0:0:
448,192,42844,1,0,0:0:0:0:
192,192,42912,1,0,0:0:0:0:
64,192,42946,1,0,0:0:0:0:
320,192,42980,1,0,0:0:0:0:
192,192,43048,1,0,0:0:0:0:
448,192,43082,1,0,0:0:0:0:
64,192,43082,1,0,0:0:0:0:
320,192,43117,1,0,0:0:0:0:
192,192,43185,1,0,0:0:0:0:
64,192,43219,1,0,0:0:0:0:
448,192,43253,1,0,0:0:0:0:
192,192,43321,1,0,0:0:0:0:
320,192,43355,1,0,0:0:0:0:
448,192,43389,1,0,0:0:0:0:
64,192,43457,1,0,0:0:0:0:
320,192,43492,1,0,0:0:0:0:
192,192,43526,1,0,0:0:0:0:
64,192,43594,1,0,0:0:0:0:
448,192,43628,1,0,0:0:0:0:
192,192,43662,1,0,0:0:0:0:
320,192,43730,1,0,0:0:0:0:
448,192,43764,1,0,0:0:0:0:
64,192,43764,1,0,0:0:0:0:
64,192,43832,1,0,0:0:0:0:
192,192,43832,1,0,0:0:0:0:
320,192,43901,1,0,0:0:0:0:
448,192,43901,1,0,0:0:0:0:
192,192,43969,1,0,0:0:0:0:
64,192,43969,1,0,0:0:0:0:
320,192,44037,1,0,0:0:0:0:
448,192,44037,1,0,0:0:0:0:
64,192,44105,1,0,0:0:0:0:
192,192,44105,1,0,0:0:0:0:
320,192,44173,1,0,0:0:0:0:
448,192,44173,1,0,0:0:0:0:
192,192,44242,1,0,0:0:0:0:
64,192,44242,1,0,0:0:0:0:
320,192,44310,1,0,0:0:0:0:
448,192,44310,1,0,0:0:0:0:
448,192,44378,1,0,0:0:0:0:
320,192,44378,1,0,0:0:0:0:
320,192,44446,1,0,0:0:0:0:
448,192,44446,1,0,0:0:0:0:
320,192,44514,1,0,0:0:0:0:
448,192,44514,1,0,0:0:0:0:
64,192,44582,1,0,0:0:0:0:
192,192,44582,1,0,0:0:0:0:
64,192,44651,1,0,0:0:0:0:
192,192,44651,1,0,0:0:0:0:
64,192,44719,1,0,0:0:0:0:
192,192,44719,1,0,0:0:0:0:
64,192,44787,1,0,0:0:0:0:
192,192,44787,1,0,0:0:0:0:
64,192,44855,1,0,0:0:0:0:
192,192,44855,1,0,0:0:0:0:
448,192,44923,1,0,0:0:0:0:
320,192,44923,1,0,0:0:0:0:
192,192,44991,1,0,0:0:0:0:
64,192,45060,1,0,0:0:0:0:
448,192,45060,1,0,0:0:0:0:
320,192,45128,1,0,0:0:0:0:
192,192,45128,1,0,0:0:0:0:
64,192,45196,1,0,0:0:0:0:
448,192,45196,1,0,0:0:0:0:
192,192,45264,1,0,0:0:0:0:
320,192,45264,1,0,0:0:0:0:
64,192,45332,1,0,0:0:0:0:
448,192,45332,1,0,0:0:0:0:
192,192,45401,1,0,0:0:0:0:
320,192,45401,1,0,0:0:0:0:
64,192,45673,1,0,0:0:0:0:
192,192,45673,1,0,0:0:0:0:
192,192,45946,1,0,0:0:0:0:
448,192,45946,1,0,0:0:0:0:
320,192,45946,1,0,0:0:0:0:
64,192,46219,1,0,0:0:0:0:
448,192,46219,1,0,0:0:0:0:
192,192,46355,1,0,0:0:0:0:
320,192,46355,1,0,0:0:0:0:
192,192,46491,1,0,0:0:0:0:
320,192,46491,1,0,0:0:0:0:
448,192,46491,1,0,0:0:0:0:
64,192,46491,1,0,0:0:0:0:
64,192,46628,1,0,0:0:0:0:
64,192,46764,1,0,0:0:0:0:
320,192,46764,1,0,0:0:0:0:
64,192,46901,1,0,0:0:0:0:
192,192,46901,1,0,0:0:0:0:
64,192,47037,1,0,0:0:0:0:
320,192,47037,1,0,0:0:0:0:
448,192,47037,1,0,0:0:0:0:
192,192,47037,1,0,0:0:0:0:
64,192,47173,1,0,0:0:0:0:
448,192,47173,1,0,0:0:0:0:
64,192,47310,1,0,0:0:0:0:
320,192,47310,1,0,0:0:0:0:
64,192,47446,1,0,0:0:0:0:
192,192,47446,1,0,0:0:0:0:
64,192,47582,1,0,0:0:0:0:
320,192,47582,1,0,0:0:0:0:
448,192,47582,1,0,0:0:0:0:
320,192,47855,1,0,0:0:0:0:
448,192,47855,1,0,0:0:0:0:
192,192,48128,1,0,0:0:0:0:
320,192,48128,1,0,0:0:0:0:
448,192,48128,1,0,0:0:0:0:
64,192,48128,1,0,0:0:0:0:
64,192,48400,1,0,0:0:0:0:
320,192,48400,1,0,0:0:0:0:
64,192,48537,1,0,0:0:0:0:
320,192,48537,1,0,0:0:0:0:
64,192,48673,1,0,0:0:0:0:
320,192,48673,1,0,0:0:0:0:
448,192,48673,1,0,0:0:0:0:
448,192,48810,1,0,0:0:0:0:
192,192,48810,1,0,0:0:0:0:
448,192,48946,1,0,0:0:0:0:
64,192,48946,1,0,0:0:0:0:
448,192,49082,1,0,0:0:0:0:
192,192,49082,1,0,0:0:0:0:
448,192,49219,1,0,0:0:0:0:
320,192,49219,1,0,0:0:0:0:
64,192,49219,1,0,0:0:0:0:
192,192,49219,1,0,0:0:0:0:
448,192,49355,1,0,0:0:0:0:
192,192,49355,1,0,0:0:0:0:
448,192,49491,1,0,0:0:0:0:
320,192,49491,1,0,0:0:0:0:
448,192,49628,1,0,0:0:0:0:
64,192,49628,1,0,0:0:0:0:
448,192,49764,1,0,0:0:0:0:
320,192,49764,1,0,0:0:0:0:
64,192,49764,1,0,0:0:0:0:
64,192,50037,1,0,0:0:0:0:
192,192,50037,1,0,0:0:0:0:
320,192,50310,1,0,0:0:0:0:
192,192,50310,1,0,0:0:0:0:
64,192,50310,1,0,0:0:0:0:
448,192,50310,1,0,0:0:0:0:
192,192,50582,1,0,0:0:0:0:
320,192,50582,1,0,0:0:0:0:
64,192,50719,1,0,0:0:0:0:
320,192,50719,1,0,0:0:0:0:
64,192,50855,1,0,0:0:0:0:
192,192,50855,1,0,0:0:0:0:
448,192,50855,1,0,0:0:0:0:
192,192,50991,1,0,0:0:0:0:
448,192,50991,1,0,0:0:0:0:
64,192,51128,1,0,0:0:0:0:
192,192,51128,1,0,0:0:0:0:
192,192,51264,1,0,0:0:0:0:
448,192,51264,1,0,0:0:0:0:
192,192,51400,1,0,0:0:0:0:
64,192,51400,1,0,0:0:0:0:
320,192,51400,1,0,0:0:0:0:
448,192,51400,1,0,0:0:0:0:
192,192,51537,1,0,0:0:0:0:
448,192,51537,1,0,0:0:0:0:
192,192,51673,1,0,0:0:0:0:
320,192,51673,1,0,0:0:0:0:
64,192,51809,1,0,0:0:0:0:
192,192,51809,1,0,0:0:0:0:
64,192,51946,1,0,0:0:0:0:
192,192,51946,1,0,0:0:0:0:
448,192,51946,1,0,0:0:0:0:
448,192,52219,1,0,0:0:0:0:
320,192,52219,1,0,0:0:0:0:
64,192,52219,1,0,0:0:0:0:
64,192,52491,1,0,0:0:0:0:
192,192,52491,1,0,0:0:0:0:
448,192,52491,1,0,0:0:0:0:
320,192,52491,1,0,0:0:0:0:
320,192,52764,1,0,0:0:0:0:
448,192,52764,1,0,0:0:0:0:
64,192,52764,1,0,0:0:0:0:
448,192,52900,1,0,0:0:0:0:
320,192,52900,1,0,0:0:0:0:
64,192,53037,1,0,0:0:0:0:
192,192,53037,1,0,0:0:0:0:
320,192,53037,1,0,0:0:0:0:
64,192,53173,1,0,0:0:0:0:
448,192,53173,1,0,0:0:0:0:
64,192,53309,1,0,0:0:0:0:
320,192,53309,1,0,0:0:0:0:
192,192,53309,1,0,0:0:0:0:
192,192,53582,1,0,0:0:0:0:
320,192,53582,1,0,0:0:0:0:
448,192,53582,1,0,0:0:0:0:
64,192,53582,1,0,0:0:0:0:
192,192,53855,1,0,0:0:0:0:
320,192,53855,1,0,0:0:0:0:
448,192,53855,1,0,0:0:0:0:
448,192,53991,1,0,0:0:0:0:
64,192,54128,1,0,0:0:0:0:
320,192,54128,1,0,0:0:0:0:
448,192,54128,1,0,0:0:0:0:
192,192,54128,1,0,0:0:0:0:
192,192,54400,1,0,0:0:0:0:
448,192,54400,1,0,0:0:0:0:
320,192,54673,1,0,0:0:0:0:
448,192,54673,1,0,0:0:0:0:
192,192,54673,1,0,0:0:0:0:
64,192,54673,1,0,0:0:0:0:
64,192,54946,1,0,0:0:0:0:
192,192,54946,1,0,0:0:0:0:
64,192,55082,1,0,0:0:0:0:
192,192,55082,1,0,0:0:0:0:
64,192,55218,1,0,0:0:0:0:
448,192,55218,1,0,0:0:0:0:
320,192,55218,1,0,0:0:0:0:
320,192,55355,1,0,0:0:0:0:
192,192,55355,1,0,0:0:0:0:
320,192,55491,1,0,0:0:0:0:
64,192,55491,1,0,0:0:0:0:
320,192,55628,1,0,0:0:0:0:
448,192,55628,1,0,0:0:0:0:
320,192,55764,1,0,0:0:0:0:
192,192,55764,1,0,0:0:0:0:
64,192,55764,1,0,0:0:0:0:
448,192,55764,1,0,0:0:0:0:
320,192,55900,1,0,0:0:0:0:
192,192,55900,1,0,0:0:0:0:
320,192,56037,1,0,0:0:0:0:
64,192,56037,1,0,0:0:0:0:
320,192,56173,1,0,0:0:0:0:
192,192,56173,1,0,0:0:0:0:
448,192,56309,1,0,0:0:0:0:
320,192,56309,1,0,0:0:0:0:
192,192,56309,1,0,0:0:0:0:
64,192,56582,1,0,0:0:0:0:
192,192,56582,1,0,0:0:0:0:
320,192,56855,1,0,0:0:0:0:
448,192,56855,1,0,0:0:0:0:
192,192,56855,1,0,0:0:0:0:
64,192,56855,1,0,0:0:0:0:
64,192,57128,1,0,0:0:0:0:
320,192,57128,1,0,0:0:0:0:
192,192,57264,1,0,0:0:0:0:
320,192,57264,1,0,0:0:0:0:
320,192,57400,1,0,0:0:0:0:
448,192,57400,1,0,0:0:0:0:
192,192,57400,1,0,0:0:0:0:
448,192,57537,1,0,0:0:0:0:
64,192,57537,1,0,0:0:0:0:
448,192,57673,1,0,0:0:0:0:
192,192,57673,1,0,0:0:0:0:
448,192,57809,1,0,0:0:0:0:
64,192,57809,1,0,0:0:0:0:
320,192,57946,1,0,0:0:0:0:
448,192,57946,1,0,0:0:0:0:
192,192,57946,1,0,0:0:0:0:
64,192,57946,1,0,0:0:0:0:
192,192,58082,1,0,0:0:0:0:
448,192,58082,1,0,0:0:0:0:
320,192,58218,1,0,0:0:0:0:
448,192,58218,1,0,0:0:0:0:
448,192,58355,1,0,0:0:0:0:
64,192,58355,1,0,0:0:0:0:
448,192,58491,1,0,0:0:0:0:
320,192,58491,1,0,0:0:0:0:
192,192,58491,1,0,0:0:0:0:
64,192,58764,1,0,0:0:0:0:
320,192,58764,1,0,0:0:0:0:
64,192,59037,1,0,0:0:0:0:
192,192,59037,1,0,0:0:0:0:
320,192,59037,1,0,0:0:0:0:
448,192,59037,1,0,0:0:0:0:
320,192,59309,1,0,0:0:0:0:
448,192,59309,1,0,0:0:0:0:
64,192,59446,1,0,0:0:0:0:
192,192,59446,1,0,0:0:0:0:
448,192,59582,1,0,0:0:0:0:
320,192,59582,1,0,0:0:0:0:
192,192,59582,1,0,0:0:0:0:
64,192,59582,1,0,0:0:0:0:
64,192,59855,1,0,0:0:0:0:
320,192,59855,1,0,0:0:0:0:
448,192,59855,1,0,0:0:0:0:
192,192,59991,1,0,0:0:0:0:
448,192,59991,1,0,0:0:0:0:
448,192,60127,1,0,0:0:0:0:
320,192,60127,1,0,0:0:0:0:
64,192,60127,1,0,0:0:0:0:
448,192,60264,1,0,0:0:0:0:
320,192,60264,1,0,0:0:0:0:
448,192,60400,1,0,0:0:0:0:
320,192,60400,1,0,0:0:0:0:
192,192,60400,1,0,0:0:0:0:
64,192,60400,1,0,0:0:0:0:
448,192,60537,1,0,0:0:0:0:
64,192,60537,1,0,0:0:0:0:
448,192,60673,1,0,0:0:0:0:
320,192,60673,1,0,0:0:0:0:
192,192,60673,1,0,0:0:0:0:
64,192,60946,1,0,0:0:0:0:
192,192,60946,1,0,0:0:0:0:
320,192,60946,1,0,0:0:0:0:
448,192,61218,1,0,0:0:0:0:
320,192,61218,1,0,0:0:0:0:
64,192,61218,1,0,0:0:0:0:
192,192,61218,1,0,0:0:0:0:
448,192,61491,1,0,0:0:0:0:
320,192,61491,1,0,0:0:0:0:
64,192,61491,1,0,0:0:0:0:
320,192,61627,1,0,0:0:0:0:
192,192,61627,1,0,0:0:0:0:
64,192,61764,1,0,0:0:0:0:
192,192,61764,1,0,0:0:0:0:
448,192,61764,1,0,0:0:0:0:
320,192,61900,1,0,0:0:0:0:
320,192,62036,1,0,0:0:0:0:
448,192,62036,1,0,0:0:0:0:
192,192,62036,1,0,0:0:0:0:
64,192,62309,1,0,0:0:0:0:
192,192,62309,1,0,0:0:0:0:
320,192,62309,1,0,0:0:0:0:
448,192,62309,1,0,0:0:0:0:
64,192,62582,1,0,0:0:0:0:
192,192,62582,1,0,0:0:0:0:
320,192,62582,1,0,0:0:0:0:
64,192,62718,1,0,0:0:0:0:
64,192,62855,1,0,0:0:0:0:
192,192,62855,1,0,0:0:0:0:
448,192,62855,1,0,0:0:0:0:
320,192,62889,1,0,0:0:0:0:
192,192,62957,1,0,0:0:0:0:
64,192,62991,1,0,0:0:0:0:
320,192,63127,1,0,0:0:0:0:
448,192,63127,1,0,0:0:0:0:
64,192,63400,1,0,0:0:0:0:
192,192,63400,1,0,0:0:0:0:
448,192,63400,1,0,0:0:0:0:
320,192,63400,1,0,0:0:0:0:
192,192,63536,1,0,0:0:0:0:
64,192,63536,1,0,0:0:0:0:
64,192,63673,1,0,0:0:0:0:
192,192,63673,1,0,0:0:0:0:
448,192,63673,1,0,0:0:0:0:
64,192,63809,1,0,0:0:0:0:
320,192,63809,1,0,0:0:0:0:
64,192,63946,1,0,0:0:0:0:
192,192,63946,1,0,0:0:0:0:
448,192,63946,1,0,0:0:0:0:
192,192,64082,1,0,0:0:0:0:
448,192,64082,1,0,0:0:0:0:
320,192,64218,1,0,0:0:0:0:
448,192,64218,1,0,0:0:0:0:
64,192,64218,1,0,0:0:0:0:
320,192,64355,1,0,0:0:0:0:
448,192,64355,1,0,0:0:0:0:
448,192,64491,1,0,0:0:0:0:
320,192,64491,1,0,0:0:0:0:
192,192,64491,1,0,0:0:0:0:
64,192,64491,1,0,0:0:0:0:
64,192,64764,1,0,0:0:0:0:
192,192,64764,1,0,0:0:0:0:
320,192,64764,1,0,0:0:0:0:
64,192,65036,1,0,0:0:0:0:
320,192,65036,1,0,0:0:0:0:
448,192,65036,1,0,0:0:0:0:
192,192,65071,1,0,0:0:0:0:
320,192,65139,1,0,0:0:0:0:
448,192,65173,1,0,0:0:0:0:
64,192,65309,1,0,0:0:0:0:
192,192,65309,1,0,0:0:0:0:
320,192,65582,1,0,0:0:0:0:
448,192,65582,1,0,0:0:0:0:
192,192,65582,1,0,0:0:0:0:
64,192,65582,1,0,0:0:0:0:
192,192,65718,1,0,0:0:0:0:
448,192,65718,1,0,0:0:0:0:
320,192,65855,1,0,0:0:0:0:
448,192,65855,1,0,0:0:0:0:
64,192,65855,1,0,0:0:0:0:
64,192,65991,1,0,0:0:0:0:
192,192,65991,1,0,0:0:0:0:
320,192,65991,1,0,0:0:0:0:
64,192,66127,1,0,0:0:0:0:
192,192,66127,1,0,0:0:0:0:
320,192,66127,1,0,0:0:0:0:
192,192,66264,1,0,0:0:0:0:
448,192,66264,1,0,0:0:0:0:
320,192,66400,1,0,0:0:0:0:
448,192,66400,1,0,0:0:0:0:
64,192,66400,1,0,0:0:0:0:
64,192,66536,1,0,0:0:0:0:
320,192,66536,1,0,0:0:0:0:
64,192,66673,1,0,0:0:0:0:
192,192,66673,1,0,0:0:0:0:
320,192,66673,1,0,0:0:0:0:
448,192,66673,1,0,0:0:0:0:
192,192,66945,1,0,0:0:0:0:
64,192,66945,1,0,0:0:0:0:
320,192,66945,1,0,0:0:0:0:
192,192,67218,1,0,0:0:0:0:
64,192,67218,1,0,0:0:0:0:
320,192,67218,1,0,0:0:0:0:
448,192,67252,1,0,0:0:0:0:
320,192,67320,1,0,0:0:0:0:
192,192,67355,1,0,0:0:0:0:
64,192,67389,1,0,0:0:0:0:
320,192,67491,1,0,0:0:0:0:
448,192,67491,1,0,0:0:0:0:
64,192,67764,1,0,0:0:0:0:
192,192,67764,1,0,0:0:0:0:
320,192,67764,1,0,0:0:0:0:
448,192,67764,1,0,0:0:0:0:
192,192,67900,1,0,0:0:0:0:
64,192,68036,1,0,0:0:0:0:
320,192,68036,1,0,0:0:0:0:
448,192,68036,1,0,0:0:0:0:
192,192,68173,1,0,0:0:0:0:
320,192,68173,1,0,0:0:0:0:
64,192,68173,1,0,0:0:0:0:
192,192,68309,1,0,0:0:0:0:
64,192,68309,1,0,0:0:0:0:
448,192,68309,1,0,0:0:0:0:
320,192,68445,1,0,0:0:0:0:
64,192,68445,1,0,0:0:0:0:
320,192,68582,1,0,0:0:0:0:
448,192,68582,1,0,0:0:0:0:
64,192,68582,1,0,0:0:0:0:
192,192,68718,1,0,0:0:0:0:
448,192,68718,1,0,0:0:0:0:
320,192,68854,1,0,0:0:0:0:
448,192,68854,1,0,0:0:0:0:
192,192,68854,1,0,0:0:0:0:
64,192,68854,1,0,0:0:0:0:
64,192,69127,1,0,0:0:0:0:
192,192,69127,1,0,0:0:0:0:
320,192,69127,1,0,0:0:0:0:
64,192,69264,1,0,0:0:0:0:
192,192,69264,1,0,0:0:0:0:
64,192,69400,1,0,0:0:0:0:
192,192,69400,1,0,0:0:0:0:
448,192,69400,1,0,0:0:0:0:
320,192,69536,1,0,0:0:0:0:
448,192,69536,1,0,0:0:0:0:
448,192,69673,1,0,0:0:0:0:
320,192,69673,1,0,0:0:0:0:
192,192,69673,1,0,0:0:0:0:
64,192,69945,1,0,0:0:0:0:
192,192,69945,1,0,0:0:0:0:
320,192,69945,1,0,0:0:0:0:
448,192,69945,1,0,0:0:0:0:
320,192,70218,1,0,0:0:0:0:
448,192,70218,1,0,0:0:0:0:
320,192,70354,1,0,0:0:0:0:
448,192,70354,1,0,0:0:0:0:
64,192,70354,1,0,0:0:0:0:
192,192,70491,1,0,0:0:0:0:
320,192,70491,1,0,0:0:0:0:
448,192,70491,1,0,0:0:0:0:
64,192,70627,1,0,0:0:0:0:
64,192,70764,1,0,0:0:0:0:
192,192,70764,1,0,0:0:0:0:
320,192,70764,1,0,0:0:0:0:
192,192,71036,1,0,0:0:0:0:
320,192,71036,1,0,0:0:0:0:
448,192,71036,1,0,0:0:0:0:
64,192,71036,1,0,0:0:0:0:
448,192,71207,1,0,0:0:0:0:
320,192,71275,1,0,0:0:0:0:
64,192,71309,1,0,0:0:0:0:
192,192,71309,1,0,0:0:0:0:
64,192,71582,1,0,0:0:0:0:
192,192,71582,1,0,0:0:0:0:
448,192,71582,1,0,0:0:0:0:
320,192,71616,1,0,0:0:0:0:
192,192,71684,1,0,0:0:0:0:
64,192,71718,1,0,0:0:0:0:
64,192,71854,1,0,0:0:0:0:
320,192,71854,1,0,0:0:0:0:
64,192,72127,1,0,0:0:0:0:
192,192,72127,1,0,0:0:0:0:
320,192,72127,1,0,0:0:0:0:
448,192,72127,1,0,0:0:0:0:
320,192,72263,1,0,0:0:0:0:
64,192,72263,1,0,0:0:0:0:
192,192,72400,1,0,0:0:0:0:
320,192,72400,1,0,0:0:0:0:
448,192,72536,1,0,0:0:0:0:
192,192,72536,1,0,0:0:0:0:
64,192,72536,1,0,0:0:0:0:
448,192,72673,1,0,0:0:0:0:
320,192,72673,1,0,0:0:0:0:
64,192,72673,1,0,0:0:0:0:
192,192,72809,1,0,0:0:0:0:
64,192,72809,1,0,0:0:0:0:
192,192,72945,1,0,0:0:0:0:
320,192,72945,1,0,0:0:0:0:
448,192,72945,1,0,0:0:0:0:
320,192,73082,1,0,0:0:0:0:
320,192,73218,1,0,0:0:0:0:
64,192,73218,1,0,0:0:0:0:
192,192,73218,1,0,0:0:0:0:
448,192,73218,1,0,0:0:0:0:
64,192,73491,1,0,0:0:0:0:
320,192,73491,1,0,0:0:0:0:
192,192,73491,1,0,0:0:0:0:
448,192,73763,1,0,0:0:0:0:
64,192,73763,1,0,0:0:0:0:
320,192,73763,1,0,0:0:0:0:
192,192,73798,1,0,0:0:0:0:
320,192,73866,1,0,0:0:0:0:
448,192,73900,1,0,0:0:0:0:
64,192,74036,1,0,0:0:0:0:
192,192,74036,1,0,0:0:0:0:
320,192,74309,1,0,0:0:0:0:
448,192,74309,1,0,0:0:0:0:
192,192,74309,1,0,0:0:0:0:
64,192,74309,1,0,0:0:0:0:
320,192,74445,1,0,0:0:0:0:
448,192,74445,1,0,0:0:0:0:
448,192,74582,1,0,0:0:0:0:
192,192,74582,1,0,0:0:0:0:
192,192,74718,1,0,0:0:0:0:
64,192,74718,1,0,0:0:0:0:
320,192,74718,1,0,0:0:0:0:
64,192,74854,1,0,0:0:0:0:
192,192,74854,1,0,0:0:0:0:
448,192,74854,1,0,0:0:0:0:
320,192,74991,1,0,0:0:0:0:
448,192,74991,1,0,0:0:0:0:
192,192,75127,1,0,0:0:0:0:
320,192,75127,1,0,0:0:0:0:
448,192,75127,1,0,0:0:0:0:
64,192,75127,1,0,0:0:0:0:
64,192,75263,1,0,0:0:0:0:
64,192,75400,1,0,0:0:0:0:
192,192,75400,1,0,0:0:0:0:
320,192,75400,1,0,0:0:0:0:
320,192,75672,1,0,0:0:0:0:
448,192,75672,1,0,0:0:0:0:
64,192,75672,1,0,0:0:0:0:
64,192,75945,1,0,0:0:0:0:
448,192,75945,1,0,0:0:0:0:
320,192,75945,1,0,0:0:0:0:
192,192,75979,1,0,0:0:0:0:
320,192,76047,1,0,0:0:0:0:
448,192,76082,1,0,0:0:0:0:
192,192,76218,1,0,0:0:0:0:
320,192,76218,1,0,0:0:0:0:
320,192,76491,1,0,0:0:0:0:
64,192,76491,1,0,0:0:0:0:
192,192,76491,1,0,0:0:0:0:
448,192,76491,1,0,0:0:0:0:
64,192,76627,1,0,0:0:0:0:
320,192,76627,1,0,0:0:0:0:
448,192,76763,1,0,0:0:0:0:
192,192,76763,1,0,0:0:0:0:
320,192,76900,1,0,0:0:0:0:
448,192,76900,1,0,0:0:0:0:
64,192,76900,1,0,0:0:0:0:
192,192,77036,1,0,0:0:0:0:
320,192,77036,1,0,0:0:0:0:
448,192,77036,1,0,0:0:0:0:
64,192,77172,1,0,0:0:0:0:
320,192,77172,1,0,0:0:0:0:
64,192,77309,1,0,0:0:0:0:
320,192,77309,1,0,0:0:0:0:
448,192,77309,1,0,0:0:0:0:
64,192,77445,1,0,0:0:0:0:
192,192,77445,1,0,0:0:0:0:
192,192,77582,1,0,0:0:0:0:
320,192,77582,1,0,0:0:0:0:
448,192,77582,1,0,0:0:0:0:
64,192,77582,1,0,0:0:0:0:
320,192,77854,1,0,0:0:0:0:
448,192,77854,1,0,0:0:0:0:
64,192,77854,1,0,0:0:0:0:
64,192,77991,1,0,0:0:0:0:
192,192,77991,1,0,0:0:0:0:
448,192,77991,1,0,0:0:0:0:
448,192,78127,1,0,0:0:0:0:
320,192,78127,1,0,0:0:0:0:
64,192,78127,1,0,0:0:0:0:
192,192,78263,1,0,0:0:0:0:
64,192,78400,1,0,0:0:0:0:
192,192,78400,1,0,0:0:0:0:
448,192,78400,1,0,0:0:0:0:
320,192,78536,1,0,0:0:0:0:
448,192,78672,1,0,0:0:0:0:
320,192,78672,1,0,0:0:0:0:
192,192,78672,1,0,0:0:0:0:
64,192,78672,1,0,0:0:0:0:
64,192,78945,1,0,0:0:0:0:
192,192,78945,1,0,0:0:0:0:
64,192,79081,1,0,0:0:0:0:
64,192,79218,1,0,0:0:0:0:
192,192,79218,1,0,0:0:0:0:
320,192,79286,1,0,0:0:0:0:
448,192,79286,1,0,0:0:0:0:
192,192,79354,1,0,0:0:0:0:
64,192,79354,1,0,0:0:0:0:
320,192,79422,1,0,0:0:0:0:
448,192,79422,1,0,0:0:0:0:
192,192,79491,1,0,0:0:0:0:
64,192,79491,1,0,0:0:0:0:
320,192,79559,1,0,0:0:0:0:
448,192,79559,1,0,0:0:0:0:
192,192,79627,1,0,0:0:0:0:
64,192,79627,1,0,0:0:0:0:
320,192,79695,1,0,0:0:0:0:
448,192,79695,1,0,0:0:0:0:
64,192,79763,1,0,0:0:0:0:
192,192,79763,1,0,0:0:0:0:
320,192,79831,1,0,0:0:0:0:
448,192,79831,1,0,0:0:0:0:
64,192,79900,1,0,0:0:0:0:
192,192,79900,1,0,0:0:0:0:
320,192,79968,1,0,0:0:0:0:
448,192,79968,1,0,0:0:0:0:
192,192,80036,1,0,0:0:0:0:
64,192,80036,1,0,0:0:0:0:
320,192,80104,1,0,0:0:0:0:
448,192,80104,1,0,0:0:0:0:
192,192,80172,1,0,0:0:0:0:
64,192,80172,1,0,0:0:0:0:
320,192,80241,1,0,0:0:0:0:
448,192,80241,1,0,0:0:0:0:
192,192,80309,1,0,0:0:0:0:
64,192,80309,1,0,0:0:0:0:
320,192,80343,1,0,0:0:0:0:
448,192,80411,1,0,0:0:0:0:
192,192,80445,1,0,0:0:0:0:
320,192,80479,1,0,0:0:0:0:
448,192,80547,1,0,0:0:0:0:
192,192,80581,1,0,0:0:0:0:
64,192,80581,1,0,0:0:0:0:
320,192,80616,1,0,0:0:0:0:
64,192,80684,1,0,0:0:0:0:
448,192,80718,1,0,0:0:0:0:
320,192,80752,1,0,0:0:0:0:
192,192,80820,1,0,0:0:0:0:
64,192,80854,1,0,0:0:0:0:
448,192,80854,1,0,0:0:0:0:
320,192,80888,1,0,0:0:0:0:
64,192,80956,1,0,0:0:0:0:
448,192,80991,1,0,0:0:0:0:
192,192,81025,1,0,0:0:0:0:
320,192,81093,1,0,0:0:0:0:
448,192,81127,1,0,0:0:0:0:
64,192,81127,1,0,0:0:0:0:
192,192,81161,1,0,0:0:0:0:
320,192,81229,1,0,0:0:0:0:
64,192,81263,1,0,0:0:0:0:
448,192,81297,1,0,0:0:0:0:
192,192,81366,1,0,0:0:0:0:
320,192,81400,1,0,0:0:0:0:
448,192,81434,1,0,0:0:0:0:
192,192,81502,1,0,0:0:0:0:
64,192,81536,1,0,0:0:0:0:
320,192,81570,1,0,0:0:0:0:
64,192,81638,1,0,0:0:0:0:
448,192,81672,1,0,0:0:0:0:
320,192,81706,1,0,0:0:0:0:
192,192,81775,1,0,0:0:0:0:
64,192,81809,1,0,0:0:0:0:
320,192,81843,1,0,0:0:0:0:
192,192,81911,1,0,0:0:0:0:
448,192,81945,1,0,0:0:0:0:
320,192,81979,1,0,0:0:0:0:
192,192,82047,1,0,0:0:0:0:
64,192,82081,1,0,0:0:0:0:
320,192,82116,1,0,0:0:0:0:
192,192,82184,1,0,0:0:0:0:
448,192,82218,1,0,0:0:0:0:
64,192,82252,1,0,0:0:0:0:
192,192,82320,1,0,0:0:0:0:
320,192,82354,1,0,0:0:0:0:
448,192,82388,1,0,0:0:0:0:
192,192,82456,1,0,0:0:0:0:
320,192,82490,1,0,0:0:0:0:
64,192,82525,1,0,0:0:0:0:
192,192,82593,1,0,0:0:0:0:
448,192,82627,1,0,0:0:0:0:
320,192,82661,1,0,0:0:0:0:
64,192,82729,1,0,0:0:0:0:
192,192,82763,1,0,0:0:0:0:
448,192,82797,1,0,0:0:0:0:
64,192,82865,1,0,0:0:0:0:
192,192,82900,1,0,0:0:0:0:
320,192,82934,1,0,0:0:0:0:
448,192,83002,1,0,0:0:0:0:
64,192,83036,1,0,0:0:0:0:
192,192,83036,1,0,0:0:0:0:
320,192,83070,1,0,0:0:0:0:
448,192,83138,1,0,0:0:0:0:
192,192,83172,1,0,0:0:0:0:
64,192,83206,1,0,0:0:0:0:
448,192,83275,1,0,0:0:0:0:
320,192,83275,1,0,0:0:0:0:
192,192,83309,1,0,0:0:0:0:
64,192,83343,1,0,0:0:0:0:
448,192,83411,1,0,0:0:0:0:
320,192,83445,1,0,0:0:0:0:
192,192,83445,1,0,0:0:0:0:
64,192,83479,1,0,0:0:0:0:
448,192,83581,1,0,0:0:0:0:
192,192,83581,1,0,0:0:0:0:
320,192,83615,1,0,0:0:0:0:
64,192,83684,1,0,0:0:0:0:
192,192,83718,1,0,0:0:0:0:
320,192,83752,1,0,0:0:0:0:
448,192,83820,1,0,0:0:0:0:
64,192,83854,1,0,0:0:0:0:
192,192,83854,1,0,0:0:0:0:
320,192,83888,1,0,0:0:0:0:
448,192,83956,1,0,0:0:0:0:
64,192,83990,1,0,0:0:0:0:
192,192,84025,1,0,0:0:0:0:
320,192,84093,1,0,0:0:0:0:
448,192,84127,1,0,0:0:0:0:
64,192,84161,1,0,0:0:0:0:
192,192,84161,1,0,0:0:0:0:
320,192,84229,1,0,0:0:0:0:
448,192,84263,1,0,0:0:0:0:
192,192,84297,1,0,0:0:0:0:
320,192,84365,1,0,0:0:0:0:
448,192,84400,1,0,0:0:0:0:
192,192,84434,1,0,0:0:0:0:
64,192,84502,1,0,0:0:0:0:
320,192,84536,1,0,0:0:0:0:
448,192,84536,1,0,0:0:0:0:
192,192,84570,1,0,0:0:0:0:
64,192,84638,1,0,0:0:0:0:
448,192,84672,1,0,0:0:0:0:
192,192,84706,1,0,0:0:0:0:
320,192,84775,1,0,0:0:0:0:
448,192,84809,1,0,0:0:0:0:
64,192,84809,1,0,0:0:0:0:
192,192,84843,1,0,0:0:0:0:
320,192,84911,1,0,0:0:0:0:
448,192,84945,1,0,0:0:0:0:
192,192,84979,1,0,0:0:0:0:
64,192,85047,1,0,0:0:0:0:
320,192,85081,1,0,0:0:0:0:
448,192,85115,1,0,0:0:0:0:
192,192,85184,1,0,0:0:0:0:
64,192,85218,1,0,0:0:0:0:
320,192,85218,1,0,0:0:0:0:
448,192,85252,1,0,0:0:0:0:
192,192,85320,1,0,0:0:0:0:
64,192,85354,1,0,0:0:0:0:
320,192,85388,1,0,0:0:0:0:
192,192,85456,1,0,0:0:0:0:
64,192,85490,1,0,0:0:0:0:
320,192,85525,1,0,0:0:0:0:
448,192,85593,1,0,0:0:0:0:
192,192,85627,1,0,0:0:0:0:
64,192,85627,1,0,0:0:0:0:
320,192,85661,1,0,0:0:0:0:
448,192,85729,1,0,0:0:0:0:
192,192,85763,1,0,0:0:0:0:
64,192,85797,1,0,0:0:0:0:
448,192,85865,1,0,0:0:0:0:
192,192,85899,1,0,0:0:0:0:
320,192,85934,1,0,0:0:0:0:
448,192,86002,1,0,0:0:0:0:
64,192,86036,1,0,0:0:0:0:
192,192,86036,1,0,0:0:0:0:
320,192,86070,1,0,0:0:0:0:
448,192,86138,1,0,0:0:0:0:
192,192,86172,1,0,0:0:0:0:
320,192,86206,1,0,0:0:0:0:
448,192,86274,1,0,0:0:0:0:
64,192,86309,1,0,0:0:0:0:
320,192,86343,1,0,0:0:0:0:
192,192,86411,1,0,0:0:0:0:
64,192,86445,1,0,0:0:0:0:
320,192,86479,1,0,0:0:0:0:
448,192,86547,1,0,0:0:0:0:
192,192,86581,1,0,0:0:0:0:
320,192,86615,1,0,0:0:0:0:
448,192,86684,1,0,0:0:0:0:
192,192,86718,1,0,0:0:0:0:
64,192,86752,1,0,0:0:0:0:
448,192,86820,1,0,0:0:0:0:
320,192,86854,1,0,0:0:0:0:
192,192,86854,1,0,0:0:0:0:
64,192,86888,1,0,0:0:0:0:
320,192,86956,1,0,0:0:0:0:
448,192,86990,1,0,0:0:0:0:
64,192,87024,1,0,0:0:0:0:
192,192,87093,1,0,0:0:0:0:
320,192,87127,1,0,0:0:0:0:
448,192,87127,1,0,0:0:0:0:
64,192,87161,1,0,0:0:0:0:
192,192,87229,1,0,0:0:0:0:
320,192,87263,1,0,0:0:0:0:
448,192,87297,1,0,0:0:0:0:
192,192,87365,1,0,0:0:0:0:
320,192,87399,1,0,0:0:0:0:
64,192,87434,1,0,0:0:0:0:
192,192,87502,1,0,0:0:0:0:
320,192,87536,1,0,0:0:0:0:
448,192,87570,1,0,0:0:0:0:
192,192,87638,1,0,0:0:0:0:
64,192,87672,1,0,0:0:0:0:
320,192,87706,1,0,0:0:0:0:
192,192,87774,1,0,0:0:0:0:
64,192,87809,1,0,0:0:0:0:
448,192,87843,1,0,0:0:0:0:
320,192,87911,1,0,0:0:0:0:
192,192,87945,1,0,0:0:0:0:
64,192,87979,1,0,0:0:0:0:
320,192,88047,1,0,0:0:0:0:
192,192,88081,1,0,0:0:0:0:
448,192,88115,1,0,0:0:0:0:
320,192,88184,1,0,0:0:0:0:
192,192,88218,1,0,0:0:0:0:
64,192,88252,1,0,0:0:0:0:
320,192,88320,1,0,0:0:0:0:
192,192,88354,1,0,0:0:0:0:
448,192,88388,1,0,0:0:0:0:
320,192,88456,1,0,0:0:0:0:
192,192,88490,1,0,0:0:0:0:
64,192,88524,1,0,0:0:0:0:
320,192,88593,1,0,0:0:0:0:
192,192,88627,1,0,0:0:0:0:
448,192,88661,1,0,0:0:0:0:
320,192,88729,1,0,0:0:0:0:
192,192,88763,1,0,0:0:0:0:
64,192,88797,1,0,0:0:0:0:
320,192,88865,1,0,0:0:0:0:
448,192,88899,1,0,0:0:0:0:
192,192,88934,1,0,0:0:0:0:
64,192,89002,1,0,0:0:0:0:
448,192,89036,1,0,0:0:0:0:
320,192,89036,1,0,0:0:0:0:
192,192,89070,1,0,0:0:0:0:
64,192,89138,1,0,0:0:0:0:
320,192,89172,1,0,0:0:0:0:
448,192,89206,1,0,0:0:0:0:
192,192,89274,1,0,0:0:0:0:
64,192,89308,1,0,0:0:0:0:
320,192,89308,1,0,0:0:0:0:
448,192,89343,1,0,0:0:0:0:
64,192,89411,1,0,0:0:0:0:
192,192,89445,1,0,0:0:0:0:
320,192,89445,1,0,0:0:0:0:
448,192,89479,1,0,0:0:0:0:
64,192,89547,1,0,0:0:0:0:
320,192,89581,1,0,0:0:0:0:
192,192,89615,1,0,0:0:0:0:
64,192,89683,1,0,0:0:0:0:
320,192,89718,1,0,0:0:0:0:
448,192,89718,1,0,0:0:0:0:
192,192,89752,1,0,0:0:0:0:
64,192,89820,1,0,0:0:0:0:
320,192,89854,1,0,0:0:0:0:
192,192,89888,1,0,0:0:0:0:
448,192,89956,1,0,0:0:0:0:
64,192,89990,1,0,0:0:0:0:
320,192,89990,1,0,0:0:0:0:
192,192,90024,1,0,0:0:0:0:
448,192,90093,1,0,0:0:0:0:
64,192,90127,1,0,0:0:0:0:
192,192,90161,1,0,0:0:0:0:
320,192,90229,1,0,0:0:0:0:
448,192,90263,1,0,0:0:0:0:
64,192,90263,1,0,0:0:0:0:
192,192,90297,1,0,0:0:0:0:
320,192,90365,1,0,0:0:0:0:
448,192,90399,1,0,0:0:0:0:
64,192,90399,1,0,0:0:0:0:
192,192,90433,1,0,0:0:0:0:
320,192,90502,1,0,0:0:0:0:
448,192,90536,1,0,0:0:0:0:
64,192,90570,1,0,0:0:0:0:
320,192,90638,1,0,0:0:0:0:
192,192,90672,1,0,0:0:0:0:
448,192,90672,1,0,0:0:0:0:
64,192,90706,1,0,0:0:0:0:
320,192,90774,1,0,0:0:0:0:
448,192,90808,1,0,0:0:0:0:
64,192,90843,1,0,0:0:0:0:
320,192,90911,1,0,0:0:0:0:
192,192,90945,1,0,0:0:0:0:
64,192,90979,1,0,0:0:0:0:
320,192,91047,1,0,0:0:0:0:
192,192,91081,1,0,0:0:0:0:
448,192,91115,1,0,0:0:0:0:
64,192,91183,1,0,0:0:0:0:
192,192,91218,1,0,0:0:0:0:
320,192,91218,1,0,0:0:0:0:
448,192,91252,1,0,0:0:0:0:
192,192,91320,1,0,0:0:0:0:
320,192,91354,1,0,0:0:0:0:
448,192,91388,1,0,0:0:0:0:
192,192,91456,1,0,0:0:0:0:
320,192,91490,1,0,0:0:0:0:
448,192,91524,1,0,0:0:0:0:
192,192,91593,1,0,0:0:0:0:
64,192,91627,1,0,0:0:0:0:
320,192,91661,1,0,0:0:0:0:
192,192,91729,1,0,0:0:0:0:
64,192,91763,1,0,0:0:0:0:
320,192,91797,1,0,0:0:0:0:
192,192,91865,1,0,0:0:0:0:
64,192,91899,1,0,0:0:0:0:
320,192,91933,1,0,0:0:0:0:
448,192,92002,1,0,0:0:0:0:
192,192,92036,1,0,0:0:0:0:
320,192,92070,1,0,0:0:0:0:
448,192,92138,1,0,0:0:0:0:
192,192,92172,1,0,0:0:0:0:
320,192,92206,1,0,0:0:0:0:
448,192,92274,1,0,0:0:0:0:
192,192,92308,1,0,0:0:0:0:
64,192,92343,1,0,0:0:0:0:
448,192,92411,1,0,0:0:0:0:
320,192,92445,1,0,0:0:0:0:
192,192,92479,1,0,0:0:0:0:
64,192,92547,1,0,0:0:0:0:
320,192,92581,1,0,0:0:0:0:
192,192,92615,1,0,0:0:0:0:
448,192,92683,1,0,0:0:0:0:
320,192,92717,1,0,0:0:0:0:
64,192,92752,1,0,0:0:0:0:
448,192,92820,1,0,0:0:0:0:
320,192,92854,1,0,0:0:0:0:
192,192,92888,1,0,0:0:0:0:
64,192,92956,1,0,0:0:0:0:
448,192,92990,1,0,0:0:0:0:
192,192,93024,1,0,0:0:0:0:
64,192,93092,1,0,0:0:0:0:
448,192,93127,1,0,0:0:0:0:
320,192,93161,1,0,0:0:0:0:
192,192,93229,1,0,0:0:0:0:
64,192,93263,1,0,0:0:0:0:
448,192,93297,1,0,0:0:0:0:
192,192,93365,1,0,0:0:0:0:
320,192,93399,1,0,0:0:0:0:
64,192,93399,1,0,0:0:0:0:
448,192,93433,1,0,0:0:0:0:
192,192,93502,1,0,0:0:0:0:
320,192,93536,1,0,0:0:0:0:
64,192,93570,1,0,0:0:0:0:
192,192,93638,1,0,0:0:0:0:
320,192,93672,1,0,0:0:0:0:
448,192,93672,1,0,0:0:0:0:
64,192,93706,1,0,0:0:0:0:
192,192,93774,1,0,0:0:0:0:
320,192,93808,1,0,0:0:0:0:
448,192,93842,1,0,0:0:0:0:
192,192,93911,1,0,0:0:0:0:
320,192,93945,1,0,0:0:0:0:
448,192,93979,1,0,0:0:0:0:
192,192,94047,1,0,0:0:0:0:
64,192,94081,1,0,0:0:0:0:
320,192,94115,1,0,0:0:0:0:
448,192,94115,1,0,0:0:0:0:
192,192,94183,1,0,0:0:0:0:
64,192,94217,1,0,0:0:0:0:
320,192,94252,1,0,0:0:0:0:
192,192,94320,1,0,0:0:0:0:
64,192,94354,1,0,0:0:0:0:
448,192,94388,1,0,0:0:0:0:
320,192,94456,1,0,0:0:0:0:
192,192,94490,1,0,0:0:0:0:
64,192,94524,1,0,0:0:0:0:
320,192,94592,1,0,0:0:0:0:
192,192,94627,1,0,0:0:0:0:
448,192,94661,1,0,0:0:0:0:
320,192,94729,1,0,0:0:0:0:
192,192,94763,1,0,0:0:0:0:
64,192,94797,1,0,0:0:0:0:
320,192,94865,1,0,0:0:0:0:
192,192,94899,1,0,0:0:0:0:
64,192,94933,1,0,0:0:0:0:
448,192,95002,1,0,0:0:0:0:
320,192,95036,1,0,0:0:0:0:
192,192,95070,1,0,0:0:0:0:
64,192,95138,1,0,0:0:0:0:
320,192,95172,1,0,0:0:0:0:
448,192,95206,1,0,0:0:0:0:
192,192,95274,1,0,0:0:0:0:
64,192,95308,1,0,0:0:0:0:
320,192,95342,1,0,0:0:0:0:
192,192,95411,1,0,0:0:0:0:
64,192,95445,1,0,0:0:0:0:
448,192,95445,1,0,0:0:0:0:
320,192,95479,1,0,0:0:0:0:
192,192,95547,1,0,0:0:0:0:
64,192,95581,1,0,0:0:0:0:
320,192,95615,1,0,0:0:0:0:
192,192,95683,1,0,0:0:0:0:
448,192,95717,1,0,0:0:0:0:
192,192,95752,1,0,0:0:0:0:
64,192,95820,1,0,0:0:0:0:
320,192,95854,1,0,0:0:0:0:
192,192,95888,1,0,0:0:0:0:
64,192,95956,1,0,0:0:0:0:
448,192,95990,1,0,0:0:0:0:
320,192,96024,1,0,0:0:0:0:
192,192,96092,1,0,0:0:0:0:
64,192,96126,1,0,0:0:0:0:
448,192,96161,1,0,0:0:0:0:
320,192,96229,1,0,0:0:0:0:
192,192,96263,1,0,0:0:0:0:
64,192,96263,1,0,0:0:0:0:
448,192,96297,1,0,0:0:0:0:
320,192,96365,1,0,0:0:0:0:
192,192,96399,1,0,0:0:0:0:
64,192,96433,1,0,0:0:0:0:
320,192,96501,1,0,0:0:0:0:
448,192,96536,1,0,0:0:0:0:
192,192,96570,1,0,0:0:0:0:
64,192,96638,1,0,0:0:0:0:
320,192,96672,1,0,0:0:0:0:
448,192,96672,1,0,0:0:0:0:
64,192,96740,1,0,0:0:0:0:
192,192,96740,1,0,0:0:0:0:
320,192,96808,1,0,0:0:0:0:
448,192,96808,1,0,0:0:0:0:
192,192,96876,1,0,0:0:0:0:
64,192,96876,1,0,0:0:0:0:
320,192,96945,1,0,0:0:0:0:
448,192,96945,1,0,0:0:0:0:
192,192,97013,1,0,0:0:0:0:
64,192,97013,1,0,0:0:0:0:
320,192,97081,1,0,0:0:0:0:
448,192,97081,1,0,0:0:0:0:
192,192,97149,1,0,0:0:0:0:
64,192,97149,1,0,0:0:0:0:
320,192,97217,1,0,0:0:0:0:
448,192,97217,1,0,0:0:0:0:
64,192,97286,1,0,0:0:0:0:
192,192,97286,1,0,0:0:0:0:
320,192,97354,1,0,0:0:0:0:
448,192,97354,1,0,0:0:0:0:
192,192,97422,1,0,0:0:0:0:
64,192,97422,1,0,0:0:0:0:
448,192,97490,1,0,0:0:0:0:
320,192,97490,1,0,0:0:0:0:
64,192,97558,1,0,0:0:0:0:
192,192,97558,1,0,0:0:0:0:
320,192,97626,1,0,0:0:0:0:
448,192,97626,1,0,0:0:0:0:
192,192,97695,1,0,0:0:0:0:
64,192,97695,1,0,0:0:0:0:
320,192,97763,1,0,0:0:0:0:
448,192,97763,1,0,0:0:0:0:
320,192,97831,1,0,0:0:0:0:
448,192,97831,1,0,0:0:0:0:
320,192,97899,1,0,0:0:0:0:
448,192,97899,1,0,0:0:0:0:
320,192,97967,1,0,0:0:0:0:
448,192,97967,1,0,0:0:0:0:
64,192,98036,1,0,0:0:0:0:
192,192,98036,1,0,0:0:0:0:
64,192,98104,1,0,0:0:0:0:
192,192,98104,1,0,0:0:0:0:
64,192,98172,1,0,0:0:0:0:
192,192,98172,1,0,0:0:0:0:
64,192,98240,1,0,0:0:0:0:
192,192,98240,1,0,0:0:0:0:
448,192,98308,1,0,0:0:0:0:
320,192,98308,1,0,0:0:0:0:
64,192,98376,1,0,0:0:0:0:
192,192,98376,1,0,0:0:0:0:
448,192,98445,1,0,0:0:0:0:
64,192,98445,1,0,0:0:0:0:
192,192,98513,1,0,0:0:0:0:
320,192,98513,1,0,0:0:0:0:
64,192,98581,1,0,0:0:0:0:
448,192,98581,1,0,0:0:0:0:
192,192,98649,1,0,0:0:0:0:
320,192,98649,1,0,0:0:0:0:
64,192,98717,1,0,0:0:0:0:
448,192,98717,1,0,0:0:0:0:
320,192,98786,1,0,0:0:0:0:
192,192,98854,1,0,0:0:0:0:
64,192,98854,1,0,0:0:0:0:
448,192,98854,1,0,0:0:0:0:
320,192,98888,1,0,0:0:0:0:
192,192,98956,1,0,0:0:0:0:
64,192,98990,1,0,0:0:0:0:
320,192,99024,1,0,0:0:0:0:
448,192,99092,1,0,0:0:0:0:
192,192,99126,1,0,0:0:0:0:
320,192,99161,1,0,0:0:0:0:
64,192,99229,1,0,0:0:0:0:
192,192,99263,1,0,0:0:0:0:
320,192,99297,1,0,0:0:0:0:
448,192,99365,1,0,0:0:0:0:
192,192,99399,1,0,0:0:0:0:
64,192,99433,1,0,0:0:0:0:
320,192,99501,1,0,0:0:0:0:
192,192,99535,1,0,0:0:0:0:
64,192,99570,1,0,0:0:0:0:
448,192,99638,1,0,0:0:0:0:
192,192,99672,1,0,0:0:0:0:
320,192,99706,1,0,0:0:0:0:
64,192,99774,1,0,0:0:0:0:
448,192,99808,1,0,0:0:0:0:
320,192,99842,1,0,0:0:0:0:
192,192,99910,1,0,0:0:0:0:
64,192,99945,1,0,0:0:0:0:
320,192,99979,1,0,0:0:0:0:
192,192,100047,1,0,0:0:0:0:
64,192,100081,1,0,0:0:0:0:
320,192,100115,1,0,0:0:0:0:
192,192,100183,1,0,0:0:0:0:
64,192,100217,1,0,0:0:0:0:
320,192,100251,1,0,0:0:0:0:
448,192,100320,1,0,0:0:0:0:
64,192,100354,1,0,0:0:0:0:
192,192,100354,1,0,0:0:0:0:
320,192,100388,1,0,0:0:0:0:
448,192,100456,1,0,0:0:0:0:
192,192,100490,1,0,0:0:0:0:
64,192,100524,1,0,0:0:0:0:
320,192,100592,1,0,0:0:0:0:
192,192,100626,1,0,0:0:0:0:
448,192,100660,1,0,0:0:0:0:
192,192,100729,1,0,0:0:0:0:
64,192,100763,1,0,0:0:0:0:
320,192,100797,1,0,0:0:0:0:
192,192,100865,1,0,0:0:0:0:
64,192,100899,1,0,0:0:0:0:
448,192,100933,1,0,0:0:0:0:
320,192,101001,1,0,0:0:0:0:
192,192,101035,1,0,0:0:0:0:
64,192,101070,1,0,0:0:0:0:
320,192,101138,1,0,0:0:0:0:
448,192,101172,1,0,0:0:0:0:
64,192,101206,1,0,0:0:0:0:
192,192,101274,1,0,0:0:0:0:
320,192,101308,1,0,0:0:0:0:
448,192,101342,1,0,0:0:0:0:
192,192,101410,1,0,0:0:0:0:
64,192,101445,1,0,0:0:0:0:
448,192,101479,1,0,0:0:0:0:
320,192,101547,1,0,0:0:0:0:
192,192,101581,1,0,0:0:0:0:
64,192,101615,1,0,0:0:0:0:
320,192,101683,1,0,0:0:0:0:
192,192,101717,1,0,0:0:0:0:
64,192,101751,1,0,0:0:0:0:
448,192,101820,1,0,0:0:0:0:
320,192,101854,1,0,0:0:0:0:
64,192,101888,1,0,0:0:0:0:
192,192,101956,1,0,0:0:0:0:
448,192,101990,1,0,0:0:0:0:
64,192,102024,1,0,0:0:0:0:
320,192,102092,1,0,0:0:0:0:
192,192,102126,1,0,0:0:0:0:
448,192,102126,1,0,0:0:0:0:
64,192,102160,1,0,0:0:0:0:
320,192,102229,1,0,0:0:0:0:
192,192,102263,1,0,0:0:0:0:
64,192,102297,1,0,0:0:0:0:
320,192,102365,1,0,0:0:0:0:
448,192,102399,1,0,0:0:0:0:
192,192,102433,1,0,0:0:0:0:
320,192,102501,1,0,0:0:0:0:
448,192,102535,1,0,0:0:0:0:
192,192,102570,1,0,0:0:0:0:
64,192,102638,1,0,0:0:0:0:
320,192,102672,1,0,0:0:0:0:
192,192,102706,1,0,0:0:0:0:
64,192,102774,1,0,0:0:0:0:
448,192,102808,1,0,0:0:0:0:
320,192,102842,1,0,0:0:0:0:
192,192,102910,1,0,0:0:0:0:
64,192,102944,1,0,0:0:0:0:
448,192,102979,1,0,0:0:0:0:
320,192,103047,1,0,0:0:0:0:
192,192,103081,1,0,0:0:0:0:
64,192,103081,1,0,0:0:0:0:
448,192,103115,1,0,0:0:0:0:
320,192,103183,1,0,0:0:0:0:
192,192,103217,1,0,0:0:0:0:
64,192,103217,1,0,0:0:0:0:
448,192,103251,1,0,0:0:0:0:
64,192,103319,1,0,0:0:0:0:
320,192,103354,1,0,0:0:0:0:
192,192,103388,1,0,0:0:0:0:
64,192,103456,1,0,0:0:0:0:
320,192,103490,1,0,0:0:0:0:
448,192,103524,1,0,0:0:0:0:
192,192,103592,1,0,0:0:0:0:
320,192,103626,1,0,0:0:0:0:
448,192,103660,1,0,0:0:0:0:
64,192,103729,1,0,0:0:0:0:
320,192,103763,1,0,0:0:0:0:
192,192,103763,1,0,0:0:0:0:
448,192,103797,1,0,0:0:0:0:
192,192,103865,1,0,0:0:0:0:
64,192,103899,1,0,0:0:0:0:
320,192,103933,1,0,0:0:0:0:
448,192,104001,1,0,0:0:0:0:
192,192,104035,1,0,0:0:0:0:
64,192,104035,1,0,0:0:0:0:
320,192,104069,1,0,0:0:0:0:
64,192,104138,1,0,0:0:0:0:
448,192,104172,1,0,0:0:0:0:
320,192,104206,1,0,0:0:0:0:
192,192,104274,1,0,0:0:0:0:
64,192,104308,1,0,0:0:0:0:
448,192,104308,1,0,0:0:0:0:
320,192,104342,1,0,0:0:0:0:
192,192,104410,1,0,0:0:0:0:
64,192,104444,1,0,0:0:0:0:
320,192,104479,1,0,0:0:0:0:
448,192,104547,1,0,0:0:0:0:
192,192,104581,1,0,0:0:0:0:
320,192,104615,1,0,0:0:0:0:
448,192,104683,1,0,0:0:0:0:
64,192,104683,1,0,0:0:0:0:
192,192,104717,1,0,0:0:0:0:
320,192,104751,1,0,0:0:0:0:
64,192,104819,1,0,0:0:0:0:
448,192,104854,1,0,0:0:0:0:
192,192,104888,1,0,0:0:0:0:
320,192,104956,1,0,0:0:0:0:
448,192,104990,1,0,0:0:0:0:
192,192,105024,1,0,0:0:0:0:
64,192,105092,1,0,0:0:0:0:
320,192,105092,1,0,0:0:0:0:
448,192,105126,1,0,0:0:0:0:
192,192,105160,1,0,0:0:0:0:
64,192,105229,1,0,0:0:0:0:
320,192,105263,1,0,0:0:0:0:
192,192,105297,1,0,0:0:0:0:
64,192,105365,1,0,0:0:0:0:
320,192,105399,1,0,0:0:0:0:
448,192,105399,1,0,0:0:0:0:
192,192,105433,1,0,0:0:0:0:
64,192,105501,1,0,0:0:0:0:
320,192,105535,1,0,0:0:0:0:
448,192,105569,1,0,0:0:0:0:
192,192,105638,1,0,0:0:0:0:
64,192,105672,1,0,0:0:0:0:
320,192,105672,1,0,0:0:0:0:
448,192,105706,1,0,0:0:0:0:
192,192,105774,1,0,0:0:0:0:
320,192,105808,1,0,0:0:0:0:
64,192,105842,1,0,0:0:0:0:
192,192,105910,1,0,0:0:0:0:
320,192,105944,1,0,0:0:0:0:
448,192,105944,1,0,0:0:0:0:
64,192,105979,1,0,0:0:0:0:
320,192,106047,1,0,0:0:0:0:
192,192,106081,1,0,0:0:0:0:
64,192,106115,1,0,0:0:0:0:
448,192,106183,1,0,0:0:0:0:
320,192,106217,1,0,0:0:0:0:
192,192,106217,1,0,0:0:0:0:
64,192,106251,1,0,0:0:0:0:
448,192,106319,1,0,0:0:0:0:
320,192,106353,1,0,0:0:0:0:
192,192,106388,1,0,0:0:0:0:
64,192,106456,1,0,0:0:0:0:
320,192,106490,1,0,0:0:0:0:
448,192,106490,1,0,0:0:0:0:
192,192,106524,1,0,0:0:0:0:
64,192,106592,1,0,0:0:0:0:
320,192,106626,1,0,0:0:0:0:
448,192,106660,1,0,0:0:0:0:
192,192,106728,1,0,0:0:0:0:
320,192,106763,1,0,0:0:0:0:
448,192,106797,1,0,0:0:0:0:
64,192,106865,1,0,0:0:0:0:
320,192,106899,1,0,0:0:0:0:
448,192,106933,1,0,0:0:0:0:
192,192,107001,1,0,0:0:0:0:
64,192,107035,1,0,0:0:0:0:
320,192,107035,1,0,0:0:0:0:
448,192,107069,1,0,0:0:0:0:
192,192,107138,1,0,0:0:0:0:
64,192,107172,1,0,0:0:0:0:
320,192,107206,1,0,0:0:0:0:
192,192,107274,1,0,0:0:0:0:
64,192,107308,1,0,0:0:0:0:
448,192,107308,1,0,0:0:0:0:
320,192,107342,1,0,0:0:0:0:
192,192,107410,1,0,0:0:0:0:
64,192,107444,1,0,0:0:0:0:
448,192,107478,1,0,0:0:0:0:
320,192,107547,1,0,0:0:0:0:
192,192,107581,1,0,0:0:0:0:
64,192,107581,1,0,0:0:0:0:
448,192,107615,1,0,0:0:0:0:
64,192,107683,1,0,0:0:0:0:
192,192,107717,1,0,0:0:0:0:
320,192,107751,1,0,0:0:0:0:
448,192,107819,1,0,0:0:0:0:
64,192,107853,1,0,0:0:0:0:
192,192,107853,1,0,0:0:0:0:
320,192,107888,1,0,0:0:0:0:
448,192,107956,1,0,0:0:0:0:
192,192,107990,1,0,0:0:0:0:
64,192,108024,1,0,0:0:0:0:
448,192,108092,1,0,0:0:0:0:
320,192,108126,1,0,0:0:0:0:
192,192,108126,1,0,0:0:0:0:
64,192,108160,1,0,0:0:0:0:
448,192,108228,1,0,0:0:0:0:
320,192,108263,1,0,0:0:0:0:
192,192,108297,1,0,0:0:0:0:
64,192,108365,1,0,0:0:0:0:
320,192,108399,1,0,0:0:0:0:
448,192,108399,1,0,0:0:0:0:
192,192,108433,1,0,0:0:0:0:
64,192,108501,1,0,0:0:0:0:
320,192,108535,1,0,0:0:0:0:
448,192,108569,1,0,0:0:0:0:
192,192,108638,1,0,0:0:0:0:
64,192,108672,1,0,0:0:0:0:
320,192,108672,1,0,0:0:0:0:
448,192,108706,1,0,0:0:0:0:
192,192,108774,1,0,0:0:0:0:
320,192,108808,1,0,0:0:0:0:
64,192,108842,1,0,0:0:0:0:
448,192,108910,1,0,0:0:0:0:
320,192,108944,1,0,0:0:0:0:
192,192,108944,1,0,0:0:0:0:
64,192,108978,1,0,0:0:0:0:
448,192,109047,1,0,0:0:0:0:
192,192,109081,1,0,0:0:0:0:
320,192,109115,1,0,0:0:0:0:
448,192,109183,1,0,0:0:0:0:
64,192,109217,1,0,0:0:0:0:
192,192,109217,1,0,0:0:0:0:
320,192,109251,1,0,0:0:0:0:
448,192,109319,1,0,0:0:0:0:
192,192,109353,1,0,0:0:0:0:
64,192,109388,1,0,0:0:0:0:
448,192,109456,1,0,0:0:0:0:
320,192,109490,1,0,0:0:0:0:
192,192,109490,1,0,0:0:0:0:
64,192,109524,1,0,0:0:0:0:
448,192,109592,1,0,0:0:0:0:
320,192,109626,1,0,0:0:0:0:
192,192,109660,1,0,0:0:0:0:
448,192,109728,1,0,0:0:0:0:
320,192,109762,1,0,0:0:0:0:
64,192,109762,1,0,0:0:0:0:
192,192,109797,1,0,0:0:0:0:
448,192,109865,1,0,0:0:0:0:
320,192,109899,1,0,0:0:0:0:
64,192,109933,1,0,0:0:0:0:
192,192,110001,1,0,0:0:0:0:
320,192,110035,1,0,0:0:0:0:
448,192,110035,1,0,0:0:0:0:
64,192,110069,1,0,0:0:0:0:
448,192,110137,1,0,0:0:0:0:
320,192,110172,1,0,0:0:0:0:
192,192,110172,1,0,0:0:0:0:
64,192,110206,1,0,0:0:0:0:
448,192,110274,1,0,0:0:0:0:
320,192,110308,1,0,0:0:0:0:
64,192,110342,1,0,0:0:0:0:
192,192,110410,1,0,0:0:0:0:
320,192,110444,1,0,0:0:0:0:
448,192,110444,1,0,0:0:0:0:
64,192,110478,1,0,0:0:0:0:
448,192,110547,1,0,0:0:0:0:
192,192,110581,1,0,0:0:0:0:
320,192,110615,1,0,0:0:0:0:
448,192,110683,1,0,0:0:0:0:
192,192,110717,1,0,0:0:0:0:
64,192,110717,1,0,0:0:0:0:
320,192,110751,1,0,0:0:0:0:
448,192,110819,1,0,0:0:0:0:
64,192,110853,1,0,0:0:0:0:
192,192,110887,1,0,0:0:0:0:
448,192,110956,1,0,0:0:0:0:
320,192,110990,1,0,0:0:0:0:
64,192,110990,1,0,0:0:0:0:
192,192,111024,1,0,0:0:0:0:
448,192,111092,1,0,0:0:0:0:
64,192,111126,1,0,0:0:0:0:
320,192,111160,1,0,0:0:0:0:
192,192,111228,1,0,0:0:0:0:
64,192,111262,1,0,0:0:0:0:
448,192,111262,1,0,0:0:0:0:
320,192,111297,1,0,0:0:0:0:
192,192,111365,1,0,0:0:0:0:
64,192,111399,1,0,0:0:0:0:
448,192,111433,1,0,0:0:0:0:
192,192,111501,1,0,0:0:0:0:
320,192,111535,1,0,0:0:0:0:
64,192,111535,1,0,0:0:0:0:
448,192,111569,1,0,0:0:0:0:
192,192,111637,1,0,0:0:0:0:
64,192,111672,1,0,0:0:0:0:
448,192,111706,1,0,0:0:0:0:
192,192,111774,1,0,0:0:0:0:
320,192,111808,1,0,0:0:0:0:
64,192,111808,1,0,0:0:0:0:
448,192,111842,1,0,0:0:0:0:
192,192,111910,1,0,0:0:0:0:
64,192,111944,1,0,0:0:0:0:
448,192,111944,1,0,0:0:0:0:
320,192,111978,1,0,0:0:0:0:
192,192,112047,1,0,0:0:0:0:
64,192,112081,1,0,0:0:0:0:
320,192,112115,1,0,0:0:0:0:
448,192,112183,1,0,0:0:0:0:
192,192,112217,1,0,0:0:0:0:
320,192,112251,1,0,0:0:0:0:
448,192,112319,1,0,0:0:0:0:
192,192,112353,1,0,0:0:0:0:
64,192,112387,1,0,0:0:0:0:
320,192,112456,1,0,0:0:0:0:
192,192,112490,1,0,0:0:0:0:
64,192,112524,1,0,0:0:0:0:
320,192,112592,1,0,0:0:0:0:
192,192,112626,1,0,0:0:0:0:
448,192,112660,1,0,0:0:0:0:
320,192,112728,1,0,0:0:0:0:
192,192,112762,1,0,0:0:0:0:
64,192,112797,1,0,0:0:0:0:
448,192,112797,1,0,0:0:0:0:
320,192,112865,1,0,0:0:0:0:
192,192,112899,1,0,0:0:0:0:
64,192,112933,1,0,0:0:0:0:
448,192,113001,1,0,0:0:0:0:
320,192,113035,1,0,0:0:0:0:
192,192,113035,1,0,0:0:0:0:
64,192,113069,1,0,0:0:0:0:
320,192,113137,1,0,0:0:0:0:
448,192,113171,1,0,0:0:0:0:
192,192,113206,1,0,0:0:0:0:
64,192,113274,1,0,0:0:0:0:
320,192,113308,1,0,0:0:0:0:
448,192,113308,1,0,0:0:0:0:
192,192,113342,1,0,0:0:0:0:
64,192,113410,1,0,0:0:0:0:
320,192,113444,1,0,0:0:0:0:
448,192,113478,1,0,0:0:0:0:
64,192,113546,1,0,0:0:0:0:
192,192,113581,1,0,0:0:0:0:
320,192,113581,1,0,0:0:0:0:
448,192,113615,1,0,0:0:0:0:
64,192,113683,1,0,0:0:0:0:
320,192,113717,1,0,0:0:0:0:
192,192,113751,1,0,0:0:0:0:
448,192,113819,1,0,0:0:0:0:
320,192,113853,1,0,0:0:0:0:
64,192,113853,1,0,0:0:0:0:
192,192,113887,1,0,0:0:0:0:
448,192,113956,1,0,0:0:0:0:
64,192,113990,1,0,0:0:0:0:
192,192,114024,1,0,0:0:0:0:
320,192,114092,1,0,0:0:0:0:
448,192,114126,1,0,0:0:0:0:
64,192,114126,1,0,0:0:0:0:
192,192,114160,1,0,0:0:0:0:
320,192,114228,1,0,0:0:0:0:
448,192,114262,1,0,0:0:0:0:
192,192,114296,1,0,0:0:0:0:
64,192,114365,1,0,0:0:0:0:
320,192,114365,1,0,0:0:0:0:
448,192,114399,1,0,0:0:0:0:
192,192,114433,1,0,0:0:0:0:
64,192,114501,1,0,0:0:0:0:
448,192,114535,1,0,0:0:0:0:
320,192,114535,1,0,0:0:0:0:
192,192,114569,1,0,0:0:0:0:
64,192,114637,1,0,0:0:0:0:
320,192,114671,1,0,0:0:0:0:
448,192,114706,1,0,0:0:0:0:
64,192,114774,1,0,0:0:0:0:
192,192,114808,1,0,0:0:0:0:
320,192,114808,1,0,0:0:0:0:
448,192,114842,1,0,0:0:0:0:
192,192,114910,1,0,0:0:0:0:
320,192,114944,1,0,0:0:0:0:
448,192,114978,1,0,0:0:0:0:
64,192,115046,1,0,0:0:0:0:
192,192,115081,1,0,0:0:0:0:
448,192,115115,1,0,0:0:0:0:
320,192,115183,1,0,0:0:0:0:
192,192,115217,1,0,0:0:0:0:
64,192,115217,1,0,0:0:0:0:
320,192,115285,1,0,0:0:0:0:
448,192,115285,1,0,0:0:0:0:
192,192,115353,1,0,0:0:0:0:
64,192,115353,1,0,0:0:0:0:
320,192,115421,1,0,0:0:0:0:
448,192,115421,1,0,0:0:0:0:
192,192,115490,1,0,0:0:0:0:
64,192,115490,1,0,0:0:0:0:
320,192,115558,1,0,0:0:0:0:
448,192,115558,1,0,0:0:0:0:
64,192,115626,1,0,0:0:0:0:
192,192,115626,1,0,0:0:0:0:
320,192,115694,1,0,0:0:0:0:
448,192,115694,1,0,0:0:0:0:
64,192,115762,1,0,0:0:0:0:
192,192,115762,1,0,0:0:0:0:
448,192,115831,1,0,0:0:0:0:
320,192,115831,1,0,0:0:0:0:
192,192,115899,1,0,0:0:0:0:
64,192,115899,1,0,0:0:0:0:
320,192,115967,1,0,0:0:0:0:
448,192,115967,1,0,0:0:0:0:
192,192,116035,1,0,0:0:0:0:
64,192,116035,1,0,0:0:0:0:
320,192,116103,1,0,0:0:0:0:
448,192,116103,1,0,0:0:0:0:
192,192,116171,1,0,0:0:0:0:
64,192,116171,1,0,0:0:0:0:
320,192,116240,1,0,0:0:0:0:
448,192,116240,1,0,0:0:0:0:
192,192,116308,1,0,0:0:0:0:
64,192,116308,1,0,0:0:0:0:
320,192,116580,1,0,0:0:0:0:
448,192,116580,1,0,0:0:0:0:
64,192,116853,1,0,0:0:0:0:
192,192,116853,1,0,0:0:0:0:
320,192,116853,1,0,0:0:0:0:
448,192,116853,1,0,0:0:0:0:
64,192,117126,1,0,0:0:0:0:
192,192,117126,1,0,0:0:0:0:
64,192,117262,1,0,0:0:0:0:
192,192,117262,1,0,0:0:0:0:
320,192,117262,1,0,0:0:0:0:
320,192,117399,1,0,0:0:0:0:
64,192,117399,1,0,0:0:0:0:
448,192,117399,1,0,0:0:0:0:
192,192,117535,1,0,0:0:0:0:
448,192,117535,1,0,0:0:0:0:
64,192,117671,1,0,0:0:0:0:
448,192,117671,1,0,0:0:0:0:
320,192,117808,1,0,0:0:0:0:
448,192,117808,1,0,0:0:0:0:
192,192,117944,1,0,0:0:0:0:
448,192,117944,1,0,0:0:0:0:
64,192,117944,1,0,0:0:0:0:
320,192,117944,1,0,0:0:0:0:
448,192,118080,1,0,0:0:0:0:
192,192,118080,1,0,0:0:0:0:
448,192,118217,1,0,0:0:0:0:
320,192,118217,1,0,0:0:0:0:
64,192,118217,1,0,0:0:0:0:
192,192,118353,1,0,0:0:0:0:
320,192,118353,1,0,0:0:0:0:
64,192,118490,1,0,0:0:0:0:
192,192,118490,1,0,0:0:0:0:
448,192,118490,1,0,0:0:0:0:
320,192,118762,1,0,0:0:0:0:
448,192,118762,1,0,0:0:0:0:
64,192,119035,1,0,0:0:0:0:
192,192,119035,1,0,0:0:0:0:
320,192,119035,1,0,0:0:0:0:
448,192,119035,1,0,0:0:0:0:
64,192,119308,1,0,0:0:0:0:
320,192,119308,1,0,0:0:0:0:
64,192,119444,1,0,0:0:0:0:
320,192,119444,1,0,0:0:0:0:
448,192,119444,1,0,0:0:0:0:
64,192,119580,1,0,0:0:0:0:
320,192,119580,1,0,0:0:0:0:
448,192,119580,1,0,0:0:0:0:
192,192,119717,1,0,0:0:0:0:
320,192,119717,1,0,0:0:0:0:
64,192,119853,1,0,0:0:0:0:
320,192,119853,1,0,0:0:0:0:
448,192,119989,1,0,0:0:0:0:
320,192,119989,1,0,0:0:0:0:
320,192,120126,1,0,0:0:0:0:
192,192,120126,1,0,0:0:0:0:
64,192,120126,1,0,0:0:0:0:
448,192,120126,1,0,0:0:0:0:
320,192,120262,1,0,0:0:0:0:
64,192,120399,1,0,0:0:0:0:
320,192,120399,1,0,0:0:0:0:
192,192,120535,1,0,0:0:0:0:
320,192,120535,1,0,0:0:0:0:
320,192,120671,1,0,0:0:0:0:
448,192,120671,1,0,0:0:0:0:
64,192,120671,1,0,0:0:0:0:
64,192,120944,1,0,0:0:0:0:
320,192,120944,1,0,0:0:0:0:
320,192,121217,1,0,0:0:0:0:
448,192,121217,1,0,0:0:0:0:
192,192,121217,1,0,0:0:0:0:
64,192,121217,1,0,0:0:0:0:
320,192,121489,1,0,0:0:0:0:
192,192,121489,1,0,0:0:0:0:
64,192,121626,1,0,0:0:0:0:
320,192,121626,1,0,0:0:0:0:
448,192,121626,1,0,0:0:0:0:
448,192,121762,1,0,0:0:0:0:
320,192,121762,1,0,0:0:0:0:
64,192,121762,1,0,0:0:0:0:
448,192,121899,1,0,0:0:0:0:
192,192,121899,1,0,0:0:0:0:
320,192,122035,1,0,0:0:0:0:
448,192,122035,1,0,0:0:0:0:
64,192,122171,1,0,0:0:0:0:
448,192,122171,1,0,0:0:0:0:
320,192,122308,1,0,0:0:0:0:
448,192,122308,1,0,0:0:0:0:
192,192,122308,1,0,0:0:0:0:
64,192,122308,1,0,0:0:0:0:
448,192,122444,1,0,0:0:0:0:
192,192,122444,1,0,0:0:0:0:
448,192,122580,1,0,0:0:0:0:
320,192,122580,1,0,0:0:0:0:
448,192,122717,1,0,0:0:0:0:
64,192,122717,1,0,0:0:0:0:
320,192,122853,1,0,0:0:0:0:
448,192,122853,1,0,0:0:0:0:
192,192,122853,1,0,0:0:0:0:
64,192,123126,1,0,0:0:0:0:
192,192,123126,1,0,0:0:0:0:
320,192,123398,1,0,0:0:0:0:
448,192,123398,1,0,0:0:0:0:
64,192,123398,1,0,0:0:0:0:
192,192,123398,1,0,0:0:0:0:
448,192,123535,1,0,0:0:0:0:
320,192,123671,1,0,0:0:0:0:
448,192,123671,1,0,0:0:0:0:
64,192,123808,1,0,0:0:0:0:
192,192,123808,1,0,0:0:0:0:
320,192,123808,1,0,0:0:0:0:
64,192,123944,1,0,0:0:0:0:
192,192,123944,1,0,0:0:0:0:
448,192,124012,1,0,0:0:0:0:
320,192,124012,1,0,0:0:0:0:
192,192,124080,1,0,0:0:0:0:
64,192,124080,1,0,0:0:0:0:
320,192,124148,1,0,0:0:0:0:
448,192,124148,1,0,0:0:0:0:
192,192,124217,1,0,0:0:0:0:
64,192,124217,1,0,0:0:0:0:
320,192,124285,1,0,0:0:0:0:
448,192,124285,1,0,0:0:0:0:
192,192,124353,1,0,0:0:0:0:
64,192,124353,1,0,0:0:0:0:
320,192,124421,1,0,0:0:0:0:
448,192,124421,1,0,0:0:0:0:
64,192,124489,1,0,0:0:0:0:
64,192,124762,1,0,0:0:0:0:
192,192,124762,1,0,0:0:0:0:
320,192,124762,1,0,0:0:0:0:
448,192,125035,1,0,0:0:0:0:
320,192,125035,1,0,0:0:0:0:
64,192,125035,1,0,0:0:0:0:
192,192,125069,1,0,0:0:0:0:
320,192,125137,1,0,0:0:0:0:
448,192,125171,1,0,0:0:0:0:
64,192,125308,1,0,0:0:0:0:
192,192,125308,1,0,0:0:0:0:
320,192,125580,1,0,0:0:0:0:
448,192,125580,1,0,0:0:0:0:
192,192,125580,1,0,0:0:0:0:
64,192,125580,1,0,0:0:0:0:
64,192,125717,1,0,0:0:0:0:
320,192,125717,1,0,0:0:0:0:
64,192,125853,1,0,0:0:0:0:
192,192,125853,1,0,0:0:0:0:
64,192,125989,1,0,0:0:0:0:
448,192,125989,1,0,0:0:0:0:
320,192,125989,1,0,0:0:0:0:
64,192,126126,1,0,0:0:0:0:
192,192,126126,1,0,0:0:0:0:
448,192,126126,1,0,0:0:0:0:
64,192,126262,1,0,0:0:0:0:
320,192,126398,1,0,0:0:0:0:
448,192,126398,1,0,0:0:0:0:
64,192,126398,1,0,0:0:0:0:
192,192,126535,1,0,0:0:0:0:
192,192,126671,1,0,0:0:0:0:
64,192,126671,1,0,0:0:0:0:
448,192,126671,1,0,0:0:0:0:
320,192,126944,1,0,0:0:0:0:
448,192,126944,1,0,0:0:0:0:
64,192,126944,1,0,0:0:0:0:
64,192,127217,1,0,0:0:0:0:
192,192,127217,1,0,0:0:0:0:
448,192,127217,1,0,0:0:0:0:
320,192,127251,1,0,0:0:0:0:
192,192,127319,1,0,0:0:0:0:
64,192,127353,1,0,0:0:0:0:
320,192,127489,1,0,0:0:0:0:
448,192,127489,1,0,0:0:0:0:
64,192,127762,1,0,0:0:0:0:
192,192,127762,1,0,0:0:0:0:
320,192,127762,1,0,0:0:0:0:
448,192,127762,1,0,0:0:0:0:
320,192,127898,1,0,0:0:0:0:
64,192,127898,1,0,0:0:0:0:
192,192,128035,1,0,0:0:0:0:
320,192,128035,1,0,0:0:0:0:
320,192,128171,1,0,0:0:0:0:
64,192,128171,1,0,0:0:0:0:
448,192,128171,1,0,0:0:0:0:
320,192,128307,1,0,0:0:0:0:
448,192,128307,1,0,0:0:0:0:
192,192,128307,1,0,0:0:0:0:
320,192,128444,1,0,0:0:0:0:
64,192,128444,1,0,0:0:0:0:
64,192,128580,1,0,0:0:0:0:
448,192,128580,1,0,0:0:0:0:
320,192,128580,1,0,0:0:0:0:
192,192,128717,1,0,0:0:0:0:
192,192,128853,1,0,0:0:0:0:
320,192,128853,1,0,0:0:0:0:
448,192,128853,1,0,0:0:0:0:
64,192,128853,1,0,0:0:0:0:
64,192,129126,1,0,0:0:0:0:
192,192,129126,1,0,0:0:0:0:
320,192,129126,1,0,0:0:0:0:
320,192,129398,1,0,0:0:0:0:
448,192,129398,1,0,0:0:0:0:
192,192,129398,1,0,0:0:0:0:
64,192,129432,1,0,0:0:0:0:
192,192,129501,1,0,0:0:0:0:
320,192,129535,1,0,0:0:0:0:
448,192,129569,1,0,0:0:0:0:
64,192,129671,1,0,0:0:0:0:
192,192,129671,1,0,0:0:0:0:
320,192,129944,1,0,0:0:0:0:
448,192,129944,1,0,0:0:0:0:
192,192,129944,1,0,0:0:0:0:
64,192,129944,1,0,0:0:0:0:
448,192,130080,1,0,0:0:0:0:
192,192,130080,1,0,0:0:0:0:
448,192,130216,1,0,0:0:0:0:
320,192,130216,1,0,0:0:0:0:
448,192,130353,1,0,0:0:0:0:
192,192,130353,1,0,0:0:0:0:
64,192,130353,1,0,0:0:0:0:
448,192,130489,1,0,0:0:0:0:
320,192,130489,1,0,0:0:0:0:
64,192,130489,1,0,0:0:0:0:
448,192,130626,1,0,0:0:0:0:
320,192,130762,1,0,0:0:0:0:
448,192,130762,1,0,0:0:0:0:
192,192,130762,1,0,0:0:0:0:
64,192,130898,1,0,0:0:0:0:
64,192,131035,1,0,0:0:0:0:
192,192,131035,1,0,0:0:0:0:
320,192,131035,1,0,0:0:0:0:
448,192,131035,1,0,0:0:0:0:
320,192,131307,1,0,0:0:0:0:
64,192,131307,1,0,0:0:0:0:
192,192,131307,1,0,0:0:0:0:
64,192,131444,1,0,0:0:0:0:
64,192,131580,1,0,0:0:0:0:
320,192,131580,1,0,0:0:0:0:
192,192,131580,1,0,0:0:0:0:
320,192,131716,1,0,0:0:0:0:
192,192,131853,1,0,0:0:0:0:
320,192,131853,1,0,0:0:0:0:
448,192,131853,1,0,0:0:0:0:
192,192,131989,1,0,0:0:0:0:
64,192,132126,1,0,0:0:0:0:
192,192,132126,1,0,0:0:0:0:
320,192,132126,1,0,0:0:0:0:
448,192,132126,1,0,0:0:0:0:
320,192,132398,1,0,0:0:0:0:
448,192,132398,1,0,0:0:0:0:
64,192,132535,1,0,0:0:0:0:
192,192,132603,1,0,0:0:0:0:
320,192,132671,1,0,0:0:0:0:
448,192,132671,1,0,0:0:0:0:
192,192,132739,1,0,0:0:0:0:
64,192,132739,1,0,0:0:0:0:
320,192,132807,1,0,0:0:0:0:
448,192,132807,1,0,0:0:0:0:
64,192,132876,1,0,0:0:0:0:
192,192,132876,1,0,0:0:0:0:
320,192,132944,1,0,0:0:0:0:
448,192,132944,1,0,0:0:0:0:
192,192,133012,1,0,0:0:0:0:
64,192,133012,1,0,0:0:0:0:
320,192,133080,1,0,0:0:0:0:
448,192,133080,1,0,0:0:0:0:
192,192,133148,1,0,0:0:0:0:
64,192,133148,1,0,0:0:0:0:
320,192,133216,1,0,0:0:0:0:
448,192,133216,1,0,0:0:0:0:
192,192,133285,1,0,0:0:0:0:
64,192,133285,1,0,0:0:0:0:
320,192,133353,1,0,0:0:0:0:
448,192,133353,1,0,0:0:0:0:
192,192,133421,1,0,0:0:0:0:
64,192,133421,1,0,0:0:0:0:
320,192,133489,1,0,0:0:0:0:
448,192,133489,1,0,0:0:0:0:
64,192,133557,1,0,0:0:0:0:
192,192,133557,1,0,0:0:0:0:
320,192,133625,1,0,0:0:0:0:
448,192,133625,1,0,0:0:0:0:
192,192,133694,1,0,0:0:0:0:
64,192,133694,1,0,0:0:0:0:
320,192,133762,1,0,0:0:0:0:
448,192,133762,1,0,0:0:0:0:
192,192,133796,1,0,0:0:0:0:
64,192,133864,1,0,0:0:0:0:
320,192,133898,1,0,0:0:0:0:
192,192,133932,1,0,0:0:0:0:
64,192,134000,1,0,0:0:0:0:
448,192,134035,1,0,0:0:0:0:
192,192,134069,1,0,0:0:0:0:
320,192,134137,1,0,0:0:0:0:
64,192,134171,1,0,0:0:0:0:
448,192,134205,1,0,0:0:0:0:
192,192,134273,1,0,0:0:0:0:
64,192,134307,1,0,0:0:0:0:
448,192,134341,1,0,0:0:0:0:
192,192,134410,1,0,0:0:0:0:
320,192,134444,1,0,0:0:0:0:
448,192,134478,1,0,0:0:0:0:
192,192,134546,1,0,0:0:0:0:
64,192,134580,1,0,0:0:0:0:
448,192,134614,1,0,0:0:0:0:
320,192,134682,1,0,0:0:0:0:
192,192,134716,1,0,0:0:0:0:
64,192,134750,1,0,0:0:0:0:
320,192,134819,1,0,0:0:0:0:
192,192,134853,1,0,0:0:0:0:
448,192,134887,1,0,0:0:0:0:
320,192,134955,1,0,0:0:0:0:
64,192,134989,1,0,0:0:0:0:
320,192,135023,1,0,0:0:0:0:
192,192,135091,1,0,0:0:0:0:
64,192,135125,1,0,0:0:0:0:
320,192,135160,1,0,0:0:0:0:
192,192,135228,1,0,0:0:0:0:
64,192,135262,1,0,0:0:0:0:
448,192,135296,1,0,0:0:0:0:
320,192,135296,1,0,0:0:0:0:
192,192,135364,1,0,0:0:0:0:
64,192,135398,1,0,0:0:0:0:
320,192,135432,1,0,0:0:0:0:
448,192,135500,1,0,0:0:0:0:
64,192,135535,1,0,0:0:0:0:
192,192,135535,1,0,0:0:0:0:
320,192,135569,1,0,0:0:0:0:
448,192,135637,1,0,0:0:0:0:
64,192,135671,1,0,0:0:0:0:
320,192,135705,1,0,0:0:0:0:
192,192,135773,1,0,0:0:0:0:
64,192,135807,1,0,0:0:0:0:
448,192,135807,1,0,0:0:0:0:
320,192,135841,1,0,0:0:0:0:
192,192,135910,1,0,0:0:0:0:
64,192,135944,1,0,0:0:0:0:
448,192,135978,1,0,0:0:0:0:
320,192,136046,1,0,0:0:0:0:
192,192,136080,1,0,0:0:0:0:
64,192,136114,1,0,0:0:0:0:
320,192,136182,1,0,0:0:0:0:
192,192,136216,1,0,0:0:0:0:
448,192,136250,1,0,0:0:0:0:
320,192,136319,1,0,0:0:0:0:
192,192,136353,1,0,0:0:0:0:
64,192,136387,1,0,0:0:0:0:
320,192,136455,1,0,0:0:0:0:
192,192,136489,1,0,0:0:0:0:
448,192,136523,1,0,0:0:0:0:
320,192,136591,1,0,0:0:0:0:
192,192,136625,1,0,0:0:0:0:
64,192,136660,1,0,0:0:0:0:
320,192,136728,1,0,0:0:0:0:
192,192,136762,1,0,0:0:0:0:
64,192,136796,1,0,0:0:0:0:
448,192,136864,1,0,0:0:0:0:
192,192,136898,1,0,0:0:0:0:
320,192,136932,1,0,0:0:0:0:
64,192,137000,1,0,0:0:0:0:
192,192,137034,1,0,0:0:0:0:
320,192,137069,1,0,0:0:0:0:
448,192,137137,1,0,0:0:0:0:
192,192,137171,1,0,0:0:0:0:
320,192,137205,1,0,0:0:0:0:
64,192,137273,1,0,0:0:0:0:
192,192,137307,1,0,0:0:0:0:
320,192,137341,1,0,0:0:0:0:
448,192,137409,1,0,0:0:0:0:
192,192,137444,1,0,0:0:0:0:
320,192,137478,1,0,0:0:0:0:
64,192,137546,1,0,0:0:0:0:
192,192,137580,1,0,0:0:0:0:
320,192,137614,1,0,0:0:0:0:
448,192,137682,1,0,0:0:0:0:
192,192,137716,1,0,0:0:0:0:
320,192,137750,1,0,0:0:0:0:
64,192,137819,1,0,0:0:0:0:
192,192,137853,1,0,0:0:0:0:
320,192,137887,1,0,0:0:0:0:
448,192,137955,1,0,0:0:0:0:
192,192,137989,1,0,0:0:0:0:
64,192,138023,1,0,0:0:0:0:
448,192,138091,1,0,0:0:0:0:
320,192,138125,1,0,0:0:0:0:
192,192,138125,1,0,0:0:0:0:
64,192,138159,1,0,0:0:0:0:
448,192,138228,1,0,0:0:0:0:
320,192,138262,1,0,0:0:0:0:
192,192,138296,1,0,0:0:0:0:
64,192,138364,1,0,0:0:0:0:
320,192,138398,1,0,0:0:0:0:
448,192,138398,1,0,0:0:0:0:
192,192,138432,1,0,0:0:0:0:
64,192,138500,1,0,0:0:0:0:
320,192,138534,1,0,0:0:0:0:
448,192,138569,1,0,0:0:0:0:
192,192,138637,1,0,0:0:0:0:
64,192,138671,1,0,0:0:0:0:
320,192,138671,1,0,0:0:0:0:
448,192,138705,1,0,0:0:0:0:
192,192,138773,1,0,0:0:0:0:
64,192,138807,1,0,0:0:0:0:
448,192,138841,1,0,0:0:0:0:
320,192,138909,1,0,0:0:0:0:
192,192,138944,1,0,0:0:0:0:
64,192,138944,1,0,0:0:0:0:
448,192,138978,1,0,0:0:0:0:
320,192,139046,1,0,0:0:0:0:
192,192,139080,1,0,0:0:0:0:
64,192,139114,1,0,0:0:0:0:
448,192,139182,1,0,0:0:0:0:
192,192,139216,1,0,0:0:0:0:
320,192,139216,1,0,0:0:0:0:
64,192,139250,1,0,0:0:0:0:
320,192,139319,1,0,0:0:0:0:
448,192,139353,1,0,0:0:0:0:
192,192,139387,1,0,0:0:0:0:
320,192,139455,1,0,0:0:0:0:
448,192,139489,1,0,0:0:0:0:
192,192,139523,1,0,0:0:0:0:
64,192,139591,1,0,0:0:0:0:
320,192,139625,1,0,0:0:0:0:
448,192,139625,1,0,0:0:0:0:
192,192,139659,1,0,0:0:0:0:
64,192,139728,1,0,0:0:0:0:
320,192,139762,1,0,0:0:0:0:
448,192,139762,1,0,0:0:0:0:
192,192,139796,1,0,0:0:0:0:
448,192,139864,1,0,0:0:0:0:
64,192,139898,1,0,0:0:0:0:
320,192,139898,1,0,0:0:0:0:
192,192,139932,1,0,0:0:0:0:
448,192,140000,1,0,0:0:0:0:
320,192,140034,1,0,0:0:0:0:
192,192,140069,1,0,0:0:0:0:
64,192,140137,1,0,0:0:0:0:
320,192,140171,1,0,0:0:0:0:
192,192,140205,1,0,0:0:0:0:
64,192,140273,1,0,0:0:0:0:
320,192,140307,1,0,0:0:0:0:
448,192,140307,1,0,0:0:0:0:
192,192,140341,1,0,0:0:0:0:
64,192,140409,1,0,0:0:0:0:
320,192,140443,1,0,0:0:0:0:
192,192,140478,1,0,0:0:0:0:
64,192,140546,1,0,0:0:0:0:
320,192,140580,1,0,0:0:0:0:
192,192,140614,1,0,0:0:0:0:
448,192,140682,1,0,0:0:0:0:
320,192,140716,1,0,0:0:0:0:
192,192,140750,1,0,0:0:0:0:
64,192,140818,1,0,0:0:0:0:
320,192,140853,1,0,0:0:0:0:
192,192,140887,1,0,0:0:0:0:
448,192,140955,1,0,0:0:0:0:
320,192,140989,1,0,0:0:0:0:
192,192,141023,1,0,0:0:0:0:
64,192,141091,1,0,0:0:0:0:
320,192,141125,1,0,0:0:0:0:
192,192,141159,1,0,0:0:0:0:
64,192,141228,1,0,0:0:0:0:
320,192,141262,1,0,0:0:0:0:
192,192,141296,1,0,0:0:0:0:
448,192,141364,1,0,0:0:0:0:
320,192,141398,1,0,0:0:0:0:
64,192,141398,1,0,0:0:0:0:
192,192,141432,1,0,0:0:0:0:
448,192,141500,1,0,0:0:0:0:
64,192,141534,1,0,0:0:0:0:
192,192,141568,1,0,0:0:0:0:
320,192,141637,1,0,0:0:0:0:
448,192,141671,1,0,0:0:0:0:
64,192,141671,1,0,0:0:0:0:
192,192,141705,1,0,0:0:0:0:
320,192,141773,1,0,0:0:0:0:
448,192,141807,1,0,0:0:0:0:
192,192,141841,1,0,0:0:0:0:
64,192,141909,1,0,0:0:0:0:
320,192,141943,1,0,0:0:0:0:
448,192,141943,1,0,0:0:0:0:
192,192,141978,1,0,0:0:0:0:
64,192,142046,1,0,0:0:0:0:
448,192,142080,1,0,0:0:0:0:
192,192,142114,1,0,0:0:0:0:
320,192,142182,1,0,0:0:0:0:
448,192,142216,1,0,0:0:0:0:
192,192,142250,1,0,0:0:0:0:
64,192,142318,1,0,0:0:0:0:
320,192,142353,1,0,0:0:0:0:
448,192,142353,1,0,0:0:0:0:
192,192,142387,1,0,0:0:0:0:
64,192,142455,1,0,0:0:0:0:
448,192,142489,1,0,0:0:0:0:
320,192,142523,1,0,0:0:0:0:
64,192,142591,1,0,0:0:0:0:
192,192,142625,1,0,0:0:0:0:
448,192,142625,1,0,0:0:0:0:
320,192,142659,1,0,0:0:0:0:
64,192,142728,1,0,0:0:0:0:
192,192,142762,1,0,0:0:0:0:
320,192,142796,1,0,0:0:0:0:
448,192,142864,1,0,0:0:0:0:
192,192,142898,1,0,0:0:0:0:
320,192,142932,1,0,0:0:0:0:
448,192,143000,1,0,0:0:0:0:
64,192,143034,1,0,0:0:0:0:
320,192,143068,1,0,0:0:0:0:
192,192,143137,1,0,0:0:0:0:
64,192,143171,1,0,0:0:0:0:
448,192,143205,1,0,0:0:0:0:
192,192,143273,1,0,0:0:0:0:
320,192,143307,1,0,0:0:0:0:
448,192,143341,1,0,0:0:0:0:
64,192,143341,1,0,0:0:0:0:
192,192,143409,1,0,0:0:0:0:
320,192,143443,1,0,0:0:0:0:
64,192,143478,1,0,0:0:0:0:
448,192,143546,1,0,0:0:0:0:
320,192,143580,1,0,0:0:0:0:
192,192,143580,1,0,0:0:0:0:
64,192,143614,1,0,0:0:0:0:
320,192,143682,1,0,0:0:0:0:
448,192,143716,1,0,0:0:0:0:
192,192,143750,1,0,0:0:0:0:
64,192,143818,1,0,0:0:0:0:
320,192,143852,1,0,0:0:0:0:
448,192,143887,1,0,0:0:0:0:
192,192,143955,1,0,0:0:0:0:
64,192,143989,1,0,0:0:0:0:
320,192,143989,1,0,0:0:0:0:
448,192,144023,1,0,0:0:0:0:
192,192,144091,1,0,0:0:0:0:
320,192,144125,1,0,0:0:0:0:
448,192,144159,1,0,0:0:0:0:
192,192,144227,1,0,0:0:0:0:
64,192,144262,1,0,0:0:0:0:
320,192,144262,1,0,0:0:0:0:
448,192,144296,1,0,0:0:0:0:
192,192,144364,1,0,0:0:0:0:
64,192,144398,1,0,0:0:0:0:
320,192,144432,1,0,0:0:0:0:
192,192,144500,1,0,0:0:0:0:
64,192,144534,1,0,0:0:0:0:
448,192,144568,1,0,0:0:0:0:
320,192,144637,1,0,0:0:0:0:
192,192,144671,1,0,0:0:0:0:
64,192,144671,1,0,0:0:0:0:
448,192,144705,1,0,0:0:0:0:
320,192,144773,1,0,0:0:0:0:
192,192,144807,1,0,0:0:0:0:
64,192,144841,1,0,0:0:0:0:
320,192,144909,1,0,0:0:0:0:
192,192,144943,1,0,0:0:0:0:
448,192,144977,1,0,0:0:0:0:
320,192,145046,1,0,0:0:0:0:
192,192,145080,1,0,0:0:0:0:
64,192,145114,1,0,0:0:0:0:
320,192,145182,1,0,0:0:0:0:
192,192,145216,1,0,0:0:0:0:
64,192,145250,1,0,0:0:0:0:
448,192,145318,1,0,0:0:0:0:
192,192,145352,1,0,0:0:0:0:
320,192,145387,1,0,0:0:0:0:
64,192,145455,1,0,0:0:0:0:
192,192,145489,1,0,0:0:0:0:
320,192,145523,1,0,0:0:0:0:
448,192,145591,1,0,0:0:0:0:
192,192,145625,1,0,0:0:0:0:
320,192,145659,1,0,0:0:0:0:
64,192,145727,1,0,0:0:0:0:
448,192,145762,1,0,0:0:0:0:
192,192,145762,1,0,0:0:0:0:
320,192,145796,1,0,0:0:0:0:
64,192,145864,1,0,0:0:0:0:
448,192,145898,1,0,0:0:0:0:
320,192,145932,1,0,0:0:0:0:
192,192,146000,1,0,0:0:0:0:
64,192,146034,1,0,0:0:0:0:
320,192,146068,1,0,0:0:0:0:
192,192,146137,1,0,0:0:0:0:
448,192,146171,1,0,0:0:0:0:
64,192,146205,1,0,0:0:0:0:
320,192,146273,1,0,0:0:0:0:
192,192,146307,1,0,0:0:0:0:
64,192,146341,1,0,0:0:0:0:
320,192,146409,1,0,0:0:0:0:
192,192,146443,1,0,0:0:0:0:
448,192,146477,1,0,0:0:0:0:
320,192,146546,1,0,0:0:0:0:
64,192,146580,1,0,0:0:0:0:
448,192,146614,1,0,0:0:0:0:
320,192,146682,1,0,0:0:0:0:
192,192,146716,1,0,0:0:0:0:
64,192,146750,1,0,0:0:0:0:
448,192,146818,1,0,0:0:0:0:
320,192,146852,1,0,0:0:0:0:
192,192,146852,1,0,0:0:0:0:
64,192,146887,1,0,0:0:0:0:
448,192,146955,1,0,0:0:0:0:
320,192,146989,1,0,0:0:0:0:
192,192,147023,1,0,0:0:0:0:
64,192,147091,1,0,0:0:0:0:
448,192,147091,1,0,0:0:0:0:
320,192,147125,1,0,0:0:0:0:
192,192,147159,1,0,0:0:0:0:
64,192,147227,1,0,0:0:0:0:
448,192,147227,1,0,0:0:0:0:
320,192,147261,1,0,0:0:0:0:
192,192,147296,1,0,0:0:0:0:
64,192,147364,1,0,0:0:0:0:
448,192,147364,1,0,0:0:0:0:
320,192,147398,1,0,0:0:0:0:
192,192,147432,1,0,0:0:0:0:
64,192,147500,1,0,0:0:0:0:
448,192,147500,1,0,0:0:0:0:
320,192,147534,1,0,0:0:0:0:
192,192,147568,1,0,0:0:0:0:
64,192,147636,1,0,0:0:0:0:
448,192,147636,1,0,0:0:0:0:
320,192,147671,1,0,0:0:0:0:
192,192,147705,1,0,0:0:0:0:
64,192,147773,1,0,0:0:0:0:
448,192,147773,1,0,0:0:0:0:
320,192,147807,1,0,0:0:0:0:
192,192,147841,1,0,0:0:0:0:
64,192,147909,1,0,0:0:0:0:
448,192,147909,1,0,0:0:0:0:
320,192,147943,1,0,0:0:0:0:
192,192,147977,1,0,0:0:0:0:
64,192,148046,1,0,0:0:0:0:
448,192,148046,1,0,0:0:0:0:
320,192,148080,1,0,0:0:0:0:
192,192,148114,1,0,0:0:0:0:
64,192,148182,1,0,0:0:0:0:
448,192,148182,1,0,0:0:0:0:
320,192,148216,1,0,0:0:0:0:
192,192,148250,1,0,0:0:0:0:
64,192,148318,1,0,0:0:0:0:
448,192,148318,1,0,0:0:0:0:
320,192,148352,1,0,0:0:0:0:
192,192,148386,1,0,0:0:0:0:
64,192,148455,1,0,0:0:0:0:
448,192,148455,1,0,0:0:0:0:
320,192,148489,1,0,0:0:0:0:
192,192,148523,1,0,0:0:0:0:
64,192,148591,1,0,0:0:0:0:
448,192,148591,1,0,0:0:0:0:
320,192,148625,1,0,0:0:0:0:
192,192,148659,1,0,0:0:0:0:
64,192,148727,1,0,0:0:0:0:
448,192,148761,1,0,0:0:0:0:
192,192,148761,1,0,0:0:0:0:
320,192,148796,1,0,0:0:0:0:
64,192,148864,1,0,0:0:0:0:
192,192,148898,1,0,0:0:0:0:
320,192,148932,1,0,0:0:0:0:
448,192,149000,1,0,0:0:0:0:
64,192,149000,1,0,0:0:0:0:
192,192,149034,1,0,0:0:0:0:
320,192,149034,1,0,0:0:0:0:
448,192,149068,1,0,0:0:0:0:
64,192,149136,1,0,0:0:0:0:
320,192,149171,1,0,0:0:0:0:
192,192,149205,1,0,0:0:0:0:
64,192,149273,1,0,0:0:0:0:
448,192,149273,1,0,0:0:0:0:
320,192,149307,1,0,0:0:0:0:
192,192,149341,1,0,0:0:0:0:
64,192,149409,1,0,0:0:0:0:
448,192,149409,1,0,0:0:0:0:
320,192,149443,1,0,0:0:0:0:
192,192,149477,1,0,0:0:0:0:
64,192,149546,1,0,0:0:0:0:
448,192,149546,1,0,0:0:0:0:
320,192,149580,1,0,0:0:0:0:
192,192,149614,1,0,0:0:0:0:
64,192,149682,1,0,0:0:0:0:
448,192,149682,1,0,0:0:0:0:
320,192,149716,1,0,0:0:0:0:
192,192,149750,1,0,0:0:0:0:
64,192,149818,1,0,0:0:0:0:
448,192,149818,1,0,0:0:0:0:
320,192,149852,1,0,0:0:0:0:
192,192,149886,1,0,0:0:0:0:
64,192,149955,1,0,0:0:0:0:
448,192,149955,1,0,0:0:0:0:
320,192,149989,1,0,0:0:0:0:
192,192,150023,1,0,0:0:0:0:
64,192,150091,1,0,0:0:0:0:
192,192,150125,1,0,0:0:0:0:
448,192,150125,1,0,0:0:0:0:
320,192,150193,1,0,0:0:0:0:
64,192,150193,1,0,0:0:0:0:
192,192,150261,1,0,0:0:0:0:
64,192,150261,1,0,0:0:0:0:
320,192,150330,1,0,0:0:0:0:
448,192,150330,1,0,0:0:0:0:
448,192,150398,1,0,0:0:0:0:
64,192,150398,1,0,0:0:0:0:
64,192,150466,1,0,0:0:0:0:
320,192,150466,1,0,0:0:0:0:
192,192,150534,1,0,0:0:0:0:
448,192,150534,1,0,0:0:0:0:
64,192,150602,1,0,0:0:0:0:
448,192,150602,1,0,0:0:0:0:
192,192,150670,1,0,0:0:0:0:
320,192,150670,1,0,0:0:0:0:
320,192,150739,1,0,0:0:0:0:
64,192,150739,1,0,0:0:0:0:
192,192,150807,1,0,0:0:0:0:
448,192,150807,1,0,0:0:0:0:
192,192,150875,1,0,0:0:0:0:
448,192,150875,1,0,0:0:0:0:
448,192,150943,1,0,0:0:0:0:
192,192,150943,1,0,0:0:0:0:
64,192,151011,1,0,0:0:0:0:
320,192,151011,1,0,0:0:0:0:
64,192,151080,1,0,0:0:0:0:
320,192,151080,1,0,0:0:0:0:
64,192,151148,1,0,0:0:0:0:
320,192,151148,1,0,0:0:0:0:
192,192,151216,1,0,0:0:0:0:
320,192,151216,1,0,0:0:0:0:
448,192,151216,1,0,0:0:0:0:
64,192,151216,1,0,0:0:0:0:
192,192,151352,1,0,0:0:0:0:
192,192,151489,1,0,0:0:0:0:
192,192,151625,1,0,0:0:0:0:
320,192,151761,1,0,0:0:0:0:
448,192,151761,1,0,0:0:0:0:
64,192,151761,1,0,0:0:0:0:
192,192,151761,1,0,0:0:0:0:
448,192,151898,1,0,0:0:0:0:
448,192,152034,1,0,0:0:0:0:
64,192,152170,1,0,0:0:0:0:
320,192,152170,1,0,0:0:0:0:
64,192,152307,1,0,0:0:0:0:
192,192,152307,1,0,0:0:0:0:
320,192,152307,1,0,0:0:0:0:
448,192,152443,1,0,0:0:0:0:
320,192,152511,1,0,0:0:0:0:
192,192,152580,1,0,0:0:0:0:
64,192,152580,1,0,0:0:0:0:
64,192,152716,1,0,0:0:0:0:
320,192,152716,1,0,0:0:0:0:
192,192,152852,1,0,0:0:0:0:
320,192,152852,1,0,0:0:0:0:
448,192,152852,1,0,0:0:0:0:
64,192,152852,1,0,0:0:0:0:
192,192,152989,1,0,0:0:0:0:
320,192,153057,1,0,0:0:0:0:
448,192,153125,1,0,0:0:0:0:
192,192,153125,1,0,0:0:0:0:
64,192,153125,1,0,0:0:0:0:
320,192,153261,1,0,0:0:0:0:
448,192,153261,1,0,0:0:0:0:
64,192,153398,1,0,0:0:0:0:
192,192,153398,1,0,0:0:0:0:
448,192,153398,1,0,0:0:0:0:
64,192,153534,1,0,0:0:0:0:
64,192,153670,1,0,0:0:0:0:
64,192,153807,1,0,0:0:0:0:
64,192,153943,1,0,0:0:0:0:
192,192,153943,1,0,0:0:0:0:
320,192,153943,1,0,0:0:0:0:
448,192,153943,1,0,0:0:0:0:
320,192,154079,1,0,0:0:0:0:
320,192,154216,1,0,0:0:0:0:
192,192,154352,1,0,0:0:0:0:
64,192,154352,1,0,0:0:0:0:
64,192,154489,1,0,0:0:0:0:
192,192,154489,1,0,0:0:0:0:
320,192,154489,1,0,0:0:0:0:
192,192,154625,1,0,0:0:0:0:
320,192,154693,1,0,0:0:0:0:
448,192,154761,1,0,0:0:0:0:
64,192,154761,1,0,0:0:0:0:
64,192,154898,1,0,0:0:0:0:
320,192,154898,1,0,0:0:0:0:
320,192,155034,1,0,0:0:0:0:
448,192,155034,1,0,0:0:0:0:
192,192,155034,1,0,0:0:0:0:
64,192,155034,1,0,0:0:0:0:
192,192,155170,1,0,0:0:0:0:
320,192,155307,1,0,0:0:0:0:
448,192,155307,1,0,0:0:0:0:
64,192,155443,1,0,0:0:0:0:
448,192,155443,1,0,0:0:0:0:
192,192,155511,1,0,0:0:0:0:
320,192,155511,1,0,0:0:0:0:
64,192,155579,1,0,0:0:0:0:
448,192,155579,1,0,0:0:0:0:
64,192,155716,1,0,0:0:0:0:
320,192,155716,1,0,0:0:0:0:
64,192,155852,1,0,0:0:0:0:
192,192,155852,1,0,0:0:0:0:
192,192,155989,1,0,0:0:0:0:
448,192,155989,1,0,0:0:0:0:
320,192,156125,1,0,0:0:0:0:
448,192,156125,1,0,0:0:0:0:
64,192,156125,1,0,0:0:0:0:
192,192,156125,1,0,0:0:0:0:
192,192,156261,1,0,0:0:0:0:
320,192,156398,1,0,0:0:0:0:
448,192,156398,1,0,0:0:0:0:
320,192,156534,1,0,0:0:0:0:
448,192,156534,1,0,0:0:0:0:
64,192,156534,1,0,0:0:0:0:
64,192,156670,1,0,0:0:0:0:
192,192,156670,1,0,0:0:0:0:
320,192,156670,1,0,0:0:0:0:
448,192,156807,1,0,0:0:0:0:
192,192,156807,1,0,0:0:0:0:
320,192,156875,1,0,0:0:0:0:
192,192,156943,1,0,0:0:0:0:
448,192,156943,1,0,0:0:0:0:
64,192,157079,1,0,0:0:0:0:
320,192,157079,1,0,0:0:0:0:
448,192,157148,1,0,0:0:0:0:
64,192,157216,1,0,0:0:0:0:
192,192,157216,1,0,0:0:0:0:
320,192,157216,1,0,0:0:0:0:
64,192,157352,1,0,0:0:0:0:
192,192,157352,1,0,0:0:0:0:
320,192,157420,1,0,0:0:0:0:
448,192,157488,1,0,0:0:0:0:
192,192,157488,1,0,0:0:0:0:
64,192,157488,1,0,0:0:0:0:
320,192,157625,1,0,0:0:0:0:
192,192,157625,1,0,0:0:0:0:
448,192,157693,1,0,0:0:0:0:
64,192,157693,1,0,0:0:0:0:
320,192,157761,1,0,0:0:0:0:
192,192,157761,1,0,0:0:0:0:
64,192,157898,1,0,0:0:0:0:
64,192,158034,1,0,0:0:0:0:
448,192,158034,1,0,0:0:0:0:
192,192,158170,1,0,0:0:0:0:
448,192,158170,1,0,0:0:0:0:
320,192,158307,1,0,0:0:0:0:
192,192,158307,1,0,0:0:0:0:
64,192,158307,1,0,0:0:0:0:
448,192,158307,1,0,0:0:0:0:
320,192,158443,1,0,0:0:0:0:
192,192,158579,1,0,0:0:0:0:
320,192,158579,1,0,0:0:0:0:
64,192,158716,1,0,0:0:0:0:
192,192,158716,1,0,0:0:0:0:
448,192,158716,1,0,0:0:0:0:
192,192,158852,1,0,0:0:0:0:
320,192,158852,1,0,0:0:0:0:
448,192,158852,1,0,0:0:0:0:
64,192,158988,1,0,0:0:0:0:
320,192,158988,1,0,0:0:0:0:
192,192,159057,1,0,0:0:0:0:
320,192,159125,1,0,0:0:0:0:
448,192,159125,1,0,0:0:0:0:
64,192,159261,1,0,0:0:0:0:
448,192,159261,1,0,0:0:0:0:
320,192,159329,1,0,0:0:0:0:
192,192,159398,1,0,0:0:0:0:
64,192,159398,1,0,0:0:0:0:
320,192,159534,1,0,0:0:0:0:
320,192,159670,1,0,0:0:0:0:
448,192,159670,1,0,0:0:0:0:
192,192,159807,1,0,0:0:0:0:
448,192,159807,1,0,0:0:0:0:
320,192,159875,1,0,0:0:0:0:
64,192,159875,1,0,0:0:0:0:
192,192,159943,1,0,0:0:0:0:
448,192,159943,1,0,0:0:0:0:
320,192,160079,1,0,0:0:0:0:
448,192,160079,1,0,0:0:0:0:
320,192,160216,1,0,0:0:0:0:
192,192,160216,1,0,0:0:0:0:
64,192,160352,1,0,0:0:0:0:
320,192,160352,1,0,0:0:0:0:
64,192,160488,1,0,0:0:0:0:
192,192,160488,1,0,0:0:0:0:
320,192,160488,1,0,0:0:0:0:
448,192,160488,1,0,0:0:0:0:
192,192,160625,1,0,0:0:0:0:
448,192,160625,1,0,0:0:0:0:
320,192,160761,1,0,0:0:0:0:
192,192,160761,1,0,0:0:0:0:
64,192,160897,1,0,0:0:0:0:
320,192,160897,1,0,0:0:0:0:
448,192,160897,1,0,0:0:0:0:
448,192,161034,1,0,0:0:0:0:
320,192,161034,1,0,0:0:0:0:
64,192,161034,1,0,0:0:0:0:
192,192,161170,1,0,0:0:0:0:
320,192,161238,1,0,0:0:0:0:
448,192,161307,1,0,0:0:0:0:
192,192,161307,1,0,0:0:0:0:
64,192,161443,1,0,0:0:0:0:
192,192,161511,1,0,0:0:0:0:
64,192,161579,1,0,0:0:0:0:
320,192,161579,1,0,0:0:0:0:
448,192,161579,1,0,0:0:0:0:
448,192,161716,1,0,0:0:0:0:
320,192,161784,1,0,0:0:0:0:
192,192,161852,1,0,0:0:0:0:
64,192,161852,1,0,0:0:0:0:
448,192,161852,1,0,0:0:0:0:
320,192,161988,1,0,0:0:0:0:
64,192,161988,1,0,0:0:0:0:
192,192,162125,1,0,0:0:0:0:
320,192,162125,1,0,0:0:0:0:
448,192,162125,1,0,0:0:0:0:
192,192,162261,1,0,0:0:0:0:
448,192,162261,1,0,0:0:0:0:
64,192,162397,1,0,0:0:0:0:
320,192,162397,1,0,0:0:0:0:
64,192,162534,1,0,0:0:0:0:
192,192,162534,1,0,0:0:0:0:
192,192,162670,1,0,0:0:0:0:
320,192,162670,1,0,0:0:0:0:
448,192,162670,1,0,0:0:0:0:
64,192,162670,1,0,0:0:0:0:
320,192,162807,1,0,0:0:0:0:
192,192,162943,1,0,0:0:0:0:
448,192,162943,1,0,0:0:0:0:
64,192,163079,1,0,0:0:0:0:
320,192,163079,1,0,0:0:0:0:
192,192,163079,1,0,0:0:0:0:
64,192,163216,1,0,0:0:0:0:
192,192,163216,1,0,0:0:0:0:
448,192,163216,1,0,0:0:0:0:
320,192,163352,1,0,0:0:0:0:
192,192,163420,1,0,0:0:0:0:
64,192,163488,1,0,0:0:0:0:
320,192,163488,1,0,0:0:0:0:
448,192,163488,1,0,0:0:0:0:
192,192,163625,1,0,0:0:0:0:
320,192,163693,1,0,0:0:0:0:
448,192,163761,1,0,0:0:0:0:
192,192,163761,1,0,0:0:0:0:
64,192,163761,1,0,0:0:0:0:
320,192,163897,1,0,0:0:0:0:
320,192,164034,1,0,0:0:0:0:
448,192,164034,1,0,0:0:0:0:
192,192,164170,1,0,0:0:0:0:
64,192,164170,1,0,0:0:0:0:
320,192,164238,1,0,0:0:0:0:
448,192,164238,1,0,0:0:0:0:
64,192,164306,1,0,0:0:0:0:
192,192,164306,1,0,0:0:0:0:
192,192,164443,1,0,0:0:0:0:
448,192,164443,1,0,0:0:0:0:
320,192,164579,1,0,0:0:0:0:
448,192,164579,1,0,0:0:0:0:
64,192,164716,1,0,0:0:0:0:
320,192,164716,1,0,0:0:0:0:
64,192,164852,1,0,0:0:0:0:
192,192,164852,1,0,0:0:0:0:
448,192,164852,1,0,0:0:0:0:
320,192,164852,1,0,0:0:0:0:
192,192,164988,1,0,0:0:0:0:
192,192,165125,1,0,0:0:0:0:
448,192,165125,1,0,0:0:0:0:
320,192,165261,1,0,0:0:0:0:
448,192,165261,1,0,0:0:0:0:
64,192,165261,1,0,0:0:0:0:
64,192,165397,1,0,0:0:0:0:
192,192,165397,1,0,0:0:0:0:
320,192,165397,1,0,0:0:0:0:
448,192,165534,1,0,0:0:0:0:
320,192,165602,1,0,0:0:0:0:
192,192,165670,1,0,0:0:0:0:
64,192,165670,1,0,0:0:0:0:
320,192,165806,1,0,0:0:0:0:
448,192,165875,1,0,0:0:0:0:
192,192,165943,1,0,0:0:0:0:
320,192,165943,1,0,0:0:0:0:
64,192,166079,1,0,0:0:0:0:
192,192,166147,1,0,0:0:0:0:
448,192,166216,1,0,0:0:0:0:
320,192,166216,1,0,0:0:0:0:
192,192,166284,1,0,0:0:0:0:
64,192,166352,1,0,0:0:0:0:
448,192,166488,1,0,0:0:0:0:
320,192,166488,1,0,0:0:0:0:
320,192,166625,1,0,0:0:0:0:
448,192,166625,1,0,0:0:0:0:
320,192,166761,1,0,0:0:0:0:
448,192,166761,1,0,0:0:0:0:
320,192,166897,1,0,0:0:0:0:
448,192,166897,1,0,0:0:0:0:
64,192,167034,1,0,0:0:0:0:
192,192,167034,1,0,0:0:0:0:
64,192,167170,1,0,0:0:0:0:
192,192,167170,1,0,0:0:0:0:
64,192,167306,1,0,0:0:0:0:
192,192,167306,1,0,0:0:0:0:
320,192,167579,1,0,0:0:0:0:
448,192,167579,1,0,0:0:0:0:
192,192,167784,1,0,0:0:0:0:
320,192,167784,1,0,0:0:0:0:
64,192,167988,1,0,0:0:0:0:
192,192,167988,1,0,0:0:0:0:
192,192,168125,1,0,0:0:0:0:
320,192,168125,1,0,0:0:0:0:
320,192,168670,1,0,0:0:0:0:
448,192,168670,1,0,0:0:0:0:
192,192,168738,1,0,0:0:0:0:
64,192,168738,1,0,0:0:0:0:
320,192,168806,1,0,0:0:0:0:
448,192,168806,1,0,0:0:0:0:
192,192,168875,1,0,0:0:0:0:
64,192,168875,1,0,0:0:0:0:
320,192,168943,1,0,0:0:0:0:
448,192,168943,1,0,0:0:0:0:
192,192,169011,1,0,0:0:0:0:
64,192,169011,1,0,0:0:0:0:
320,192,169079,1,0,0:0:0:0:
448,192,169079,1,0,0:0:0:0:
64,192,169147,1,0,0:0:0:0:
192,192,169147,1,0,0:0:0:0:
64,192,169215,1,0,0:0:0:0:
448,192,169215,1,0,0:0:0:0:
192,192,169284,1,0,0:0:0:0:
320,192,169284,1,0,0:0:0:0:
64,192,169352,1,0,0:0:0:0:
448,192,169352,1,0,0:0:0:0:
192,192,169420,1,0,0:0:0:0:
320,192,169420,1,0,0:0:0:0:
64,192,169488,1,0,0:0:0:0:
448,192,169488,1,0,0:0:0:0:
320,192,169556,1,0,0:0:0:0:
64,192,169556,1,0,0:0:0:0:
192,192,169625,1,0,0:0:0:0:
448,192,169625,1,0,0:0:0:0:
320,192,169693,1,0,0:0:0:0:
64,192,169693,1,0,0:0:0:0:
192,192,169761,1,0,0:0:0:0:
448,192,169761,1,0,0:0:0:0:
320,192,169795,1,0,0:0:0:0:
448,192,169863,1,0,0:0:0:0:
64,192,169897,1,0,0:0:0:0:
192,192,169897,1,0,0:0:0:0:
320,192,169931,1,0,0:0:0:0:
448,192,170000,1,0,0:0:0:0:
192,192,170034,1,0,0:0:0:0:
320,192,170068,1,0,0:0:0:0:
64,192,170136,1,0,0:0:0:0:
448,192,170170,1,0,0:0:0:0:
192,192,170170,1,0,0:0:0:0:
320,192,170204,1,0,0:0:0:0:
64,192,170272,1,0,0:0:0:0:
448,192,170306,1,0,0:0:0:0:
320,192,170306,1,0,0:0:0:0:
192,192,170340,1,0,0:0:0:0:
64,192,170409,1,0,0:0:0:0:
320,192,170443,1,0,0:0:0:0:
448,192,170477,1,0,0:0:0:0:
64,192,170545,1,0,0:0:0:0:
192,192,170579,1,0,0:0:0:0:
320,192,170579,1,0,0:0:0:0:
448,192,170613,1,0,0:0:0:0:
192,192,170681,1,0,0:0:0:0:
64,192,170715,1,0,0:0:0:0:
320,192,170750,1,0,0:0:0:0:
448,192,170818,1,0,0:0:0:0:
64,192,170852,1,0,0:0:0:0:
192,192,170852,1,0,0:0:0:0:
320,192,170886,1,0,0:0:0:0:
448,192,170954,1,0,0:0:0:0:
192,192,170988,1,0,0:0:0:0:
320,192,171022,1,0,0:0:0:0:
448,192,171090,1,0,0:0:0:0:
64,192,171124,1,0,0:0:0:0:
192,192,171124,1,0,0:0:0:0:
320,192,171159,1,0,0:0:0:0:
448,192,171227,1,0,0:0:0:0:
192,192,171261,1,0,0:0:0:0:
320,192,171295,1,0,0:0:0:0:
448,192,171363,1,0,0:0:0:0:
192,192,171397,1,0,0:0:0:0:
64,192,171397,1,0,0:0:0:0:
448,192,171431,1,0,0:0:0:0:
320,192,171499,1,0,0:0:0:0:
192,192,171534,1,0,0:0:0:0:
64,192,171568,1,0,0:0:0:0:
448,192,171636,1,0,0:0:0:0:
320,192,171670,1,0,0:0:0:0:
192,192,171670,1,0,0:0:0:0:
64,192,171704,1,0,0:0:0:0:
320,192,171772,1,0,0:0:0:0:
192,192,171806,1,0,0:0:0:0:
64,192,171840,1,0,0:0:0:0:
448,192,171909,1,0,0:0:0:0:
320,192,171943,1,0,0:0:0:0:
192,192,171943,1,0,0:0:0:0:
64,192,171977,1,0,0:0:0:0:
320,192,172045,1,0,0:0:0:0:
448,192,172079,1,0,0:0:0:0:
192,192,172079,1,0,0:0:0:0:
64,192,172113,1,0,0:0:0:0:
320,192,172181,1,0,0:0:0:0:
448,192,172215,1,0,0:0:0:0:
64,192,172249,1,0,0:0:0:0:
192,192,172318,1,0,0:0:0:0:
320,192,172352,1,0,0:0:0:0:
448,192,172352,1,0,0:0:0:0:
64,192,172386,1,0,0:0:0:0:
320,192,172454,1,0,0:0:0:0:
192,192,172488,1,0,0:0:0:0:
64,192,172522,1,0,0:0:0:0:
448,192,172590,1,0,0:0:0:0:
320,192,172624,1,0,0:0:0:0:
192,192,172624,1,0,0:0:0:0:
64,192,172659,1,0,0:0:0:0:
448,192,172727,1,0,0:0:0:0:
320,192,172761,1,0,0:0:0:0:
64,192,172795,1,0,0:0:0:0:
192,192,172863,1,0,0:0:0:0:
320,192,172897,1,0,0:0:0:0:
448,192,172931,1,0,0:0:0:0:
64,192,172999,1,0,0:0:0:0:
192,192,173034,1,0,0:0:0:0:
320,192,173034,1,0,0:0:0:0:
448,192,173068,1,0,0:0:0:0:
192,192,173136,1,0,0:0:0:0:
64,192,173170,1,0,0:0:0:0:
448,192,173204,1,0,0:0:0:0:
192,192,173272,1,0,0:0:0:0:
320,192,173306,1,0,0:0:0:0:
64,192,173306,1,0,0:0:0:0:
448,192,173340,1,0,0:0:0:0:
192,192,173409,1,0,0:0:0:0:
320,192,173443,1,0,0:0:0:0:
448,192,173477,1,0,0:0:0:0:
192,192,173545,1,0,0:0:0:0:
64,192,173579,1,0,0:0:0:0:
320,192,173613,1,0,0:0:0:0:
192,192,173681,1,0,0:0:0:0:
64,192,173715,1,0,0:0:0:0:
448,192,173715,1,0,0:0:0:0:
320,192,173749,1,0,0:0:0:0:
192,192,173818,1,0,0:0:0:0:
64,192,173852,1,0,0:0:0:0:
448,192,173886,1,0,0:0:0:0:
192,192,173954,1,0,0:0:0:0:
320,192,173988,1,0,0:0:0:0:
64,192,173988,1,0,0:0:0:0:
448,192,174022,1,0,0:0:0:0:
64,192,174090,1,0,0:0:0:0:
192,192,174124,1,0,0:0:0:0:
320,192,174124,1,0,0:0:0:0:
448,192,174159,1,0,0:0:0:0:
192,192,174227,1,0,0:0:0:0:
320,192,174261,1,0,0:0:0:0:
448,192,174295,1,0,0:0:0:0:
192,192,174363,1,0,0:0:0:0:
64,192,174397,1,0,0:0:0:0:
320,192,174397,1,0,0:0:0:0:
448,192,174431,1,0,0:0:0:0:
192,192,174499,1,0,0:0:0:0:
64,192,174533,1,0,0:0:0:0:
320,192,174533,1,0,0:0:0:0:
448,192,174568,1,0,0:0:0:0:
192,192,174636,1,0,0:0:0:0:
64,192,174670,1,0,0:0:0:0:
320,192,174704,1,0,0:0:0:0:
192,192,174772,1,0,0:0:0:0:
64,192,174806,1,0,0:0:0:0:
448,192,174806,1,0,0:0:0:0:
320,192,174840,1,0,0:0:0:0:
64,192,174908,1,0,0:0:0:0:
192,192,174943,1,0,0:0:0:0:
448,192,174943,1,0,0:0:0:0:
320,192,174977,1,0,0:0:0:0:
64,192,175045,1,0,0:0:0:0:
192,192,175079,1,0,0:0:0:0:
320,192,175113,1,0,0:0:0:0:
448,192,175181,1,0,0:0:0:0:
64,192,175215,1,0,0:0:0:0:
192,192,175215,1,0,0:0:0:0:
320,192,175249,1,0,0:0:0:0:
448,192,175318,1,0,0:0:0:0:
192,192,175352,1,0,0:0:0:0:
64,192,175386,1,0,0:0:0:0:
320,192,175454,1,0,0:0:0:0:
448,192,175488,1,0,0:0:0:0:
192,192,175488,1,0,0:0:0:0:
64,192,175522,1,0,0:0:0:0:
448,192,175590,1,0,0:0:0:0:
320,192,175624,1,0,0:0:0:0:
192,192,175624,1,0,0:0:0:0:
64,192,175658,1,0,0:0:0:0:
448,192,175727,1,0,0:0:0:0:
192,192,175761,1,0,0:0:0:0:
320,192,175795,1,0,0:0:0:0:
448,192,175863,1,0,0:0:0:0:
64,192,175897,1,0,0:0:0:0:
192,192,175897,1,0,0:0:0:0:
320,192,175931,1,0,0:0:0:0:
448,192,175999,1,0,0:0:0:0:
192,192,176033,1,0,0:0:0:0:
320,192,176068,1,0,0:0:0:0:
448,192,176136,1,0,0:0:0:0:
192,192,176170,1,0,0:0:0:0:
64,192,176204,1,0,0:0:0:0:
320,192,176272,1,0,0:0:0:0:
192,192,176306,1,0,0:0:0:0:
448,192,176306,1,0,0:0:0:0:
64,192,176340,1,0,0:0:0:0:
320,192,176408,1,0,0:0:0:0:
448,192,176443,1,0,0:0:0:0:
64,192,176443,1,0,0:0:0:0:
192,192,176477,1,0,0:0:0:0:
320,192,176545,1,0,0:0:0:0:
448,192,176579,1,0,0:0:0:0:
64,192,176613,1,0,0:0:0:0:
320,192,176681,1,0,0:0:0:0:
192,192,176715,1,0,0:0:0:0:
448,192,176715,1,0,0:0:0:0:
64,192,176749,1,0,0:0:0:0:
320,192,176818,1,0,0:0:0:0:
448,192,176852,1,0,0:0:0:0:
64,192,176852,1,0,0:0:0:0:
192,192,176886,1,0,0:0:0:0:
320,192,176954,1,0,0:0:0:0:
448,192,176988,1,0,0:0:0:0:
64,192,177022,1,0,0:0:0:0:
192,192,177090,1,0,0:0:0:0:
448,192,177124,1,0,0:0:0:0:
320,192,177124,1,0,0:0:0:0:
64,192,177158,1,0,0:0:0:0:
192,192,177227,1,0,0:0:0:0:
448,192,177261,1,0,0:0:0:0:
64,192,177295,1,0,0:0:0:0:
320,192,177363,1,0,0:0:0:0:
192,192,177397,1,0,0:0:0:0:
448,192,177397,1,0,0:0:0:0:
64,192,177431,1,0,0:0:0:0:
320,192,177499,1,0,0:0:0:0:
448,192,177533,1,0,0:0:0:0:
192,192,177568,1,0,0:0:0:0:
64,192,177636,1,0,0:0:0:0:
320,192,177670,1,0,0:0:0:0:
448,192,177670,1,0,0:0:0:0:
192,192,177704,1,0,0:0:0:0:
64,192,177772,1,0,0:0:0:0:
320,192,177806,1,0,0:0:0:0:
448,192,177840,1,0,0:0:0:0:
192,192,177908,1,0,0:0:0:0:
64,192,177942,1,0,0:0:0:0:
320,192,177942,1,0,0:0:0:0:
448,192,177977,1,0,0:0:0:0:
192,192,178045,1,0,0:0:0:0:
320,192,178079,1,0,0:0:0:0:
64,192,178113,1,0,0:0:0:0:
448,192,178181,1,0,0:0:0:0:
320,192,178215,1,0,0:0:0:0:
192,192,178215,1,0,0:0:0:0:
64,192,178249,1,0,0:0:0:0:
448,192,178317,1,0,0:0:0:0:
192,192,178352,1,0,0:0:0:0:
320,192,178386,1,0,0:0:0:0:
448,192,178454,1,0,0:0:0:0:
64,192,178488,1,0,0:0:0:0:
192,192,178488,1,0,0:0:0:0:
320,192,178522,1,0,0:0:0:0:
448,192,178590,1,0,0:0:0:0:
64,192,178624,1,0,0:0:0:0:
192,192,178658,1,0,0:0:0:0:
448,192,178727,1,0,0:0:0:0:
320,192,178761,1,0,0:0:0:0:
64,192,178761,1,0,0:0:0:0:
192,192,178795,1,0,0:0:0:0:
448,192,178863,1,0,0:0:0:0:
320,192,178897,1,0,0:0:0:0:
192,192,178931,1,0,0:0:0:0:
64,192,178999,1,0,0:0:0:0:
320,192,179033,1,0,0:0:0:0:
448,192,179033,1,0,0:0:0:0:
192,192,179067,1,0,0:0:0:0:
64,192,179136,1,0,0:0:0:0:
320,192,179170,1,0,0:0:0:0:
448,192,179204,1,0,0:0:0:0:
192,192,179272,1,0,0:0:0:0:
64,192,179306,1,0,0:0:0:0:
320,192,179306,1,0,0:0:0:0:
448,192,179340,1,0,0:0:0:0:
192,192,179408,1,0,0:0:0:0:
64,192,179442,1,0,0:0:0:0:
448,192,179477,1,0,0:0:0:0:
320,192,179545,1,0,0:0:0:0:
192,192,179579,1,0,0:0:0:0:
64,192,179579,1,0,0:0:0:0:
448,192,179613,1,0,0:0:0:0:
64,192,179681,1,0,0:0:0:0:
192,192,179715,1,0,0:0:0:0:
320,192,179715,1,0,0:0:0:0:
448,192,179749,1,0,0:0:0:0:
64,192,179817,1,0,0:0:0:0:
320,192,179852,1,0,0:0:0:0:
448,192,179886,1,0,0:0:0:0:
192,192,179954,1,0,0:0:0:0:
64,192,179988,1,0,0:0:0:0:
320,192,179988,1,0,0:0:0:0:
448,192,180022,1,0,0:0:0:0:
64,192,180090,1,0,0:0:0:0:
192,192,180124,1,0,0:0:0:0:
320,192,180124,1,0,0:0:0:0:
448,192,180158,1,0,0:0:0:0:
192,192,180227,1,0,0:0:0:0:
64,192,180261,1,0,0:0:0:0:
448,192,180295,1,0,0:0:0:0:
320,192,180363,1,0,0:0:0:0:
192,192,180397,1,0,0:0:0:0:
64,192,180397,1,0,0:0:0:0:
448,192,180431,1,0,0:0:0:0:
320,192,180499,1,0,0:0:0:0:
192,192,180533,1,0,0:0:0:0:
448,192,180567,1,0,0:0:0:0:
320,192,180636,1,0,0:0:0:0:
192,192,180670,1,0,0:0:0:0:
64,192,180670,1,0,0:0:0:0:
448,192,180704,1,0,0:0:0:0:
64,192,180772,1,0,0:0:0:0:
192,192,180806,1,0,0:0:0:0:
320,192,180840,1,0,0:0:0:0:
448,192,180908,1,0,0:0:0:0:
64,192,180942,1,0,0:0:0:0:
192,192,180942,1,0,0:0:0:0:
320,192,180977,1,0,0:0:0:0:
448,192,181045,1,0,0:0:0:0:
192,192,181079,1,0,0:0:0:0:
320,192,181113,1,0,0:0:0:0:
448,192,181181,1,0,0:0:0:0:
64,192,181215,1,0,0:0:0:0:
192,192,181215,1,0,0:0:0:0:
320,192,181249,1,0,0:0:0:0:
448,192,181317,1,0,0:0:0:0:
192,192,181351,1,0,0:0:0:0:
64,192,181386,1,0,0:0:0:0:
320,192,181454,1,0,0:0:0:0:
192,192,181488,1,0,0:0:0:0:
448,192,181488,1,0,0:0:0:0:
64,192,181522,1,0,0:0:0:0:
320,192,181590,1,0,0:0:0:0:
192,192,181624,1,0,0:0:0:0:
64,192,181658,1,0,0:0:0:0:
448,192,181726,1,0,0:0:0:0:
320,192,181761,1,0,0:0:0:0:
192,192,181761,1,0,0:0:0:0:
64,192,181795,1,0,0:0:0:0:
320,192,181863,1,0,0:0:0:0:
448,192,181897,1,0,0:0:0:0:
64,192,181931,1,0,0:0:0:0:
192,192,181999,1,0,0:0:0:0:
320,192,182033,1,0,0:0:0:0:
448,192,182033,1,0,0:0:0:0:
64,192,182067,1,0,0:0:0:0:
320,192,182136,1,0,0:0:0:0:
192,192,182170,1,0,0:0:0:0:
64,192,182204,1,0,0:0:0:0:
448,192,182204,1,0,0:0:0:0:
320,192,182272,1,0,0:0:0:0:
192,192,182306,1,0,0:0:0:0:
64,192,182306,1,0,0:0:0:0:
448,192,182340,1,0,0:0:0:0:
320,192,182408,1,0,0:0:0:0:
192,192,182442,1,0,0:0:0:0:
64,192,182476,1,0,0:0:0:0:
320,192,182545,1,0,0:0:0:0:
192,192,182579,1,0,0:0:0:0:
448,192,182579,1,0,0:0:0:0:
64,192,182613,1,0,0:0:0:0:
320,192,182681,1,0,0:0:0:0:
192,192,182715,1,0,0:0:0:0:
64,192,182749,1,0,0:0:0:0:
448,192,182817,1,0,0:0:0:0:
320,192,182851,1,0,0:0:0:0:
192,192,182851,1,0,0:0:0:0:
64,192,182886,1,0,0:0:0:0:
320,192,182954,1,0,0:0:0:0:
448,192,182988,1,0,0:0:0:0:
192,192,183022,1,0,0:0:0:0:
320,192,183090,1,0,0:0:0:0:
448,192,183124,1,0,0:0:0:0:
64,192,183158,1,0,0:0:0:0:
320,192,183226,1,0,0:0:0:0:
192,192,183261,1,0,0:0:0:0:
448,192,183295,1,0,0:0:0:0:
64,192,183363,1,0,0:0:0:0:
192,192,183397,1,0,0:0:0:0:
320,192,183397,1,0,0:0:0:0:
448,192,183431,1,0,0:0:0:0:
192,192,183499,1,0,0:0:0:0:
320,192,183533,1,0,0:0:0:0:
448,192,183567,1,0,0:0:0:0:
64,192,183636,1,0,0:0:0:0:
192,192,183670,1,0,0:0:0:0:
320,192,183670,1,0,0:0:0:0:
448,192,183704,1,0,0:0:0:0:
192,192,183772,1,0,0:0:0:0:
64,192,183806,1,0,0:0:0:0:
448,192,183840,1,0,0:0:0:0:
320,192,183908,1,0,0:0:0:0:
192,192,183942,1,0,0:0:0:0:
64,192,183942,1,0,0:0:0:0:
448,192,183976,1,0,0:0:0:0:
320,192,184045,1,0,0:0:0:0:
192,192,184079,1,0,0:0:0:0:
64,192,184113,1,0,0:0:0:0:
320,192,184181,1,0,0:0:0:0:
192,192,184215,1,0,0:0:0:0:
448,192,184249,1,0,0:0:0:0:
320,192,184317,1,0,0:0:0:0:
192,192,184351,1,0,0:0:0:0:
64,192,184386,1,0,0:0:0:0:
320,192,184454,1,0,0:0:0:0:
448,192,184488,1,0,0:0:0:0:
192,192,184522,1,0,0:0:0:0:
320,192,184590,1,0,0:0:0:0:
448,192,184624,1,0,0:0:0:0:
64,192,184624,1,0,0:0:0:0:
192,192,184658,1,0,0:0:0:0:
320,192,184726,1,0,0:0:0:0:
448,192,184760,1,0,0:0:0:0:
192,192,184795,1,0,0:0:0:0:
320,192,184863,1,0,0:0:0:0:
64,192,184897,1,0,0:0:0:0:
448,192,184931,1,0,0:0:0:0:
320,192,184999,1,0,0:0:0:0:
192,192,185033,1,0,0:0:0:0:
64,192,185033,1,0,0:0:0:0:
448,192,185067,1,0,0:0:0:0:
64,192,185135,1,0,0:0:0:0:
320,192,185170,1,0,0:0:0:0:
192,192,185170,1,0,0:0:0:0:
448,192,185204,1,0,0:0:0:0:
64,192,185272,1,0,0:0:0:0:
320,192,185306,1,0,0:0:0:0:
192,192,185340,1,0,0:0:0:0:
448,192,185408,1,0,0:0:0:0:
320,192,185442,1,0,0:0:0:0:
64,192,185442,1,0,0:0:0:0:
192,192,185476,1,0,0:0:0:0:
448,192,185545,1,0,0:0:0:0:
64,192,185579,1,0,0:0:0:0:
192,192,185613,1,0,0:0:0:0:
320,192,185681,1,0,0:0:0:0:
448,192,185715,1,0,0:0:0:0:
192,192,185749,1,0,0:0:0:0:
320,192,185817,1,0,0:0:0:0:
64,192,185851,1,0,0:0:0:0:
448,192,185885,1,0,0:0:0:0:
320,192,185954,1,0,0:0:0:0:
64,192,185988,1,0,0:0:0:0:
192,192,185988,1,0,0:0:0:0:
448,192,186022,1,0,0:0:0:0:
64,192,186090,1,0,0:0:0:0:
192,192,186124,1,0,0:0:0:0:
320,192,186124,1,0,0:0:0:0:
64,192,186192,1,0,0:0:0:0:
448,192,186192,1,0,0:0:0:0:
320,192,186260,1,0,0:0:0:0:
192,192,186260,1,0,0:0:0:0:
64,192,186329,1,0,0:0:0:0:
448,192,186329,1,0,0:0:0:0:
192,192,186397,1,0,0:0:0:0:
320,192,186397,1,0,0:0:0:0:
64,192,186465,1,0,0:0:0:0:
448,192,186465,1,0,0:0:0:0:
192,192,186533,1,0,0:0:0:0:
320,192,186533,1,0,0:0:0:0:
64,192,186601,1,0,0:0:0:0:
448,192,186601,1,0,0:0:0:0:
192,192,186670,1,0,0:0:0:0:
320,192,186670,1,0,0:0:0:0:
64,192,186738,1,0,0:0:0:0:
448,192,186738,1,0,0:0:0:0:
192,192,186806,1,0,0:0:0:0:
320,192,186806,1,0,0:0:0:0:
64,192,186874,1,0,0:0:0:0:
448,192,186874,1,0,0:0:0:0:
192,192,186942,1,0,0:0:0:0:
320,192,186942,1,0,0:0:0:0:
64,192,187010,1,0,0:0:0:0:
448,192,187010,1,0,0:0:0:0:
192,192,187079,1,0,0:0:0:0:
320,192,187079,1,0,0:0:0:0:
64,192,187147,1,0,0:0:0:0:
448,192,187147,1,0,0:0:0:0:
192,192,187215,1,0,0:0:0:0:
320,192,187215,1,0,0:0:0:0:
448,192,187283,1,0,0:0:0:0:
320,192,187351,1,0,0:0:0:0:
64,192,187351,1,0,0:0:0:0:
192,192,187420,1,0,0:0:0:0:
320,192,187488,1,0,0:0:0:0:
448,192,187488,1,0,0:0:0:0:
64,192,187488,1,0,0:0:0:0:
192,192,187556,1,0,0:0:0:0:
320,192,187624,1,0,0:0:0:0:
448,192,187624,1,0,0:0:0:0:
64,192,187692,1,0,0:0:0:0:
192,192,187760,1,0,0:0:0:0:
448,192,187760,1,0,0:0:0:0:
320,192,187829,1,0,0:0:0:0:
192,192,187897,1,0,0:0:0:0:
64,192,187897,1,0,0:0:0:0:
448,192,187965,1,0,0:0:0:0:
64,192,188033,1,0,0:0:0:0:
320,192,188033,1,0,0:0:0:0:
192,192,188101,1,0,0:0:0:0:
320,192,188169,1,0,0:0:0:0:
448,192,188169,1,0,0:0:0:0:
64,192,188238,1,0,0:0:0:0:
192,192,188306,1,0,0:0:0:0:
320,192,188306,1,0,0:0:0:0:
448,192,188374,1,0,0:0:0:0:
192,192,188442,1,0,0:0:0:0:
64,192,188442,1,0,0:0:0:0:
320,192,188510,1,0,0:0:0:0:
448,192,188579,1,0,0:0:0:0:
192,192,188579,1,0,0:0:0:0:
64,192,188647,1,0,0:0:0:0:
320,192,188715,1,0,0:0:0:0:
448,192,188715,1,0,0:0:0:0:
192,192,188783,1,0,0:0:0:0:
64,192,188851,1,0,0:0:0:0:
320,192,188851,1,0,0:0:0:0:
448,192,188919,1,0,0:0:0:0:
64,192,188988,1,0,0:0:0:0:
192,192,188988,1,0,0:0:0:0:
320,192,189056,1,0,0:0:0:0:
448,192,189124,1,0,0:0:0:0:
64,192,189124,1,0,0:0:0:0:
192,192,189192,1,0,0:0:0:0:
320,192,189260,1,0,0:0:0:0:
448,192,189260,1,0,0:0:0:0:
192,192,189329,1,0,0:0:0:0:
64,192,189397,1,0,0:0:0:0:
448,192,189397,1,0,0:0:0:0:
320,192,189465,1,0,0:0:0:0:
192,192,189533,1,0,0:0:0:0:
64,192,189533,1,0,0:0:0:0:
448,192,189601,1,0,0:0:0:0:
192,192,189669,1,0,0:0:0:0:
320,192,189669,1,0,0:0:0:0:
64,192,189738,1,0,0:0:0:0:
320,192,189806,1,0,0:0:0:0:
448,192,189806,1,0,0:0:0:0:
192,192,189874,1,0,0:0:0:0:
64,192,189942,1,0,0:0:0:0:
320,192,189942,1,0,0:0:0:0:
448,192,190010,1,0,0:0:0:0:
64,192,190079,1,0,0:0:0:0:
192,192,190079,1,0,0:0:0:0:
320,192,190147,1,0,0:0:0:0:
448,192,190215,1,0,0:0:0:0:
192,192,190215,1,0,0:0:0:0:
64,192,190283,1,0,0:0:0:0:
320,192,190351,1,0,0:0:0:0:
448,192,190351,1,0,0:0:0:0:
64,192,190419,1,0,0:0:0:0:
192,192,190488,1,0,0:0:0:0:
448,192,190488,1,0,0:0:0:0:
64,192,190556,1,0,0:0:0:0:
320,192,190624,1,0,0:0:0:0:
192,192,190624,1,0,0:0:0:0:
448,192,190692,1,0,0:0:0:0:
320,192,190760,1,0,0:0:0:0:
64,192,190760,1,0,0:0:0:0:
192,192,190829,1,0,0:0:0:0:
320,192,190897,1,0,0:0:0:0:
448,192,190897,1,0,0:0:0:0:
64,192,190965,1,0,0:0:0:0:
192,192,191033,1,0,0:0:0:0:
320,192,191033,1,0,0:0:0:0:
448,192,191101,1,0,0:0:0:0:
192,192,191169,1,0,0:0:0:0:
64,192,191169,1,0,0:0:0:0:
320,192,191238,1,0,0:0:0:0:
448,192,191306,1,0,0:0:0:0:
64,192,191306,1,0,0:0:0:0:
192,192,191374,1,0,0:0:0:0:
320,192,191442,1,0,0:0:0:0:
448,192,191442,1,0,0:0:0:0:
64,192,191510,1,0,0:0:0:0:
192,192,191578,1,0,0:0:0:0:
448,192,191578,1,0,0:0:0:0:
64,192,191647,1,0,0:0:0:0:
320,192,191715,1,0,0:0:0:0:
448,192,191715,1,0,0:0:0:0:
192,192,191783,1,0,0:0:0:0:
64,192,191851,1,0,0:0:0:0:
320,192,191851,1,0,0:0:0:0:
448,192,191919,1,0,0:0:0:0:
192,192,191988,1,0,0:0:0:0:
320,192,191988,1,0,0:0:0:0:
64,192,192056,1,0,0:0:0:0:
192,192,192124,1,0,0:0:0:0:
448,192,192124,1,0,0:0:0:0:
320,192,192192,1,0,0:0:0:0:
64,192,192260,1,0,0:0:0:0:
448,192,192260,1,0,0:0:0:0:
192,192,192328,1,0,0:0:0:0:
320,192,192397,1,0,0:0:0:0:
448,192,192397,1,0,0:0:0:0:
64,192,192465,1,0,0:0:0:0:
192,192,192533,1,0,0:0:0:0:
320,192,192533,1,0,0:0:0:0:
448,192,192601,1,0,0:0:0:0:
192,192,192669,1,0,0:0:0:0:
64,192,192669,1,0,0:0:0:0:
448,192,192738,1,0,0:0:0:0:
192,192,192806,1,0,0:0:0:0:
320,192,192806,1,0,0:0:0:0:
64,192,192874,1,0,0:0:0:0:
320,192,192942,1,0,0:0:0:0:
448,192,192942,1,0,0:0:0:0:
64,192,193010,1,0,0:0:0:0:
192,192,193078,1,0,0:0:0:0:
448,192,193078,1,0,0:0:0:0:
320,192,193147,1,0,0:0:0:0:
192,192,193215,1,0,0:0:0:0:
64,192,193215,1,0,0:0:0:0:
448,192,193283,1,0,0:0:0:0:
64,192,193351,1,0,0:0:0:0:
320,192,193351,1,0,0:0:0:0:
192,192,193419,1,0,0:0:0:0:
320,192,193488,1,0,0:0:0:0:
448,192,193488,1,0,0:0:0:0:
64,192,193556,1,0,0:0:0:0:
192,192,193624,1,0,0:0:0:0:
448,192,193624,1,0,0:0:0:0:
320,192,193692,1,0,0:0:0:0:
192,192,193760,1,0,0:0:0:0:
64,192,193760,1,0,0:0:0:0:
448,192,193828,1,0,0:0:0:0:
320,192,193897,1,0,0:0:0:0:
192,192,193897,1,0,0:0:0:0:
64,192,193965,1,0,0:0:0:0:
448,192,194033,1,0,0:0:0:0:
320,192,194033,1,0,0:0:0:0:
64,192,194101,1,0,0:0:0:0:
192,192,194169,1,0,0:0:0:0:
320,192,194169,1,0,0:0:0:0:
448,192,194238,1,0,0:0:0:0:
192,192,194306,1,0,0:0:0:0:
64,192,194306,1,0,0:0:0:0:
320,192,194374,1,0,0:0:0:0:
64,192,194442,1,0,0:0:0:0:
448,192,194442,1,0,0:0:0:0:
192,192,194510,1,0,0:0:0:0:
320,192,194578,1,0,0:0:0:0:
448,192,194578,1,0,0:0:0:0:
64,192,194647,1,0,0:0:0:0:
192,192,194715,1,0,0:0:0:0:
448,192,194715,1,0,0:0:0:0:
64,192,194783,1,0,0:0:0:0:
320,192,194851,1,0,0:0:0:0:
192,192,194851,1,0,0:0:0:0:
448,192,194919,1,0,0:0:0:0:
192,192,194987,1,0,0:0:0:0:
64,192,194987,1,0,0:0:0:0:
320,192,195056,1,0,0:0:0:0:
448,192,195124,1,0,0:0:0:0:
64,192,195124,1,0,0:0:0:0:
192,192,195192,1,0,0:0:0:0:
320,192,195260,1,0,0:0:0:0:
448,192,195260,1,0,0:0:0:0:
64,192,195328,1,0,0:0:0:0:
192,192,195397,1,0,0:0:0:0:
320,192,195397,1,0,0:0:0:0:
448,192,195465,1,0,0:0:0:0:
64,192,195533,1,0,0:0:0:0:
320,192,195533,1,0,0:0:0:0:
192,192,195601,1,0,0:0:0:0:
320,192,195669,1,0,0:0:0:0:
448,192,195669,1,0,0:0:0:0:
192,192,195737,1,0,0:0:0:0:
64,192,195806,1,0,0:0:0:0:
448,192,195806,1,0,0:0:0:0:
320,192,195874,1,0,0:0:0:0:
448,192,195942,1,0,0:0:0:0:
192,192,195942,1,0,0:0:0:0:
64,192,195942,1,0,0:0:0:0:
320,192,195976,1,0,0:0:0:0:
192,192,196044,1,0,0:0:0:0:
64,192,196078,1,0,0:0:0:0:
320,192,196112,1,0,0:0:0:0:
192,192,196181,1,0,0:0:0:0:
64,192,196215,1,0,0:0:0:0:
320,192,196249,1,0,0:0:0:0:
448,192,196317,1,0,0:0:0:0:
64,192,196351,1,0,0:0:0:0:
192,192,196351,1,0,0:0:0:0:
320,192,196385,1,0,0:0:0:0:
448,192,196453,1,0,0:0:0:0:
64,192,196487,1,0,0:0:0:0:
320,192,196522,1,0,0:0:0:0:
192,192,196590,1,0,0:0:0:0:
64,192,196624,1,0,0:0:0:0:
448,192,196624,1,0,0:0:0:0:
320,192,196658,1,0,0:0:0:0:
192,192,196726,1,0,0:0:0:0:
64,192,196760,1,0,0:0:0:0:
448,192,196794,1,0,0:0:0:0:
192,192,196862,1,0,0:0:0:0:
320,192,196897,1,0,0:0:0:0:
64,192,196897,1,0,0:0:0:0:
448,192,196931,1,0,0:0:0:0:
192,192,196999,1,0,0:0:0:0:
64,192,197033,1,0,0:0:0:0:
448,192,197067,1,0,0:0:0:0:
320,192,197135,1,0,0:0:0:0:
192,192,197169,1,0,0:0:0:0:
64,192,197169,1,0,0:0:0:0:
448,192,197203,1,0,0:0:0:0:
320,192,197272,1,0,0:0:0:0:
192,192,197306,1,0,0:0:0:0:
64,192,197340,1,0,0:0:0:0:
320,192,197408,1,0,0:0:0:0:
192,192,197442,1,0,0:0:0:0:
448,192,197476,1,0,0:0:0:0:
64,192,197544,1,0,0:0:0:0:
192,192,197578,1,0,0:0:0:0:
320,192,197578,1,0,0:0:0:0:
448,192,197612,1,0,0:0:0:0:
64,192,197681,1,0,0:0:0:0:
320,192,197715,1,0,0:0:0:0:
448,192,197749,1,0,0:0:0:0:
192,192,197817,1,0,0:0:0:0:
64,192,197851,1,0,0:0:0:0:
320,192,197851,1,0,0:0:0:0:
448,192,197885,1,0,0:0:0:0:
192,192,197953,1,0,0:0:0:0:
320,192,197987,1,0,0:0:0:0:
64,192,198022,1,0,0:0:0:0:
448,192,198090,1,0,0:0:0:0:
320,192,198124,1,0,0:0:0:0:
192,192,198124,1,0,0:0:0:0:
64,192,198158,1,0,0:0:0:0:
320,192,198226,1,0,0:0:0:0:
448,192,198260,1,0,0:0:0:0:
64,192,198294,1,0,0:0:0:0:
192,192,198362,1,0,0:0:0:0:
320,192,198396,1,0,0:0:0:0:
448,192,198396,1,0,0:0:0:0:
64,192,198431,1,0,0:0:0:0:
448,192,198499,1,0,0:0:0:0:
320,192,198533,1,0,0:0:0:0:
64,192,198567,1,0,0:0:0:0:
192,192,198635,1,0,0:0:0:0:
320,192,198669,1,0,0:0:0:0:
448,192,198669,1,0,0:0:0:0:
64,192,198703,1,0,0:0:0:0:
320,192,198771,1,0,0:0:0:0:
192,192,198806,1,0,0:0:0:0:
448,192,198840,1,0,0:0:0:0:
64,192,198908,1,0,0:0:0:0:
192,192,198942,1,0,0:0:0:0:
320,192,198942,1,0,0:0:0:0:
448,192,198976,1,0,0:0:0:0:
64,192,199044,1,0,0:0:0:0:
192,192,199078,1,0,0:0:0:0:
320,192,199112,1,0,0:0:0:0:
448,192,199181,1,0,0:0:0:0:
192,192,199215,1,0,0:0:0:0:
64,192,199215,1,0,0:0:0:0:
320,192,199249,1,0,0:0:0:0:
448,192,199317,1,0,0:0:0:0:
192,192,199351,1,0,0:0:0:0:
320,192,199385,1,0,0:0:0:0:
448,192,199453,1,0,0:0:0:0:
192,192,199487,1,0,0:0:0:0:
64,192,199521,1,0,0:0:0:0:
320,192,199590,1,0,0:0:0:0:
192,192,199624,1,0,0:0:0:0:
64,192,199658,1,0,0:0:0:0:
320,192,199726,1,0,0:0:0:0:
192,192,199760,1,0,0:0:0:0:
448,192,199794,1,0,0:0:0:0:
320,192,199862,1,0,0:0:0:0:
192,192,199896,1,0,0:0:0:0:
64,192,199931,1,0,0:0:0:0:
320,192,199999,1,0,0:0:0:0:
192,192,200033,1,0,0:0:0:0:
64,192,200067,1,0,0:0:0:0:
320,192,200135,1,0,0:0:0:0:
192,192,200169,1,0,0:0:0:0:
448,192,200203,1,0,0:0:0:0:
320,192,200271,1,0,0:0:0:0:
64,192,200306,1,0,0:0:0:0:
320,192,200340,1,0,0:0:0:0:
192,192,200408,1,0,0:0:0:0:
64,192,200442,1,0,0:0:0:0:
320,192,200476,1,0,0:0:0:0:
448,192,200544,1,0,0:0:0:0:
64,192,200578,1,0,0:0:0:0:
192,192,200578,1,0,0:0:0:0:
320,192,200612,1,0,0:0:0:0:
448,192,200681,1,0,0:0:0:0:
64,192,200715,1,0,0:0:0:0:
320,192,200749,1,0,0:0:0:0:
192,192,200817,1,0,0:0:0:0:
64,192,200851,1,0,0:0:0:0:
448,192,200851,1,0,0:0:0:0:
320,192,200896,1,0,0:0:0:0:
192,192,200942,1,0,0:0:0:0:
64,192,200987,1,0,0:0:0:0:
448,192,201033,1,0,0:0:0:0:
192,192,201078,1,0,0:0:0:0:
320,192,201124,1,0,0:0:0:0:
64,192,201169,1,0,0:0:0:0:
448,192,201215,1,0,0:0:0:0:
192,192,201260,1,0,0:0:0:0:
320,192,201306,1,0,0:0:0:0:
448,192,201351,1,0,0:0:0:0:
64,192,201396,1,0,0:0:0:0:
192,192,201442,1,0,0:0:0:0:
320,192,201487,1,0,0:0:0:0:
64,192,201533,1,0,0:0:0:0:
192,192,201578,1,0,0:0:0:0:
448,192,201624,1,0,0:0:0:0:
64,192,201669,1,0,0:0:0:0:
192,192,201715,1,0,0:0:0:0:
320,192,201760,1,0,0:0:0:0:
448,192,201805,1,0,0:0:0:0:
192,192,201851,1,0,0:0:0:0:
320,192,201896,1,0,0:0:0:0:
64,192,201942,1,0,0:0:0:0:
448,192,201987,1,0,0:0:0:0:
192,192,202033,1,0,0:0:0:0:
64,192,202078,1,0,0:0:0:0:
320,192,202124,1,0,0:0:0:0:
192,192,202169,1,0,0:0:0:0:
64,192,202215,1,0,0:0:0:0:
320,192,202260,1,0,0:0:0:0:
448,192,202305,1,0,0:0:0:0:
64,192,202351,1,0,0:0:0:0:
192,192,202396,1,0,0:0:0:0:
448,192,202442,1,0,0:0:0:0:
320,192,202487,1,0,0:0:0:0:
64,192,202487,1,0,0:0:0:0:
192,192,202533,1,0,0:0:0:0:
448,192,202578,1,0,0:0:0:0:
320,192,202624,1,0,0:0:0:0:
64,192,202669,1,0,0:0:0:0:
192,192,202715,1,0,0:0:0:0:
320,192,202760,1,0,0:0:0:0:
448,192,202760,1,0,0:0:0:0:
192,192,202805,1,0,0:0:0:0:
64,192,202851,1,0,0:0:0:0:
320,192,202896,1,0,0:0:0:0:
448,192,202942,1,0,0:0:0:0:
192,192,202987,1,0,0:0:0:0:
64,192,203033,1,0,0:0:0:0:
320,192,203033,1,0,0:0:0:0:
448,192,203078,1,0,0:0:0:0:
64,192,203124,1,0,0:0:0:0:
192,192,203169,1,0,0:0:0:0:
320,192,203169,1,0,0:0:0:0:
448,192,203215,1,0,0:0:0:0:
64,192,203260,1,0,0:0:0:0:
192,192,203305,1,0,0:0:0:0:
448,192,203351,1,0,0:0:0:0:
320,192,203396,1,0,0:0:0:0:
64,192,203442,1,0,0:0:0:0:
448,192,203487,1,0,0:0:0:0:
320,192,203533,1,0,0:0:0:0:
64,192,203578,1,0,0:0:0:0:
192,192,203578,1,0,0:0:0:0:
320,192,203646,1,0,0:0:0:0:
448,192,203646,1,0,0:0:0:0:
192,192,203715,1,0,0:0:0:0:
64,192,203715,1,0,0:0:0:0:
320,192,203783,1,0,0:0:0:0:
448,192,203783,1,0,0:0:0:0:
192,192,203851,1,0,0:0:0:0:
64,192,203851,1,0,0:0:0:0:
320,192,203919,1,0,0:0:0:0:
448,192,203919,1,0,0:0:0:0:
192,192,203987,1,0,0:0:0:0:
64,192,203987,1,0,0:0:0:0:
320,192,204055,1,0,0:0:0:0:
448,192,204055,1,0,0:0:0:0:
192,192,204124,1,0,0:0:0:0:
64,192,204124,1,0,0:0:0:0:
320,192,204192,1,0,0:0:0:0:
448,192,204192,1,0,0:0:0:0:
192,192,204260,1,0,0:0:0:0:
64,192,204260,1,0,0:0:0:0:
320,192,204328,1,0,0:0:0:0:
448,192,204328,1,0,0:0:0:0:
192,192,204396,1,0,0:0:0:0:
64,192,204396,1,0,0:0:0:0:
320,192,204465,1,0,0:0:0:0:
448,192,204465,1,0,0:0:0:0:
192,192,204533,1,0,0:0:0:0:
64,192,204533,1,0,0:0:0:0:
320,192,204601,1,0,0:0:0:0:
448,192,204601,1,0,0:0:0:0:
192,192,204669,1,0,0:0:0:0:
64,192,204669,1,0,0:0:0:0:
320,192,204805,1,0,0:0:0:0:
192,192,204942,1,0,0:0:0:0:
64,192,205078,1,0,0:0:0:0:
320,192,205214,1,0,0:0:0:0:
448,192,205351,1,0,0:0:0:0:
192,192,205487,1,0,0:0:0:0:
320,192,205624,1,0,0:0:0:0:
64,192,205760,1,0,0:0:0:0:
448,192,205896,1,0,0:0:0:0:
192,192,206033,1,0,0:0:0:0:
64,192,206169,1,0,0:0:0:0:
320,192,206305,1,0,0:0:0:0:
320,192,206442,1,0,0:0:0:0:
192,192,206578,1,0,0:0:0:0:
448,192,206851,1,0,0:0:0:0:
64,192,206851,1,0,0:0:0:0:
192,192,206987,1,0,0:0:0:0:
320,192,207124,1,0,0:0:0:0:
64,192,207260,1,0,0:0:0:0:
192,192,207396,1,0,0:0:0:0:
448,192,207533,1,0,0:0:0:0:
64,192,207669,1,0,0:0:0:0:
320,192,207942,1,0,0:0:0:0:
192,192,208078,1,0,0:0:0:0:
448,192,208214,1,0,0:0:0:0:
192,192,208351,1,0,0:0:0:0:
320,192,208487,1,0,0:0:0:0:
64,192,208623,1,0,0:0:0:0:
64,192,208760,1,0,0:0:0:0:
320,192,208896,1,0,0:0:0:0:
192,192,209033,1,0,0:0:0:0:
64,192,209033,1,0,0:0:0:0:
448,192,209169,1,0,0:0:0:0:
64,192,209305,1,0,0:0:0:0:
320,192,209442,1,0,0:0:0:0:
192,192,209578,1,0,0:0:0:0:
448,192,209714,1,0,0:0:0:0:
64,192,209851,1,0,0:0:0:0:
448,192,209987,1,0,0:0:0:0:
320,192,210123,1,0,0:0:0:0:
64,192,210260,1,0,0:0:0:0:
192,192,210396,1,0,0:0:0:0:
64,192,210533,1,0,0:0:0:0:
448,192,210669,1,0,0:0:0:0:
320,192,210805,1,0,0:0:0:0:
192,192,210942,1,0,0:0:0:0:
64,192,211078,1,0,0:0:0:0:
320,192,211214,1,0,0:0:0:0:
448,192,211214,1,0,0:0:0:0:
64,192,211351,1,0,0:0:0:0:
192,192,211487,1,0,0:0:0:0:
448,192,211623,1,0,0:0:0:0:
64,192,211760,1,0,0:0:0:0:
320,192,211896,1,0,0:0:0:0:
64,192,212032,1,0,0:0:0:0:
320,192,212169,1,0,0:0:0:0:
192,192,212305,1,0,0:0:0:0:
448,192,212442,1,0,0:0:0:0:
320,192,212578,1,0,0:0:0:0:
64,192,212714,1,0,0:0:0:0:
192,192,212851,1,0,0:0:0:0:
320,192,212987,1,0,0:0:0:0:
64,192,213123,1,0,0:0:0:0:
320,192,213260,1,0,0:0:0:0:
192,192,213396,1,0,0:0:0:0:
64,192,213396,1,0,0:0:0:0:
