osu file format v14

[General]
AudioFilename: Shissou Suru Kanashimi no Naka de11.mp3
AudioLeadIn: 0
PreviewTime: 31364
Countdown: 1
SampleSet: Normal
StackLeniency: 0.7
Mode: 3
LetterboxInBreaks: 0
SpecialStyle: 0
WidescreenStoryboard: 1

[Editor]
DistanceSpacing: 0.8
BeatDivisor: 4
GridSize: 4
TimelineZoom: 1.7

[Metadata]
Title:Sizuka's Favorite Songs Pack
TitleUnicode:Sizuka's Favorite Songs Pack
Artist:Various
ArtistUnicode:Various
Creator:_Sizuka_
Version:Senya - Shissou Suru Kanashimi no Naka de[x1.1]
Source:
Tags:
BeatmapID:989290
BeatmapSetID:461969

[Difficulty]
HPDrainRate:8
CircleSize:4
OverallDifficulty:8
ApproachRate:5
SliderMultiplier:1.4
SliderTickRate:1

[Events]
//Background and Video events
0,0,"C88Cover.jpg",0,0
//Break Periods
//Storyboard Layer 0 (Background)
//Storyboard Layer 1 (Fail)
//Storyboard Layer 2 (Pass)
//Storyboard Layer 3 (Foreground)
//Storyboard Sound Samples

[TimingPoints]
523,351.976774193549,4,1,0,17,1,0

[HitObjects]
448,192,523,5,0,0:0:0:0:
320,192,523,1,0,0:0:0:0:
320,192,698,1,0,0:0:0:0:
64,192,874,1,0,0:0:0:0:
192,192,874,1,0,0:0:0:0:
320,192,1050,1,0,0:0:0:0:
448,192,1226,1,0,0:0:0:0:
192,192,1226,1,0,0:0:0:0:
64,192,1402,1,0,0:0:0:0:
448,192,1578,1,0,0:0:0:0:
320,192,1754,1,0,0:0:0:0:
192,192,1754,1,0,0:0:0:0:
64,192,1930,1,0,0:0:0:0:
448,192,1930,1,0,0:0:0:0:
192,192,2106,1,0,0:0:0:0:
320,192,2282,1,0,0:0:0:0:
448,192,2282,1,0,0:0:0:0:
192,192,2458,1,0,0:0:0:0:
448,192,2634,1,0,0:0:0:0:
64,192,2634,1,0,0:0:0:0:
320,192,2810,1,0,0:0:0:0:
192,192,2986,1,0,0:0:0:0:
64,192,2986,1,0,0:0:0:0:
448,192,3162,1,0,0:0:0:0:
192,192,3338,1,0,0:0:0:0:
320,192,3338,1,0,0:0:0:0:
64,192,3514,1,0,0:0:0:0:
192,192,3690,1,0,0:0:0:0:
448,192,3690,1,0,0:0:0:0:
64,192,3866,1,0,0:0:0:0:
192,192,4042,1,0,0:0:0:0:
320,192,4042,1,0,0:0:0:0:
448,192,4218,1,0,0:0:0:0:
320,192,4394,1,0,0:0:0:0:
192,192,4570,1,0,0:0:0:0:
64,192,4570,1,0,0:0:0:0:
320,192,4746,1,0,0:0:0:0:
448,192,4746,1,0,0:0:0:0:
192,192,4922,1,0,0:0:0:0:
64,192,5098,1,0,0:0:0:0:
320,192,5098,1,0,0:0:0:0:
448,192,5186,1,0,0:0:0:0:
320,192,5274,1,0,0:0:0:0:
192,192,5362,1,0,0:0:0:0:
64,192,5450,1,0,0:0:0:0:
448,192,5450,1,0,0:0:0:0:
448,192,5538,1,0,0:0:0:0:
64,192,5538,1,0,0:0:0:0:
320,192,5626,1,0,0:0:0:0:
192,192,5626,1,0,0:0:0:0:
64,192,5714,1,0,0:0:0:0:
320,192,5714,1,0,0:0:0:0:
192,192,5802,1,0,0:0:0:0:
448,192,5802,1,0,0:0:0:0:
448,192,5890,1,0,0:0:0:0:
192,192,5890,1,0,0:0:0:0:
64,192,5978,1,0,0:0:0:0:
320,192,5978,1,0,0:0:0:0:
64,192,6066,1,0,0:0:0:0:
320,192,6066,1,0,0:0:0:0:
192,192,6154,1,0,0:0:0:0:
320,192,6154,1,0,0:0:0:0:
448,192,6154,1,0,0:0:0:0:
64,192,6242,1,0,0:0:0:0:
448,192,6330,1,0,0:0:0:0:
192,192,6330,1,0,0:0:0:0:
320,192,6418,1,0,0:0:0:0:
192,192,6506,1,0,0:0:0:0:
64,192,6506,1,0,0:0:0:0:
320,192,6682,1,0,0:0:0:0:
448,192,6770,1,0,0:0:0:0:
192,192,6858,1,0,0:0:0:0:
320,192,6858,1,0,0:0:0:0:
64,192,6858,1,0,0:0:0:0:
320,192,7034,1,0,0:0:0:0:
448,192,7034,1,0,0:0:0:0:
192,192,7122,1,0,0:0:0:0:
64,192,7210,1,0,0:0:0:0:
320,192,7210,1,0,0:0:0:0:
448,192,7210,1,0,0:0:0:0:
192,192,7386,1,0,0:0:0:0:
320,192,7474,1,0,0:0:0:0:
448,192,7562,1,0,0:0:0:0:
192,192,7562,1,0,0:0:0:0:
64,192,7562,1,0,0:0:0:0:
320,192,7562,1,0,0:0:0:0:
320,192,7738,1,0,0:0:0:0:
64,192,7738,1,0,0:0:0:0:
192,192,7826,1,0,0:0:0:0:
64,192,7914,1,0,0:0:0:0:
320,192,7914,1,0,0:0:0:0:
448,192,7914,1,0,0:0:0:0:
448,192,8090,1,0,0:0:0:0:
320,192,8178,1,0,0:0:0:0:
192,192,8266,1,0,0:0:0:0:
64,192,8266,1,0,0:0:0:0:
448,192,8266,1,0,0:0:0:0:
64,192,8442,1,0,0:0:0:0:
192,192,8530,1,0,0:0:0:0:
320,192,8618,1,0,0:0:0:0:
448,192,8618,1,0,0:0:0:0:
64,192,8618,1,0,0:0:0:0:
192,192,8794,1,0,0:0:0:0:
320,192,8882,1,0,0:0:0:0:
448,192,8970,1,0,0:0:0:0:
192,192,8970,1,0,0:0:0:0:
64,192,8970,1,0,0:0:0:0:
320,192,8970,1,0,0:0:0:0:
320,192,9146,1,0,0:0:0:0:
192,192,9234,1,0,0:0:0:0:
64,192,9322,1,0,0:0:0:0:
320,192,9322,1,0,0:0:0:0:
448,192,9322,1,0,0:0:0:0:
64,192,9498,1,0,0:0:0:0:
320,192,9498,1,0,0:0:0:0:
192,192,9586,1,0,0:0:0:0:
320,192,9674,1,0,0:0:0:0:
448,192,9674,1,0,0:0:0:0:
64,192,9674,1,0,0:0:0:0:
192,192,9674,1,0,0:0:0:0:
448,192,9850,1,0,0:0:0:0:
192,192,9850,1,0,0:0:0:0:
320,192,9938,1,0,0:0:0:0:
448,192,10026,1,0,0:0:0:0:
192,192,10026,1,0,0:0:0:0:
64,192,10026,1,0,0:0:0:0:
320,192,10202,1,0,0:0:0:0:
192,192,10290,1,0,0:0:0:0:
64,192,10378,1,0,0:0:0:0:
320,192,10378,1,0,0:0:0:0:
448,192,10378,1,0,0:0:0:0:
192,192,10378,1,0,0:0:0:0:
192,192,10554,1,0,0:0:0:0:
320,192,10642,1,0,0:0:0:0:
448,192,10730,1,0,0:0:0:0:
320,192,10730,1,0,0:0:0:0:
192,192,10730,1,0,0:0:0:0:
64,192,10730,1,0,0:0:0:0:
320,192,10906,1,0,0:0:0:0:
448,192,10994,1,0,0:0:0:0:
448,192,11082,1,0,0:0:0:0:
320,192,11082,1,0,0:0:0:0:
192,192,11082,1,0,0:0:0:0:
64,192,11082,1,0,0:0:0:0:
64,192,11170,1,0,0:0:0:0:
192,192,11170,1,0,0:0:0:0:
64,192,11258,1,0,0:0:0:0:
320,192,11258,1,0,0:0:0:0:
64,192,11346,1,0,0:0:0:0:
448,192,11346,1,0,0:0:0:0:
64,192,11434,1,0,0:0:0:0:
320,192,11434,1,0,0:0:0:0:
448,192,11434,1,0,0:0:0:0:
192,192,11434,1,0,0:0:0:0:
64,192,11522,1,0,0:0:0:0:
192,192,11522,1,0,0:0:0:0:
64,192,11610,1,0,0:0:0:0:
320,192,11610,1,0,0:0:0:0:
64,192,11698,1,0,0:0:0:0:
448,192,11698,1,0,0:0:0:0:
192,192,11786,1,0,0:0:0:0:
320,192,11786,1,0,0:0:0:0:
448,192,11786,1,0,0:0:0:0:
64,192,11786,1,0,0:0:0:0:
192,192,11830,1,0,0:0:0:0:
320,192,11918,1,0,0:0:0:0:
448,192,11962,1,0,0:0:0:0:
64,192,12006,1,0,0:0:0:0:
192,192,12094,1,0,0:0:0:0:
448,192,12138,1,0,0:0:0:0:
320,192,12138,1,0,0:0:0:0:
64,192,12182,1,0,0:0:0:0:
192,192,12270,1,0,0:0:0:0:
448,192,12314,1,0,0:0:0:0:
64,192,12314,1,0,0:0:0:0:
192,192,12358,1,0,0:0:0:0:
320,192,12446,1,0,0:0:0:0:
448,192,12490,1,0,0:0:0:0:
64,192,12490,1,0,0:0:0:0:
320,192,12534,1,0,0:0:0:0:
192,192,12622,1,0,0:0:0:0:
64,192,12666,1,0,0:0:0:0:
448,192,12710,1,0,0:0:0:0:
192,192,12798,1,0,0:0:0:0:
320,192,12842,1,0,0:0:0:0:
448,192,12886,1,0,0:0:0:0:
64,192,12886,1,0,0:0:0:0:
192,192,12974,1,0,0:0:0:0:
320,192,13018,1,0,0:0:0:0:
448,192,13018,1,0,0:0:0:0:
64,192,13062,1,0,0:0:0:0:
192,192,13150,1,0,0:0:0:0:
320,192,13194,1,0,0:0:0:0:
448,192,13194,1,0,0:0:0:0:
192,192,13238,1,0,0:0:0:0:
64,192,13326,1,0,0:0:0:0:
320,192,13370,1,0,0:0:0:0:
448,192,13414,1,0,0:0:0:0:
192,192,13502,1,0,0:0:0:0:
64,192,13546,1,0,0:0:0:0:
448,192,13546,1,0,0:0:0:0:
320,192,13590,1,0,0:0:0:0:
192,192,13678,1,0,0:0:0:0:
64,192,13722,1,0,0:0:0:0:
320,192,13766,1,0,0:0:0:0:
448,192,13854,1,0,0:0:0:0:
64,192,13898,1,0,0:0:0:0:
192,192,13898,1,0,0:0:0:0:
320,192,13942,1,0,0:0:0:0:
448,192,14030,1,0,0:0:0:0:
192,192,14074,1,0,0:0:0:0:
64,192,14118,1,0,0:0:0:0:
448,192,14206,1,0,0:0:0:0:
320,192,14250,1,0,0:0:0:0:
192,192,14250,1,0,0:0:0:0:
64,192,14294,1,0,0:0:0:0:
448,192,14382,1,0,0:0:0:0:
192,192,14426,1,0,0:0:0:0:
320,192,14470,1,0,0:0:0:0:
448,192,14558,1,0,0:0:0:0:
64,192,14602,1,0,0:0:0:0:
192,192,14602,1,0,0:0:0:0:
320,192,14646,1,0,0:0:0:0:
448,192,14734,1,0,0:0:0:0:
320,192,14778,1,0,0:0:0:0:
448,192,14822,1,0,0:0:0:0:
192,192,14910,1,0,0:0:0:0:
64,192,14954,1,0,0:0:0:0:
320,192,14954,1,0,0:0:0:0:
448,192,14998,1,0,0:0:0:0:
192,192,15086,1,0,0:0:0:0:
64,192,15130,1,0,0:0:0:0:
448,192,15130,1,0,0:0:0:0:
320,192,15174,1,0,0:0:0:0:
192,192,15262,1,0,0:0:0:0:
64,192,15306,1,0,0:0:0:0:
448,192,15306,1,0,0:0:0:0:
320,192,15350,1,0,0:0:0:0:
64,192,15438,1,0,0:0:0:0:
448,192,15482,1,0,0:0:0:0:
320,192,15526,1,0,0:0:0:0:
192,192,15614,1,0,0:0:0:0:
64,192,15658,1,0,0:0:0:0:
448,192,15658,1,0,0:0:0:0:
320,192,15701,1,0,0:0:0:0:
192,192,15789,1,0,0:0:0:0:
320,192,15833,1,0,0:0:0:0:
448,192,15833,1,0,0:0:0:0:
64,192,15877,1,0,0:0:0:0:
192,192,15965,1,0,0:0:0:0:
320,192,16009,1,0,0:0:0:0:
448,192,16009,1,0,0:0:0:0:
64,192,16053,1,0,0:0:0:0:
192,192,16141,1,0,0:0:0:0:
320,192,16185,1,0,0:0:0:0:
448,192,16229,1,0,0:0:0:0:
192,192,16317,1,0,0:0:0:0:
64,192,16361,1,0,0:0:0:0:
320,192,16361,1,0,0:0:0:0:
448,192,16405,1,0,0:0:0:0:
64,192,16493,1,0,0:0:0:0:
192,192,16537,1,0,0:0:0:0:
448,192,16581,1,0,0:0:0:0:
320,192,16669,1,0,0:0:0:0:
192,192,16713,1,0,0:0:0:0:
64,192,16713,1,0,0:0:0:0:
448,192,16757,1,0,0:0:0:0:
320,192,16845,1,0,0:0:0:0:
192,192,16889,1,0,0:0:0:0:
64,192,16933,1,0,0:0:0:0:
320,192,17021,1,0,0:0:0:0:
448,192,17065,1,0,0:0:0:0:
64,192,17109,1,0,0:0:0:0:
192,192,17197,1,0,0:0:0:0:
320,192,17241,1,0,0:0:0:0:
448,192,17241,1,0,0:0:0:0:
64,192,17285,1,0,0:0:0:0:
192,192,17373,1,0,0:0:0:0:
320,192,17417,1,0,0:0:0:0:
448,192,17417,1,0,0:0:0:0:
192,192,17461,1,0,0:0:0:0:
64,192,17549,1,0,0:0:0:0:
320,192,17593,1,0,0:0:0:0:
192,192,17637,1,0,0:0:0:0:
64,192,17725,1,0,0:0:0:0:
320,192,17769,1,0,0:0:0:0:
448,192,17769,1,0,0:0:0:0:
192,192,17813,1,0,0:0:0:0:
64,192,17901,1,0,0:0:0:0:
448,192,17945,1,0,0:0:0:0:
192,192,17989,1,0,0:0:0:0:
320,192,18077,1,0,0:0:0:0:
448,192,18121,1,0,0:0:0:0:
64,192,18121,1,0,0:0:0:0:
192,192,18165,1,0,0:0:0:0:
64,192,18253,1,0,0:0:0:0:
320,192,18297,1,0,0:0:0:0:
448,192,18341,1,0,0:0:0:0:
64,192,18429,1,0,0:0:0:0:
192,192,18473,1,0,0:0:0:0:
320,192,18473,1,0,0:0:0:0:
448,192,18517,1,0,0:0:0:0:
64,192,18605,1,0,0:0:0:0:
192,192,18649,1,0,0:0:0:0:
320,192,18693,1,0,0:0:0:0:
448,192,18781,1,0,0:0:0:0:
64,192,18825,1,0,0:0:0:0:
192,192,18825,1,0,0:0:0:0:
320,192,18869,1,0,0:0:0:0:
448,192,18957,1,0,0:0:0:0:
192,192,19001,1,0,0:0:0:0:
64,192,19045,1,0,0:0:0:0:
448,192,19045,1,0,0:0:0:0:
320,192,19133,1,0,0:0:0:0:
192,192,19177,1,0,0:0:0:0:
64,192,19177,1,0,0:0:0:0:
448,192,19221,1,0,0:0:0:0:
320,192,19309,1,0,0:0:0:0:
192,192,19353,1,0,0:0:0:0:
64,192,19397,1,0,0:0:0:0:
448,192,19485,1,0,0:0:0:0:
192,192,19529,1,0,0:0:0:0:
320,192,19529,1,0,0:0:0:0:
64,192,19573,1,0,0:0:0:0:
448,192,19661,1,0,0:0:0:0:
192,192,19705,1,0,0:0:0:0:
320,192,19749,1,0,0:0:0:0:
448,192,19837,1,0,0:0:0:0:
64,192,19881,1,0,0:0:0:0:
192,192,19881,1,0,0:0:0:0:
320,192,19925,1,0,0:0:0:0:
448,192,20013,1,0,0:0:0:0:
64,192,20057,1,0,0:0:0:0:
320,192,20101,1,0,0:0:0:0:
192,192,20189,1,0,0:0:0:0:
64,192,20233,1,0,0:0:0:0:
448,192,20233,1,0,0:0:0:0:
320,192,20277,1,0,0:0:0:0:
192,192,20365,1,0,0:0:0:0:
320,192,20409,1,0,0:0:0:0:
448,192,20409,1,0,0:0:0:0:
64,192,20453,1,0,0:0:0:0:
192,192,20541,1,0,0:0:0:0:
320,192,20585,1,0,0:0:0:0:
448,192,20585,1,0,0:0:0:0:
64,192,20629,1,0,0:0:0:0:
192,192,20717,1,0,0:0:0:0:
320,192,20761,1,0,0:0:0:0:
448,192,20761,1,0,0:0:0:0:
64,192,20805,1,0,0:0:0:0:
192,192,20893,1,0,0:0:0:0:
320,192,20937,1,0,0:0:0:0:
448,192,20937,1,0,0:0:0:0:
64,192,20981,1,0,0:0:0:0:
192,192,21069,1,0,0:0:0:0:
320,192,21113,1,0,0:0:0:0:
448,192,21113,1,0,0:0:0:0:
64,192,21157,1,0,0:0:0:0:
192,192,21245,1,0,0:0:0:0:
320,192,21289,1,0,0:0:0:0:
448,192,21289,1,0,0:0:0:0:
64,192,21333,1,0,0:0:0:0:
192,192,21421,1,0,0:0:0:0:
320,192,21465,1,0,0:0:0:0:
448,192,21465,1,0,0:0:0:0:
64,192,21509,1,0,0:0:0:0:
192,192,21597,1,0,0:0:0:0:
320,192,21641,1,0,0:0:0:0:
448,192,21641,1,0,0:0:0:0:
64,192,21641,1,0,0:0:0:0:
448,192,21729,1,0,0:0:0:0:
64,192,21817,1,0,0:0:0:0:
320,192,21817,1,0,0:0:0:0:
192,192,21905,1,0,0:0:0:0:
320,192,21905,1,0,0:0:0:0:
64,192,21993,1,0,0:0:0:0:
448,192,21993,1,0,0:0:0:0:
320,192,22081,1,0,0:0:0:0:
448,192,22081,1,0,0:0:0:0:
320,192,22169,1,0,0:0:0:0:
64,192,22169,1,0,0:0:0:0:
192,192,22257,1,0,0:0:0:0:
64,192,22257,1,0,0:0:0:0:
192,192,22345,1,0,0:0:0:0:
448,192,22345,1,0,0:0:0:0:
320,192,22433,1,0,0:0:0:0:
64,192,22433,1,0,0:0:0:0:
64,192,22521,1,0,0:0:0:0:
192,192,22521,1,0,0:0:0:0:
320,192,22609,1,0,0:0:0:0:
448,192,22609,1,0,0:0:0:0:
448,192,22697,1,0,0:0:0:0:
64,192,22697,1,0,0:0:0:0:
192,192,22785,1,0,0:0:0:0:
320,192,22785,1,0,0:0:0:0:
192,192,22873,1,0,0:0:0:0:
64,192,22873,1,0,0:0:0:0:
320,192,22961,1,0,0:0:0:0:
448,192,22961,1,0,0:0:0:0:
448,192,23049,1,0,0:0:0:0:
320,192,23049,1,0,0:0:0:0:
192,192,23049,1,0,0:0:0:0:
64,192,23137,1,0,0:0:0:0:
192,192,23225,1,0,0:0:0:0:
320,192,23313,1,0,0:0:0:0:
64,192,23401,1,0,0:0:0:0:
192,192,23401,1,0,0:0:0:0:
448,192,23401,1,0,0:0:0:0:
320,192,23489,1,0,0:0:0:0:
448,192,23577,1,0,0:0:0:0:
192,192,23577,1,0,0:0:0:0:
64,192,23665,1,0,0:0:0:0:
192,192,23753,1,0,0:0:0:0:
320,192,23753,1,0,0:0:0:0:
448,192,23841,1,0,0:0:0:0:
192,192,23929,1,0,0:0:0:0:
64,192,23929,1,0,0:0:0:0:
320,192,24017,1,0,0:0:0:0:
448,192,24105,1,0,0:0:0:0:
64,192,24105,1,0,0:0:0:0:
192,192,24105,1,0,0:0:0:0:
320,192,24193,1,0,0:0:0:0:
192,192,24281,1,0,0:0:0:0:
448,192,24281,1,0,0:0:0:0:
64,192,24369,1,0,0:0:0:0:
192,192,24457,1,0,0:0:0:0:
320,192,24457,1,0,0:0:0:0:
448,192,24457,1,0,0:0:0:0:
64,192,24545,1,0,0:0:0:0:
192,192,24633,1,0,0:0:0:0:
448,192,24721,1,0,0:0:0:0:
320,192,24809,1,0,0:0:0:0:
192,192,24809,1,0,0:0:0:0:
64,192,24809,1,0,0:0:0:0:
448,192,24897,1,0,0:0:0:0:
320,192,24985,1,0,0:0:0:0:
64,192,24985,1,0,0:0:0:0:
192,192,25073,1,0,0:0:0:0:
64,192,25161,1,0,0:0:0:0:
448,192,25161,1,0,0:0:0:0:
320,192,25249,1,0,0:0:0:0:
192,192,25337,1,0,0:0:0:0:
64,192,25425,1,0,0:0:0:0:
320,192,25513,1,0,0:0:0:0:
448,192,25513,1,0,0:0:0:0:
192,192,25513,1,0,0:0:0:0:
64,192,25601,1,0,0:0:0:0:
192,192,25689,1,0,0:0:0:0:
448,192,25689,1,0,0:0:0:0:
64,192,25777,1,0,0:0:0:0:
192,192,25865,1,0,0:0:0:0:
320,192,25865,1,0,0:0:0:0:
448,192,25865,1,0,0:0:0:0:
64,192,25953,1,0,0:0:0:0:
320,192,26041,1,0,0:0:0:0:
192,192,26129,1,0,0:0:0:0:
64,192,26217,1,0,0:0:0:0:
320,192,26217,1,0,0:0:0:0:
448,192,26217,1,0,0:0:0:0:
192,192,26305,1,0,0:0:0:0:
448,192,26393,1,0,0:0:0:0:
64,192,26393,1,0,0:0:0:0:
320,192,26481,1,0,0:0:0:0:
192,192,26569,1,0,0:0:0:0:
64,192,26569,1,0,0:0:0:0:
448,192,26569,1,0,0:0:0:0:
320,192,26657,1,0,0:0:0:0:
192,192,26745,1,0,0:0:0:0:
64,192,26745,1,0,0:0:0:0:
448,192,26833,1,0,0:0:0:0:
320,192,26921,1,0,0:0:0:0:
192,192,26921,1,0,0:0:0:0:
64,192,26921,1,0,0:0:0:0:
448,192,27009,1,0,0:0:0:0:
320,192,27097,1,0,0:0:0:0:
64,192,27097,1,0,0:0:0:0:
192,192,27185,1,0,0:0:0:0:
320,192,27273,1,0,0:0:0:0:
448,192,27273,1,0,0:0:0:0:
64,192,27273,1,0,0:0:0:0:
192,192,27361,1,0,0:0:0:0:
448,192,27449,1,0,0:0:0:0:
320,192,27449,1,0,0:0:0:0:
64,192,27449,1,0,0:0:0:0:
192,192,27537,1,0,0:0:0:0:
320,192,27625,1,0,0:0:0:0:
448,192,27625,1,0,0:0:0:0:
64,192,27625,1,0,0:0:0:0:
192,192,27713,1,0,0:0:0:0:
320,192,27801,1,0,0:0:0:0:
448,192,27801,1,0,0:0:0:0:
64,192,27801,1,0,0:0:0:0:
192,192,27889,1,0,0:0:0:0:
64,192,27977,1,0,0:0:0:0:
320,192,27977,1,0,0:0:0:0:
448,192,27977,1,0,0:0:0:0:
448,192,28153,1,0,0:0:0:0:
64,192,28153,1,0,0:0:0:0:
192,192,28153,1,0,0:0:0:0:
64,192,28329,1,0,0:0:0:0:
192,192,28329,1,0,0:0:0:0:
320,192,28329,1,0,0:0:0:0:
448,192,28505,1,0,0:0:0:0:
320,192,28505,1,0,0:0:0:0:
64,192,28505,1,0,0:0:0:0:
64,192,28681,1,0,0:0:0:0:
192,192,28681,1,0,0:0:0:0:
448,192,28681,1,0,0:0:0:0:
320,192,28769,1,0,0:0:0:0:
192,192,28857,1,0,0:0:0:0:
64,192,28945,1,0,0:0:0:0:
192,192,29033,1,0,0:0:0:0:
320,192,29033,1,0,0:0:0:0:
448,192,29033,1,0,0:0:0:0:
64,192,29121,1,0,0:0:0:0:
448,192,29209,1,0,0:0:0:0:
320,192,29297,1,0,0:0:0:0:
192,192,29385,1,0,0:0:0:0:
64,192,29385,1,0,0:0:0:0:
448,192,29385,1,0,0:0:0:0:
320,192,29473,1,0,0:0:0:0:
192,192,29561,1,0,0:0:0:0:
64,192,29649,1,0,0:0:0:0:
192,192,29737,1,0,0:0:0:0:
320,192,29737,1,0,0:0:0:0:
448,192,29737,1,0,0:0:0:0:
64,192,29825,1,0,0:0:0:0:
448,192,29913,1,0,0:0:0:0:
320,192,30001,1,0,0:0:0:0:
192,192,30089,1,0,0:0:0:0:
64,192,30089,1,0,0:0:0:0:
448,192,30089,1,0,0:0:0:0:
320,192,30177,1,0,0:0:0:0:
64,192,30265,1,0,0:0:0:0:
192,192,30353,1,0,0:0:0:0:
320,192,30441,1,0,0:0:0:0:
448,192,30441,1,0,0:0:0:0:
64,192,30441,1,0,0:0:0:0:
192,192,30529,1,0,0:0:0:0:
320,192,30617,1,0,0:0:0:0:
448,192,30705,1,0,0:0:0:0:
320,192,30793,1,0,0:0:0:0:
192,192,30793,1,0,0:0:0:0:
64,192,30793,1,0,0:0:0:0:
448,192,30880,1,0,0:0:0:0:
320,192,30968,1,0,0:0:0:0:
192,192,31056,1,0,0:0:0:0:
64,192,31144,1,0,0:0:0:0:
320,192,31144,1,0,0:0:0:0:
448,192,31144,1,0,0:0:0:0:
192,192,31232,1,0,0:0:0:0:
448,192,31320,1,0,0:0:0:0:
64,192,31320,1,0,0:0:0:0:
320,192,31408,1,0,0:0:0:0:
192,192,31496,1,0,0:0:0:0:
64,192,31496,1,0,0:0:0:0:
448,192,31496,1,0,0:0:0:0:
320,192,31672,1,0,0:0:0:0:
448,192,31672,1,0,0:0:0:0:
192,192,31672,1,0,0:0:0:0:
64,192,31672,1,0,0:0:0:0:
64,192,32024,1,0,0:0:0:0:
192,192,32024,1,0,0:0:0:0:
64,192,32112,1,0,0:0:0:0:
192,192,32112,1,0,0:0:0:0:
64,192,32200,1,0,0:0:0:0:
192,192,32200,1,0,0:0:0:0:
320,192,32200,1,0,0:0:0:0:
448,192,32200,1,0,0:0:0:0:
320,192,32376,1,0,0:0:0:0:
448,192,32376,1,0,0:0:0:0:
192,192,32376,1,0,0:0:0:0:
320,192,32728,1,0,0:0:0:0:
448,192,32728,1,0,0:0:0:0:
320,192,32816,1,0,0:0:0:0:
448,192,32816,1,0,0:0:0:0:
448,192,32904,1,0,0:0:0:0:
320,192,32904,1,0,0:0:0:0:
192,192,32904,1,0,0:0:0:0:
64,192,32904,1,0,0:0:0:0:
64,192,33256,1,0,0:0:0:0:
192,192,33256,1,0,0:0:0:0:
320,192,33256,1,0,0:0:0:0:
448,192,33256,1,0,0:0:0:0:
448,192,33608,1,0,0:0:0:0:
320,192,33608,1,0,0:0:0:0:
192,192,33608,1,0,0:0:0:0:
64,192,33608,1,0,0:0:0:0:
64,192,33960,1,0,0:0:0:0:
192,192,34004,1,0,0:0:0:0:
320,192,34092,1,0,0:0:0:0:
448,192,34136,1,0,0:0:0:0:
64,192,34136,1,0,0:0:0:0:
192,192,34180,1,0,0:0:0:0:
320,192,34224,1,0,0:0:0:0:
448,192,34268,1,0,0:0:0:0:
64,192,34268,1,0,0:0:0:0:
192,192,34312,1,0,0:0:0:0:
320,192,34312,1,0,0:0:0:0:
64,192,34400,1,0,0:0:0:0:
448,192,34400,1,0,0:0:0:0:
192,192,34488,1,0,0:0:0:0:
320,192,34488,1,0,0:0:0:0:
64,192,34576,1,0,0:0:0:0:
320,192,34576,1,0,0:0:0:0:
64,192,34664,1,0,0:0:0:0:
192,192,34664,1,0,0:0:0:0:
448,192,34664,1,0,0:0:0:0:
320,192,34752,1,0,0:0:0:0:
192,192,34840,1,0,0:0:0:0:
448,192,34840,1,0,0:0:0:0:
64,192,34928,1,0,0:0:0:0:
64,192,35016,1,0,0:0:0:0:
192,192,35016,1,0,0:0:0:0:
320,192,35016,1,0,0:0:0:0:
448,192,35016,1,0,0:0:0:0:
448,192,35104,1,0,0:0:0:0:
320,192,35192,1,0,0:0:0:0:
64,192,35192,1,0,0:0:0:0:
64,192,35280,1,0,0:0:0:0:
448,192,35324,1,0,0:0:0:0:
192,192,35368,1,0,0:0:0:0:
320,192,35368,1,0,0:0:0:0:
64,192,35368,1,0,0:0:0:0:
448,192,35412,1,0,0:0:0:0:
320,192,35500,1,0,0:0:0:0:
192,192,35544,1,0,0:0:0:0:
64,192,35544,1,0,0:0:0:0:
448,192,35632,1,0,0:0:0:0:
320,192,35632,1,0,0:0:0:0:
320,192,35720,1,0,0:0:0:0:
448,192,35720,1,0,0:0:0:0:
192,192,35720,1,0,0:0:0:0:
64,192,35720,1,0,0:0:0:0:
64,192,35764,1,0,0:0:0:0:
192,192,35852,1,0,0:0:0:0:
320,192,35852,1,0,0:0:0:0:
448,192,35896,1,0,0:0:0:0:
64,192,35940,1,0,0:0:0:0:
448,192,35984,1,0,0:0:0:0:
320,192,36028,1,0,0:0:0:0:
192,192,36072,1,0,0:0:0:0:
64,192,36116,1,0,0:0:0:0:
448,192,36160,1,0,0:0:0:0:
320,192,36160,1,0,0:0:0:0:
448,192,36248,1,0,0:0:0:0:
64,192,36248,1,0,0:0:0:0:
192,192,36336,1,0,0:0:0:0:
320,192,36336,1,0,0:0:0:0:
448,192,36424,1,0,0:0:0:0:
320,192,36424,1,0,0:0:0:0:
192,192,36424,1,0,0:0:0:0:
64,192,36424,1,0,0:0:0:0:
448,192,36512,1,0,0:0:0:0:
64,192,36600,1,0,0:0:0:0:
320,192,36600,1,0,0:0:0:0:
448,192,36688,1,0,0:0:0:0:
320,192,36688,1,0,0:0:0:0:
192,192,36776,1,0,0:0:0:0:
64,192,36776,1,0,0:0:0:0:
448,192,36776,1,0,0:0:0:0:
64,192,36864,1,0,0:0:0:0:
320,192,36864,1,0,0:0:0:0:
192,192,36952,1,0,0:0:0:0:
320,192,37040,1,0,0:0:0:0:
448,192,37040,1,0,0:0:0:0:
448,192,37128,1,0,0:0:0:0:
320,192,37128,1,0,0:0:0:0:
192,192,37128,1,0,0:0:0:0:
64,192,37128,1,0,0:0:0:0:
64,192,37216,1,0,0:0:0:0:
192,192,37304,1,0,0:0:0:0:
320,192,37304,1,0,0:0:0:0:
320,192,37392,1,0,0:0:0:0:
64,192,37392,1,0,0:0:0:0:
192,192,37480,1,0,0:0:0:0:
448,192,37480,1,0,0:0:0:0:
448,192,37568,1,0,0:0:0:0:
64,192,37568,1,0,0:0:0:0:
320,192,37656,1,0,0:0:0:0:
448,192,37656,1,0,0:0:0:0:
192,192,37744,1,0,0:0:0:0:
64,192,37744,1,0,0:0:0:0:
64,192,37832,1,0,0:0:0:0:
192,192,37832,1,0,0:0:0:0:
320,192,37832,1,0,0:0:0:0:
448,192,37832,1,0,0:0:0:0:
448,192,37876,1,0,0:0:0:0:
320,192,37920,1,0,0:0:0:0:
192,192,37964,1,0,0:0:0:0:
64,192,38008,1,0,0:0:0:0:
448,192,38052,1,0,0:0:0:0:
320,192,38052,1,0,0:0:0:0:
64,192,38096,1,0,0:0:0:0:
192,192,38140,1,0,0:0:0:0:
320,192,38184,1,0,0:0:0:0:
448,192,38228,1,0,0:0:0:0:
64,192,38272,1,0,0:0:0:0:
320,192,38316,1,0,0:0:0:0:
192,192,38360,1,0,0:0:0:0:
64,192,38360,1,0,0:0:0:0:
320,192,38448,1,0,0:0:0:0:
448,192,38448,1,0,0:0:0:0:
448,192,38536,1,0,0:0:0:0:
320,192,38536,1,0,0:0:0:0:
192,192,38536,1,0,0:0:0:0:
64,192,38536,1,0,0:0:0:0:
64,192,38624,1,0,0:0:0:0:
192,192,38712,1,0,0:0:0:0:
448,192,38712,1,0,0:0:0:0:
320,192,38800,1,0,0:0:0:0:
192,192,38888,1,0,0:0:0:0:
64,192,38888,1,0,0:0:0:0:
320,192,38888,1,0,0:0:0:0:
448,192,38888,1,0,0:0:0:0:
192,192,38976,1,0,0:0:0:0:
64,192,39064,1,0,0:0:0:0:
448,192,39064,1,0,0:0:0:0:
320,192,39152,1,0,0:0:0:0:
192,192,39240,1,0,0:0:0:0:
64,192,39240,1,0,0:0:0:0:
320,192,39240,1,0,0:0:0:0:
448,192,39240,1,0,0:0:0:0:
64,192,39328,1,0,0:0:0:0:
192,192,39416,1,0,0:0:0:0:
448,192,39416,1,0,0:0:0:0:
64,192,39504,1,0,0:0:0:0:
320,192,39504,1,0,0:0:0:0:
192,192,39592,1,0,0:0:0:0:
448,192,39592,1,0,0:0:0:0:
320,192,39680,1,0,0:0:0:0:
64,192,39680,1,0,0:0:0:0:
64,192,39768,1,0,0:0:0:0:
320,192,39768,1,0,0:0:0:0:
192,192,39856,1,0,0:0:0:0:
448,192,39856,1,0,0:0:0:0:
448,192,39944,1,0,0:0:0:0:
192,192,39944,1,0,0:0:0:0:
64,192,39944,1,0,0:0:0:0:
320,192,39944,1,0,0:0:0:0:
320,192,40032,1,0,0:0:0:0:
192,192,40120,1,0,0:0:0:0:
64,192,40208,1,0,0:0:0:0:
320,192,40208,1,0,0:0:0:0:
192,192,40296,1,0,0:0:0:0:
320,192,40296,1,0,0:0:0:0:
64,192,40296,1,0,0:0:0:0:
448,192,40296,1,0,0:0:0:0:
448,192,40384,1,0,0:0:0:0:
320,192,40472,1,0,0:0:0:0:
192,192,40560,1,0,0:0:0:0:
64,192,40560,1,0,0:0:0:0:
64,192,40648,1,0,0:0:0:0:
192,192,40648,1,0,0:0:0:0:
320,192,40648,1,0,0:0:0:0:
448,192,40648,1,0,0:0:0:0:
448,192,40736,1,0,0:0:0:0:
320,192,40824,1,0,0:0:0:0:
192,192,40824,1,0,0:0:0:0:
64,192,40912,1,0,0:0:0:0:
192,192,41000,1,0,0:0:0:0:
320,192,41000,1,0,0:0:0:0:
448,192,41000,1,0,0:0:0:0:
64,192,41000,1,0,0:0:0:0:
448,192,41088,1,0,0:0:0:0:
320,192,41176,1,0,0:0:0:0:
192,192,41176,1,0,0:0:0:0:
64,192,41176,1,0,0:0:0:0:
64,192,41264,1,0,0:0:0:0:
192,192,41352,1,0,0:0:0:0:
320,192,41352,1,0,0:0:0:0:
448,192,41352,1,0,0:0:0:0:
64,192,41396,1,0,0:0:0:0:
192,192,41440,1,0,0:0:0:0:
320,192,41484,1,0,0:0:0:0:
448,192,41528,1,0,0:0:0:0:
64,192,41572,1,0,0:0:0:0:
192,192,41572,1,0,0:0:0:0:
448,192,41616,1,0,0:0:0:0:
320,192,41660,1,0,0:0:0:0:
192,192,41704,1,0,0:0:0:0:
64,192,41704,1,0,0:0:0:0:
320,192,41748,1,0,0:0:0:0:
448,192,41792,1,0,0:0:0:0:
64,192,41836,1,0,0:0:0:0:
192,192,41880,1,0,0:0:0:0:
320,192,41924,1,0,0:0:0:0:
448,192,41968,1,0,0:0:0:0:
64,192,42012,1,0,0:0:0:0:
192,192,42056,1,0,0:0:0:0:
320,192,42056,1,0,0:0:0:0:
448,192,42100,1,0,0:0:0:0:
64,192,42144,1,0,0:0:0:0:
320,192,42188,1,0,0:0:0:0:
192,192,42232,1,0,0:0:0:0:
64,192,42320,1,0,0:0:0:0:
320,192,42320,1,0,0:0:0:0:
192,192,42408,1,0,0:0:0:0:
320,192,42408,1,0,0:0:0:0:
448,192,42408,1,0,0:0:0:0:
64,192,42408,1,0,0:0:0:0:
448,192,42496,1,0,0:0:0:0:
320,192,42584,1,0,0:0:0:0:
192,192,42672,1,0,0:0:0:0:
64,192,42760,1,0,0:0:0:0:
192,192,42760,1,0,0:0:0:0:
320,192,42760,1,0,0:0:0:0:
448,192,42760,1,0,0:0:0:0:
448,192,42848,1,0,0:0:0:0:
64,192,42936,1,0,0:0:0:0:
192,192,42936,1,0,0:0:0:0:
64,192,43024,1,0,0:0:0:0:
192,192,43112,1,0,0:0:0:0:
320,192,43112,1,0,0:0:0:0:
448,192,43112,1,0,0:0:0:0:
64,192,43200,1,0,0:0:0:0:
448,192,43200,1,0,0:0:0:0:
192,192,43288,1,0,0:0:0:0:
64,192,43288,1,0,0:0:0:0:
192,192,43376,1,0,0:0:0:0:
64,192,43376,1,0,0:0:0:0:
64,192,43464,1,0,0:0:0:0:
192,192,43464,1,0,0:0:0:0:
320,192,43464,1,0,0:0:0:0:
448,192,43464,1,0,0:0:0:0:
448,192,43552,1,0,0:0:0:0:
320,192,43596,1,0,0:0:0:0:
192,192,43640,1,0,0:0:0:0:
64,192,43684,1,0,0:0:0:0:
448,192,43728,1,0,0:0:0:0:
320,192,43816,1,0,0:0:0:0:
192,192,43816,1,0,0:0:0:0:
64,192,43816,1,0,0:0:0:0:
64,192,43904,1,0,0:0:0:0:
192,192,43992,1,0,0:0:0:0:
320,192,43992,1,0,0:0:0:0:
448,192,43992,1,0,0:0:0:0:
320,192,44080,1,0,0:0:0:0:
448,192,44080,1,0,0:0:0:0:
448,192,44168,1,0,0:0:0:0:
320,192,44168,1,0,0:0:0:0:
192,192,44168,1,0,0:0:0:0:
64,192,44168,1,0,0:0:0:0:
64,192,44256,1,0,0:0:0:0:
192,192,44344,1,0,0:0:0:0:
448,192,44344,1,0,0:0:0:0:
448,192,44432,1,0,0:0:0:0:
64,192,44432,1,0,0:0:0:0:
192,192,44520,1,0,0:0:0:0:
320,192,44520,1,0,0:0:0:0:
320,192,44608,1,0,0:0:0:0:
64,192,44608,1,0,0:0:0:0:
192,192,44696,1,0,0:0:0:0:
448,192,44696,1,0,0:0:0:0:
64,192,44784,1,0,0:0:0:0:
320,192,44784,1,0,0:0:0:0:
64,192,44872,1,0,0:0:0:0:
192,192,44872,1,0,0:0:0:0:
320,192,44960,1,0,0:0:0:0:
448,192,44960,1,0,0:0:0:0:
448,192,45048,1,0,0:0:0:0:
64,192,45048,1,0,0:0:0:0:
192,192,45136,1,0,0:0:0:0:
320,192,45136,1,0,0:0:0:0:
192,192,45224,1,0,0:0:0:0:
448,192,45224,1,0,0:0:0:0:
64,192,45224,1,0,0:0:0:0:
320,192,45312,1,0,0:0:0:0:
448,192,45312,1,0,0:0:0:0:
320,192,45400,1,0,0:0:0:0:
448,192,45400,1,0,0:0:0:0:
320,192,45488,1,0,0:0:0:0:
448,192,45488,1,0,0:0:0:0:
448,192,45576,1,0,0:0:0:0:
320,192,45576,1,0,0:0:0:0:
192,192,45576,1,0,0:0:0:0:
64,192,45576,1,0,0:0:0:0:
64,192,45928,1,0,0:0:0:0:
192,192,45928,1,0,0:0:0:0:
320,192,45928,1,0,0:0:0:0:
64,192,46045,1,0,0:0:0:0:
192,192,46045,1,0,0:0:0:0:
320,192,46045,1,0,0:0:0:0:
192,192,46162,1,0,0:0:0:0:
320,192,46162,1,0,0:0:0:0:
64,192,46162,1,0,0:0:0:0:
64,192,46279,1,0,0:0:0:0:
192,192,46279,1,0,0:0:0:0:
320,192,46279,1,0,0:0:0:0:
448,192,46279,1,0,0:0:0:0:
320,192,46631,1,0,0:0:0:0:
448,192,46631,1,0,0:0:0:0:
192,192,46631,1,0,0:0:0:0:
448,192,46807,1,0,0:0:0:0:
320,192,46807,1,0,0:0:0:0:
192,192,46851,1,0,0:0:0:0:
64,192,46851,1,0,0:0:0:0:
448,192,46895,1,0,0:0:0:0:
320,192,46939,1,0,0:0:0:0:
192,192,46939,1,0,0:0:0:0:
64,192,46983,1,0,0:0:0:0:
448,192,47071,1,0,0:0:0:0:
192,192,47071,1,0,0:0:0:0:
320,192,47159,1,0,0:0:0:0:
448,192,47159,1,0,0:0:0:0:
64,192,47247,1,0,0:0:0:0:
320,192,47247,1,0,0:0:0:0:
192,192,47335,1,0,0:0:0:0:
64,192,47335,1,0,0:0:0:0:
448,192,47335,1,0,0:0:0:0:
192,192,47423,1,0,0:0:0:0:
320,192,47511,1,0,0:0:0:0:
448,192,47511,1,0,0:0:0:0:
64,192,47599,1,0,0:0:0:0:
64,192,47687,1,0,0:0:0:0:
320,192,47687,1,0,0:0:0:0:
192,192,47687,1,0,0:0:0:0:
448,192,47687,1,0,0:0:0:0:
320,192,47775,1,0,0:0:0:0:
192,192,47863,1,0,0:0:0:0:
64,192,47863,1,0,0:0:0:0:
448,192,47951,1,0,0:0:0:0:
64,192,48039,1,0,0:0:0:0:
320,192,48039,1,0,0:0:0:0:
448,192,48039,1,0,0:0:0:0:
64,192,48127,1,0,0:0:0:0:
192,192,48127,1,0,0:0:0:0:
448,192,48215,1,0,0:0:0:0:
192,192,48303,1,0,0:0:0:0:
448,192,48303,1,0,0:0:0:0:
192,192,48391,1,0,0:0:0:0:
64,192,48391,1,0,0:0:0:0:
448,192,48435,1,0,0:0:0:0:
320,192,48435,1,0,0:0:0:0:
192,192,48523,1,0,0:0:0:0:
64,192,48523,1,0,0:0:0:0:
320,192,48567,1,0,0:0:0:0:
448,192,48567,1,0,0:0:0:0:
192,192,48611,1,0,0:0:0:0:
64,192,48655,1,0,0:0:0:0:
448,192,48699,1,0,0:0:0:0:
320,192,48743,1,0,0:0:0:0:
64,192,48787,1,0,0:0:0:0:
192,192,48787,1,0,0:0:0:0:
320,192,48831,1,0,0:0:0:0:
448,192,48875,1,0,0:0:0:0:
64,192,48919,1,0,0:0:0:0:
192,192,48919,1,0,0:0:0:0:
64,192,49007,1,0,0:0:0:0:
320,192,49007,1,0,0:0:0:0:
448,192,49095,1,0,0:0:0:0:
320,192,49095,1,0,0:0:0:0:
192,192,49139,1,0,0:0:0:0:
64,192,49139,1,0,0:0:0:0:
448,192,49183,1,0,0:0:0:0:
320,192,49227,1,0,0:0:0:0:
192,192,49271,1,0,0:0:0:0:
64,192,49315,1,0,0:0:0:0:
448,192,49315,1,0,0:0:0:0:
320,192,49359,1,0,0:0:0:0:
64,192,49403,1,0,0:0:0:0:
192,192,49447,1,0,0:0:0:0:
448,192,49447,1,0,0:0:0:0:
320,192,49535,1,0,0:0:0:0:
448,192,49535,1,0,0:0:0:0:
192,192,49623,1,0,0:0:0:0:
64,192,49623,1,0,0:0:0:0:
448,192,49711,1,0,0:0:0:0:
64,192,49711,1,0,0:0:0:0:
448,192,49799,1,0,0:0:0:0:
320,192,49799,1,0,0:0:0:0:
192,192,49799,1,0,0:0:0:0:
64,192,49887,1,0,0:0:0:0:
192,192,49975,1,0,0:0:0:0:
448,192,49975,1,0,0:0:0:0:
320,192,50019,1,0,0:0:0:0:
64,192,50063,1,0,0:0:0:0:
192,192,50107,1,0,0:0:0:0:
320,192,50151,1,0,0:0:0:0:
448,192,50151,1,0,0:0:0:0:
64,192,50239,1,0,0:0:0:0:
448,192,50239,1,0,0:0:0:0:
192,192,50283,1,0,0:0:0:0:
320,192,50327,1,0,0:0:0:0:
64,192,50371,1,0,0:0:0:0:
448,192,50415,1,0,0:0:0:0:
192,192,50415,1,0,0:0:0:0:
448,192,50503,1,0,0:0:0:0:
320,192,50503,1,0,0:0:0:0:
192,192,50503,1,0,0:0:0:0:
64,192,50591,1,0,0:0:0:0:
320,192,50591,1,0,0:0:0:0:
64,192,50679,1,0,0:0:0:0:
448,192,50679,1,0,0:0:0:0:
192,192,50767,1,0,0:0:0:0:
448,192,50767,1,0,0:0:0:0:
320,192,50855,1,0,0:0:0:0:
64,192,50855,1,0,0:0:0:0:
192,192,50943,1,0,0:0:0:0:
320,192,50943,1,0,0:0:0:0:
448,192,51031,1,0,0:0:0:0:
64,192,51031,1,0,0:0:0:0:
192,192,51119,1,0,0:0:0:0:
320,192,51119,1,0,0:0:0:0:
448,192,51207,1,0,0:0:0:0:
320,192,51207,1,0,0:0:0:0:
64,192,51207,1,0,0:0:0:0:
192,192,51295,1,0,0:0:0:0:
448,192,51383,1,0,0:0:0:0:
64,192,51383,1,0,0:0:0:0:
320,192,51471,1,0,0:0:0:0:
192,192,51559,1,0,0:0:0:0:
64,192,51559,1,0,0:0:0:0:
320,192,51559,1,0,0:0:0:0:
448,192,51559,1,0,0:0:0:0:
192,192,51647,1,0,0:0:0:0:
64,192,51735,1,0,0:0:0:0:
448,192,51735,1,0,0:0:0:0:
320,192,51735,1,0,0:0:0:0:
320,192,51823,1,0,0:0:0:0:
192,192,51911,1,0,0:0:0:0:
64,192,51911,1,0,0:0:0:0:
448,192,51911,1,0,0:0:0:0:
320,192,51999,1,0,0:0:0:0:
192,192,52087,1,0,0:0:0:0:
448,192,52087,1,0,0:0:0:0:
64,192,52175,1,0,0:0:0:0:
192,192,52263,1,0,0:0:0:0:
448,192,52263,1,0,0:0:0:0:
64,192,52263,1,0,0:0:0:0:
320,192,52307,1,0,0:0:0:0:
192,192,52395,1,0,0:0:0:0:
320,192,52439,1,0,0:0:0:0:
448,192,52439,1,0,0:0:0:0:
64,192,52527,1,0,0:0:0:0:
320,192,52527,1,0,0:0:0:0:
64,192,52615,1,0,0:0:0:0:
192,192,52615,1,0,0:0:0:0:
448,192,52615,1,0,0:0:0:0:
320,192,52659,1,0,0:0:0:0:
192,192,52747,1,0,0:0:0:0:
64,192,52747,1,0,0:0:0:0:
448,192,52791,1,0,0:0:0:0:
320,192,52835,1,0,0:0:0:0:
192,192,52879,1,0,0:0:0:0:
64,192,52923,1,0,0:0:0:0:
320,192,52967,1,0,0:0:0:0:
448,192,52967,1,0,0:0:0:0:
64,192,53011,1,0,0:0:0:0:
192,192,53011,1,0,0:0:0:0:
448,192,53099,1,0,0:0:0:0:
320,192,53099,1,0,0:0:0:0:
192,192,53143,1,0,0:0:0:0:
64,192,53187,1,0,0:0:0:0:
320,192,53231,1,0,0:0:0:0:
448,192,53231,1,0,0:0:0:0:
192,192,53319,1,0,0:0:0:0:
64,192,53319,1,0,0:0:0:0:
448,192,53319,1,0,0:0:0:0:
64,192,53407,1,0,0:0:0:0:
448,192,53495,1,0,0:0:0:0:
320,192,53495,1,0,0:0:0:0:
192,192,53583,1,0,0:0:0:0:
448,192,53583,1,0,0:0:0:0:
320,192,53671,1,0,0:0:0:0:
192,192,53671,1,0,0:0:0:0:
64,192,53671,1,0,0:0:0:0:
64,192,53759,1,0,0:0:0:0:
192,192,53847,1,0,0:0:0:0:
448,192,53847,1,0,0:0:0:0:
320,192,53935,1,0,0:0:0:0:
192,192,54023,1,0,0:0:0:0:
64,192,54023,1,0,0:0:0:0:
320,192,54023,1,0,0:0:0:0:
448,192,54023,1,0,0:0:0:0:
64,192,54111,1,0,0:0:0:0:
192,192,54155,1,0,0:0:0:0:
320,192,54199,1,0,0:0:0:0:
448,192,54199,1,0,0:0:0:0:
64,192,54287,1,0,0:0:0:0:
64,192,54375,1,0,0:0:0:0:
192,192,54375,1,0,0:0:0:0:
320,192,54375,1,0,0:0:0:0:
448,192,54463,1,0,0:0:0:0:
320,192,54551,1,0,0:0:0:0:
192,192,54551,1,0,0:0:0:0:
64,192,54639,1,0,0:0:0:0:
320,192,54727,1,0,0:0:0:0:
448,192,54727,1,0,0:0:0:0:
192,192,54727,1,0,0:0:0:0:
64,192,54815,1,0,0:0:0:0:
192,192,54903,1,0,0:0:0:0:
448,192,54903,1,0,0:0:0:0:
320,192,54991,1,0,0:0:0:0:
192,192,55079,1,0,0:0:0:0:
320,192,55079,1,0,0:0:0:0:
448,192,55079,1,0,0:0:0:0:
64,192,55123,1,0,0:0:0:0:
448,192,55211,1,0,0:0:0:0:
64,192,55255,1,0,0:0:0:0:
320,192,55255,1,0,0:0:0:0:
192,192,55343,1,0,0:0:0:0:
320,192,55431,1,0,0:0:0:0:
448,192,55431,1,0,0:0:0:0:
64,192,55519,1,0,0:0:0:0:
320,192,55519,1,0,0:0:0:0:
192,192,55607,1,0,0:0:0:0:
448,192,55607,1,0,0:0:0:0:
64,192,55695,1,0,0:0:0:0:
320,192,55695,1,0,0:0:0:0:
64,192,55783,1,0,0:0:0:0:
192,192,55783,1,0,0:0:0:0:
320,192,55871,1,0,0:0:0:0:
448,192,55871,1,0,0:0:0:0:
64,192,55959,1,0,0:0:0:0:
448,192,55959,1,0,0:0:0:0:
192,192,56047,1,0,0:0:0:0:
320,192,56047,1,0,0:0:0:0:
320,192,56135,1,0,0:0:0:0:
64,192,56135,1,0,0:0:0:0:
448,192,56135,1,0,0:0:0:0:
192,192,56223,1,0,0:0:0:0:
64,192,56223,1,0,0:0:0:0:
320,192,56311,1,0,0:0:0:0:
448,192,56311,1,0,0:0:0:0:
192,192,56399,1,0,0:0:0:0:
448,192,56399,1,0,0:0:0:0:
64,192,56399,1,0,0:0:0:0:
320,192,56487,1,0,0:0:0:0:
64,192,56487,1,0,0:0:0:0:
192,192,56487,1,0,0:0:0:0:
64,192,56575,1,0,0:0:0:0:
448,192,56575,1,0,0:0:0:0:
320,192,56575,1,0,0:0:0:0:
320,192,56663,1,0,0:0:0:0:
448,192,56663,1,0,0:0:0:0:
192,192,56663,1,0,0:0:0:0:
64,192,56751,1,0,0:0:0:0:
320,192,56751,1,0,0:0:0:0:
192,192,56751,1,0,0:0:0:0:
64,192,56839,1,0,0:0:0:0:
192,192,56839,1,0,0:0:0:0:
448,192,56839,1,0,0:0:0:0:
320,192,56927,1,0,0:0:0:0:
192,192,56971,1,0,0:0:0:0:
64,192,57015,1,0,0:0:0:0:
448,192,57059,1,0,0:0:0:0:
320,192,57059,1,0,0:0:0:0:
192,192,57147,1,0,0:0:0:0:
64,192,57147,1,0,0:0:0:0:
320,192,57191,1,0,0:0:0:0:
448,192,57191,1,0,0:0:0:0:
192,192,57235,1,0,0:0:0:0:
64,192,57279,1,0,0:0:0:0:
448,192,57323,1,0,0:0:0:0:
320,192,57367,1,0,0:0:0:0:
192,192,57367,1,0,0:0:0:0:
64,192,57455,1,0,0:0:0:0:
320,192,57455,1,0,0:0:0:0:
64,192,57543,1,0,0:0:0:0:
192,192,57543,1,0,0:0:0:0:
448,192,57543,1,0,0:0:0:0:
320,192,57631,1,0,0:0:0:0:
448,192,57631,1,0,0:0:0:0:
192,192,57675,1,0,0:0:0:0:
64,192,57719,1,0,0:0:0:0:
448,192,57763,1,0,0:0:0:0:
192,192,57807,1,0,0:0:0:0:
320,192,57807,1,0,0:0:0:0:
64,192,57895,1,0,0:0:0:0:
320,192,57895,1,0,0:0:0:0:
448,192,57895,1,0,0:0:0:0:
192,192,57983,1,0,0:0:0:0:
64,192,58071,1,0,0:0:0:0:
320,192,58071,1,0,0:0:0:0:
192,192,58159,1,0,0:0:0:0:
448,192,58159,1,0,0:0:0:0:
448,192,58247,1,0,0:0:0:0:
320,192,58247,1,0,0:0:0:0:
64,192,58247,1,0,0:0:0:0:
192,192,58291,1,0,0:0:0:0:
320,192,58335,1,0,0:0:0:0:
448,192,58379,1,0,0:0:0:0:
64,192,58423,1,0,0:0:0:0:
192,192,58423,1,0,0:0:0:0:
320,192,58467,1,0,0:0:0:0:
448,192,58555,1,0,0:0:0:0:
64,192,58599,1,0,0:0:0:0:
192,192,58599,1,0,0:0:0:0:
320,192,58643,1,0,0:0:0:0:
448,192,58731,1,0,0:0:0:0:
64,192,58775,1,0,0:0:0:0:
192,192,58775,1,0,0:0:0:0:
320,192,58819,1,0,0:0:0:0:
448,192,58907,1,0,0:0:0:0:
192,192,58951,1,0,0:0:0:0:
64,192,58951,1,0,0:0:0:0:
320,192,58995,1,0,0:0:0:0:
448,192,59083,1,0,0:0:0:0:
64,192,59127,1,0,0:0:0:0:
192,192,59127,1,0,0:0:0:0:
320,192,59171,1,0,0:0:0:0:
448,192,59259,1,0,0:0:0:0:
192,192,59303,1,0,0:0:0:0:
64,192,59303,1,0,0:0:0:0:
448,192,59347,1,0,0:0:0:0:
320,192,59435,1,0,0:0:0:0:
192,192,59479,1,0,0:0:0:0:
64,192,59479,1,0,0:0:0:0:
448,192,59523,1,0,0:0:0:0:
320,192,59611,1,0,0:0:0:0:
192,192,59655,1,0,0:0:0:0:
64,192,59655,1,0,0:0:0:0:
64,192,59743,1,0,0:0:0:0:
448,192,59743,1,0,0:0:0:0:
320,192,59831,1,0,0:0:0:0:
448,192,59831,1,0,0:0:0:0:
64,192,59919,1,0,0:0:0:0:
192,192,59919,1,0,0:0:0:0:
192,192,60007,1,0,0:0:0:0:
448,192,60007,1,0,0:0:0:0:
64,192,60095,1,0,0:0:0:0:
320,192,60095,1,0,0:0:0:0:
64,192,60183,1,0,0:0:0:0:
448,192,60183,1,0,0:0:0:0:
192,192,60271,1,0,0:0:0:0:
320,192,60271,1,0,0:0:0:0:
192,192,60359,1,0,0:0:0:0:
64,192,60359,1,0,0:0:0:0:
448,192,60359,1,0,0:0:0:0:
320,192,60447,1,0,0:0:0:0:
448,192,60447,1,0,0:0:0:0:
64,192,60535,1,0,0:0:0:0:
448,192,60535,1,0,0:0:0:0:
64,192,60623,1,0,0:0:0:0:
320,192,60623,1,0,0:0:0:0:
448,192,60711,1,0,0:0:0:0:
192,192,60711,1,0,0:0:0:0:
320,192,60711,1,0,0:0:0:0:
64,192,60799,1,0,0:0:0:0:
192,192,60799,1,0,0:0:0:0:
448,192,60799,1,0,0:0:0:0:
192,192,60887,1,0,0:0:0:0:
320,192,60887,1,0,0:0:0:0:
448,192,60887,1,0,0:0:0:0:
64,192,60975,1,0,0:0:0:0:
320,192,60975,1,0,0:0:0:0:
192,192,60975,1,0,0:0:0:0:
64,192,61063,1,0,0:0:0:0:
320,192,61063,1,0,0:0:0:0:
448,192,61063,1,0,0:0:0:0:
192,192,61150,1,0,0:0:0:0:
448,192,61150,1,0,0:0:0:0:
320,192,61238,1,0,0:0:0:0:
64,192,61238,1,0,0:0:0:0:
192,192,61326,1,0,0:0:0:0:
448,192,61326,1,0,0:0:0:0:
448,192,61414,1,0,0:0:0:0:
320,192,61414,1,0,0:0:0:0:
192,192,61414,1,0,0:0:0:0:
64,192,61414,1,0,0:0:0:0:
64,192,61502,1,0,0:0:0:0:
320,192,61502,1,0,0:0:0:0:
448,192,61590,1,0,0:0:0:0:
192,192,61590,1,0,0:0:0:0:
320,192,61678,1,0,0:0:0:0:
64,192,61678,1,0,0:0:0:0:
64,192,61766,1,0,0:0:0:0:
192,192,61766,1,0,0:0:0:0:
320,192,61766,1,0,0:0:0:0:
448,192,61766,1,0,0:0:0:0:
448,192,61810,1,0,0:0:0:0:
320,192,61854,1,0,0:0:0:0:
192,192,61898,1,0,0:0:0:0:
64,192,61942,1,0,0:0:0:0:
448,192,61942,1,0,0:0:0:0:
320,192,61986,1,0,0:0:0:0:
192,192,62030,1,0,0:0:0:0:
64,192,62074,1,0,0:0:0:0:
448,192,62074,1,0,0:0:0:0:
320,192,62118,1,0,0:0:0:0:
192,192,62162,1,0,0:0:0:0:
64,192,62206,1,0,0:0:0:0:
448,192,62206,1,0,0:0:0:0:
320,192,62250,1,0,0:0:0:0:
192,192,62294,1,0,0:0:0:0:
64,192,62338,1,0,0:0:0:0:
448,192,62338,1,0,0:0:0:0:
320,192,62382,1,0,0:0:0:0:
192,192,62426,1,0,0:0:0:0:
64,192,62470,1,0,0:0:0:0:
