osu file format v14

[General]
AudioFilename: marunouchi.mp3
AudioLeadIn: 0
PreviewTime: 36883
Countdown: 1
SampleSet: Normal
StackLeniency: 0.7
Mode: 3
LetterboxInBreaks: 0
SpecialStyle: 0
WidescreenStoryboard: 0

[Editor]
DistanceSpacing: 1.2
BeatDivisor: 6
GridSize: 4
TimelineZoom: 2

[Metadata]
Title:Sizuka's Favorite Songs Pack
TitleUnicode:Sizuka's Favorite Songs Pack
Artist:Various
ArtistUnicode:Various
Creator:_Sizuka_
Version:KuroKumo - Marunouchi Sadistic(Arrange.ver)
Source:
Tags:
BeatmapID:989288
BeatmapSetID:461969

[Difficulty]
HPDrainRate:8
CircleSize:4
OverallDifficulty:8
ApproachRate:5
SliderMultiplier:1.4
SliderTickRate:1

[Events]
//Background and Video events
0,0,"55960372_p0.jpg",0,0
//Break Periods
//Storyboard Layer 0 (Background)
//Storyboard Layer 1 (Fail)
//Storyboard Layer 2 (Pass)
//Storyboard Layer 3 (Foreground)
//Storyboard Sound Samples

[TimingPoints]
196,287.163779075333,4,1,0,17,1,0

[HitObjects]
448,192,196,5,0,0:0:0:0:
320,192,483,1,0,0:0:0:0:
192,192,483,1,0,0:0:0:0:
64,192,770,1,0,0:0:0:0:
192,192,961,1,0,0:0:0:0:
320,192,1248,1,0,0:0:0:0:
448,192,1248,1,0,0:0:0:0:
192,192,1633,1,0,0:0:0:0:
448,192,1777,1,0,0:0:0:0:
320,192,1849,1,0,0:0:0:0:
192,192,1873,1,0,0:0:0:0:
64,192,1921,1,0,0:0:0:0:
192,192,2112,1,0,0:0:0:0:
320,192,2208,1,0,0:0:0:0:
192,192,2400,1,0,0:0:0:0:
320,192,2496,1,0,0:0:0:0:
64,192,2783,1,0,0:0:0:0:
320,192,2927,1,0,0:0:0:0:
192,192,2999,1,0,0:0:0:0:
448,192,3019,1,0,0:0:0:0:
64,192,3071,1,0,0:0:0:0:
192,192,3263,1,0,0:0:0:0:
320,192,3502,1,0,0:0:0:0:
448,192,3502,1,0,0:0:0:0:
64,192,3934,1,0,0:0:0:0:
192,192,3934,1,0,0:0:0:0:
448,192,4077,1,0,0:0:0:0:
320,192,4126,1,0,0:0:0:0:
192,192,4173,1,0,0:0:0:0:
64,192,4221,1,0,0:0:0:0:
448,192,4407,1,0,0:0:0:0:
320,192,4694,1,0,0:0:0:0:
64,192,4790,1,0,0:0:0:0:
192,192,4790,1,0,0:0:0:0:
320,192,4982,1,0,0:0:0:0:
448,192,4982,1,0,0:0:0:0:
192,192,5077,1,0,0:0:0:0:
64,192,5269,1,0,0:0:0:0:
192,192,5269,1,0,0:0:0:0:
320,192,5556,1,0,0:0:0:0:
448,192,5556,1,0,0:0:0:0:
192,192,5652,1,0,0:0:0:0:
64,192,5843,1,0,0:0:0:0:
320,192,5843,1,0,0:0:0:0:
64,192,6513,1,0,0:0:0:0:
192,192,6513,1,0,0:0:0:0:
192,192,6705,1,0,0:0:0:0:
320,192,6705,1,0,0:0:0:0:
448,192,6705,1,0,0:0:0:0:
64,192,6992,1,0,0:0:0:0:
192,192,7040,1,0,0:0:0:0:
320,192,7087,1,0,0:0:0:0:
320,192,7279,1,0,0:0:0:0:
448,192,7279,1,0,0:0:0:0:
64,192,7470,1,0,0:0:0:0:
192,192,7518,1,0,0:0:0:0:
320,192,7566,1,0,0:0:0:0:
448,192,7614,1,0,0:0:0:0:
320,192,7662,1,0,0:0:0:0:
320,192,7853,1,0,0:0:0:0:
64,192,7853,1,0,0:0:0:0:
320,192,7949,1,0,0:0:0:0:
192,192,7949,1,0,0:0:0:0:
64,192,7949,1,0,0:0:0:0:
448,192,8045,1,0,0:0:0:0:
192,192,8140,1,0,0:0:0:0:
320,192,8140,1,0,0:0:0:0:
64,192,8236,1,0,0:0:0:0:
192,192,8284,1,0,0:0:0:0:
320,192,8332,1,0,0:0:0:0:
64,192,8380,1,0,0:0:0:0:
320,192,8523,1,0,0:0:0:0:
448,192,8523,1,0,0:0:0:0:
192,192,8619,1,0,0:0:0:0:
64,192,8715,1,0,0:0:0:0:
320,192,8715,1,0,0:0:0:0:
192,192,8810,1,0,0:0:0:0:
448,192,8810,1,0,0:0:0:0:
64,192,9002,1,0,0:0:0:0:
192,192,9002,1,0,0:0:0:0:
448,192,9098,1,0,0:0:0:0:
320,192,9098,1,0,0:0:0:0:
448,192,9241,1,0,0:0:0:0:
64,192,9241,1,0,0:0:0:0:
64,192,9385,1,0,0:0:0:0:
192,192,9385,1,0,0:0:0:0:
448,192,9576,1,0,0:0:0:0:
192,192,9672,1,0,0:0:0:0:
320,192,9672,1,0,0:0:0:0:
64,192,9959,1,0,0:0:0:0:
320,192,9959,1,0,0:0:0:0:
192,192,10151,1,0,0:0:0:0:
192,192,10438,1,0,0:0:0:0:
320,192,10438,1,0,0:0:0:0:
448,192,10725,1,0,0:0:0:0:
192,192,10725,1,0,0:0:0:0:
64,192,10821,1,0,0:0:0:0:
192,192,10821,1,0,0:0:0:0:
320,192,11108,1,0,0:0:0:0:
192,192,11108,1,0,0:0:0:0:
64,192,11299,1,0,0:0:0:0:
320,192,11299,1,0,0:0:0:0:
192,192,11586,1,0,0:0:0:0:
64,192,11682,1,0,0:0:0:0:
320,192,11682,1,0,0:0:0:0:
320,192,11873,1,0,0:0:0:0:
192,192,11921,1,0,0:0:0:0:
64,192,11969,1,0,0:0:0:0:
448,192,12161,1,0,0:0:0:0:
192,192,12256,1,0,0:0:0:0:
320,192,12256,1,0,0:0:0:0:
64,192,12448,1,0,0:0:0:0:
192,192,12544,1,0,0:0:0:0:
320,192,12544,1,0,0:0:0:0:
320,192,12735,1,0,0:0:0:0:
64,192,12831,1,0,0:0:0:0:
448,192,12831,1,0,0:0:0:0:
192,192,13022,1,0,0:0:0:0:
320,192,13118,1,0,0:0:0:0:
448,192,13118,1,0,0:0:0:0:
64,192,13309,1,0,0:0:0:0:
192,192,13405,1,0,0:0:0:0:
320,192,13405,1,0,0:0:0:0:
448,192,13405,1,0,0:0:0:0:
192,192,13596,1,0,0:0:0:0:
448,192,13596,1,0,0:0:0:0:
64,192,13884,1,0,0:0:0:0:
192,192,13884,1,0,0:0:0:0:
448,192,13979,1,0,0:0:0:0:
64,192,13979,1,0,0:0:0:0:
320,192,14171,1,0,0:0:0:0:
64,192,14267,1,0,0:0:0:0:
192,192,14267,1,0,0:0:0:0:
448,192,14314,1,0,0:0:0:0:
64,192,14458,1,0,0:0:0:0:
320,192,14458,1,0,0:0:0:0:
192,192,14554,1,0,0:0:0:0:
448,192,14554,1,0,0:0:0:0:
320,192,14554,1,0,0:0:0:0:
192,192,14841,1,0,0:0:0:0:
320,192,14841,1,0,0:0:0:0:
448,192,15032,1,0,0:0:0:0:
320,192,15128,1,0,0:0:0:0:
192,192,15128,1,0,0:0:0:0:
64,192,15128,1,0,0:0:0:0:
320,192,15319,1,0,0:0:0:0:
192,192,15319,1,0,0:0:0:0:
64,192,15415,1,0,0:0:0:0:
448,192,15415,1,0,0:0:0:0:
192,192,15607,1,0,0:0:0:0:
320,192,15702,1,0,0:0:0:0:
448,192,15702,1,0,0:0:0:0:
64,192,15702,1,0,0:0:0:0:
320,192,15894,1,0,0:0:0:0:
448,192,15894,1,0,0:0:0:0:
64,192,15894,1,0,0:0:0:0:
64,192,15990,1,0,0:0:0:0:
320,192,16133,1,0,0:0:0:0:
192,192,16277,1,0,0:0:0:0:
64,192,16277,1,0,0:0:0:0:
448,192,16277,1,0,0:0:0:0:
64,192,16564,1,0,0:0:0:0:
192,192,16564,1,0,0:0:0:0:
320,192,16564,1,0,0:0:0:0:
448,192,16851,1,0,0:0:0:0:
320,192,16851,1,0,0:0:0:0:
64,192,16851,1,0,0:0:0:0:
320,192,17425,1,0,0:0:0:0:
448,192,17425,1,0,0:0:0:0:
64,192,17569,1,0,0:0:0:0:
192,192,17617,1,0,0:0:0:0:
448,192,17712,1,0,0:0:0:0:
320,192,17712,1,0,0:0:0:0:
192,192,17856,1,0,0:0:0:0:
64,192,17904,1,0,0:0:0:0:
320,192,18000,1,0,0:0:0:0:
448,192,18000,1,0,0:0:0:0:
192,192,18000,1,0,0:0:0:0:
64,192,18143,1,0,0:0:0:0:
320,192,18191,1,0,0:0:0:0:
448,192,18191,1,0,0:0:0:0:
192,192,18335,1,0,0:0:0:0:
320,192,18430,1,0,0:0:0:0:
448,192,18478,1,0,0:0:0:0:
64,192,18574,1,0,0:0:0:0:
192,192,18574,1,0,0:0:0:0:
64,192,18765,1,0,0:0:0:0:
192,192,18765,1,0,0:0:0:0:
320,192,18765,1,0,0:0:0:0:
448,192,18861,1,0,0:0:0:0:
192,192,18861,1,0,0:0:0:0:
320,192,18861,1,0,0:0:0:0:
64,192,19148,1,0,0:0:0:0:
192,192,19148,1,0,0:0:0:0:
448,192,19148,1,0,0:0:0:0:
320,192,19340,1,0,0:0:0:0:
192,192,19340,1,0,0:0:0:0:
448,192,19435,1,0,0:0:0:0:
320,192,19531,1,0,0:0:0:0:
64,192,19723,1,0,0:0:0:0:
192,192,19723,1,0,0:0:0:0:
320,192,19914,1,0,0:0:0:0:
192,192,19962,1,0,0:0:0:0:
64,192,20153,1,0,0:0:0:0:
320,192,20201,1,0,0:0:0:0:
448,192,20201,1,0,0:0:0:0:
192,192,20297,1,0,0:0:0:0:
320,192,20297,1,0,0:0:0:0:
448,192,20297,1,0,0:0:0:0:
192,192,20441,1,0,0:0:0:0:
320,192,20488,1,0,0:0:0:0:
64,192,20584,1,0,0:0:0:0:
192,192,20584,1,0,0:0:0:0:
448,192,20584,1,0,0:0:0:0:
192,192,20871,1,0,0:0:0:0:
320,192,20919,1,0,0:0:0:0:
448,192,20919,1,0,0:0:0:0:
192,192,21015,1,0,0:0:0:0:
320,192,21063,1,0,0:0:0:0:
64,192,21158,1,0,0:0:0:0:
192,192,21158,1,0,0:0:0:0:
320,192,21302,1,0,0:0:0:0:
192,192,21350,1,0,0:0:0:0:
320,192,21446,1,0,0:0:0:0:
448,192,21446,1,0,0:0:0:0:
64,192,21637,1,0,0:0:0:0:
320,192,21637,1,0,0:0:0:0:
192,192,21733,1,0,0:0:0:0:
448,192,21924,1,0,0:0:0:0:
192,192,22020,1,0,0:0:0:0:
64,192,22020,1,0,0:0:0:0:
320,192,22068,1,0,0:0:0:0:
448,192,22116,1,0,0:0:0:0:
64,192,22211,1,0,0:0:0:0:
192,192,22211,1,0,0:0:0:0:
448,192,22307,1,0,0:0:0:0:
320,192,22307,1,0,0:0:0:0:
192,192,22355,1,0,0:0:0:0:
64,192,22403,1,0,0:0:0:0:
320,192,22594,1,0,0:0:0:0:
448,192,22594,1,0,0:0:0:0:
64,192,22642,1,0,0:0:0:0:
192,192,22690,1,0,0:0:0:0:
448,192,22881,1,0,0:0:0:0:
320,192,22929,1,0,0:0:0:0:
192,192,22929,1,0,0:0:0:0:
64,192,22977,1,0,0:0:0:0:
320,192,23169,1,0,0:0:0:0:
448,192,23169,1,0,0:0:0:0:
64,192,23264,1,0,0:0:0:0:
448,192,23360,1,0,0:0:0:0:
64,192,23408,1,0,0:0:0:0:
320,192,23408,1,0,0:0:0:0:
192,192,23456,1,0,0:0:0:0:
320,192,23743,1,0,0:0:0:0:
448,192,23743,1,0,0:0:0:0:
64,192,23934,1,0,0:0:0:0:
192,192,24030,1,0,0:0:0:0:
448,192,24030,1,0,0:0:0:0:
320,192,24078,1,0,0:0:0:0:
192,192,24174,1,0,0:0:0:0:
64,192,24222,1,0,0:0:0:0:
320,192,24317,1,0,0:0:0:0:
448,192,24317,1,0,0:0:0:0:
64,192,24509,1,0,0:0:0:0:
192,192,24557,1,0,0:0:0:0:
320,192,24604,1,0,0:0:0:0:
320,192,24796,1,0,0:0:0:0:
448,192,24796,1,0,0:0:0:0:
64,192,24892,1,0,0:0:0:0:
320,192,24892,1,0,0:0:0:0:
192,192,24892,1,0,0:0:0:0:
64,192,25035,1,0,0:0:0:0:
192,192,25179,1,0,0:0:0:0:
448,192,25179,1,0,0:0:0:0:
320,192,25179,1,0,0:0:0:0:
320,192,25322,1,0,0:0:0:0:
64,192,25466,1,0,0:0:0:0:
448,192,25466,1,0,0:0:0:0:
192,192,25657,1,0,0:0:0:0:
320,192,25657,1,0,0:0:0:0:
64,192,25753,1,0,0:0:0:0:
320,192,25753,1,0,0:0:0:0:
448,192,25753,1,0,0:0:0:0:
192,192,25897,1,0,0:0:0:0:
320,192,26040,1,0,0:0:0:0:
448,192,26040,1,0,0:0:0:0:
64,192,26232,1,0,0:0:0:0:
192,192,26232,1,0,0:0:0:0:
320,192,26327,1,0,0:0:0:0:
192,192,26519,1,0,0:0:0:0:
448,192,26567,1,0,0:0:0:0:
320,192,26615,1,0,0:0:0:0:
64,192,26615,1,0,0:0:0:0:
192,192,26662,1,0,0:0:0:0:
320,192,26902,1,0,0:0:0:0:
448,192,26902,1,0,0:0:0:0:
64,192,26997,1,0,0:0:0:0:
192,192,27045,1,0,0:0:0:0:
64,192,27189,1,0,0:0:0:0:
320,192,27189,1,0,0:0:0:0:
192,192,27332,1,0,0:0:0:0:
448,192,27380,1,0,0:0:0:0:
320,192,27380,1,0,0:0:0:0:
64,192,27380,1,0,0:0:0:0:
64,192,27476,1,0,0:0:0:0:
192,192,27476,1,0,0:0:0:0:
320,192,27620,1,0,0:0:0:0:
320,192,27763,1,0,0:0:0:0:
448,192,27763,1,0,0:0:0:0:
192,192,27763,1,0,0:0:0:0:
64,192,27811,1,0,0:0:0:0:
192,192,27859,1,0,0:0:0:0:
320,192,27907,1,0,0:0:0:0:
448,192,27955,1,0,0:0:0:0:
192,192,28003,1,0,0:0:0:0:
64,192,28050,1,0,0:0:0:0:
320,192,28098,1,0,0:0:0:0:
192,192,28146,1,0,0:0:0:0:
64,192,28194,1,0,0:0:0:0:
448,192,28242,1,0,0:0:0:0:
320,192,28290,1,0,0:0:0:0:
64,192,28338,1,0,0:0:0:0:
448,192,28385,1,0,0:0:0:0:
192,192,28433,1,0,0:0:0:0:
320,192,28481,1,0,0:0:0:0:
448,192,28529,1,0,0:0:0:0:
64,192,28577,1,0,0:0:0:0:
192,192,28625,1,0,0:0:0:0:
320,192,28673,1,0,0:0:0:0:
448,192,28720,1,0,0:0:0:0:
64,192,28720,1,0,0:0:0:0:
192,192,28768,1,0,0:0:0:0:
320,192,28816,1,0,0:0:0:0:
448,192,28864,1,0,0:0:0:0:
64,192,28912,1,0,0:0:0:0:
192,192,28912,1,0,0:0:0:0:
320,192,28960,1,0,0:0:0:0:
448,192,29008,1,0,0:0:0:0:
64,192,29055,1,0,0:0:0:0:
320,192,29103,1,0,0:0:0:0:
192,192,29151,1,0,0:0:0:0:
64,192,29199,1,0,0:0:0:0:
448,192,29199,1,0,0:0:0:0:
320,192,29247,1,0,0:0:0:0:
192,192,29295,1,0,0:0:0:0:
64,192,29343,1,0,0:0:0:0:
448,192,29343,1,0,0:0:0:0:
320,192,29390,1,0,0:0:0:0:
192,192,29438,1,0,0:0:0:0:
64,192,29486,1,0,0:0:0:0:
448,192,29534,1,0,0:0:0:0:
64,192,29582,1,0,0:0:0:0:
320,192,29630,1,0,0:0:0:0:
448,192,29678,1,0,0:0:0:0:
192,192,29726,1,0,0:0:0:0:
320,192,29773,1,0,0:0:0:0:
448,192,29821,1,0,0:0:0:0:
192,192,29869,1,0,0:0:0:0:
64,192,29917,1,0,0:0:0:0:
448,192,29965,1,0,0:0:0:0:
320,192,30013,1,0,0:0:0:0:
192,192,30061,1,0,0:0:0:0:
64,192,30108,1,0,0:0:0:0:
448,192,30108,1,0,0:0:0:0:
320,192,30156,1,0,0:0:0:0:
192,192,30204,1,0,0:0:0:0:
64,192,30252,1,0,0:0:0:0:
448,192,30252,1,0,0:0:0:0:
320,192,30300,1,0,0:0:0:0:
192,192,30348,1,0,0:0:0:0:
448,192,30396,1,0,0:0:0:0:
320,192,30443,1,0,0:0:0:0:
192,192,30491,1,0,0:0:0:0:
64,192,30539,1,0,0:0:0:0:
320,192,30587,1,0,0:0:0:0:
448,192,30635,1,0,0:0:0:0:
192,192,30635,1,0,0:0:0:0:
192,192,30826,1,0,0:0:0:0:
64,192,30874,1,0,0:0:0:0:
320,192,30874,1,0,0:0:0:0:
64,192,31209,1,0,0:0:0:0:
192,192,31209,1,0,0:0:0:0:
320,192,31305,1,0,0:0:0:0:
448,192,31353,1,0,0:0:0:0:
64,192,31496,1,0,0:0:0:0:
192,192,31544,1,0,0:0:0:0:
320,192,31544,1,0,0:0:0:0:
64,192,31688,1,0,0:0:0:0:
320,192,31784,1,0,0:0:0:0:
448,192,31784,1,0,0:0:0:0:
192,192,31879,1,0,0:0:0:0:
64,192,31927,1,0,0:0:0:0:
320,192,31975,1,0,0:0:0:0:
192,192,32023,1,0,0:0:0:0:
64,192,32071,1,0,0:0:0:0:
320,192,32119,1,0,0:0:0:0:
448,192,32119,1,0,0:0:0:0:
192,192,32214,1,0,0:0:0:0:
64,192,32358,1,0,0:0:0:0:
192,192,32406,1,0,0:0:0:0:
320,192,32406,1,0,0:0:0:0:
448,192,32406,1,0,0:0:0:0:
64,192,32501,1,0,0:0:0:0:
192,192,32645,1,0,0:0:0:0:
448,192,32645,1,0,0:0:0:0:
320,192,32884,1,0,0:0:0:0:
448,192,32884,1,0,0:0:0:0:
192,192,32932,1,0,0:0:0:0:
64,192,32932,1,0,0:0:0:0:
320,192,33076,1,0,0:0:0:0:
192,192,33171,1,0,0:0:0:0:
64,192,33219,1,0,0:0:0:0:
448,192,33219,1,0,0:0:0:0:
192,192,33411,1,0,0:0:0:0:
320,192,33506,1,0,0:0:0:0:
448,192,33506,1,0,0:0:0:0:
64,192,33650,1,0,0:0:0:0:
192,192,33794,1,0,0:0:0:0:
320,192,33794,1,0,0:0:0:0:
64,192,33985,1,0,0:0:0:0:
192,192,33985,1,0,0:0:0:0:
320,192,34033,1,0,0:0:0:0:
448,192,34033,1,0,0:0:0:0:
192,192,34320,1,0,0:0:0:0:
320,192,34320,1,0,0:0:0:0:
448,192,34368,1,0,0:0:0:0:
64,192,34368,1,0,0:0:0:0:
320,192,34559,1,0,0:0:0:0:
192,192,34655,1,0,0:0:0:0:
64,192,34655,1,0,0:0:0:0:
320,192,34655,1,0,0:0:0:0:
448,192,34655,1,0,0:0:0:0:
192,192,34847,1,0,0:0:0:0:
320,192,34847,1,0,0:0:0:0:
448,192,34847,1,0,0:0:0:0:
64,192,34847,1,0,0:0:0:0:
448,192,34990,1,0,0:0:0:0:
320,192,35038,1,0,0:0:0:0:
64,192,35134,1,0,0:0:0:0:
192,192,35134,1,0,0:0:0:0:
320,192,35277,1,0,0:0:0:0:
448,192,35277,1,0,0:0:0:0:
192,192,35325,1,0,0:0:0:0:
64,192,35373,1,0,0:0:0:0:
448,192,35517,1,0,0:0:0:0:
192,192,35517,1,0,0:0:0:0:
320,192,35565,1,0,0:0:0:0:
64,192,35708,1,0,0:0:0:0:
192,192,35708,1,0,0:0:0:0:
320,192,36091,1,0,0:0:0:0:
448,192,36091,1,0,0:0:0:0:
64,192,36282,1,0,0:0:0:0:
192,192,36330,1,0,0:0:0:0:
320,192,36378,1,0,0:0:0:0:
448,192,36378,1,0,0:0:0:0:
192,192,36522,1,0,0:0:0:0:
64,192,36570,1,0,0:0:0:0:
448,192,36570,1,0,0:0:0:0:
192,192,36713,1,0,0:0:0:0:
320,192,36713,1,0,0:0:0:0:
64,192,36952,1,0,0:0:0:0:
192,192,36952,1,0,0:0:0:0:
320,192,37000,1,0,0:0:0:0:
448,192,37048,1,0,0:0:0:0:
64,192,37096,1,0,0:0:0:0:
320,192,37144,1,0,0:0:0:0:
192,192,37192,1,0,0:0:0:0:
448,192,37240,1,0,0:0:0:0:
320,192,37287,1,0,0:0:0:0:
192,192,37335,1,0,0:0:0:0:
448,192,37383,1,0,0:0:0:0:
320,192,37431,1,0,0:0:0:0:
64,192,37479,1,0,0:0:0:0:
448,192,37527,1,0,0:0:0:0:
320,192,37575,1,0,0:0:0:0:
64,192,37623,1,0,0:0:0:0:
192,192,37670,1,0,0:0:0:0:
320,192,37718,1,0,0:0:0:0:
448,192,37766,1,0,0:0:0:0:
192,192,37814,1,0,0:0:0:0:
64,192,37862,1,0,0:0:0:0:
320,192,37862,1,0,0:0:0:0:
448,192,37910,1,0,0:0:0:0:
192,192,37958,1,0,0:0:0:0:
64,192,38005,1,0,0:0:0:0:
448,192,38053,1,0,0:0:0:0:
320,192,38101,1,0,0:0:0:0:
192,192,38101,1,0,0:0:0:0:
64,192,38149,1,0,0:0:0:0:
448,192,38197,1,0,0:0:0:0:
320,192,38245,1,0,0:0:0:0:
192,192,38293,1,0,0:0:0:0:
64,192,38340,1,0,0:0:0:0:
320,192,38388,1,0,0:0:0:0:
448,192,38436,1,0,0:0:0:0:
64,192,38484,1,0,0:0:0:0:
192,192,38532,1,0,0:0:0:0:
320,192,38580,1,0,0:0:0:0:
448,192,38628,1,0,0:0:0:0:
192,192,38675,1,0,0:0:0:0:
64,192,38723,1,0,0:0:0:0:
448,192,38771,1,0,0:0:0:0:
320,192,38819,1,0,0:0:0:0:
192,192,38867,1,0,0:0:0:0:
64,192,38915,1,0,0:0:0:0:
448,192,38963,1,0,0:0:0:0:
320,192,38963,1,0,0:0:0:0:
192,192,39010,1,0,0:0:0:0:
64,192,39058,1,0,0:0:0:0:
320,192,39106,1,0,0:0:0:0:
448,192,39154,1,0,0:0:0:0:
192,192,39202,1,0,0:0:0:0:
320,192,39250,1,0,0:0:0:0:
448,192,39298,1,0,0:0:0:0:
192,192,39345,1,0,0:0:0:0:
64,192,39393,1,0,0:0:0:0:
320,192,39441,1,0,0:0:0:0:
192,192,39489,1,0,0:0:0:0:
64,192,39537,1,0,0:0:0:0:
448,192,39585,1,0,0:0:0:0:
320,192,39633,1,0,0:0:0:0:
192,192,39681,1,0,0:0:0:0:
64,192,39728,1,0,0:0:0:0:
320,192,39776,1,0,0:0:0:0:
448,192,39824,1,0,0:0:0:0:
64,192,39872,1,0,0:0:0:0:
192,192,39920,1,0,0:0:0:0:
320,192,39968,1,0,0:0:0:0:
448,192,40016,1,0,0:0:0:0:
64,192,40063,1,0,0:0:0:0:
192,192,40111,1,0,0:0:0:0:
448,192,40159,1,0,0:0:0:0:
64,192,40207,1,0,0:0:0:0:
192,192,40255,1,0,0:0:0:0:
448,192,40303,1,0,0:0:0:0:
320,192,40351,1,0,0:0:0:0:
192,192,40398,1,0,0:0:0:0:
64,192,40446,1,0,0:0:0:0:
320,192,40494,1,0,0:0:0:0:
448,192,40542,1,0,0:0:0:0:
64,192,40590,1,0,0:0:0:0:
192,192,40638,1,0,0:0:0:0:
320,192,40686,1,0,0:0:0:0:
448,192,40733,1,0,0:0:0:0:
192,192,40781,1,0,0:0:0:0:
320,192,40829,1,0,0:0:0:0:
448,192,40877,1,0,0:0:0:0:
192,192,40925,1,0,0:0:0:0:
64,192,40973,1,0,0:0:0:0:
320,192,41021,1,0,0:0:0:0:
192,192,41068,1,0,0:0:0:0:
64,192,41116,1,0,0:0:0:0:
448,192,41164,1,0,0:0:0:0:
320,192,41212,1,0,0:0:0:0:
192,192,41260,1,0,0:0:0:0:
64,192,41308,1,0,0:0:0:0:
448,192,41332,1,0,0:0:0:0:
320,192,41404,1,0,0:0:0:0:
192,192,41475,1,0,0:0:0:0:
64,192,41547,1,0,0:0:0:0:
192,192,41595,1,0,0:0:0:0:
320,192,41643,1,0,0:0:0:0:
448,192,41691,1,0,0:0:0:0:
64,192,41691,1,0,0:0:0:0:
192,192,41739,1,0,0:0:0:0:
320,192,41762,1,0,0:0:0:0:
448,192,41798,1,0,0:0:0:0:
64,192,41834,1,0,0:0:0:0:
320,192,41882,1,0,0:0:0:0:
192,192,41930,1,0,0:0:0:0:
64,192,41978,1,0,0:0:0:0:
448,192,42026,1,0,0:0:0:0:
192,192,42074,1,0,0:0:0:0:
320,192,42121,1,0,0:0:0:0:
448,192,42169,1,0,0:0:0:0:
64,192,42217,1,0,0:0:0:0:
320,192,42265,1,0,0:0:0:0:
192,192,42313,1,0,0:0:0:0:
64,192,42361,1,0,0:0:0:0:
448,192,42409,1,0,0:0:0:0:
320,192,42456,1,0,0:0:0:0:
64,192,42504,1,0,0:0:0:0:
448,192,42552,1,0,0:0:0:0:
192,192,42600,1,0,0:0:0:0:
320,192,42624,1,0,0:0:0:0:
448,192,42696,1,0,0:0:0:0:
64,192,42696,1,0,0:0:0:0:
192,192,42744,1,0,0:0:0:0:
320,192,42791,1,0,0:0:0:0:
448,192,42839,1,0,0:0:0:0:
64,192,42887,1,0,0:0:0:0:
192,192,42935,1,0,0:0:0:0:
448,192,42983,1,0,0:0:0:0:
320,192,43031,1,0,0:0:0:0:
64,192,43079,1,0,0:0:0:0:
448,192,43126,1,0,0:0:0:0:
320,192,43174,1,0,0:0:0:0:
192,192,43222,1,0,0:0:0:0:
64,192,43270,1,0,0:0:0:0:
448,192,43270,1,0,0:0:0:0:
192,192,43318,1,0,0:0:0:0:
320,192,43366,1,0,0:0:0:0:
448,192,43414,1,0,0:0:0:0:
64,192,43414,1,0,0:0:0:0:
192,192,43462,1,0,0:0:0:0:
320,192,43509,1,0,0:0:0:0:
64,192,43557,1,0,0:0:0:0:
448,192,43605,1,0,0:0:0:0:
192,192,43653,1,0,0:0:0:0:
320,192,43701,1,0,0:0:0:0:
448,192,43749,1,0,0:0:0:0:
64,192,43797,1,0,0:0:0:0:
192,192,43844,1,0,0:0:0:0:
320,192,43844,1,0,0:0:0:0:
448,192,43892,1,0,0:0:0:0:
192,192,43940,1,0,0:0:0:0:
64,192,43988,1,0,0:0:0:0:
320,192,44036,1,0,0:0:0:0:
448,192,44084,1,0,0:0:0:0:
192,192,44132,1,0,0:0:0:0:
64,192,44179,1,0,0:0:0:0:
320,192,44227,1,0,0:0:0:0:
192,192,44275,1,0,0:0:0:0:
64,192,44323,1,0,0:0:0:0:
320,192,44371,1,0,0:0:0:0:
448,192,44419,1,0,0:0:0:0:
192,192,44467,1,0,0:0:0:0:
64,192,44514,1,0,0:0:0:0:
320,192,44562,1,0,0:0:0:0:
192,192,44610,1,0,0:0:0:0:
64,192,44658,1,0,0:0:0:0:
448,192,44658,1,0,0:0:0:0:
320,192,44706,1,0,0:0:0:0:
192,192,44754,1,0,0:0:0:0:
64,192,44802,1,0,0:0:0:0:
448,192,44849,1,0,0:0:0:0:
192,192,44897,1,0,0:0:0:0:
320,192,44945,1,0,0:0:0:0:
448,192,44993,1,0,0:0:0:0:
64,192,44993,1,0,0:0:0:0:
192,192,45041,1,0,0:0:0:0:
448,192,45089,1,0,0:0:0:0:
64,192,45137,1,0,0:0:0:0:
320,192,45184,1,0,0:0:0:0:
192,192,45232,1,0,0:0:0:0:
64,192,45280,1,0,0:0:0:0:
448,192,45280,1,0,0:0:0:0:
320,192,45328,1,0,0:0:0:0:
192,192,45376,1,0,0:0:0:0:
64,192,45424,1,0,0:0:0:0:
448,192,45472,1,0,0:0:0:0:
320,192,45520,1,0,0:0:0:0:
192,192,45567,1,0,0:0:0:0:
64,192,45615,1,0,0:0:0:0:
448,192,45663,1,0,0:0:0:0:
192,192,45711,1,0,0:0:0:0:
64,192,45759,1,0,0:0:0:0:
448,192,45807,1,0,0:0:0:0:
192,192,45855,1,0,0:0:0:0:
320,192,45902,1,0,0:0:0:0:
64,192,45950,1,0,0:0:0:0:
448,192,45998,1,0,0:0:0:0:
320,192,46046,1,0,0:0:0:0:
192,192,46094,1,0,0:0:0:0:
64,192,46142,1,0,0:0:0:0:
448,192,46142,1,0,0:0:0:0:
320,192,46178,1,0,0:0:0:0:
192,192,46213,1,0,0:0:0:0:
64,192,46237,1,0,0:0:0:0:
448,192,46285,1,0,0:0:0:0:
320,192,46333,1,0,0:0:0:0:
192,192,46381,1,0,0:0:0:0:
64,192,46429,1,0,0:0:0:0:
448,192,46477,1,0,0:0:0:0:
192,192,46525,1,0,0:0:0:0:
320,192,46572,1,0,0:0:0:0:
448,192,46620,1,0,0:0:0:0:
64,192,46620,1,0,0:0:0:0:
192,192,46668,1,0,0:0:0:0:
320,192,46716,1,0,0:0:0:0:
64,192,46764,1,0,0:0:0:0:
448,192,46812,1,0,0:0:0:0:
320,192,46860,1,0,0:0:0:0:
192,192,46907,1,0,0:0:0:0:
64,192,46955,1,0,0:0:0:0:
448,192,46955,1,0,0:0:0:0:
320,192,47003,1,0,0:0:0:0:
64,192,47051,1,0,0:0:0:0:
192,192,47099,1,0,0:0:0:0:
320,192,47147,1,0,0:0:0:0:
448,192,47195,1,0,0:0:0:0:
64,192,47242,1,0,0:0:0:0:
192,192,47290,1,0,0:0:0:0:
320,192,47290,1,0,0:0:0:0:
448,192,47338,1,0,0:0:0:0:
192,192,47386,1,0,0:0:0:0:
64,192,47434,1,0,0:0:0:0:
320,192,47482,1,0,0:0:0:0:
448,192,47530,1,0,0:0:0:0:
64,192,47578,1,0,0:0:0:0:
192,192,47578,1,0,0:0:0:0:
320,192,47625,1,0,0:0:0:0:
448,192,47673,1,0,0:0:0:0:
64,192,47721,1,0,0:0:0:0:
320,192,47769,1,0,0:0:0:0:
192,192,47817,1,0,0:0:0:0:
64,192,47865,1,0,0:0:0:0:
448,192,47913,1,0,0:0:0:0:
320,192,47960,1,0,0:0:0:0:
64,192,48008,1,0,0:0:0:0:
192,192,48056,1,0,0:0:0:0:
320,192,48104,1,0,0:0:0:0:
448,192,48152,1,0,0:0:0:0:
64,192,48152,1,0,0:0:0:0:
192,192,48200,1,0,0:0:0:0:
320,192,48248,1,0,0:0:0:0:
448,192,48295,1,0,0:0:0:0:
192,192,48343,1,0,0:0:0:0:
64,192,48391,1,0,0:0:0:0:
320,192,48439,1,0,0:0:0:0:
448,192,48439,1,0,0:0:0:0:
192,192,48487,1,0,0:0:0:0:
64,192,48535,1,0,0:0:0:0:
448,192,48535,1,0,0:0:0:0:
320,192,48583,1,0,0:0:0:0:
192,192,48630,1,0,0:0:0:0:
64,192,48678,1,0,0:0:0:0:
448,192,48678,1,0,0:0:0:0:
320,192,48726,1,0,0:0:0:0:
192,192,48774,1,0,0:0:0:0:
64,192,48822,1,0,0:0:0:0:
448,192,48870,1,0,0:0:0:0:
192,192,48918,1,0,0:0:0:0:
320,192,48965,1,0,0:0:0:0:
448,192,49013,1,0,0:0:0:0:
64,192,49061,1,0,0:0:0:0:
320,192,49109,1,0,0:0:0:0:
192,192,49157,1,0,0:0:0:0:
64,192,49205,1,0,0:0:0:0:
448,192,49205,1,0,0:0:0:0:
320,192,49253,1,0,0:0:0:0:
192,192,49301,1,0,0:0:0:0:
64,192,49348,1,0,0:0:0:0:
448,192,49396,1,0,0:0:0:0:
192,192,49444,1,0,0:0:0:0:
320,192,49492,1,0,0:0:0:0:
448,192,49540,1,0,0:0:0:0:
64,192,49588,1,0,0:0:0:0:
192,192,49636,1,0,0:0:0:0:
320,192,49683,1,0,0:0:0:0:
448,192,49731,1,0,0:0:0:0:
64,192,49731,1,0,0:0:0:0:
192,192,49779,1,0,0:0:0:0:
320,192,49827,1,0,0:0:0:0:
448,192,49875,1,0,0:0:0:0:
64,192,49875,1,0,0:0:0:0:
192,192,49923,1,0,0:0:0:0:
320,192,49971,1,0,0:0:0:0:
448,192,50018,1,0,0:0:0:0:
64,192,50066,1,0,0:0:0:0:
320,192,50114,1,0,0:0:0:0:
192,192,50162,1,0,0:0:0:0:
64,192,50210,1,0,0:0:0:0:
448,192,50258,1,0,0:0:0:0:
192,192,50306,1,0,0:0:0:0:
320,192,50353,1,0,0:0:0:0:
64,192,50401,1,0,0:0:0:0:
448,192,50449,1,0,0:0:0:0:
320,192,50497,1,0,0:0:0:0:
192,192,50545,1,0,0:0:0:0:
64,192,50593,1,0,0:0:0:0:
448,192,50593,1,0,0:0:0:0:
320,192,50641,1,0,0:0:0:0:
64,192,50688,1,0,0:0:0:0:
192,192,50736,1,0,0:0:0:0:
448,192,50736,1,0,0:0:0:0:
320,192,50784,1,0,0:0:0:0:
64,192,50832,1,0,0:0:0:0:
192,192,50880,1,0,0:0:0:0:
448,192,50928,1,0,0:0:0:0:
64,192,50976,1,0,0:0:0:0:
320,192,51023,1,0,0:0:0:0:
448,192,51071,1,0,0:0:0:0:
192,192,51119,1,0,0:0:0:0:
64,192,51167,1,0,0:0:0:0:
320,192,51167,1,0,0:0:0:0:
448,192,51215,1,0,0:0:0:0:
192,192,51263,1,0,0:0:0:0:
64,192,51311,1,0,0:0:0:0:
448,192,51359,1,0,0:0:0:0:
192,192,51406,1,0,0:0:0:0:
320,192,51454,1,0,0:0:0:0:
64,192,51502,1,0,0:0:0:0:
448,192,51550,1,0,0:0:0:0:
192,192,51598,1,0,0:0:0:0:
64,192,51646,1,0,0:0:0:0:
320,192,51694,1,0,0:0:0:0:
448,192,51741,1,0,0:0:0:0:
192,192,51789,1,0,0:0:0:0:
64,192,51837,1,0,0:0:0:0:
320,192,51885,1,0,0:0:0:0:
448,192,51885,1,0,0:0:0:0:
192,192,51933,1,0,0:0:0:0:
64,192,51981,1,0,0:0:0:0:
448,192,51981,1,0,0:0:0:0:
320,192,52029,1,0,0:0:0:0:
192,192,52076,1,0,0:0:0:0:
64,192,52124,1,0,0:0:0:0:
448,192,52172,1,0,0:0:0:0:
192,192,52220,1,0,0:0:0:0:
320,192,52268,1,0,0:0:0:0:
448,192,52316,1,0,0:0:0:0:
64,192,52316,1,0,0:0:0:0:
192,192,52364,1,0,0:0:0:0:
320,192,52411,1,0,0:0:0:0:
448,192,52459,1,0,0:0:0:0:
64,192,52507,1,0,0:0:0:0:
192,192,52555,1,0,0:0:0:0:
320,192,52603,1,0,0:0:0:0:
448,192,52603,1,0,0:0:0:0:
64,192,52651,1,0,0:0:0:0:
192,192,52699,1,0,0:0:0:0:
320,192,52746,1,0,0:0:0:0:
448,192,52794,1,0,0:0:0:0:
64,192,52794,1,0,0:0:0:0:
192,192,52842,1,0,0:0:0:0:
320,192,52890,1,0,0:0:0:0:
448,192,52938,1,0,0:0:0:0:
64,192,52986,1,0,0:0:0:0:
320,192,53034,1,0,0:0:0:0:
192,192,53081,1,0,0:0:0:0:
64,192,53129,1,0,0:0:0:0:
448,192,53129,1,0,0:0:0:0:
320,192,53177,1,0,0:0:0:0:
192,192,53225,1,0,0:0:0:0:
64,192,53273,1,0,0:0:0:0:
448,192,53321,1,0,0:0:0:0:
320,192,53321,1,0,0:0:0:0:
192,192,53369,1,0,0:0:0:0:
64,192,53417,1,0,0:0:0:0:
320,192,53464,1,0,0:0:0:0:
448,192,53512,1,0,0:0:0:0:
192,192,53512,1,0,0:0:0:0:
64,192,53560,1,0,0:0:0:0:
320,192,53608,1,0,0:0:0:0:
448,192,53656,1,0,0:0:0:0:
192,192,53704,1,0,0:0:0:0:
64,192,53752,1,0,0:0:0:0:
320,192,53752,1,0,0:0:0:0:
448,192,53799,1,0,0:0:0:0:
64,192,53847,1,0,0:0:0:0:
192,192,53895,1,0,0:0:0:0:
320,192,53943,1,0,0:0:0:0:
448,192,53991,1,0,0:0:0:0:
64,192,54039,1,0,0:0:0:0:
192,192,54039,1,0,0:0:0:0:
320,192,54087,1,0,0:0:0:0:
448,192,54134,1,0,0:0:0:0:
64,192,54182,1,0,0:0:0:0:
320,192,54230,1,0,0:0:0:0:
192,192,54278,1,0,0:0:0:0:
64,192,54326,1,0,0:0:0:0:
448,192,54326,1,0,0:0:0:0:
320,192,54374,1,0,0:0:0:0:
192,192,54422,1,0,0:0:0:0:
64,192,54469,1,0,0:0:0:0:
448,192,54517,1,0,0:0:0:0:
64,192,54565,1,0,0:0:0:0:
320,192,54565,1,0,0:0:0:0:
192,192,54613,1,0,0:0:0:0:
320,192,54661,1,0,0:0:0:0:
448,192,54709,1,0,0:0:0:0:
64,192,54757,1,0,0:0:0:0:
448,192,54804,1,0,0:0:0:0:
192,192,54804,1,0,0:0:0:0:
320,192,54852,1,0,0:0:0:0:
192,192,54900,1,0,0:0:0:0:
64,192,54948,1,0,0:0:0:0:
448,192,54948,1,0,0:0:0:0:
320,192,54996,1,0,0:0:0:0:
192,192,55044,1,0,0:0:0:0:
64,192,55092,1,0,0:0:0:0:
320,192,55140,1,0,0:0:0:0:
448,192,55187,1,0,0:0:0:0:
192,192,55235,1,0,0:0:0:0:
320,192,55283,1,0,0:0:0:0:
448,192,55331,1,0,0:0:0:0:
64,192,55379,1,0,0:0:0:0:
192,192,55379,1,0,0:0:0:0:
320,192,55570,1,0,0:0:0:0:
192,192,55618,1,0,0:0:0:0:
448,192,55618,1,0,0:0:0:0:
192,192,55762,1,0,0:0:0:0:
64,192,55905,1,0,0:0:0:0:
320,192,55905,1,0,0:0:0:0:
192,192,55953,1,0,0:0:0:0:
64,192,56097,1,0,0:0:0:0:
320,192,56240,1,0,0:0:0:0:
448,192,56240,1,0,0:0:0:0:
64,192,56432,1,0,0:0:0:0:
192,192,56480,1,0,0:0:0:0:
448,192,56480,1,0,0:0:0:0:
320,192,56527,1,0,0:0:0:0:
64,192,56575,1,0,0:0:0:0:
192,192,56623,1,0,0:0:0:0:
320,192,56671,1,0,0:0:0:0:
448,192,56719,1,0,0:0:0:0:
64,192,56719,1,0,0:0:0:0:
192,192,56767,1,0,0:0:0:0:
320,192,56815,1,0,0:0:0:0:
448,192,56862,1,0,0:0:0:0:
64,192,56862,1,0,0:0:0:0:
192,192,56910,1,0,0:0:0:0:
320,192,56958,1,0,0:0:0:0:
448,192,57006,1,0,0:0:0:0:
64,192,57054,1,0,0:0:0:0:
192,192,57054,1,0,0:0:0:0:
320,192,57102,1,0,0:0:0:0:
64,192,57293,1,0,0:0:0:0:
320,192,57293,1,0,0:0:0:0:
192,192,57341,1,0,0:0:0:0:
320,192,57628,1,0,0:0:0:0:
192,192,57676,1,0,0:0:0:0:
448,192,57676,1,0,0:0:0:0:
64,192,57724,1,0,0:0:0:0:
448,192,57772,1,0,0:0:0:0:
320,192,57820,1,0,0:0:0:0:
192,192,57868,1,0,0:0:0:0:
64,192,57915,1,0,0:0:0:0:
448,192,57915,1,0,0:0:0:0:
320,192,57963,1,0,0:0:0:0:
192,192,58011,1,0,0:0:0:0:
64,192,58059,1,0,0:0:0:0:
448,192,58059,1,0,0:0:0:0:
320,192,58107,1,0,0:0:0:0:
192,192,58155,1,0,0:0:0:0:
64,192,58203,1,0,0:0:0:0:
320,192,58250,1,0,0:0:0:0:
448,192,58250,1,0,0:0:0:0:
448,192,58442,1,0,0:0:0:0:
64,192,58490,1,0,0:0:0:0:
192,192,58538,1,0,0:0:0:0:
320,192,58538,1,0,0:0:0:0:
320,192,58729,1,0,0:0:0:0:
64,192,58777,1,0,0:0:0:0:
448,192,58777,1,0,0:0:0:0:
192,192,58825,1,0,0:0:0:0:
320,192,58873,1,0,0:0:0:0:
448,192,58920,1,0,0:0:0:0:
64,192,58920,1,0,0:0:0:0:
192,192,58968,1,0,0:0:0:0:
320,192,59016,1,0,0:0:0:0:
448,192,59064,1,0,0:0:0:0:
64,192,59064,1,0,0:0:0:0:
192,192,59112,1,0,0:0:0:0:
320,192,59160,1,0,0:0:0:0:
448,192,59208,1,0,0:0:0:0:
64,192,59208,1,0,0:0:0:0:
192,192,59256,1,0,0:0:0:0:
320,192,59303,1,0,0:0:0:0:
448,192,59351,1,0,0:0:0:0:
64,192,59399,1,0,0:0:0:0:
192,192,59399,1,0,0:0:0:0:
320,192,59543,1,0,0:0:0:0:
448,192,59543,1,0,0:0:0:0:
192,192,59638,1,0,0:0:0:0:
64,192,59686,1,0,0:0:0:0:
448,192,59686,1,0,0:0:0:0:
192,192,59878,1,0,0:0:0:0:
320,192,59878,1,0,0:0:0:0:
64,192,59926,1,0,0:0:0:0:
448,192,59973,1,0,0:0:0:0:
320,192,60021,1,0,0:0:0:0:
192,192,60069,1,0,0:0:0:0:
64,192,60105,1,0,0:0:0:0:
192,192,60177,1,0,0:0:0:0:
320,192,60261,1,0,0:0:0:0:
448,192,60261,1,0,0:0:0:0:
64,192,60308,1,0,0:0:0:0:
192,192,60356,1,0,0:0:0:0:
320,192,60392,1,0,0:0:0:0:
448,192,60428,1,0,0:0:0:0:
320,192,60500,1,0,0:0:0:0:
64,192,60548,1,0,0:0:0:0:
192,192,60548,1,0,0:0:0:0:
448,192,60596,1,0,0:0:0:0:
320,192,60643,1,0,0:0:0:0:
192,192,60679,1,0,0:0:0:0:
64,192,60715,1,0,0:0:0:0:
192,192,60787,1,0,0:0:0:0:
320,192,60835,1,0,0:0:0:0:
448,192,60835,1,0,0:0:0:0:
64,192,60883,1,0,0:0:0:0:
192,192,60931,1,0,0:0:0:0:
320,192,60967,1,0,0:0:0:0:
448,192,61002,1,0,0:0:0:0:
64,192,61074,1,0,0:0:0:0:
192,192,61074,1,0,0:0:0:0:
448,192,61170,1,0,0:0:0:0:
320,192,61218,1,0,0:0:0:0:
64,192,61409,1,0,0:0:0:0:
192,192,61409,1,0,0:0:0:0:
448,192,61553,1,0,0:0:0:0:
192,192,61601,1,0,0:0:0:0:
320,192,61696,1,0,0:0:0:0:
448,192,61696,1,0,0:0:0:0:
64,192,61792,1,0,0:0:0:0:
192,192,61888,1,0,0:0:0:0:
448,192,61888,1,0,0:0:0:0:
320,192,61936,1,0,0:0:0:0:
320,192,62127,1,0,0:0:0:0:
64,192,62175,1,0,0:0:0:0:
192,192,62175,1,0,0:0:0:0:
448,192,62271,1,0,0:0:0:0:
64,192,62414,1,0,0:0:0:0:
192,192,62462,1,0,0:0:0:0:
320,192,62462,1,0,0:0:0:0:
448,192,62558,1,0,0:0:0:0:
192,192,62654,1,0,0:0:0:0:
320,192,62701,1,0,0:0:0:0:
64,192,62701,1,0,0:0:0:0:
192,192,62845,1,0,0:0:0:0:
320,192,62845,1,0,0:0:0:0:
448,192,62941,1,0,0:0:0:0:
64,192,63037,1,0,0:0:0:0:
320,192,63037,1,0,0:0:0:0:
192,192,63132,1,0,0:0:0:0:
448,192,63132,1,0,0:0:0:0:
320,192,63276,1,0,0:0:0:0:
192,192,63324,1,0,0:0:0:0:
64,192,63324,1,0,0:0:0:0:
448,192,63419,1,0,0:0:0:0:
320,192,63467,1,0,0:0:0:0:
64,192,63611,1,0,0:0:0:0:
192,192,63611,1,0,0:0:0:0:
64,192,63707,1,0,0:0:0:0:
320,192,63707,1,0,0:0:0:0:
192,192,63802,1,0,0:0:0:0:
448,192,63850,1,0,0:0:0:0:
192,192,63994,1,0,0:0:0:0:
320,192,63994,1,0,0:0:0:0:
448,192,63994,1,0,0:0:0:0:
320,192,64137,1,0,0:0:0:0:
448,192,64137,1,0,0:0:0:0:
192,192,64233,1,0,0:0:0:0:
64,192,64329,1,0,0:0:0:0:
320,192,64472,1,0,0:0:0:0:
192,192,64568,1,0,0:0:0:0:
448,192,64568,1,0,0:0:0:0:
320,192,64759,1,0,0:0:0:0:
448,192,64807,1,0,0:0:0:0:
64,192,64855,1,0,0:0:0:0:
192,192,64855,1,0,0:0:0:0:
320,192,64999,1,0,0:0:0:0:
192,192,65095,1,0,0:0:0:0:
320,192,65142,1,0,0:0:0:0:
448,192,65142,1,0,0:0:0:0:
320,192,65334,1,0,0:0:0:0:
448,192,65382,1,0,0:0:0:0:
64,192,65430,1,0,0:0:0:0:
192,192,65430,1,0,0:0:0:0:
320,192,65621,1,0,0:0:0:0:
192,192,65717,1,0,0:0:0:0:
448,192,65717,1,0,0:0:0:0:
192,192,65860,1,0,0:0:0:0:
64,192,65908,1,0,0:0:0:0:
320,192,65908,1,0,0:0:0:0:
192,192,66004,1,0,0:0:0:0:
320,192,66147,1,0,0:0:0:0:
448,192,66147,1,0,0:0:0:0:
192,192,66243,1,0,0:0:0:0:
320,192,66291,1,0,0:0:0:0:
64,192,66291,1,0,0:0:0:0:
320,192,66482,1,0,0:0:0:0:
448,192,66482,1,0,0:0:0:0:
192,192,66578,1,0,0:0:0:0:
64,192,66578,1,0,0:0:0:0:
320,192,66770,1,0,0:0:0:0:
448,192,66817,1,0,0:0:0:0:
192,192,66865,1,0,0:0:0:0:
64,192,66865,1,0,0:0:0:0:
192,192,67057,1,0,0:0:0:0:
320,192,67105,1,0,0:0:0:0:
64,192,67153,1,0,0:0:0:0:
448,192,67153,1,0,0:0:0:0:
192,192,67344,1,0,0:0:0:0:
64,192,67392,1,0,0:0:0:0:
320,192,67440,1,0,0:0:0:0:
448,192,67440,1,0,0:0:0:0:
64,192,67631,1,0,0:0:0:0:
192,192,67631,1,0,0:0:0:0:
320,192,67727,1,0,0:0:0:0:
448,192,67727,1,0,0:0:0:0:
64,192,67918,1,0,0:0:0:0:
320,192,67966,1,0,0:0:0:0:
192,192,68014,1,0,0:0:0:0:
448,192,68014,1,0,0:0:0:0:
64,192,68205,1,0,0:0:0:0:
192,192,68205,1,0,0:0:0:0:
448,192,68301,1,0,0:0:0:0:
320,192,68301,1,0,0:0:0:0:
192,192,68493,1,0,0:0:0:0:
64,192,68540,1,0,0:0:0:0:
320,192,68588,1,0,0:0:0:0:
448,192,68588,1,0,0:0:0:0:
64,192,68780,1,0,0:0:0:0:
192,192,68876,1,0,0:0:0:0:
448,192,68876,1,0,0:0:0:0:
64,192,69019,1,0,0:0:0:0:
320,192,69067,1,0,0:0:0:0:
448,192,69163,1,0,0:0:0:0:
192,192,69163,1,0,0:0:0:0:
320,192,69211,1,0,0:0:0:0:
448,192,69354,1,0,0:0:0:0:
320,192,69402,1,0,0:0:0:0:
64,192,69450,1,0,0:0:0:0:
192,192,69450,1,0,0:0:0:0:
320,192,69737,1,0,0:0:0:0:
448,192,69737,1,0,0:0:0:0:
64,192,69928,1,0,0:0:0:0:
192,192,69928,1,0,0:0:0:0:
192,192,70024,1,0,0:0:0:0:
320,192,70024,1,0,0:0:0:0:
448,192,70024,1,0,0:0:0:0:
192,192,70263,1,0,0:0:0:0:
320,192,70311,1,0,0:0:0:0:
448,192,70311,1,0,0:0:0:0:
64,192,70311,1,0,0:0:0:0:
64,192,70598,1,0,0:0:0:0:
192,192,70598,1,0,0:0:0:0:
320,192,70598,1,0,0:0:0:0:
448,192,70646,1,0,0:0:0:0:
448,192,70886,1,0,0:0:0:0:
320,192,70886,1,0,0:0:0:0:
64,192,70886,1,0,0:0:0:0:
192,192,70934,1,0,0:0:0:0:
64,192,71077,1,0,0:0:0:0:
192,192,71077,1,0,0:0:0:0:
320,192,71077,1,0,0:0:0:0:
320,192,71173,1,0,0:0:0:0:
448,192,71173,1,0,0:0:0:0:
320,192,71412,1,0,0:0:0:0:
64,192,71412,1,0,0:0:0:0:
192,192,71460,1,0,0:0:0:0:
320,192,71699,1,0,0:0:0:0:
448,192,71747,1,0,0:0:0:0:
192,192,71747,1,0,0:0:0:0:
64,192,72034,1,0,0:0:0:0:
192,192,72034,1,0,0:0:0:0:
448,192,72034,1,0,0:0:0:0:
320,192,72034,1,0,0:0:0:0:
