osu file format v14

[General]
AudioFilename: Aishite.mp3
AudioLeadIn: 0
PreviewTime: 43727
Countdown: 1
SampleSet: None
StackLeniency: 0.7
Mode: 3
LetterboxInBreaks: 0
SpecialStyle: 0
WidescreenStoryboard: 0

[Editor]
DistanceSpacing: 0.8
BeatDivisor: 12
GridSize: 4
TimelineZoom: 1.9

[Metadata]
Title:Sizuka's Favorite Songs Pack
TitleUnicode:Sizuka's Favorite Songs Pack
Artist:Various
ArtistUnicode:Various
Creator:_Sizuka_
Version:Hiina - Aishite
Source:
Tags:
BeatmapID:989286
BeatmapSetID:461969

[Difficulty]
HPDrainRate:8
CircleSize:4
OverallDifficulty:8
ApproachRate:5
SliderMultiplier:1.4
SliderTickRate:1

[Events]
//Background and Video events
0,0,"56136507_p0.jpg",0,0
//Break Periods
//Storyboard Layer 0 (Background)
//Storyboard Layer 1 (Fail)
//Storyboard Layer 2 (Pass)
//Storyboard Layer 3 (Foreground)
//Storyboard Sound Samples

[TimingPoints]
4500,545.454545454546,4,1,0,17,1,0

[HitObjects]
448,192,3954,5,0,0:0:0:0:
320,192,4090,1,0,0:0:0:0:
192,192,4227,1,0,0:0:0:0:
64,192,4363,1,0,0:0:0:0:
448,192,4500,1,0,0:0:0:0:
320,192,4500,1,0,0:0:0:0:
64,192,4772,1,0,0:0:0:0:
320,192,4772,1,0,0:0:0:0:
192,192,4909,1,0,0:0:0:0:
448,192,4909,1,0,0:0:0:0:
64,192,4909,1,0,0:0:0:0:
64,192,5318,1,0,0:0:0:0:
192,192,5318,1,0,0:0:0:0:
64,192,6136,1,0,0:0:0:0:
320,192,6136,1,0,0:0:0:0:
64,192,6272,1,0,0:0:0:0:
192,192,6272,1,0,0:0:0:0:
64,192,6409,1,0,0:0:0:0:
448,192,6409,1,0,0:0:0:0:
64,192,6545,1,0,0:0:0:0:
320,192,6545,1,0,0:0:0:0:
192,192,6681,1,0,0:0:0:0:
320,192,6681,1,0,0:0:0:0:
448,192,6681,1,0,0:0:0:0:
64,192,6954,1,0,0:0:0:0:
320,192,6954,1,0,0:0:0:0:
192,192,7090,1,0,0:0:0:0:
320,192,7090,1,0,0:0:0:0:
448,192,7090,1,0,0:0:0:0:
320,192,7500,1,0,0:0:0:0:
448,192,7500,1,0,0:0:0:0:
192,192,8181,1,0,0:0:0:0:
320,192,8250,1,0,0:0:0:0:
64,192,8318,1,0,0:0:0:0:
192,192,8454,1,0,0:0:0:0:
320,192,8590,1,0,0:0:0:0:
448,192,8590,1,0,0:0:0:0:
192,192,8727,1,0,0:0:0:0:
64,192,8863,1,0,0:0:0:0:
320,192,8863,1,0,0:0:0:0:
448,192,8863,1,0,0:0:0:0:
192,192,9136,1,0,0:0:0:0:
320,192,9136,1,0,0:0:0:0:
448,192,9272,1,0,0:0:0:0:
320,192,9272,1,0,0:0:0:0:
192,192,9272,1,0,0:0:0:0:
192,192,9681,1,0,0:0:0:0:
320,192,9681,1,0,0:0:0:0:
64,192,10363,1,0,0:0:0:0:
192,192,10636,1,0,0:0:0:0:
448,192,10772,1,0,0:0:0:0:
64,192,10772,1,0,0:0:0:0:
320,192,10909,1,0,0:0:0:0:
448,192,10909,1,0,0:0:0:0:
64,192,11045,1,0,0:0:0:0:
192,192,11045,1,0,0:0:0:0:
320,192,11045,1,0,0:0:0:0:
448,192,11318,1,0,0:0:0:0:
320,192,11318,1,0,0:0:0:0:
192,192,11454,1,0,0:0:0:0:
448,192,11454,1,0,0:0:0:0:
64,192,11454,1,0,0:0:0:0:
320,192,11863,1,0,0:0:0:0:
448,192,11863,1,0,0:0:0:0:
64,192,11863,1,0,0:0:0:0:
192,192,12681,1,0,0:0:0:0:
320,192,12681,1,0,0:0:0:0:
64,192,12818,1,0,0:0:0:0:
320,192,12818,1,0,0:0:0:0:
192,192,12954,1,0,0:0:0:0:
64,192,12954,1,0,0:0:0:0:
320,192,13090,1,0,0:0:0:0:
448,192,13090,1,0,0:0:0:0:
320,192,13227,1,0,0:0:0:0:
448,192,13227,1,0,0:0:0:0:
64,192,13227,1,0,0:0:0:0:
192,192,13295,1,0,0:0:0:0:
320,192,13363,1,0,0:0:0:0:
448,192,13431,1,0,0:0:0:0:
192,192,13500,1,0,0:0:0:0:
64,192,13500,1,0,0:0:0:0:
64,192,13636,1,0,0:0:0:0:
320,192,13636,1,0,0:0:0:0:
64,192,13977,1,0,0:0:0:0:
320,192,14045,1,0,0:0:0:0:
448,192,14045,1,0,0:0:0:0:
192,192,14113,1,0,0:0:0:0:
64,192,14181,1,0,0:0:0:0:
64,192,14318,1,0,0:0:0:0:
320,192,14318,1,0,0:0:0:0:
64,192,14454,1,0,0:0:0:0:
320,192,14454,1,0,0:0:0:0:
192,192,14454,1,0,0:0:0:0:
320,192,15272,1,0,0:0:0:0:
448,192,15272,1,0,0:0:0:0:
192,192,15409,1,0,0:0:0:0:
448,192,15409,1,0,0:0:0:0:
320,192,15409,1,0,0:0:0:0:
64,192,15681,1,0,0:0:0:0:
320,192,15681,1,0,0:0:0:0:
192,192,15681,1,0,0:0:0:0:
64,192,15818,1,0,0:0:0:0:
320,192,15818,1,0,0:0:0:0:
192,192,15818,1,0,0:0:0:0:
448,192,16090,1,0,0:0:0:0:
320,192,16227,1,0,0:0:0:0:
448,192,16227,1,0,0:0:0:0:
192,192,16227,1,0,0:0:0:0:
64,192,16363,1,0,0:0:0:0:
192,192,16500,1,0,0:0:0:0:
64,192,16500,1,0,0:0:0:0:
448,192,16500,1,0,0:0:0:0:
320,192,16909,1,0,0:0:0:0:
320,192,17045,1,0,0:0:0:0:
448,192,17045,1,0,0:0:0:0:
192,192,17181,1,0,0:0:0:0:
448,192,17181,1,0,0:0:0:0:
320,192,17318,1,0,0:0:0:0:
448,192,17318,1,0,0:0:0:0:
64,192,17454,1,0,0:0:0:0:
320,192,17454,1,0,0:0:0:0:
64,192,17590,1,0,0:0:0:0:
192,192,17590,1,0,0:0:0:0:
448,192,17590,1,0,0:0:0:0:
320,192,17863,1,0,0:0:0:0:
448,192,17863,1,0,0:0:0:0:
64,192,18000,1,0,0:0:0:0:
320,192,18000,1,0,0:0:0:0:
192,192,18000,1,0,0:0:0:0:
320,192,18409,1,0,0:0:0:0:
448,192,18409,1,0,0:0:0:0:
64,192,18409,1,0,0:0:0:0:
64,192,18681,1,0,0:0:0:0:
64,192,18818,1,0,0:0:0:0:
448,192,18818,1,0,0:0:0:0:
320,192,18818,1,0,0:0:0:0:
192,192,19227,1,0,0:0:0:0:
320,192,19227,1,0,0:0:0:0:
320,192,19772,1,0,0:0:0:0:
448,192,19772,1,0,0:0:0:0:
64,192,19772,1,0,0:0:0:0:
64,192,20045,1,0,0:0:0:0:
320,192,20045,1,0,0:0:0:0:
64,192,20181,1,0,0:0:0:0:
320,192,20181,1,0,0:0:0:0:
192,192,20181,1,0,0:0:0:0:
192,192,20590,1,0,0:0:0:0:
320,192,20590,1,0,0:0:0:0:
448,192,20590,1,0,0:0:0:0:
448,192,20727,1,0,0:0:0:0:
320,192,20772,1,0,0:0:0:0:
192,192,20795,1,0,0:0:0:0:
64,192,20863,1,0,0:0:0:0:
448,192,20863,1,0,0:0:0:0:
192,192,21409,1,0,0:0:0:0:
64,192,21409,1,0,0:0:0:0:
64,192,21545,1,0,0:0:0:0:
320,192,21545,1,0,0:0:0:0:
64,192,21681,1,0,0:0:0:0:
192,192,21681,1,0,0:0:0:0:
64,192,21818,1,0,0:0:0:0:
448,192,21818,1,0,0:0:0:0:
192,192,21954,1,0,0:0:0:0:
64,192,21954,1,0,0:0:0:0:
320,192,21954,1,0,0:0:0:0:
448,192,21954,1,0,0:0:0:0:
320,192,22090,1,0,0:0:0:0:
64,192,22227,1,0,0:0:0:0:
320,192,22227,1,0,0:0:0:0:
448,192,22227,1,0,0:0:0:0:
192,192,22363,1,0,0:0:0:0:
448,192,22363,1,0,0:0:0:0:
320,192,22500,1,0,0:0:0:0:
192,192,22500,1,0,0:0:0:0:
64,192,22500,1,0,0:0:0:0:
320,192,22636,1,0,0:0:0:0:
64,192,22772,1,0,0:0:0:0:
448,192,22772,1,0,0:0:0:0:
64,192,22909,1,0,0:0:0:0:
320,192,22909,1,0,0:0:0:0:
192,192,23045,1,0,0:0:0:0:
320,192,23045,1,0,0:0:0:0:
448,192,23045,1,0,0:0:0:0:
64,192,23181,1,0,0:0:0:0:
64,192,23318,1,0,0:0:0:0:
320,192,23318,1,0,0:0:0:0:
448,192,23454,1,0,0:0:0:0:
320,192,23590,1,0,0:0:0:0:
448,192,23590,1,0,0:0:0:0:
64,192,23590,1,0,0:0:0:0:
192,192,23727,1,0,0:0:0:0:
64,192,23727,1,0,0:0:0:0:
192,192,23863,1,0,0:0:0:0:
448,192,23863,1,0,0:0:0:0:
320,192,24000,1,0,0:0:0:0:
448,192,24000,1,0,0:0:0:0:
64,192,24136,1,0,0:0:0:0:
192,192,24136,1,0,0:0:0:0:
320,192,24136,1,0,0:0:0:0:
64,192,24272,1,0,0:0:0:0:
192,192,24409,1,0,0:0:0:0:
448,192,24409,1,0,0:0:0:0:
320,192,24545,1,0,0:0:0:0:
192,192,24681,1,0,0:0:0:0:
320,192,24681,1,0,0:0:0:0:
448,192,24681,1,0,0:0:0:0:
192,192,24818,1,0,0:0:0:0:
64,192,24954,1,0,0:0:0:0:
320,192,24954,1,0,0:0:0:0:
192,192,25090,1,0,0:0:0:0:
320,192,25090,1,0,0:0:0:0:
320,192,25227,1,0,0:0:0:0:
448,192,25227,1,0,0:0:0:0:
64,192,25227,1,0,0:0:0:0:
192,192,25363,1,0,0:0:0:0:
320,192,25500,1,0,0:0:0:0:
448,192,25500,1,0,0:0:0:0:
64,192,25636,1,0,0:0:0:0:
192,192,25772,1,0,0:0:0:0:
320,192,25772,1,0,0:0:0:0:
448,192,25772,1,0,0:0:0:0:
448,192,25909,1,0,0:0:0:0:
64,192,25909,1,0,0:0:0:0:
320,192,26045,1,0,0:0:0:0:
448,192,26045,1,0,0:0:0:0:
192,192,26181,1,0,0:0:0:0:
448,192,26181,1,0,0:0:0:0:
320,192,26318,1,0,0:0:0:0:
448,192,26318,1,0,0:0:0:0:
192,192,26318,1,0,0:0:0:0:
64,192,26454,1,0,0:0:0:0:
64,192,26590,1,0,0:0:0:0:
320,192,26590,1,0,0:0:0:0:
320,192,26727,1,0,0:0:0:0:
192,192,26863,1,0,0:0:0:0:
64,192,26863,1,0,0:0:0:0:
448,192,26863,1,0,0:0:0:0:
320,192,27000,1,0,0:0:0:0:
320,192,27136,1,0,0:0:0:0:
64,192,27136,1,0,0:0:0:0:
192,192,27272,1,0,0:0:0:0:
448,192,27272,1,0,0:0:0:0:
320,192,27409,1,0,0:0:0:0:
448,192,27409,1,0,0:0:0:0:
192,192,27409,1,0,0:0:0:0:
64,192,27545,1,0,0:0:0:0:
192,192,27681,1,0,0:0:0:0:
448,192,27681,1,0,0:0:0:0:
448,192,27818,1,0,0:0:0:0:
320,192,27954,1,0,0:0:0:0:
192,192,27954,1,0,0:0:0:0:
64,192,27954,1,0,0:0:0:0:
64,192,28090,1,0,0:0:0:0:
448,192,28090,1,0,0:0:0:0:
64,192,28227,1,0,0:0:0:0:
320,192,28227,1,0,0:0:0:0:
64,192,28363,1,0,0:0:0:0:
448,192,28363,1,0,0:0:0:0:
320,192,28500,1,0,0:0:0:0:
448,192,28500,1,0,0:0:0:0:
192,192,28500,1,0,0:0:0:0:
64,192,28636,1,0,0:0:0:0:
64,192,28772,1,0,0:0:0:0:
448,192,28772,1,0,0:0:0:0:
448,192,28909,1,0,0:0:0:0:
192,192,28909,1,0,0:0:0:0:
320,192,29045,1,0,0:0:0:0:
192,192,29045,1,0,0:0:0:0:
64,192,29045,1,0,0:0:0:0:
320,192,29181,1,0,0:0:0:0:
448,192,29318,1,0,0:0:0:0:
192,192,29318,1,0,0:0:0:0:
320,192,29454,1,0,0:0:0:0:
64,192,29454,1,0,0:0:0:0:
192,192,29590,1,0,0:0:0:0:
64,192,29590,1,0,0:0:0:0:
448,192,29590,1,0,0:0:0:0:
320,192,29727,1,0,0:0:0:0:
192,192,29863,1,0,0:0:0:0:
64,192,29863,1,0,0:0:0:0:
448,192,30000,1,0,0:0:0:0:
320,192,30136,1,0,0:0:0:0:
448,192,30136,1,0,0:0:0:0:
192,192,30136,1,0,0:0:0:0:
64,192,30227,1,0,0:0:0:0:
192,192,30272,1,0,0:0:0:0:
64,192,30340,1,0,0:0:0:0:
192,192,30409,1,0,0:0:0:0:
64,192,30477,1,0,0:0:0:0:
192,192,30545,1,0,0:0:0:0:
64,192,30613,1,0,0:0:0:0:
192,192,30681,1,0,0:0:0:0:
320,192,30681,1,0,0:0:0:0:
448,192,30681,1,0,0:0:0:0:
448,192,30750,1,0,0:0:0:0:
320,192,30818,1,0,0:0:0:0:
192,192,30886,1,0,0:0:0:0:
64,192,30954,1,0,0:0:0:0:
320,192,30954,1,0,0:0:0:0:
448,192,30954,1,0,0:0:0:0:
192,192,31090,1,0,0:0:0:0:
64,192,31090,1,0,0:0:0:0:
64,192,31227,1,0,0:0:0:0:
320,192,31227,1,0,0:0:0:0:
448,192,31227,1,0,0:0:0:0:
192,192,31363,1,0,0:0:0:0:
320,192,31500,1,0,0:0:0:0:
448,192,31500,1,0,0:0:0:0:
64,192,31500,1,0,0:0:0:0:
192,192,31568,1,0,0:0:0:0:
320,192,31636,1,0,0:0:0:0:
448,192,31704,1,0,0:0:0:0:
320,192,31772,1,0,0:0:0:0:
192,192,31772,1,0,0:0:0:0:
64,192,31772,1,0,0:0:0:0:
192,192,31909,1,0,0:0:0:0:
448,192,32045,1,0,0:0:0:0:
320,192,32045,1,0,0:0:0:0:
64,192,32181,1,0,0:0:0:0:
448,192,32181,1,0,0:0:0:0:
320,192,32318,1,0,0:0:0:0:
448,192,32318,1,0,0:0:0:0:
192,192,32318,1,0,0:0:0:0:
64,192,32454,1,0,0:0:0:0:
320,192,32590,1,0,0:0:0:0:
448,192,32590,1,0,0:0:0:0:
64,192,32727,1,0,0:0:0:0:
320,192,32727,1,0,0:0:0:0:
64,192,32863,1,0,0:0:0:0:
192,192,32863,1,0,0:0:0:0:
448,192,32863,1,0,0:0:0:0:
448,192,33000,1,0,0:0:0:0:
192,192,33136,1,0,0:0:0:0:
320,192,33136,1,0,0:0:0:0:
64,192,33272,1,0,0:0:0:0:
320,192,33272,1,0,0:0:0:0:
64,192,33409,1,0,0:0:0:0:
192,192,33409,1,0,0:0:0:0:
448,192,33409,1,0,0:0:0:0:
320,192,33545,1,0,0:0:0:0:
320,192,33681,1,0,0:0:0:0:
192,192,33681,1,0,0:0:0:0:
320,192,33818,1,0,0:0:0:0:
64,192,33818,1,0,0:0:0:0:
64,192,33954,1,0,0:0:0:0:
192,192,33954,1,0,0:0:0:0:
448,192,33954,1,0,0:0:0:0:
320,192,34090,1,0,0:0:0:0:
448,192,34090,1,0,0:0:0:0:
192,192,34227,1,0,0:0:0:0:
64,192,34227,1,0,0:0:0:0:
192,192,34363,1,0,0:0:0:0:
448,192,34363,1,0,0:0:0:0:
448,192,34500,1,0,0:0:0:0:
320,192,34500,1,0,0:0:0:0:
64,192,34500,1,0,0:0:0:0:
64,192,34636,1,0,0:0:0:0:
320,192,34636,1,0,0:0:0:0:
64,192,34772,1,0,0:0:0:0:
192,192,34772,1,0,0:0:0:0:
64,192,34909,1,0,0:0:0:0:
448,192,34909,1,0,0:0:0:0:
64,192,35045,1,0,0:0:0:0:
192,192,35045,1,0,0:0:0:0:
320,192,35045,1,0,0:0:0:0:
448,192,35113,1,0,0:0:0:0:
320,192,35181,1,0,0:0:0:0:
192,192,35250,1,0,0:0:0:0:
64,192,35318,1,0,0:0:0:0:
448,192,35318,1,0,0:0:0:0:
320,192,35318,1,0,0:0:0:0:
64,192,35454,1,0,0:0:0:0:
192,192,35454,1,0,0:0:0:0:
192,192,35590,1,0,0:0:0:0:
448,192,35590,1,0,0:0:0:0:
320,192,35590,1,0,0:0:0:0:
64,192,35727,1,0,0:0:0:0:
320,192,35727,1,0,0:0:0:0:
64,192,35863,1,0,0:0:0:0:
192,192,35863,1,0,0:0:0:0:
448,192,35863,1,0,0:0:0:0:
320,192,35931,1,0,0:0:0:0:
192,192,36000,1,0,0:0:0:0:
64,192,36068,1,0,0:0:0:0:
192,192,36136,1,0,0:0:0:0:
320,192,36136,1,0,0:0:0:0:
448,192,36136,1,0,0:0:0:0:
64,192,36272,1,0,0:0:0:0:
320,192,36272,1,0,0:0:0:0:
64,192,36409,1,0,0:0:0:0:
448,192,36409,1,0,0:0:0:0:
192,192,36545,1,0,0:0:0:0:
448,192,36545,1,0,0:0:0:0:
320,192,36681,1,0,0:0:0:0:
192,192,36681,1,0,0:0:0:0:
64,192,36681,1,0,0:0:0:0:
320,192,36818,1,0,0:0:0:0:
192,192,36954,1,0,0:0:0:0:
448,192,36954,1,0,0:0:0:0:
64,192,37227,1,0,0:0:0:0:
192,192,37227,1,0,0:0:0:0:
320,192,37227,1,0,0:0:0:0:
192,192,37363,1,0,0:0:0:0:
320,192,37500,1,0,0:0:0:0:
448,192,37500,1,0,0:0:0:0:
192,192,37568,1,0,0:0:0:0:
64,192,37636,1,0,0:0:0:0:
64,192,37772,1,0,0:0:0:0:
320,192,37772,1,0,0:0:0:0:
448,192,37772,1,0,0:0:0:0:
64,192,37909,1,0,0:0:0:0:
192,192,37909,1,0,0:0:0:0:
64,192,38045,1,0,0:0:0:0:
320,192,38045,1,0,0:0:0:0:
192,192,38181,1,0,0:0:0:0:
448,192,38181,1,0,0:0:0:0:
320,192,38318,1,0,0:0:0:0:
448,192,38318,1,0,0:0:0:0:
64,192,38318,1,0,0:0:0:0:
192,192,38454,1,0,0:0:0:0:
320,192,38590,1,0,0:0:0:0:
64,192,38590,1,0,0:0:0:0:
320,192,38727,1,0,0:0:0:0:
192,192,38863,1,0,0:0:0:0:
448,192,38863,1,0,0:0:0:0:
64,192,38863,1,0,0:0:0:0:
320,192,38931,1,0,0:0:0:0:
448,192,39000,1,0,0:0:0:0:
320,192,39068,1,0,0:0:0:0:
448,192,39136,1,0,0:0:0:0:
320,192,39204,1,0,0:0:0:0:
448,192,39272,1,0,0:0:0:0:
320,192,39340,1,0,0:0:0:0:
448,192,39409,1,0,0:0:0:0:
192,192,39409,1,0,0:0:0:0:
64,192,39409,1,0,0:0:0:0:
320,192,39477,1,0,0:0:0:0:
192,192,39545,1,0,0:0:0:0:
64,192,39613,1,0,0:0:0:0:
320,192,39681,1,0,0:0:0:0:
448,192,39681,1,0,0:0:0:0:
64,192,39750,1,0,0:0:0:0:
192,192,39818,1,0,0:0:0:0:
320,192,39886,1,0,0:0:0:0:
448,192,39954,1,0,0:0:0:0:
64,192,39954,1,0,0:0:0:0:
320,192,40022,1,0,0:0:0:0:
192,192,40090,1,0,0:0:0:0:
64,192,40159,1,0,0:0:0:0:
448,192,40227,1,0,0:0:0:0:
320,192,40227,1,0,0:0:0:0:
64,192,40295,1,0,0:0:0:0:
192,192,40363,1,0,0:0:0:0:
320,192,40431,1,0,0:0:0:0:
448,192,40500,1,0,0:0:0:0:
64,192,40500,1,0,0:0:0:0:
320,192,40568,1,0,0:0:0:0:
192,192,40636,1,0,0:0:0:0:
64,192,40704,1,0,0:0:0:0:
320,192,40772,1,0,0:0:0:0:
448,192,40772,1,0,0:0:0:0:
64,192,40840,1,0,0:0:0:0:
192,192,40909,1,0,0:0:0:0:
320,192,40977,1,0,0:0:0:0:
448,192,41045,1,0,0:0:0:0:
64,192,41045,1,0,0:0:0:0:
320,192,41113,1,0,0:0:0:0:
192,192,41181,1,0,0:0:0:0:
64,192,41250,1,0,0:0:0:0:
320,192,41318,1,0,0:0:0:0:
192,192,41318,1,0,0:0:0:0:
448,192,41386,1,0,0:0:0:0:
320,192,41454,1,0,0:0:0:0:
192,192,41522,1,0,0:0:0:0:
64,192,41590,1,0,0:0:0:0:
448,192,41590,1,0,0:0:0:0:
192,192,41659,1,0,0:0:0:0:
320,192,41727,1,0,0:0:0:0:
448,192,41795,1,0,0:0:0:0:
192,192,41863,1,0,0:0:0:0:
64,192,41863,1,0,0:0:0:0:
448,192,41931,1,0,0:0:0:0:
320,192,42000,1,0,0:0:0:0:
192,192,42068,1,0,0:0:0:0:
64,192,42136,1,0,0:0:0:0:
448,192,42136,1,0,0:0:0:0:
192,192,42204,1,0,0:0:0:0:
320,192,42272,1,0,0:0:0:0:
448,192,42340,1,0,0:0:0:0:
64,192,42409,1,0,0:0:0:0:
192,192,42409,1,0,0:0:0:0:
448,192,42477,1,0,0:0:0:0:
320,192,42545,1,0,0:0:0:0:
192,192,42613,1,0,0:0:0:0:
64,192,42681,1,0,0:0:0:0:
448,192,42681,1,0,0:0:0:0:
192,192,42750,1,0,0:0:0:0:
320,192,42818,1,0,0:0:0:0:
448,192,42886,1,0,0:0:0:0:
192,192,42954,1,0,0:0:0:0:
320,192,42954,1,0,0:0:0:0:
64,192,43022,1,0,0:0:0:0:
192,192,43090,1,0,0:0:0:0:
320,192,43159,1,0,0:0:0:0:
448,192,43227,1,0,0:0:0:0:
64,192,43227,1,0,0:0:0:0:
320,192,43295,1,0,0:0:0:0:
192,192,43363,1,0,0:0:0:0:
448,192,43363,1,0,0:0:0:0:
64,192,43431,1,0,0:0:0:0:
448,192,43500,1,0,0:0:0:0:
320,192,43500,1,0,0:0:0:0:
64,192,43568,1,0,0:0:0:0:
192,192,43636,1,0,0:0:0:0:
320,192,43704,1,0,0:0:0:0:
448,192,43772,1,0,0:0:0:0:
64,192,43772,1,0,0:0:0:0:
192,192,43818,1,0,0:0:0:0:
320,192,43863,1,0,0:0:0:0:
448,192,43909,1,0,0:0:0:0:
64,192,43954,1,0,0:0:0:0:
192,192,44000,1,0,0:0:0:0:
320,192,44045,1,0,0:0:0:0:
64,192,44090,1,0,0:0:0:0:
192,192,44136,1,0,0:0:0:0:
448,192,44181,1,0,0:0:0:0:
64,192,44227,1,0,0:0:0:0:
192,192,44272,1,0,0:0:0:0:
320,192,44318,1,0,0:0:0:0:
64,192,44363,1,0,0:0:0:0:
448,192,44409,1,0,0:0:0:0:
320,192,44454,1,0,0:0:0:0:
192,192,44500,1,0,0:0:0:0:
448,192,44545,1,0,0:0:0:0:
64,192,44590,1,0,0:0:0:0:
192,192,44636,1,0,0:0:0:0:
320,192,44681,1,0,0:0:0:0:
448,192,44727,1,0,0:0:0:0:
64,192,44772,1,0,0:0:0:0:
192,192,44818,1,0,0:0:0:0:
320,192,44863,1,0,0:0:0:0:
448,192,44909,1,0,0:0:0:0:
64,192,44954,1,0,0:0:0:0:
192,192,45000,1,0,0:0:0:0:
448,192,45045,1,0,0:0:0:0:
64,192,45090,1,0,0:0:0:0:
192,192,45136,1,0,0:0:0:0:
448,192,45181,1,0,0:0:0:0:
320,192,45227,1,0,0:0:0:0:
192,192,45272,1,0,0:0:0:0:
64,192,45318,1,0,0:0:0:0:
448,192,45363,1,0,0:0:0:0:
320,192,45409,1,0,0:0:0:0:
192,192,45409,1,0,0:0:0:0:
64,192,45545,1,0,0:0:0:0:
320,192,45545,1,0,0:0:0:0:
64,192,45681,1,0,0:0:0:0:
192,192,45681,1,0,0:0:0:0:
320,192,45818,1,0,0:0:0:0:
448,192,45818,1,0,0:0:0:0:
448,192,45954,1,0,0:0:0:0:
64,192,45954,1,0,0:0:0:0:
320,192,46000,1,0,0:0:0:0:
192,192,46045,1,0,0:0:0:0:
64,192,46090,1,0,0:0:0:0:
320,192,46136,1,0,0:0:0:0:
448,192,46181,1,0,0:0:0:0:
192,192,46227,1,0,0:0:0:0:
64,192,46272,1,0,0:0:0:0:
448,192,46318,1,0,0:0:0:0:
320,192,46363,1,0,0:0:0:0:
192,192,46409,1,0,0:0:0:0:
64,192,46454,1,0,0:0:0:0:
320,192,46500,1,0,0:0:0:0:
448,192,46545,1,0,0:0:0:0:
64,192,46590,1,0,0:0:0:0:
320,192,46636,1,0,0:0:0:0:
192,192,46681,1,0,0:0:0:0:
64,192,46727,1,0,0:0:0:0:
448,192,46772,1,0,0:0:0:0:
320,192,46818,1,0,0:0:0:0:
192,192,46863,1,0,0:0:0:0:
64,192,46909,1,0,0:0:0:0:
448,192,46954,1,0,0:0:0:0:
192,192,47000,1,0,0:0:0:0:
64,192,47045,1,0,0:0:0:0:
448,192,47090,1,0,0:0:0:0:
320,192,47136,1,0,0:0:0:0:
192,192,47181,1,0,0:0:0:0:
64,192,47227,1,0,0:0:0:0:
448,192,47272,1,0,0:0:0:0:
192,192,47318,1,0,0:0:0:0:
320,192,47363,1,0,0:0:0:0:
448,192,47409,1,0,0:0:0:0:
192,192,47454,1,0,0:0:0:0:
320,192,47500,1,0,0:0:0:0:
64,192,47545,1,0,0:0:0:0:
192,192,47590,1,0,0:0:0:0:
320,192,47636,1,0,0:0:0:0:
448,192,47681,1,0,0:0:0:0:
64,192,47727,1,0,0:0:0:0:
192,192,47772,1,0,0:0:0:0:
320,192,47818,1,0,0:0:0:0:
448,192,47863,1,0,0:0:0:0:
192,192,47909,1,0,0:0:0:0:
320,192,47954,1,0,0:0:0:0:
64,192,48000,1,0,0:0:0:0:
192,192,48045,1,0,0:0:0:0:
320,192,48090,1,0,0:0:0:0:
448,192,48136,1,0,0:0:0:0:
192,192,48181,1,0,0:0:0:0:
64,192,48227,1,0,0:0:0:0:
320,192,48272,1,0,0:0:0:0:
448,192,48318,1,0,0:0:0:0:
192,192,48363,1,0,0:0:0:0:
64,192,48409,1,0,0:0:0:0:
448,192,48454,1,0,0:0:0:0:
320,192,48500,1,0,0:0:0:0:
192,192,48545,1,0,0:0:0:0:
64,192,48590,1,0,0:0:0:0:
448,192,48636,1,0,0:0:0:0:
320,192,48681,1,0,0:0:0:0:
192,192,48727,1,0,0:0:0:0:
64,192,48772,1,0,0:0:0:0:
320,192,48818,1,0,0:0:0:0:
448,192,48863,1,0,0:0:0:0:
192,192,48909,1,0,0:0:0:0:
64,192,48954,1,0,0:0:0:0:
320,192,49000,1,0,0:0:0:0:
448,192,49045,1,0,0:0:0:0:
64,192,49090,1,0,0:0:0:0:
192,192,49136,1,0,0:0:0:0:
320,192,49181,1,0,0:0:0:0:
448,192,49227,1,0,0:0:0:0:
64,192,49272,1,0,0:0:0:0:
192,192,49318,1,0,0:0:0:0:
320,192,49363,1,0,0:0:0:0:
448,192,49409,1,0,0:0:0:0:
64,192,49454,1,0,0:0:0:0:
192,192,49500,1,0,0:0:0:0:
320,192,49545,1,0,0:0:0:0:
448,192,49590,1,0,0:0:0:0:
64,192,49636,1,0,0:0:0:0:
320,192,49681,1,0,0:0:0:0:
192,192,49727,1,0,0:0:0:0:
64,192,49772,1,0,0:0:0:0:
448,192,49818,1,0,0:0:0:0:
192,192,49863,1,0,0:0:0:0:
320,192,49909,1,0,0:0:0:0:
448,192,49954,1,0,0:0:0:0:
64,192,50000,1,0,0:0:0:0:
192,192,50045,1,0,0:0:0:0:
448,192,50090,1,0,0:0:0:0:
64,192,50136,1,0,0:0:0:0:
192,192,50181,1,0,0:0:0:0:
320,192,50227,1,0,0:0:0:0:
448,192,50272,1,0,0:0:0:0:
64,192,50318,1,0,0:0:0:0:
192,192,50363,1,0,0:0:0:0:
320,192,50409,1,0,0:0:0:0:
448,192,50454,1,0,0:0:0:0:
192,192,50500,1,0,0:0:0:0:
64,192,50545,1,0,0:0:0:0:
448,192,50590,1,0,0:0:0:0:
320,192,50636,1,0,0:0:0:0:
192,192,50681,1,0,0:0:0:0:
64,192,50727,1,0,0:0:0:0:
320,192,50772,1,0,0:0:0:0:
448,192,50818,1,0,0:0:0:0:
64,192,50863,1,0,0:0:0:0:
192,192,50909,1,0,0:0:0:0:
320,192,50954,1,0,0:0:0:0:
448,192,51000,1,0,0:0:0:0:
192,192,51045,1,0,0:0:0:0:
320,192,51090,1,0,0:0:0:0:
448,192,51136,1,0,0:0:0:0:
64,192,51136,1,0,0:0:0:0:
320,192,51181,1,0,0:0:0:0:
192,192,51227,1,0,0:0:0:0:
64,192,51272,1,0,0:0:0:0:
448,192,51318,1,0,0:0:0:0:
320,192,51363,1,0,0:0:0:0:
192,192,51409,1,0,0:0:0:0:
64,192,51454,1,0,0:0:0:0:
448,192,51500,1,0,0:0:0:0:
320,192,51545,1,0,0:0:0:0:
192,192,51545,1,0,0:0:0:0:
64,192,51590,1,0,0:0:0:0:
448,192,51681,1,0,0:0:0:0:
320,192,51727,1,0,0:0:0:0:
192,192,51772,1,0,0:0:0:0:
448,192,51818,1,0,0:0:0:0:
320,192,51863,1,0,0:0:0:0:
192,192,51909,1,0,0:0:0:0:
448,192,51954,1,0,0:0:0:0:
320,192,52000,1,0,0:0:0:0:
64,192,52045,1,0,0:0:0:0:
192,192,52090,1,0,0:0:0:0:
320,192,52136,1,0,0:0:0:0:
64,192,52181,1,0,0:0:0:0:
192,192,52227,1,0,0:0:0:0:
320,192,52272,1,0,0:0:0:0:
64,192,52318,1,0,0:0:0:0:
192,192,52363,1,0,0:0:0:0:
320,192,52409,1,0,0:0:0:0:
448,192,52454,1,0,0:0:0:0:
64,192,52500,1,0,0:0:0:0:
192,192,52500,1,0,0:0:0:0:
320,192,52545,1,0,0:0:0:0:
448,192,52590,1,0,0:0:0:0:
64,192,52636,1,0,0:0:0:0:
192,192,52681,1,0,0:0:0:0:
320,192,52727,1,0,0:0:0:0:
448,192,52772,1,0,0:0:0:0:
64,192,52818,1,0,0:0:0:0:
192,192,52863,1,0,0:0:0:0:
448,192,52909,1,0,0:0:0:0:
64,192,52954,1,0,0:0:0:0:
320,192,53000,1,0,0:0:0:0:
448,192,53045,1,0,0:0:0:0:
192,192,53090,1,0,0:0:0:0:
64,192,53136,1,0,0:0:0:0:
320,192,53181,1,0,0:0:0:0:
448,192,53227,1,0,0:0:0:0:
192,192,53272,1,0,0:0:0:0:
64,192,53318,1,0,0:0:0:0:
448,192,53363,1,0,0:0:0:0:
320,192,53409,1,0,0:0:0:0:
192,192,53454,1,0,0:0:0:0:
64,192,53500,1,0,0:0:0:0:
448,192,53545,1,0,0:0:0:0:
320,192,53590,1,0,0:0:0:0:
64,192,53636,1,0,0:0:0:0:
192,192,53681,1,0,0:0:0:0:
320,192,53727,1,0,0:0:0:0:
448,192,53772,1,0,0:0:0:0:
192,192,53818,1,0,0:0:0:0:
64,192,53863,1,0,0:0:0:0:
320,192,53909,1,0,0:0:0:0:
192,192,53954,1,0,0:0:0:0:
64,192,54000,1,0,0:0:0:0:
448,192,54045,1,0,0:0:0:0:
320,192,54090,1,0,0:0:0:0:
192,192,54136,1,0,0:0:0:0:
64,192,54136,1,0,0:0:0:0:
64,192,54272,1,0,0:0:0:0:
320,192,54272,1,0,0:0:0:0:
192,192,54409,1,0,0:0:0:0:
320,192,54409,1,0,0:0:0:0:
192,192,54545,1,0,0:0:0:0:
448,192,54545,1,0,0:0:0:0:
64,192,54545,1,0,0:0:0:0:
64,192,54681,1,0,0:0:0:0:
448,192,54681,1,0,0:0:0:0:
320,192,54727,1,0,0:0:0:0:
192,192,54772,1,0,0:0:0:0:
64,192,54818,1,0,0:0:0:0:
320,192,54863,1,0,0:0:0:0:
448,192,54909,1,0,0:0:0:0:
192,192,54954,1,0,0:0:0:0:
64,192,55000,1,0,0:0:0:0:
448,192,55045,1,0,0:0:0:0:
320,192,55090,1,0,0:0:0:0:
192,192,55136,1,0,0:0:0:0:
64,192,55181,1,0,0:0:0:0:
320,192,55227,1,0,0:0:0:0:
448,192,55272,1,0,0:0:0:0:
192,192,55318,1,0,0:0:0:0:
64,192,55363,1,0,0:0:0:0:
320,192,55409,1,0,0:0:0:0:
448,192,55454,1,0,0:0:0:0:
64,192,55500,1,0,0:0:0:0:
192,192,55545,1,0,0:0:0:0:
320,192,55590,1,0,0:0:0:0:
448,192,55636,1,0,0:0:0:0:
64,192,55681,1,0,0:0:0:0:
192,192,55727,1,0,0:0:0:0:
320,192,55772,1,0,0:0:0:0:
64,192,55818,1,0,0:0:0:0:
192,192,55863,1,0,0:0:0:0:
320,192,55909,1,0,0:0:0:0:
64,192,55954,1,0,0:0:0:0:
448,192,56000,1,0,0:0:0:0:
320,192,56045,1,0,0:0:0:0:
192,192,56090,1,0,0:0:0:0:
64,192,56136,1,0,0:0:0:0:
320,192,56181,1,0,0:0:0:0:
448,192,56181,1,0,0:0:0:0:
192,192,56318,1,0,0:0:0:0:
448,192,56318,1,0,0:0:0:0:
64,192,56409,1,0,0:0:0:0:
320,192,56454,1,0,0:0:0:0:
448,192,56454,1,0,0:0:0:0:
64,192,56590,1,0,0:0:0:0:
320,192,56590,1,0,0:0:0:0:
64,192,56727,1,0,0:0:0:0:
192,192,56727,1,0,0:0:0:0:
320,192,56863,1,0,0:0:0:0:
448,192,56863,1,0,0:0:0:0:
192,192,56909,1,0,0:0:0:0:
64,192,56954,1,0,0:0:0:0:
448,192,57000,1,0,0:0:0:0:
320,192,57045,1,0,0:0:0:0:
192,192,57090,1,0,0:0:0:0:
64,192,57136,1,0,0:0:0:0:
448,192,57181,1,0,0:0:0:0:
192,192,57227,1,0,0:0:0:0:
320,192,57272,1,0,0:0:0:0:
448,192,57318,1,0,0:0:0:0:
64,192,57363,1,0,0:0:0:0:
192,192,57409,1,0,0:0:0:0:
320,192,57454,1,0,0:0:0:0:
448,192,57500,1,0,0:0:0:0:
192,192,57545,1,0,0:0:0:0:
64,192,57590,1,0,0:0:0:0:
320,192,57636,1,0,0:0:0:0:
448,192,57681,1,0,0:0:0:0:
64,192,57727,1,0,0:0:0:0:
192,192,57772,1,0,0:0:0:0:
320,192,57818,1,0,0:0:0:0:
448,192,57863,1,0,0:0:0:0:
64,192,57909,1,0,0:0:0:0:
192,192,57954,1,0,0:0:0:0:
448,192,58000,1,0,0:0:0:0:
64,192,58045,1,0,0:0:0:0:
192,192,58090,1,0,0:0:0:0:
320,192,58136,1,0,0:0:0:0:
448,192,58181,1,0,0:0:0:0:
64,192,58227,1,0,0:0:0:0:
192,192,58272,1,0,0:0:0:0:
320,192,58318,1,0,0:0:0:0:
448,192,58363,1,0,0:0:0:0:
192,192,58409,1,0,0:0:0:0:
64,192,58454,1,0,0:0:0:0:
320,192,58500,1,0,0:0:0:0:
448,192,58500,1,0,0:0:0:0:
192,192,58545,1,0,0:0:0:0:
64,192,58590,1,0,0:0:0:0:
448,192,58636,1,0,0:0:0:0:
320,192,58681,1,0,0:0:0:0:
64,192,58727,1,0,0:0:0:0:
448,192,58772,1,0,0:0:0:0:
192,192,58818,1,0,0:0:0:0:
320,192,58863,1,0,0:0:0:0:
64,192,58954,1,0,0:0:0:0:
192,192,59000,1,0,0:0:0:0:
448,192,59090,1,0,0:0:0:0:
320,192,59136,1,0,0:0:0:0:
192,192,59181,1,0,0:0:0:0:
64,192,59227,1,0,0:0:0:0:
320,192,59272,1,0,0:0:0:0:
448,192,59318,1,0,0:0:0:0:
64,192,59363,1,0,0:0:0:0:
192,192,59409,1,0,0:0:0:0:
320,192,59454,1,0,0:0:0:0:
448,192,59500,1,0,0:0:0:0:
192,192,59545,1,0,0:0:0:0:
64,192,59590,1,0,0:0:0:0:
448,192,59636,1,0,0:0:0:0:
320,192,59681,1,0,0:0:0:0:
192,192,59727,1,0,0:0:0:0:
64,192,59772,1,0,0:0:0:0:
448,192,59818,1,0,0:0:0:0:
320,192,59863,1,0,0:0:0:0:
64,192,59909,1,0,0:0:0:0:
192,192,59954,1,0,0:0:0:0:
320,192,60000,1,0,0:0:0:0:
448,192,60045,1,0,0:0:0:0:
192,192,60090,1,0,0:0:0:0:
64,192,60136,1,0,0:0:0:0:
320,192,60181,1,0,0:0:0:0:
448,192,60227,1,0,0:0:0:0:
64,192,60272,1,0,0:0:0:0:
192,192,60272,1,0,0:0:0:0:
320,192,60318,1,0,0:0:0:0:
448,192,60363,1,0,0:0:0:0:
192,192,60409,1,0,0:0:0:0:
64,192,60454,1,0,0:0:0:0:
320,192,60500,1,0,0:0:0:0:
192,192,60545,1,0,0:0:0:0:
64,192,60590,1,0,0:0:0:0:
320,192,60636,1,0,0:0:0:0:
192,192,60681,1,0,0:0:0:0:
64,192,60727,1,0,0:0:0:0:
192,192,60818,1,0,0:0:0:0:
320,192,60818,1,0,0:0:0:0:
448,192,60863,1,0,0:0:0:0:
192,192,60909,1,0,0:0:0:0:
320,192,60954,1,0,0:0:0:0:
448,192,61000,1,0,0:0:0:0:
192,192,61045,1,0,0:0:0:0:
320,192,61090,1,0,0:0:0:0:
448,192,61136,1,0,0:0:0:0:
192,192,61181,1,0,0:0:0:0:
64,192,61227,1,0,0:0:0:0:
320,192,61227,1,0,0:0:0:0:
448,192,61227,1,0,0:0:0:0:
64,192,61500,1,0,0:0:0:0:
192,192,61568,1,0,0:0:0:0:
320,192,61636,1,0,0:0:0:0:
448,192,61704,1,0,0:0:0:0:
64,192,61772,1,0,0:0:0:0:
192,192,61772,1,0,0:0:0:0:
320,192,61772,1,0,0:0:0:0:
448,192,62045,1,0,0:0:0:0:
320,192,62113,1,0,0:0:0:0:
192,192,62181,1,0,0:0:0:0:
64,192,62250,1,0,0:0:0:0:
192,192,62318,1,0,0:0:0:0:
320,192,62318,1,0,0:0:0:0:
448,192,62318,1,0,0:0:0:0:
64,192,62590,1,0,0:0:0:0:
192,192,62659,1,0,0:0:0:0:
320,192,62727,1,0,0:0:0:0:
448,192,62795,1,0,0:0:0:0:
320,192,62863,1,0,0:0:0:0:
192,192,62863,1,0,0:0:0:0:
64,192,62863,1,0,0:0:0:0:
448,192,63136,1,0,0:0:0:0:
320,192,63204,1,0,0:0:0:0:
192,192,63272,1,0,0:0:0:0:
64,192,63340,1,0,0:0:0:0:
192,192,63409,1,0,0:0:0:0:
320,192,63409,1,0,0:0:0:0:
448,192,63409,1,0,0:0:0:0:
64,192,63409,1,0,0:0:0:0:
320,192,63954,1,0,0:0:0:0:
448,192,63954,1,0,0:0:0:0:
320,192,64090,1,0,0:0:0:0:
192,192,64090,1,0,0:0:0:0:
64,192,64227,1,0,0:0:0:0:
192,192,64227,1,0,0:0:0:0:
64,192,64363,1,0,0:0:0:0:
320,192,64363,1,0,0:0:0:0:
64,192,64500,1,0,0:0:0:0:
192,192,64500,1,0,0:0:0:0:
448,192,64500,1,0,0:0:0:0:
320,192,64500,1,0,0:0:0:0:
192,192,64636,1,0,0:0:0:0:
320,192,64772,1,0,0:0:0:0:
448,192,64772,1,0,0:0:0:0:
448,192,64909,1,0,0:0:0:0:
64,192,64909,1,0,0:0:0:0:
192,192,65045,1,0,0:0:0:0:
320,192,65045,1,0,0:0:0:0:
64,192,65045,1,0,0:0:0:0:
192,192,65181,1,0,0:0:0:0:
320,192,65318,1,0,0:0:0:0:
448,192,65318,1,0,0:0:0:0:
64,192,65454,1,0,0:0:0:0:
320,192,65454,1,0,0:0:0:0:
64,192,65590,1,0,0:0:0:0:
448,192,65590,1,0,0:0:0:0:
192,192,65590,1,0,0:0:0:0:
320,192,65727,1,0,0:0:0:0:
192,192,65863,1,0,0:0:0:0:
448,192,65863,1,0,0:0:0:0:
64,192,66000,1,0,0:0:0:0:
192,192,66136,1,0,0:0:0:0:
64,192,66136,1,0,0:0:0:0:
448,192,66136,1,0,0:0:0:0:
448,192,66272,1,0,0:0:0:0:
320,192,66272,1,0,0:0:0:0:
448,192,66409,1,0,0:0:0:0:
192,192,66409,1,0,0:0:0:0:
448,192,66545,1,0,0:0:0:0:
64,192,66545,1,0,0:0:0:0:
448,192,66681,1,0,0:0:0:0:
320,192,66681,1,0,0:0:0:0:
192,192,66681,1,0,0:0:0:0:
64,192,66818,1,0,0:0:0:0:
64,192,66954,1,0,0:0:0:0:
320,192,66954,1,0,0:0:0:0:
192,192,67090,1,0,0:0:0:0:
320,192,67090,1,0,0:0:0:0:
192,192,67227,1,0,0:0:0:0:
448,192,67227,1,0,0:0:0:0:
64,192,67227,1,0,0:0:0:0:
64,192,67363,1,0,0:0:0:0:
320,192,67363,1,0,0:0:0:0:
192,192,67500,1,0,0:0:0:0:
448,192,67500,1,0,0:0:0:0:
192,192,67636,1,0,0:0:0:0:
320,192,67636,1,0,0:0:0:0:
64,192,67772,1,0,0:0:0:0:
320,192,67772,1,0,0:0:0:0:
448,192,67772,1,0,0:0:0:0:
192,192,67909,1,0,0:0:0:0:
64,192,68045,1,0,0:0:0:0:
448,192,68045,1,0,0:0:0:0:
320,192,68181,1,0,0:0:0:0:
320,192,68318,1,0,0:0:0:0:
192,192,68318,1,0,0:0:0:0:
64,192,68318,1,0,0:0:0:0:
64,192,68454,1,0,0:0:0:0:
448,192,68454,1,0,0:0:0:0:
64,192,68590,1,0,0:0:0:0:
320,192,68590,1,0,0:0:0:0:
64,192,68727,1,0,0:0:0:0:
192,192,68727,1,0,0:0:0:0:
192,192,68863,1,0,0:0:0:0:
320,192,68863,1,0,0:0:0:0:
448,192,68863,1,0,0:0:0:0:
64,192,69000,1,0,0:0:0:0:
320,192,69000,1,0,0:0:0:0:
192,192,69136,1,0,0:0:0:0:
448,192,69136,1,0,0:0:0:0:
320,192,69272,1,0,0:0:0:0:
448,192,69272,1,0,0:0:0:0:
320,192,69409,1,0,0:0:0:0:
192,192,69409,1,0,0:0:0:0:
64,192,69409,1,0,0:0:0:0:
64,192,69545,1,0,0:0:0:0:
448,192,69545,1,0,0:0:0:0:
192,192,69681,1,0,0:0:0:0:
448,192,69681,1,0,0:0:0:0:
320,192,69818,1,0,0:0:0:0:
64,192,69818,1,0,0:0:0:0:
320,192,69954,1,0,0:0:0:0:
448,192,69954,1,0,0:0:0:0:
192,192,69954,1,0,0:0:0:0:
64,192,70090,1,0,0:0:0:0:
64,192,70227,1,0,0:0:0:0:
320,192,70227,1,0,0:0:0:0:
192,192,70363,1,0,0:0:0:0:
320,192,70500,1,0,0:0:0:0:
448,192,70500,1,0,0:0:0:0:
64,192,70500,1,0,0:0:0:0:
192,192,70636,1,0,0:0:0:0:
448,192,70636,1,0,0:0:0:0:
320,192,70772,1,0,0:0:0:0:
448,192,70772,1,0,0:0:0:0:
192,192,70909,1,0,0:0:0:0:
448,192,70909,1,0,0:0:0:0:
64,192,71045,1,0,0:0:0:0:
192,192,71045,1,0,0:0:0:0:
320,192,71045,1,0,0:0:0:0:
64,192,71181,1,0,0:0:0:0:
448,192,71181,1,0,0:0:0:0:
192,192,71318,1,0,0:0:0:0:
320,192,71318,1,0,0:0:0:0:
64,192,71454,1,0,0:0:0:0:
320,192,71454,1,0,0:0:0:0:
64,192,71590,1,0,0:0:0:0:
192,192,71590,1,0,0:0:0:0:
448,192,71590,1,0,0:0:0:0:
192,192,71727,1,0,0:0:0:0:
320,192,71727,1,0,0:0:0:0:
64,192,71863,1,0,0:0:0:0:
448,192,71863,1,0,0:0:0:0:
192,192,72000,1,0,0:0:0:0:
64,192,72000,1,0,0:0:0:0:
192,192,72136,1,0,0:0:0:0:
320,192,72136,1,0,0:0:0:0:
448,192,72136,1,0,0:0:0:0:
64,192,72272,1,0,0:0:0:0:
448,192,72409,1,0,0:0:0:0:
192,192,72409,1,0,0:0:0:0:
448,192,72545,1,0,0:0:0:0:
64,192,72681,1,0,0:0:0:0:
192,192,72681,1,0,0:0:0:0:
320,192,72681,1,0,0:0:0:0:
448,192,72750,1,0,0:0:0:0:
320,192,72818,1,0,0:0:0:0:
192,192,72886,1,0,0:0:0:0:
64,192,72954,1,0,0:0:0:0:
448,192,72954,1,0,0:0:0:0:
192,192,73022,1,0,0:0:0:0:
64,192,73090,1,0,0:0:0:0:
448,192,73090,1,0,0:0:0:0:
320,192,73159,1,0,0:0:0:0:
64,192,73227,1,0,0:0:0:0:
192,192,73227,1,0,0:0:0:0:
448,192,73227,1,0,0:0:0:0:
320,192,73295,1,0,0:0:0:0:
192,192,73363,1,0,0:0:0:0:
64,192,73431,1,0,0:0:0:0:
448,192,73500,1,0,0:0:0:0:
192,192,73500,1,0,0:0:0:0:
64,192,73636,1,0,0:0:0:0:
320,192,73636,1,0,0:0:0:0:
192,192,73772,1,0,0:0:0:0:
320,192,73772,1,0,0:0:0:0:
448,192,73772,1,0,0:0:0:0:
64,192,73909,1,0,0:0:0:0:
192,192,73909,1,0,0:0:0:0:
448,192,74045,1,0,0:0:0:0:
320,192,74045,1,0,0:0:0:0:
64,192,74045,1,0,0:0:0:0:
192,192,74113,1,0,0:0:0:0:
320,192,74181,1,0,0:0:0:0:
448,192,74250,1,0,0:0:0:0:
64,192,74318,1,0,0:0:0:0:
192,192,74318,1,0,0:0:0:0:
320,192,74318,1,0,0:0:0:0:
192,192,74454,1,0,0:0:0:0:
448,192,74454,1,0,0:0:0:0:
448,192,74590,1,0,0:0:0:0:
64,192,74590,1,0,0:0:0:0:
192,192,74727,1,0,0:0:0:0:
320,192,74727,1,0,0:0:0:0:
64,192,74863,1,0,0:0:0:0:
192,192,74863,1,0,0:0:0:0:
448,192,74863,1,0,0:0:0:0:
320,192,75000,1,0,0:0:0:0:
192,192,75136,1,0,0:0:0:0:
448,192,75136,1,0,0:0:0:0:
64,192,75272,1,0,0:0:0:0:
64,192,75409,1,0,0:0:0:0:
320,192,75409,1,0,0:0:0:0:
448,192,75409,1,0,0:0:0:0:
192,192,75477,1,0,0:0:0:0:
320,192,75545,1,0,0:0:0:0:
448,192,75613,1,0,0:0:0:0:
64,192,75681,1,0,0:0:0:0:
192,192,75681,1,0,0:0:0:0:
192,192,75818,1,0,0:0:0:0:
448,192,75818,1,0,0:0:0:0:
320,192,75954,1,0,0:0:0:0:
192,192,75954,1,0,0:0:0:0:
64,192,75954,1,0,0:0:0:0:
320,192,76090,1,0,0:0:0:0:
448,192,76090,1,0,0:0:0:0:
448,192,76227,1,0,0:0:0:0:
192,192,76227,1,0,0:0:0:0:
320,192,76363,1,0,0:0:0:0:
448,192,76363,1,0,0:0:0:0:
192,192,76500,1,0,0:0:0:0:
320,192,76500,1,0,0:0:0:0:
64,192,76500,1,0,0:0:0:0:
448,192,76636,1,0,0:0:0:0:
320,192,76772,1,0,0:0:0:0:
192,192,76772,1,0,0:0:0:0:
64,192,76909,1,0,0:0:0:0:
64,192,77045,1,0,0:0:0:0:
320,192,77045,1,0,0:0:0:0:
448,192,77045,1,0,0:0:0:0:
192,192,77181,1,0,0:0:0:0:
448,192,77181,1,0,0:0:0:0:
320,192,77318,1,0,0:0:0:0:
448,192,77318,1,0,0:0:0:0:
64,192,77454,1,0,0:0:0:0:
448,192,77454,1,0,0:0:0:0:
64,192,77590,1,0,0:0:0:0:
192,192,77590,1,0,0:0:0:0:
448,192,77590,1,0,0:0:0:0:
320,192,77659,1,0,0:0:0:0:
192,192,77727,1,0,0:0:0:0:
64,192,77795,1,0,0:0:0:0:
320,192,77863,1,0,0:0:0:0:
448,192,77863,1,0,0:0:0:0:
64,192,78000,1,0,0:0:0:0:
320,192,78000,1,0,0:0:0:0:
64,192,78136,1,0,0:0:0:0:
192,192,78136,1,0,0:0:0:0:
448,192,78136,1,0,0:0:0:0:
320,192,78272,1,0,0:0:0:0:
448,192,78272,1,0,0:0:0:0:
64,192,78409,1,0,0:0:0:0:
192,192,78409,1,0,0:0:0:0:
448,192,78409,1,0,0:0:0:0:
320,192,78477,1,0,0:0:0:0:
192,192,78545,1,0,0:0:0:0:
64,192,78613,1,0,0:0:0:0:
320,192,78681,1,0,0:0:0:0:
448,192,78681,1,0,0:0:0:0:
192,192,78681,1,0,0:0:0:0:
64,192,78818,1,0,0:0:0:0:
320,192,78818,1,0,0:0:0:0:
192,192,78954,1,0,0:0:0:0:
448,192,78954,1,0,0:0:0:0:
64,192,79090,1,0,0:0:0:0:
64,192,79227,1,0,0:0:0:0:
192,192,79227,1,0,0:0:0:0:
320,192,79227,1,0,0:0:0:0:
320,192,79363,1,0,0:0:0:0:
320,192,79500,1,0,0:0:0:0:
448,192,79500,1,0,0:0:0:0:
64,192,79636,1,0,0:0:0:0:
64,192,79772,1,0,0:0:0:0:
192,192,79772,1,0,0:0:0:0:
320,192,79772,1,0,0:0:0:0:
448,192,79840,1,0,0:0:0:0:
320,192,79909,1,0,0:0:0:0:
192,192,79977,1,0,0:0:0:0:
64,192,80045,1,0,0:0:0:0:
448,192,80045,1,0,0:0:0:0:
320,192,80113,1,0,0:0:0:0:
192,192,80181,1,0,0:0:0:0:
64,192,80181,1,0,0:0:0:0:
320,192,80318,1,0,0:0:0:0:
448,192,80318,1,0,0:0:0:0:
64,192,80454,1,0,0:0:0:0:
320,192,80454,1,0,0:0:0:0:
64,192,80590,1,0,0:0:0:0:
192,192,80590,1,0,0:0:0:0:
448,192,80727,1,0,0:0:0:0:
320,192,80727,1,0,0:0:0:0:
192,192,80863,1,0,0:0:0:0:
320,192,80863,1,0,0:0:0:0:
448,192,80863,1,0,0:0:0:0:
64,192,81000,1,0,0:0:0:0:
64,192,81136,1,0,0:0:0:0:
192,192,81136,1,0,0:0:0:0:
192,192,81272,1,0,0:0:0:0:
448,192,81272,1,0,0:0:0:0:
320,192,81409,1,0,0:0:0:0:
448,192,81409,1,0,0:0:0:0:
64,192,81409,1,0,0:0:0:0:
192,192,81477,1,0,0:0:0:0:
320,192,81545,1,0,0:0:0:0:
448,192,81613,1,0,0:0:0:0:
64,192,81681,1,0,0:0:0:0:
192,192,81750,1,0,0:0:0:0:
320,192,81818,1,0,0:0:0:0:
448,192,81886,1,0,0:0:0:0:
64,192,81954,1,0,0:0:0:0:
320,192,81954,1,0,0:0:0:0:
192,192,82022,1,0,0:0:0:0:
320,192,82090,1,0,0:0:0:0:
448,192,82159,1,0,0:0:0:0:
64,192,82227,1,0,0:0:0:0:
192,192,82227,1,0,0:0:0:0:
448,192,82295,1,0,0:0:0:0:
320,192,82363,1,0,0:0:0:0:
192,192,82431,1,0,0:0:0:0:
64,192,82500,1,0,0:0:0:0:
448,192,82500,1,0,0:0:0:0:
192,192,82568,1,0,0:0:0:0:
320,192,82636,1,0,0:0:0:0:
448,192,82704,1,0,0:0:0:0:
64,192,82772,1,0,0:0:0:0:
192,192,82772,1,0,0:0:0:0:
448,192,82840,1,0,0:0:0:0:
320,192,82909,1,0,0:0:0:0:
192,192,82977,1,0,0:0:0:0:
64,192,83045,1,0,0:0:0:0:
448,192,83045,1,0,0:0:0:0:
192,192,83113,1,0,0:0:0:0:
320,192,83181,1,0,0:0:0:0:
448,192,83250,1,0,0:0:0:0:
64,192,83318,1,0,0:0:0:0:
192,192,83318,1,0,0:0:0:0:
448,192,83386,1,0,0:0:0:0:
320,192,83454,1,0,0:0:0:0:
192,192,83522,1,0,0:0:0:0:
64,192,83590,1,0,0:0:0:0:
448,192,83590,1,0,0:0:0:0:
192,192,83659,1,0,0:0:0:0:
320,192,83727,1,0,0:0:0:0:
448,192,83795,1,0,0:0:0:0:
320,192,83863,1,0,0:0:0:0:
192,192,83863,1,0,0:0:0:0:
64,192,83931,1,0,0:0:0:0:
192,192,84000,1,0,0:0:0:0:
320,192,84068,1,0,0:0:0:0:
448,192,84136,1,0,0:0:0:0:
64,192,84136,1,0,0:0:0:0:
320,192,84204,1,0,0:0:0:0:
192,192,84272,1,0,0:0:0:0:
64,192,84340,1,0,0:0:0:0:
320,192,84409,1,0,0:0:0:0:
448,192,84409,1,0,0:0:0:0:
64,192,84477,1,0,0:0:0:0:
192,192,84545,1,0,0:0:0:0:
320,192,84613,1,0,0:0:0:0:
448,192,84681,1,0,0:0:0:0:
64,192,84681,1,0,0:0:0:0:
320,192,84750,1,0,0:0:0:0:
192,192,84818,1,0,0:0:0:0:
64,192,84886,1,0,0:0:0:0:
320,192,84954,1,0,0:0:0:0:
448,192,84954,1,0,0:0:0:0:
64,192,85022,1,0,0:0:0:0:
192,192,85090,1,0,0:0:0:0:
320,192,85159,1,0,0:0:0:0:
448,192,85227,1,0,0:0:0:0:
64,192,85227,1,0,0:0:0:0:
320,192,85295,1,0,0:0:0:0:
192,192,85363,1,0,0:0:0:0:
64,192,85431,1,0,0:0:0:0:
320,192,85500,1,0,0:0:0:0:
448,192,85500,1,0,0:0:0:0:
64,192,85568,1,0,0:0:0:0:
192,192,85636,1,0,0:0:0:0:
320,192,85704,1,0,0:0:0:0:
448,192,85772,1,0,0:0:0:0:
192,192,85772,1,0,0:0:0:0:
64,192,85772,1,0,0:0:0:0:
320,192,85840,1,0,0:0:0:0:
192,192,85909,1,0,0:0:0:0:
64,192,85909,1,0,0:0:0:0:
320,192,86045,1,0,0:0:0:0:
448,192,86045,1,0,0:0:0:0:
192,192,86181,1,0,0:0:0:0:
448,192,86181,1,0,0:0:0:0:
64,192,86318,1,0,0:0:0:0:
192,192,86318,1,0,0:0:0:0:
320,192,86363,1,0,0:0:0:0:
448,192,86409,1,0,0:0:0:0:
64,192,86454,1,0,0:0:0:0:
192,192,86500,1,0,0:0:0:0:
320,192,86545,1,0,0:0:0:0:
448,192,86590,1,0,0:0:0:0:
64,192,86636,1,0,0:0:0:0:
320,192,86681,1,0,0:0:0:0:
448,192,86727,1,0,0:0:0:0:
192,192,86772,1,0,0:0:0:0:
320,192,86818,1,0,0:0:0:0:
448,192,86863,1,0,0:0:0:0:
64,192,86909,1,0,0:0:0:0:
320,192,86954,1,0,0:0:0:0:
448,192,87000,1,0,0:0:0:0:
192,192,87045,1,0,0:0:0:0:
64,192,87090,1,0,0:0:0:0:
320,192,87136,1,0,0:0:0:0:
448,192,87181,1,0,0:0:0:0:
192,192,87227,1,0,0:0:0:0:
64,192,87272,1,0,0:0:0:0:
320,192,87318,1,0,0:0:0:0:
192,192,87363,1,0,0:0:0:0:
64,192,87409,1,0,0:0:0:0:
448,192,87454,1,0,0:0:0:0:
320,192,87500,1,0,0:0:0:0:
192,192,87545,1,0,0:0:0:0:
64,192,87590,1,0,0:0:0:0:
320,192,87636,1,0,0:0:0:0:
192,192,87681,1,0,0:0:0:0:
64,192,87727,1,0,0:0:0:0:
448,192,87772,1,0,0:0:0:0:
320,192,87818,1,0,0:0:0:0:
64,192,87863,1,0,0:0:0:0:
192,192,87909,1,0,0:0:0:0:
448,192,87954,1,0,0:0:0:0:
320,192,87954,1,0,0:0:0:0:
192,192,88090,1,0,0:0:0:0:
448,192,88090,1,0,0:0:0:0:
320,192,88227,1,0,0:0:0:0:
192,192,88227,1,0,0:0:0:0:
64,192,88363,1,0,0:0:0:0:
320,192,88363,1,0,0:0:0:0:
64,192,88500,1,0,0:0:0:0:
192,192,88500,1,0,0:0:0:0:
448,192,88500,1,0,0:0:0:0:
320,192,88545,1,0,0:0:0:0:
192,192,88590,1,0,0:0:0:0:
64,192,88636,1,0,0:0:0:0:
320,192,88681,1,0,0:0:0:0:
192,192,88727,1,0,0:0:0:0:
64,192,88772,1,0,0:0:0:0:
320,192,88818,1,0,0:0:0:0:
192,192,88863,1,0,0:0:0:0:
448,192,88909,1,0,0:0:0:0:
320,192,88954,1,0,0:0:0:0:
192,192,89000,1,0,0:0:0:0:
64,192,89045,1,0,0:0:0:0:
448,192,89090,1,0,0:0:0:0:
192,192,89136,1,0,0:0:0:0:
320,192,89181,1,0,0:0:0:0:
448,192,89227,1,0,0:0:0:0:
64,192,89272,1,0,0:0:0:0:
320,192,89318,1,0,0:0:0:0:
192,192,89363,1,0,0:0:0:0:
64,192,89409,1,0,0:0:0:0:
320,192,89454,1,0,0:0:0:0:
192,192,89500,1,0,0:0:0:0:
64,192,89545,1,0,0:0:0:0:
448,192,89590,1,0,0:0:0:0:
320,192,89636,1,0,0:0:0:0:
64,192,89681,1,0,0:0:0:0:
448,192,89727,1,0,0:0:0:0:
192,192,89772,1,0,0:0:0:0:
64,192,89818,1,0,0:0:0:0:
320,192,89863,1,0,0:0:0:0:
192,192,89909,1,0,0:0:0:0:
64,192,89954,1,0,0:0:0:0:
320,192,90000,1,0,0:0:0:0:
448,192,90000,1,0,0:0:0:0:
192,192,90136,1,0,0:0:0:0:
448,192,90136,1,0,0:0:0:0:
320,192,90272,1,0,0:0:0:0:
448,192,90272,1,0,0:0:0:0:
192,192,90409,1,0,0:0:0:0:
448,192,90409,1,0,0:0:0:0:
320,192,90545,1,0,0:0:0:0:
448,192,90545,1,0,0:0:0:0:
192,192,90545,1,0,0:0:0:0:
64,192,90681,1,0,0:0:0:0:
192,192,90681,1,0,0:0:0:0:
320,192,90727,1,0,0:0:0:0:
448,192,90772,1,0,0:0:0:0:
64,192,90818,1,0,0:0:0:0:
320,192,90863,1,0,0:0:0:0:
448,192,90909,1,0,0:0:0:0:
64,192,90954,1,0,0:0:0:0:
192,192,91000,1,0,0:0:0:0:
320,192,91045,1,0,0:0:0:0:
448,192,91090,1,0,0:0:0:0:
192,192,91136,1,0,0:0:0:0:
64,192,91181,1,0,0:0:0:0:
320,192,91227,1,0,0:0:0:0:
448,192,91272,1,0,0:0:0:0:
192,192,91318,1,0,0:0:0:0:
64,192,91363,1,0,0:0:0:0:
448,192,91409,1,0,0:0:0:0:
320,192,91454,1,0,0:0:0:0:
192,192,91500,1,0,0:0:0:0:
64,192,91545,1,0,0:0:0:0:
320,192,91590,1,0,0:0:0:0:
448,192,91636,1,0,0:0:0:0:
64,192,91681,1,0,0:0:0:0:
192,192,91727,1,0,0:0:0:0:
320,192,91772,1,0,0:0:0:0:
448,192,91818,1,0,0:0:0:0:
192,192,91863,1,0,0:0:0:0:
64,192,91909,1,0,0:0:0:0:
448,192,91954,1,0,0:0:0:0:
320,192,92000,1,0,0:0:0:0:
192,192,92045,1,0,0:0:0:0:
64,192,92090,1,0,0:0:0:0:
448,192,92136,1,0,0:0:0:0:
320,192,92181,1,0,0:0:0:0:
192,192,92227,1,0,0:0:0:0:
64,192,92272,1,0,0:0:0:0:
320,192,92318,1,0,0:0:0:0:
448,192,92318,1,0,0:0:0:0:
192,192,92454,1,0,0:0:0:0:
448,192,92454,1,0,0:0:0:0:
320,192,92590,1,0,0:0:0:0:
64,192,92590,1,0,0:0:0:0:
64,192,92727,1,0,0:0:0:0:
448,192,92727,1,0,0:0:0:0:
320,192,92772,1,0,0:0:0:0:
192,192,92818,1,0,0:0:0:0:
64,192,92863,1,0,0:0:0:0:
448,192,92909,1,0,0:0:0:0:
320,192,92954,1,0,0:0:0:0:
64,192,93000,1,0,0:0:0:0:
192,192,93045,1,0,0:0:0:0:
320,192,93090,1,0,0:0:0:0:
448,192,93136,1,0,0:0:0:0:
192,192,93181,1,0,0:0:0:0:
64,192,93227,1,0,0:0:0:0:
448,192,93272,1,0,0:0:0:0:
320,192,93318,1,0,0:0:0:0:
192,192,93363,1,0,0:0:0:0:
64,192,93409,1,0,0:0:0:0:
448,192,93454,1,0,0:0:0:0:
320,192,93500,1,0,0:0:0:0:
64,192,93545,1,0,0:0:0:0:
192,192,93590,1,0,0:0:0:0:
320,192,93636,1,0,0:0:0:0:
448,192,93681,1,0,0:0:0:0:
192,192,93727,1,0,0:0:0:0:
64,192,93772,1,0,0:0:0:0:
448,192,93818,1,0,0:0:0:0:
320,192,93863,1,0,0:0:0:0:
192,192,93909,1,0,0:0:0:0:
64,192,93954,1,0,0:0:0:0:
448,192,93954,1,0,0:0:0:0:
192,192,94090,1,0,0:0:0:0:
320,192,94090,1,0,0:0:0:0:
64,192,94227,1,0,0:0:0:0:
320,192,94227,1,0,0:0:0:0:
64,192,94363,1,0,0:0:0:0:
192,192,94363,1,0,0:0:0:0:
192,192,94500,1,0,0:0:0:0:
320,192,94500,1,0,0:0:0:0:
320,192,94636,1,0,0:0:0:0:
448,192,94636,1,0,0:0:0:0:
64,192,94772,1,0,0:0:0:0:
320,192,94772,1,0,0:0:0:0:
192,192,94909,1,0,0:0:0:0:
64,192,94909,1,0,0:0:0:0:
64,192,95045,1,0,0:0:0:0:
192,192,95045,1,0,0:0:0:0:
320,192,95090,1,0,0:0:0:0:
448,192,95136,1,0,0:0:0:0:
192,192,95181,1,0,0:0:0:0:
320,192,95227,1,0,0:0:0:0:
448,192,95272,1,0,0:0:0:0:
192,192,95318,1,0,0:0:0:0:
320,192,95363,1,0,0:0:0:0:
448,192,95409,1,0,0:0:0:0:
64,192,95454,1,0,0:0:0:0:
192,192,95500,1,0,0:0:0:0:
448,192,95545,1,0,0:0:0:0:
64,192,95590,1,0,0:0:0:0:
192,192,95636,1,0,0:0:0:0:
320,192,95681,1,0,0:0:0:0:
448,192,95727,1,0,0:0:0:0:
192,192,95772,1,0,0:0:0:0:
64,192,95818,1,0,0:0:0:0:
320,192,95863,1,0,0:0:0:0:
192,192,95909,1,0,0:0:0:0:
448,192,95954,1,0,0:0:0:0:
320,192,96000,1,0,0:0:0:0:
192,192,96045,1,0,0:0:0:0:
64,192,96090,1,0,0:0:0:0:
448,192,96136,1,0,0:0:0:0:
320,192,96181,1,0,0:0:0:0:
192,192,96227,1,0,0:0:0:0:
64,192,96272,1,0,0:0:0:0:
320,192,96318,1,0,0:0:0:0:
448,192,96363,1,0,0:0:0:0:
192,192,96409,1,0,0:0:0:0:
64,192,96454,1,0,0:0:0:0:
320,192,96500,1,0,0:0:0:0:
192,192,96545,1,0,0:0:0:0:
64,192,96590,1,0,0:0:0:0:
320,192,96681,1,0,0:0:0:0:
448,192,96681,1,0,0:0:0:0:
64,192,96818,1,0,0:0:0:0:
320,192,96818,1,0,0:0:0:0:
192,192,96954,1,0,0:0:0:0:
448,192,96954,1,0,0:0:0:0:
192,192,97090,1,0,0:0:0:0:
320,192,97090,1,0,0:0:0:0:
64,192,97227,1,0,0:0:0:0:
448,192,97227,1,0,0:0:0:0:
192,192,97272,1,0,0:0:0:0:
320,192,97318,1,0,0:0:0:0:
448,192,97363,1,0,0:0:0:0:
64,192,97409,1,0,0:0:0:0:
320,192,97454,1,0,0:0:0:0:
448,192,97500,1,0,0:0:0:0:
192,192,97545,1,0,0:0:0:0:
320,192,97590,1,0,0:0:0:0:
448,192,97636,1,0,0:0:0:0:
64,192,97681,1,0,0:0:0:0:
320,192,97727,1,0,0:0:0:0:
448,192,97772,1,0,0:0:0:0:
192,192,97818,1,0,0:0:0:0:
320,192,97863,1,0,0:0:0:0:
448,192,97909,1,0,0:0:0:0:
192,192,97954,1,0,0:0:0:0:
64,192,98000,1,0,0:0:0:0:
320,192,98045,1,0,0:0:0:0:
192,192,98090,1,0,0:0:0:0:
64,192,98136,1,0,0:0:0:0:
448,192,98181,1,0,0:0:0:0:
320,192,98227,1,0,0:0:0:0:
64,192,98272,1,0,0:0:0:0:
448,192,98318,1,0,0:0:0:0:
320,192,98363,1,0,0:0:0:0:
192,192,98409,1,0,0:0:0:0:
64,192,98454,1,0,0:0:0:0:
448,192,98500,1,0,0:0:0:0:
192,192,98545,1,0,0:0:0:0:
320,192,98590,1,0,0:0:0:0:
64,192,98636,1,0,0:0:0:0:
192,192,98681,1,0,0:0:0:0:
320,192,98727,1,0,0:0:0:0:
448,192,98772,1,0,0:0:0:0:
64,192,98818,1,0,0:0:0:0:
192,192,98863,1,0,0:0:0:0:
320,192,98863,1,0,0:0:0:0:
320,192,99000,1,0,0:0:0:0:
448,192,99000,1,0,0:0:0:0:
64,192,99136,1,0,0:0:0:0:
192,192,99136,1,0,0:0:0:0:
448,192,99272,1,0,0:0:0:0:
192,192,99272,1,0,0:0:0:0:
320,192,99409,1,0,0:0:0:0:
448,192,99409,1,0,0:0:0:0:
192,192,99454,1,0,0:0:0:0:
64,192,99500,1,0,0:0:0:0:
320,192,99545,1,0,0:0:0:0:
448,192,99590,1,0,0:0:0:0:
192,192,99636,1,0,0:0:0:0:
64,192,99681,1,0,0:0:0:0:
320,192,99727,1,0,0:0:0:0:
192,192,99772,1,0,0:0:0:0:
64,192,99818,1,0,0:0:0:0:
320,192,99863,1,0,0:0:0:0:
448,192,99909,1,0,0:0:0:0:
64,192,99954,1,0,0:0:0:0:
192,192,100000,1,0,0:0:0:0:
320,192,100045,1,0,0:0:0:0:
448,192,100090,1,0,0:0:0:0:
192,192,100136,1,0,0:0:0:0:
64,192,100181,1,0,0:0:0:0:
320,192,100227,1,0,0:0:0:0:
448,192,100272,1,0,0:0:0:0:
192,192,100318,1,0,0:0:0:0:
320,192,100363,1,0,0:0:0:0:
448,192,100409,1,0,0:0:0:0:
192,192,100454,1,0,0:0:0:0:
64,192,100500,1,0,0:0:0:0:
448,192,100545,1,0,0:0:0:0:
320,192,100590,1,0,0:0:0:0:
192,192,100636,1,0,0:0:0:0:
64,192,100681,1,0,0:0:0:0:
448,192,100727,1,0,0:0:0:0:
320,192,100772,1,0,0:0:0:0:
192,192,100818,1,0,0:0:0:0:
64,192,100863,1,0,0:0:0:0:
448,192,100909,1,0,0:0:0:0:
192,192,100954,1,0,0:0:0:0:
320,192,101000,1,0,0:0:0:0:
448,192,101045,1,0,0:0:0:0:
64,192,101090,1,0,0:0:0:0:
320,192,101136,1,0,0:0:0:0:
192,192,101181,1,0,0:0:0:0:
64,192,101227,1,0,0:0:0:0:
448,192,101272,1,0,0:0:0:0:
192,192,101318,1,0,0:0:0:0:
320,192,101363,1,0,0:0:0:0:
448,192,101409,1,0,0:0:0:0:
64,192,101454,1,0,0:0:0:0:
192,192,101500,1,0,0:0:0:0:
448,192,101545,1,0,0:0:0:0:
320,192,101590,1,0,0:0:0:0:
192,192,101590,1,0,0:0:0:0:
64,192,101659,1,0,0:0:0:0:
448,192,101727,1,0,0:0:0:0:
192,192,101727,1,0,0:0:0:0:
320,192,101795,1,0,0:0:0:0:
192,192,101863,1,0,0:0:0:0:
64,192,101863,1,0,0:0:0:0:
448,192,101931,1,0,0:0:0:0:
64,192,102000,1,0,0:0:0:0:
320,192,102000,1,0,0:0:0:0:
192,192,102068,1,0,0:0:0:0:
320,192,102136,1,0,0:0:0:0:
448,192,102136,1,0,0:0:0:0:
64,192,102204,1,0,0:0:0:0:
192,192,102272,1,0,0:0:0:0:
448,192,102272,1,0,0:0:0:0:
320,192,102340,1,0,0:0:0:0:
192,192,102409,1,0,0:0:0:0:
64,192,102409,1,0,0:0:0:0:
192,192,102545,1,0,0:0:0:0:
448,192,102545,1,0,0:0:0:0:
320,192,102681,1,0,0:0:0:0:
448,192,102681,1,0,0:0:0:0:
64,192,102681,1,0,0:0:0:0:
64,192,102818,1,0,0:0:0:0:
192,192,102818,1,0,0:0:0:0:
64,192,102954,1,0,0:0:0:0:
320,192,102954,1,0,0:0:0:0:
192,192,103022,1,0,0:0:0:0:
320,192,103090,1,0,0:0:0:0:
448,192,103159,1,0,0:0:0:0:
64,192,103227,1,0,0:0:0:0:
192,192,103227,1,0,0:0:0:0:
320,192,103227,1,0,0:0:0:0:
320,192,103363,1,0,0:0:0:0:
448,192,103363,1,0,0:0:0:0:
192,192,103431,1,0,0:0:0:0:
64,192,103500,1,0,0:0:0:0:
448,192,103500,1,0,0:0:0:0:
320,192,103568,1,0,0:0:0:0:
192,192,103636,1,0,0:0:0:0:
64,192,103704,1,0,0:0:0:0:
192,192,103772,1,0,0:0:0:0:
320,192,103772,1,0,0:0:0:0:
448,192,103772,1,0,0:0:0:0:
64,192,103909,1,0,0:0:0:0:
320,192,103909,1,0,0:0:0:0:
64,192,104045,1,0,0:0:0:0:
448,192,104045,1,0,0:0:0:0:
320,192,104090,1,0,0:0:0:0:
64,192,104136,1,0,0:0:0:0:
192,192,104181,1,0,0:0:0:0:
320,192,104227,1,0,0:0:0:0:
448,192,104272,1,0,0:0:0:0:
192,192,104318,1,0,0:0:0:0:
64,192,104363,1,0,0:0:0:0:
320,192,104409,1,0,0:0:0:0:
448,192,104454,1,0,0:0:0:0:
192,192,104500,1,0,0:0:0:0:
320,192,104545,1,0,0:0:0:0:
448,192,104590,1,0,0:0:0:0:
192,192,104636,1,0,0:0:0:0:
320,192,104681,1,0,0:0:0:0:
64,192,104727,1,0,0:0:0:0:
448,192,104772,1,0,0:0:0:0:
320,192,104818,1,0,0:0:0:0:
192,192,104863,1,0,0:0:0:0:
64,192,104909,1,0,0:0:0:0:
448,192,104954,1,0,0:0:0:0:
320,192,105000,1,0,0:0:0:0:
192,192,105045,1,0,0:0:0:0:
448,192,105090,1,0,0:0:0:0:
320,192,105136,1,0,0:0:0:0:
64,192,105181,1,0,0:0:0:0:
448,192,105227,1,0,0:0:0:0:
320,192,105272,1,0,0:0:0:0:
192,192,105318,1,0,0:0:0:0:
64,192,105363,1,0,0:0:0:0:
448,192,105409,1,0,0:0:0:0:
320,192,105454,1,0,0:0:0:0:
192,192,105500,1,0,0:0:0:0:
64,192,105545,1,0,0:0:0:0:
448,192,105590,1,0,0:0:0:0:
192,192,105636,1,0,0:0:0:0:
320,192,105681,1,0,0:0:0:0:
64,192,105727,1,0,0:0:0:0:
448,192,105772,1,0,0:0:0:0:
192,192,105818,1,0,0:0:0:0:
320,192,105863,1,0,0:0:0:0:
64,192,105909,1,0,0:0:0:0:
192,192,105954,1,0,0:0:0:0:
448,192,106000,1,0,0:0:0:0:
64,192,106045,1,0,0:0:0:0:
320,192,106090,1,0,0:0:0:0:
448,192,106136,1,0,0:0:0:0:
192,192,106181,1,0,0:0:0:0:
320,192,106227,1,0,0:0:0:0:
448,192,106272,1,0,0:0:0:0:
192,192,106318,1,0,0:0:0:0:
64,192,106363,1,0,0:0:0:0:
320,192,106409,1,0,0:0:0:0:
192,192,106454,1,0,0:0:0:0:
64,192,106500,1,0,0:0:0:0:
448,192,106545,1,0,0:0:0:0:
320,192,106590,1,0,0:0:0:0:
192,192,106636,1,0,0:0:0:0:
64,192,106681,1,0,0:0:0:0:
320,192,106727,1,0,0:0:0:0:
192,192,106772,1,0,0:0:0:0:
64,192,106818,1,0,0:0:0:0:
320,192,106863,1,0,0:0:0:0:
192,192,106909,1,0,0:0:0:0:
448,192,106954,1,0,0:0:0:0:
320,192,107000,1,0,0:0:0:0:
192,192,107045,1,0,0:0:0:0:
64,192,107090,1,0,0:0:0:0:
320,192,107136,1,0,0:0:0:0:
448,192,107181,1,0,0:0:0:0:
192,192,107227,1,0,0:0:0:0:
320,192,107272,1,0,0:0:0:0:
448,192,107318,1,0,0:0:0:0:
192,192,107363,1,0,0:0:0:0:
320,192,107409,1,0,0:0:0:0:
64,192,107454,1,0,0:0:0:0:
192,192,107500,1,0,0:0:0:0:
320,192,107545,1,0,0:0:0:0:
448,192,107590,1,0,0:0:0:0:
64,192,107590,1,0,0:0:0:0:
64,192,107727,1,0,0:0:0:0:
320,192,107727,1,0,0:0:0:0:
64,192,107863,1,0,0:0:0:0:
192,192,107863,1,0,0:0:0:0:
192,192,108000,1,0,0:0:0:0:
448,192,108000,1,0,0:0:0:0:
448,192,108136,1,0,0:0:0:0:
320,192,108136,1,0,0:0:0:0:
64,192,108272,1,0,0:0:0:0:
320,192,108272,1,0,0:0:0:0:
64,192,108409,1,0,0:0:0:0:
192,192,108409,1,0,0:0:0:0:
320,192,108454,1,0,0:0:0:0:
448,192,108500,1,0,0:0:0:0:
192,192,108545,1,0,0:0:0:0:
320,192,108590,1,0,0:0:0:0:
448,192,108636,1,0,0:0:0:0:
192,192,108681,1,0,0:0:0:0:
64,192,108727,1,0,0:0:0:0:
320,192,108772,1,0,0:0:0:0:
192,192,108818,1,0,0:0:0:0:
64,192,108863,1,0,0:0:0:0:
320,192,108909,1,0,0:0:0:0:
448,192,108954,1,0,0:0:0:0:
192,192,109000,1,0,0:0:0:0:
320,192,109045,1,0,0:0:0:0:
448,192,109090,1,0,0:0:0:0:
192,192,109136,1,0,0:0:0:0:
320,192,109181,1,0,0:0:0:0:
64,192,109227,1,0,0:0:0:0:
448,192,109272,1,0,0:0:0:0:
320,192,109318,1,0,0:0:0:0:
192,192,109363,1,0,0:0:0:0:
64,192,109409,1,0,0:0:0:0:
320,192,109454,1,0,0:0:0:0:
192,192,109500,1,0,0:0:0:0:
64,192,109545,1,0,0:0:0:0:
320,192,109590,1,0,0:0:0:0:
448,192,109636,1,0,0:0:0:0:
192,192,109681,1,0,0:0:0:0:
320,192,109727,1,0,0:0:0:0:
448,192,109772,1,0,0:0:0:0:
192,192,109818,1,0,0:0:0:0:
64,192,109863,1,0,0:0:0:0:
320,192,109909,1,0,0:0:0:0:
448,192,109954,1,0,0:0:0:0:
192,192,110000,1,0,0:0:0:0:
64,192,110045,1,0,0:0:0:0:
448,192,110090,1,0,0:0:0:0:
320,192,110136,1,0,0:0:0:0:
192,192,110181,1,0,0:0:0:0:
64,192,110227,1,0,0:0:0:0:
320,192,110272,1,0,0:0:0:0:
448,192,110318,1,0,0:0:0:0:
64,192,110363,1,0,0:0:0:0:
192,192,110409,1,0,0:0:0:0:
320,192,110454,1,0,0:0:0:0:
448,192,110500,1,0,0:0:0:0:
192,192,110545,1,0,0:0:0:0:
64,192,110590,1,0,0:0:0:0:
448,192,110636,1,0,0:0:0:0:
320,192,110681,1,0,0:0:0:0:
192,192,110727,1,0,0:0:0:0:
64,192,110772,1,0,0:0:0:0:
320,192,110818,1,0,0:0:0:0:
448,192,110863,1,0,0:0:0:0:
64,192,110909,1,0,0:0:0:0:
192,192,110954,1,0,0:0:0:0:
320,192,111000,1,0,0:0:0:0:
448,192,111045,1,0,0:0:0:0:
192,192,111090,1,0,0:0:0:0:
64,192,111136,1,0,0:0:0:0:
448,192,111181,1,0,0:0:0:0:
320,192,111227,1,0,0:0:0:0:
192,192,111272,1,0,0:0:0:0:
64,192,111318,1,0,0:0:0:0:
320,192,111363,1,0,0:0:0:0:
448,192,111409,1,0,0:0:0:0:
192,192,111409,1,0,0:0:0:0:
64,192,111545,1,0,0:0:0:0:
320,192,111545,1,0,0:0:0:0:
64,192,111681,1,0,0:0:0:0:
192,192,111681,1,0,0:0:0:0:
320,192,111727,1,0,0:0:0:0:
448,192,111772,1,0,0:0:0:0:
192,192,111818,1,0,0:0:0:0:
320,192,111863,1,0,0:0:0:0:
448,192,111909,1,0,0:0:0:0:
192,192,111954,1,0,0:0:0:0:
64,192,111954,1,0,0:0:0:0:
64,192,112090,1,0,0:0:0:0:
448,192,112090,1,0,0:0:0:0:
320,192,112136,1,0,0:0:0:0:
192,192,112181,1,0,0:0:0:0:
64,192,112227,1,0,0:0:0:0:
320,192,112272,1,0,0:0:0:0:
192,192,112318,1,0,0:0:0:0:
64,192,112363,1,0,0:0:0:0:
320,192,112409,1,0,0:0:0:0:
192,192,112454,1,0,0:0:0:0:
448,192,112500,1,0,0:0:0:0:
64,192,112500,1,0,0:0:0:0:
64,192,112636,1,0,0:0:0:0:
320,192,112636,1,0,0:0:0:0:
192,192,112772,1,0,0:0:0:0:
320,192,112818,1,0,0:0:0:0:
448,192,112863,1,0,0:0:0:0:
192,192,112909,1,0,0:0:0:0:
320,192,112954,1,0,0:0:0:0:
448,192,113000,1,0,0:0:0:0:
192,192,113045,1,0,0:0:0:0:
64,192,113090,1,0,0:0:0:0:
320,192,113136,1,0,0:0:0:0:
448,192,113181,1,0,0:0:0:0:
192,192,113227,1,0,0:0:0:0:
320,192,113272,1,0,0:0:0:0:
448,192,113318,1,0,0:0:0:0:
192,192,113363,1,0,0:0:0:0:
320,192,113409,1,0,0:0:0:0:
448,192,113454,1,0,0:0:0:0:
192,192,113500,1,0,0:0:0:0:
64,192,113545,1,0,0:0:0:0:
320,192,113590,1,0,0:0:0:0:
192,192,113636,1,0,0:0:0:0:
64,192,113681,1,0,0:0:0:0:
448,192,113727,1,0,0:0:0:0:
192,192,113772,1,0,0:0:0:0:
64,192,113818,1,0,0:0:0:0:
448,192,113863,1,0,0:0:0:0:
192,192,113909,1,0,0:0:0:0:
320,192,113954,1,0,0:0:0:0:
448,192,114000,1,0,0:0:0:0:
64,192,114045,1,0,0:0:0:0:
192,192,114090,1,0,0:0:0:0:
320,192,114136,1,0,0:0:0:0:
448,192,114181,1,0,0:0:0:0:
64,192,114227,1,0,0:0:0:0:
192,192,114272,1,0,0:0:0:0:
320,192,114272,1,0,0:0:0:0:
64,192,114409,1,0,0:0:0:0:
320,192,114409,1,0,0:0:0:0:
192,192,114545,1,0,0:0:0:0:
448,192,114545,1,0,0:0:0:0:
448,192,114681,1,0,0:0:0:0:
320,192,114681,1,0,0:0:0:0:
64,192,114818,1,0,0:0:0:0:
192,192,114818,1,0,0:0:0:0:
448,192,114954,1,0,0:0:0:0:
320,192,114954,1,0,0:0:0:0:
192,192,115000,1,0,0:0:0:0:
64,192,115045,1,0,0:0:0:0:
320,192,115090,1,0,0:0:0:0:
192,192,115136,1,0,0:0:0:0:
64,192,115181,1,0,0:0:0:0:
320,192,115227,1,0,0:0:0:0:
192,192,115272,1,0,0:0:0:0:
64,192,115318,1,0,0:0:0:0:
448,192,115363,1,0,0:0:0:0:
192,192,115409,1,0,0:0:0:0:
320,192,115454,1,0,0:0:0:0:
448,192,115500,1,0,0:0:0:0:
64,192,115545,1,0,0:0:0:0:
320,192,115636,1,0,0:0:0:0:
192,192,115681,1,0,0:0:0:0:
64,192,115727,1,0,0:0:0:0:
320,192,115772,1,0,0:0:0:0:
448,192,115772,1,0,0:0:0:0:
192,192,115818,1,0,0:0:0:0:
64,192,115863,1,0,0:0:0:0:
448,192,115909,1,0,0:0:0:0:
320,192,115954,1,0,0:0:0:0:
192,192,116000,1,0,0:0:0:0:
64,192,116045,1,0,0:0:0:0:
320,192,116090,1,0,0:0:0:0:
192,192,116136,1,0,0:0:0:0:
64,192,116181,1,0,0:0:0:0:
320,192,116227,1,0,0:0:0:0:
192,192,116272,1,0,0:0:0:0:
64,192,116318,1,0,0:0:0:0:
320,192,116363,1,0,0:0:0:0:
192,192,116409,1,0,0:0:0:0:
448,192,116454,1,0,0:0:0:0:
320,192,116500,1,0,0:0:0:0:
192,192,116545,1,0,0:0:0:0:
64,192,116590,1,0,0:0:0:0:
320,192,116636,1,0,0:0:0:0:
192,192,116681,1,0,0:0:0:0:
448,192,116727,1,0,0:0:0:0:
320,192,116772,1,0,0:0:0:0:
192,192,116818,1,0,0:0:0:0:
64,192,116863,1,0,0:0:0:0:
448,192,116909,1,0,0:0:0:0:
192,192,116954,1,0,0:0:0:0:
320,192,117000,1,0,0:0:0:0:
448,192,117045,1,0,0:0:0:0:
64,192,117090,1,0,0:0:0:0:
192,192,117136,1,0,0:0:0:0:
320,192,117136,1,0,0:0:0:0:
448,192,117181,1,0,0:0:0:0:
64,192,117227,1,0,0:0:0:0:
192,192,117272,1,0,0:0:0:0:
320,192,117318,1,0,0:0:0:0:
448,192,117363,1,0,0:0:0:0:
192,192,117409,1,0,0:0:0:0:
320,192,117454,1,0,0:0:0:0:
448,192,117500,1,0,0:0:0:0:
192,192,117545,1,0,0:0:0:0:
64,192,117590,1,0,0:0:0:0:
320,192,117636,1,0,0:0:0:0:
192,192,117681,1,0,0:0:0:0:
64,192,117727,1,0,0:0:0:0:
320,192,117772,1,0,0:0:0:0:
192,192,117818,1,0,0:0:0:0:
64,192,117863,1,0,0:0:0:0:
448,192,117909,1,0,0:0:0:0:
192,192,117954,1,0,0:0:0:0:
320,192,118000,1,0,0:0:0:0:
448,192,118045,1,0,0:0:0:0:
192,192,118090,1,0,0:0:0:0:
320,192,118136,1,0,0:0:0:0:
448,192,118181,1,0,0:0:0:0:
192,192,118227,1,0,0:0:0:0:
320,192,118272,1,0,0:0:0:0:
448,192,118318,1,0,0:0:0:0:
192,192,118363,1,0,0:0:0:0:
64,192,118409,1,0,0:0:0:0:
320,192,118454,1,0,0:0:0:0:
448,192,118500,1,0,0:0:0:0:
192,192,118545,1,0,0:0:0:0:
320,192,118590,1,0,0:0:0:0:
64,192,118636,1,0,0:0:0:0:
448,192,118681,1,0,0:0:0:0:
192,192,118727,1,0,0:0:0:0:
320,192,118772,1,0,0:0:0:0:
448,192,118818,1,0,0:0:0:0:
64,192,118863,1,0,0:0:0:0:
192,192,118909,1,0,0:0:0:0:
320,192,118954,1,0,0:0:0:0:
448,192,119000,1,0,0:0:0:0:
64,192,119045,1,0,0:0:0:0:
192,192,119045,1,0,0:0:0:0:
320,192,119090,1,0,0:0:0:0:
448,192,119136,1,0,0:0:0:0:
64,192,119181,1,0,0:0:0:0:
320,192,119227,1,0,0:0:0:0:
448,192,119272,1,0,0:0:0:0:
192,192,119318,1,0,0:0:0:0:
64,192,119318,1,0,0:0:0:0:
64,192,119590,1,0,0:0:0:0:
192,192,119590,1,0,0:0:0:0:
64,192,119863,1,0,0:0:0:0:
192,192,119863,1,0,0:0:0:0:
64,192,120136,1,0,0:0:0:0:
192,192,120136,1,0,0:0:0:0:
320,192,120136,1,0,0:0:0:0:
64,192,120409,1,0,0:0:0:0:
192,192,120409,1,0,0:0:0:0:
64,192,120681,1,0,0:0:0:0:
192,192,120681,1,0,0:0:0:0:
448,192,120681,1,0,0:0:0:0:
64,192,120954,1,0,0:0:0:0:
192,192,120954,1,0,0:0:0:0:
320,192,120954,1,0,0:0:0:0:
