osu file format v14

[General]
AudioFilename: Aishite11.mp3
AudioLeadIn: 0
PreviewTime: 39829
Countdown: 1
SampleSet: Normal
StackLeniency: 0.7
Mode: 3
LetterboxInBreaks: 0
SpecialStyle: 0
WidescreenStoryboard: 1

[Editor]
DistanceSpacing: 0.8
BeatDivisor: 12
GridSize: 4
TimelineZoom: 1.9

[Metadata]
Title:Sizuka's Favorite Songs Pack
TitleUnicode:Sizuka's Favorite Songs Pack
Artist:Various
ArtistUnicode:Various
Creator:_Sizuka_
Version:Hiina - Aishite[x1.1]
Source:
Tags:
BeatmapID:989285
BeatmapSetID:461969

[Difficulty]
HPDrainRate:8
CircleSize:4
OverallDifficulty:8
ApproachRate:5
SliderMultiplier:1.4
SliderTickRate:1

[Events]
//Background and Video events
0,0,"56136507_p0.jpg",0,0
//Break Periods
//Storyboard Layer 0 (Background)
//Storyboard Layer 1 (Fail)
//Storyboard Layer 2 (Pass)
//Storyboard Layer 3 (Foreground)
//Storyboard Sound Samples

[TimingPoints]
4500,495.854545454546,4,1,0,17,1,0

[HitObjects]
448,192,3590,5,0,0:0:0:0:
320,192,3714,1,0,0:0:0:0:
192,192,3838,1,0,0:0:0:0:
64,192,3962,1,0,0:0:0:0:
320,192,4086,1,0,0:0:0:0:
448,192,4086,1,0,0:0:0:0:
320,192,4334,1,0,0:0:0:0:
64,192,4334,1,0,0:0:0:0:
64,192,4458,1,0,0:0:0:0:
448,192,4458,1,0,0:0:0:0:
192,192,4458,1,0,0:0:0:0:
192,192,4830,1,0,0:0:0:0:
64,192,4830,1,0,0:0:0:0:
320,192,5574,1,0,0:0:0:0:
64,192,5574,1,0,0:0:0:0:
192,192,5698,1,0,0:0:0:0:
64,192,5698,1,0,0:0:0:0:
448,192,5822,1,0,0:0:0:0:
64,192,5822,1,0,0:0:0:0:
320,192,5946,1,0,0:0:0:0:
64,192,5946,1,0,0:0:0:0:
448,192,6070,1,0,0:0:0:0:
320,192,6070,1,0,0:0:0:0:
192,192,6070,1,0,0:0:0:0:
320,192,6318,1,0,0:0:0:0:
64,192,6318,1,0,0:0:0:0:
448,192,6442,1,0,0:0:0:0:
320,192,6442,1,0,0:0:0:0:
192,192,6442,1,0,0:0:0:0:
448,192,6813,1,0,0:0:0:0:
320,192,6813,1,0,0:0:0:0:
192,192,7433,1,0,0:0:0:0:
320,192,7495,1,0,0:0:0:0:
64,192,7557,1,0,0:0:0:0:
192,192,7681,1,0,0:0:0:0:
448,192,7805,1,0,0:0:0:0:
320,192,7805,1,0,0:0:0:0:
192,192,7929,1,0,0:0:0:0:
448,192,8053,1,0,0:0:0:0:
320,192,8053,1,0,0:0:0:0:
64,192,8053,1,0,0:0:0:0:
320,192,8301,1,0,0:0:0:0:
192,192,8301,1,0,0:0:0:0:
192,192,8425,1,0,0:0:0:0:
320,192,8425,1,0,0:0:0:0:
448,192,8425,1,0,0:0:0:0:
320,192,8797,1,0,0:0:0:0:
192,192,8797,1,0,0:0:0:0:
64,192,9417,1,0,0:0:0:0:
192,192,9665,1,0,0:0:0:0:
64,192,9789,1,0,0:0:0:0:
448,192,9789,1,0,0:0:0:0:
448,192,9913,1,0,0:0:0:0:
320,192,9913,1,0,0:0:0:0:
320,192,10037,1,0,0:0:0:0:
192,192,10037,1,0,0:0:0:0:
64,192,10037,1,0,0:0:0:0:
320,192,10284,1,0,0:0:0:0:
448,192,10284,1,0,0:0:0:0:
64,192,10408,1,0,0:0:0:0:
448,192,10408,1,0,0:0:0:0:
192,192,10408,1,0,0:0:0:0:
64,192,10780,1,0,0:0:0:0:
448,192,10780,1,0,0:0:0:0:
320,192,10780,1,0,0:0:0:0:
320,192,11524,1,0,0:0:0:0:
192,192,11524,1,0,0:0:0:0:
320,192,11648,1,0,0:0:0:0:
64,192,11648,1,0,0:0:0:0:
64,192,11772,1,0,0:0:0:0:
192,192,11772,1,0,0:0:0:0:
448,192,11896,1,0,0:0:0:0:
320,192,11896,1,0,0:0:0:0:
64,192,12020,1,0,0:0:0:0:
448,192,12020,1,0,0:0:0:0:
320,192,12020,1,0,0:0:0:0:
192,192,12081,1,0,0:0:0:0:
320,192,12144,1,0,0:0:0:0:
448,192,12205,1,0,0:0:0:0:
64,192,12268,1,0,0:0:0:0:
192,192,12268,1,0,0:0:0:0:
320,192,12392,1,0,0:0:0:0:
64,192,12392,1,0,0:0:0:0:
64,192,12701,1,0,0:0:0:0:
448,192,12764,1,0,0:0:0:0:
320,192,12764,1,0,0:0:0:0:
192,192,12825,1,0,0:0:0:0:
64,192,12888,1,0,0:0:0:0:
320,192,13012,1,0,0:0:0:0:
64,192,13012,1,0,0:0:0:0:
192,192,13136,1,0,0:0:0:0:
320,192,13136,1,0,0:0:0:0:
64,192,13136,1,0,0:0:0:0:
448,192,13879,1,0,0:0:0:0:
320,192,13879,1,0,0:0:0:0:
320,192,14003,1,0,0:0:0:0:
448,192,14003,1,0,0:0:0:0:
192,192,14003,1,0,0:0:0:0:
192,192,14251,1,0,0:0:0:0:
320,192,14251,1,0,0:0:0:0:
64,192,14251,1,0,0:0:0:0:
192,192,14375,1,0,0:0:0:0:
320,192,14375,1,0,0:0:0:0:
64,192,14375,1,0,0:0:0:0:
448,192,14623,1,0,0:0:0:0:
192,192,14747,1,0,0:0:0:0:
448,192,14747,1,0,0:0:0:0:
320,192,14747,1,0,0:0:0:0:
64,192,14871,1,0,0:0:0:0:
448,192,14995,1,0,0:0:0:0:
64,192,14995,1,0,0:0:0:0:
192,192,14995,1,0,0:0:0:0:
320,192,15367,1,0,0:0:0:0:
448,192,15491,1,0,0:0:0:0:
320,192,15491,1,0,0:0:0:0:
448,192,15615,1,0,0:0:0:0:
192,192,15615,1,0,0:0:0:0:
448,192,15739,1,0,0:0:0:0:
320,192,15739,1,0,0:0:0:0:
320,192,15863,1,0,0:0:0:0:
64,192,15863,1,0,0:0:0:0:
448,192,15987,1,0,0:0:0:0:
192,192,15987,1,0,0:0:0:0:
64,192,15987,1,0,0:0:0:0:
448,192,16235,1,0,0:0:0:0:
320,192,16235,1,0,0:0:0:0:
192,192,16359,1,0,0:0:0:0:
320,192,16359,1,0,0:0:0:0:
64,192,16359,1,0,0:0:0:0:
64,192,16731,1,0,0:0:0:0:
448,192,16731,1,0,0:0:0:0:
320,192,16731,1,0,0:0:0:0:
64,192,16979,1,0,0:0:0:0:
320,192,17102,1,0,0:0:0:0:
448,192,17102,1,0,0:0:0:0:
64,192,17102,1,0,0:0:0:0:
320,192,17474,1,0,0:0:0:0:
192,192,17474,1,0,0:0:0:0:
64,192,17970,1,0,0:0:0:0:
448,192,17970,1,0,0:0:0:0:
320,192,17970,1,0,0:0:0:0:
320,192,18218,1,0,0:0:0:0:
64,192,18218,1,0,0:0:0:0:
192,192,18342,1,0,0:0:0:0:
320,192,18342,1,0,0:0:0:0:
64,192,18342,1,0,0:0:0:0:
448,192,18714,1,0,0:0:0:0:
320,192,18714,1,0,0:0:0:0:
192,192,18714,1,0,0:0:0:0:
448,192,18838,1,0,0:0:0:0:
192,192,18899,1,0,0:0:0:0:
320,192,18899,1,0,0:0:0:0:
448,192,18962,1,0,0:0:0:0:
64,192,18962,1,0,0:0:0:0:
64,192,19458,1,0,0:0:0:0:
192,192,19458,1,0,0:0:0:0:
320,192,19582,1,0,0:0:0:0:
64,192,19582,1,0,0:0:0:0:
192,192,19706,1,0,0:0:0:0:
64,192,19706,1,0,0:0:0:0:
448,192,19830,1,0,0:0:0:0:
64,192,19830,1,0,0:0:0:0:
320,192,19954,1,0,0:0:0:0:
448,192,19954,1,0,0:0:0:0:
192,192,19954,1,0,0:0:0:0:
64,192,19954,1,0,0:0:0:0:
320,192,20078,1,0,0:0:0:0:
448,192,20202,1,0,0:0:0:0:
320,192,20202,1,0,0:0:0:0:
64,192,20202,1,0,0:0:0:0:
448,192,20326,1,0,0:0:0:0:
192,192,20326,1,0,0:0:0:0:
64,192,20449,1,0,0:0:0:0:
192,192,20449,1,0,0:0:0:0:
320,192,20449,1,0,0:0:0:0:
320,192,20573,1,0,0:0:0:0:
448,192,20697,1,0,0:0:0:0:
64,192,20697,1,0,0:0:0:0:
320,192,20821,1,0,0:0:0:0:
64,192,20821,1,0,0:0:0:0:
448,192,20945,1,0,0:0:0:0:
320,192,20945,1,0,0:0:0:0:
192,192,20945,1,0,0:0:0:0:
64,192,21069,1,0,0:0:0:0:
320,192,21193,1,0,0:0:0:0:
64,192,21193,1,0,0:0:0:0:
448,192,21317,1,0,0:0:0:0:
64,192,21441,1,0,0:0:0:0:
448,192,21441,1,0,0:0:0:0:
320,192,21441,1,0,0:0:0:0:
64,192,21565,1,0,0:0:0:0:
192,192,21565,1,0,0:0:0:0:
448,192,21689,1,0,0:0:0:0:
192,192,21689,1,0,0:0:0:0:
448,192,21813,1,0,0:0:0:0:
320,192,21813,1,0,0:0:0:0:
320,192,21937,1,0,0:0:0:0:
192,192,21937,1,0,0:0:0:0:
64,192,21937,1,0,0:0:0:0:
64,192,22061,1,0,0:0:0:0:
448,192,22185,1,0,0:0:0:0:
192,192,22185,1,0,0:0:0:0:
320,192,22309,1,0,0:0:0:0:
448,192,22433,1,0,0:0:0:0:
320,192,22433,1,0,0:0:0:0:
192,192,22433,1,0,0:0:0:0:
192,192,22557,1,0,0:0:0:0:
320,192,22681,1,0,0:0:0:0:
64,192,22681,1,0,0:0:0:0:
320,192,22805,1,0,0:0:0:0:
192,192,22805,1,0,0:0:0:0:
64,192,22929,1,0,0:0:0:0:
448,192,22929,1,0,0:0:0:0:
320,192,22929,1,0,0:0:0:0:
192,192,23053,1,0,0:0:0:0:
448,192,23177,1,0,0:0:0:0:
320,192,23177,1,0,0:0:0:0:
64,192,23301,1,0,0:0:0:0:
448,192,23425,1,0,0:0:0:0:
320,192,23425,1,0,0:0:0:0:
192,192,23425,1,0,0:0:0:0:
64,192,23549,1,0,0:0:0:0:
448,192,23549,1,0,0:0:0:0:
448,192,23673,1,0,0:0:0:0:
320,192,23673,1,0,0:0:0:0:
448,192,23797,1,0,0:0:0:0:
192,192,23797,1,0,0:0:0:0:
192,192,23920,1,0,0:0:0:0:
448,192,23920,1,0,0:0:0:0:
320,192,23920,1,0,0:0:0:0:
64,192,24044,1,0,0:0:0:0:
320,192,24168,1,0,0:0:0:0:
64,192,24168,1,0,0:0:0:0:
320,192,24292,1,0,0:0:0:0:
448,192,24416,1,0,0:0:0:0:
64,192,24416,1,0,0:0:0:0:
192,192,24416,1,0,0:0:0:0:
320,192,24540,1,0,0:0:0:0:
64,192,24664,1,0,0:0:0:0:
320,192,24664,1,0,0:0:0:0:
448,192,24788,1,0,0:0:0:0:
192,192,24788,1,0,0:0:0:0:
192,192,24912,1,0,0:0:0:0:
448,192,24912,1,0,0:0:0:0:
320,192,24912,1,0,0:0:0:0:
64,192,25036,1,0,0:0:0:0:
448,192,25160,1,0,0:0:0:0:
192,192,25160,1,0,0:0:0:0:
448,192,25284,1,0,0:0:0:0:
64,192,25408,1,0,0:0:0:0:
192,192,25408,1,0,0:0:0:0:
320,192,25408,1,0,0:0:0:0:
448,192,25532,1,0,0:0:0:0:
64,192,25532,1,0,0:0:0:0:
320,192,25656,1,0,0:0:0:0:
64,192,25656,1,0,0:0:0:0:
448,192,25780,1,0,0:0:0:0:
64,192,25780,1,0,0:0:0:0:
192,192,25904,1,0,0:0:0:0:
448,192,25904,1,0,0:0:0:0:
320,192,25904,1,0,0:0:0:0:
64,192,26028,1,0,0:0:0:0:
448,192,26152,1,0,0:0:0:0:
64,192,26152,1,0,0:0:0:0:
192,192,26276,1,0,0:0:0:0:
448,192,26276,1,0,0:0:0:0:
64,192,26400,1,0,0:0:0:0:
192,192,26400,1,0,0:0:0:0:
320,192,26400,1,0,0:0:0:0:
320,192,26524,1,0,0:0:0:0:
192,192,26648,1,0,0:0:0:0:
448,192,26648,1,0,0:0:0:0:
64,192,26772,1,0,0:0:0:0:
320,192,26772,1,0,0:0:0:0:
448,192,26896,1,0,0:0:0:0:
64,192,26896,1,0,0:0:0:0:
192,192,26896,1,0,0:0:0:0:
320,192,27020,1,0,0:0:0:0:
64,192,27144,1,0,0:0:0:0:
192,192,27144,1,0,0:0:0:0:
448,192,27267,1,0,0:0:0:0:
192,192,27391,1,0,0:0:0:0:
448,192,27391,1,0,0:0:0:0:
320,192,27391,1,0,0:0:0:0:
64,192,27453,1,0,0:0:0:0:
192,192,27515,1,0,0:0:0:0:
64,192,27577,1,0,0:0:0:0:
192,192,27639,1,0,0:0:0:0:
64,192,27701,1,0,0:0:0:0:
192,192,27763,1,0,0:0:0:0:
64,192,27825,1,0,0:0:0:0:
448,192,27887,1,0,0:0:0:0:
320,192,27887,1,0,0:0:0:0:
192,192,27887,1,0,0:0:0:0:
448,192,27949,1,0,0:0:0:0:
320,192,28011,1,0,0:0:0:0:
192,192,28072,1,0,0:0:0:0:
448,192,28135,1,0,0:0:0:0:
320,192,28135,1,0,0:0:0:0:
64,192,28135,1,0,0:0:0:0:
64,192,28259,1,0,0:0:0:0:
192,192,28259,1,0,0:0:0:0:
448,192,28383,1,0,0:0:0:0:
320,192,28383,1,0,0:0:0:0:
64,192,28383,1,0,0:0:0:0:
192,192,28507,1,0,0:0:0:0:
64,192,28631,1,0,0:0:0:0:
448,192,28631,1,0,0:0:0:0:
320,192,28631,1,0,0:0:0:0:
192,192,28692,1,0,0:0:0:0:
320,192,28755,1,0,0:0:0:0:
448,192,28816,1,0,0:0:0:0:
64,192,28879,1,0,0:0:0:0:
192,192,28879,1,0,0:0:0:0:
320,192,28879,1,0,0:0:0:0:
192,192,29003,1,0,0:0:0:0:
320,192,29127,1,0,0:0:0:0:
448,192,29127,1,0,0:0:0:0:
448,192,29251,1,0,0:0:0:0:
64,192,29251,1,0,0:0:0:0:
192,192,29375,1,0,0:0:0:0:
448,192,29375,1,0,0:0:0:0:
320,192,29375,1,0,0:0:0:0:
64,192,29499,1,0,0:0:0:0:
448,192,29623,1,0,0:0:0:0:
320,192,29623,1,0,0:0:0:0:
320,192,29747,1,0,0:0:0:0:
64,192,29747,1,0,0:0:0:0:
448,192,29871,1,0,0:0:0:0:
192,192,29871,1,0,0:0:0:0:
64,192,29871,1,0,0:0:0:0:
448,192,29995,1,0,0:0:0:0:
320,192,30119,1,0,0:0:0:0:
192,192,30119,1,0,0:0:0:0:
320,192,30243,1,0,0:0:0:0:
64,192,30243,1,0,0:0:0:0:
448,192,30367,1,0,0:0:0:0:
192,192,30367,1,0,0:0:0:0:
64,192,30367,1,0,0:0:0:0:
320,192,30491,1,0,0:0:0:0:
192,192,30615,1,0,0:0:0:0:
320,192,30615,1,0,0:0:0:0:
64,192,30738,1,0,0:0:0:0:
320,192,30738,1,0,0:0:0:0:
448,192,30862,1,0,0:0:0:0:
192,192,30862,1,0,0:0:0:0:
64,192,30862,1,0,0:0:0:0:
448,192,30986,1,0,0:0:0:0:
320,192,30986,1,0,0:0:0:0:
64,192,31110,1,0,0:0:0:0:
192,192,31110,1,0,0:0:0:0:
448,192,31234,1,0,0:0:0:0:
192,192,31234,1,0,0:0:0:0:
64,192,31358,1,0,0:0:0:0:
320,192,31358,1,0,0:0:0:0:
448,192,31358,1,0,0:0:0:0:
320,192,31482,1,0,0:0:0:0:
64,192,31482,1,0,0:0:0:0:
192,192,31606,1,0,0:0:0:0:
64,192,31606,1,0,0:0:0:0:
448,192,31730,1,0,0:0:0:0:
64,192,31730,1,0,0:0:0:0:
320,192,31854,1,0,0:0:0:0:
192,192,31854,1,0,0:0:0:0:
64,192,31854,1,0,0:0:0:0:
448,192,31915,1,0,0:0:0:0:
320,192,31978,1,0,0:0:0:0:
192,192,32039,1,0,0:0:0:0:
320,192,32102,1,0,0:0:0:0:
448,192,32102,1,0,0:0:0:0:
64,192,32102,1,0,0:0:0:0:
192,192,32226,1,0,0:0:0:0:
64,192,32226,1,0,0:0:0:0:
320,192,32350,1,0,0:0:0:0:
448,192,32350,1,0,0:0:0:0:
192,192,32350,1,0,0:0:0:0:
320,192,32474,1,0,0:0:0:0:
64,192,32474,1,0,0:0:0:0:
448,192,32598,1,0,0:0:0:0:
192,192,32598,1,0,0:0:0:0:
64,192,32598,1,0,0:0:0:0:
320,192,32659,1,0,0:0:0:0:
192,192,32722,1,0,0:0:0:0:
64,192,32783,1,0,0:0:0:0:
448,192,32846,1,0,0:0:0:0:
320,192,32846,1,0,0:0:0:0:
192,192,32846,1,0,0:0:0:0:
320,192,32970,1,0,0:0:0:0:
64,192,32970,1,0,0:0:0:0:
448,192,33094,1,0,0:0:0:0:
64,192,33094,1,0,0:0:0:0:
448,192,33218,1,0,0:0:0:0:
192,192,33218,1,0,0:0:0:0:
64,192,33342,1,0,0:0:0:0:
192,192,33342,1,0,0:0:0:0:
320,192,33342,1,0,0:0:0:0:
320,192,33466,1,0,0:0:0:0:
448,192,33590,1,0,0:0:0:0:
192,192,33590,1,0,0:0:0:0:
320,192,33838,1,0,0:0:0:0:
192,192,33838,1,0,0:0:0:0:
64,192,33838,1,0,0:0:0:0:
192,192,33962,1,0,0:0:0:0:
448,192,34085,1,0,0:0:0:0:
320,192,34085,1,0,0:0:0:0:
192,192,34147,1,0,0:0:0:0:
64,192,34209,1,0,0:0:0:0:
448,192,34333,1,0,0:0:0:0:
320,192,34333,1,0,0:0:0:0:
64,192,34333,1,0,0:0:0:0:
192,192,34457,1,0,0:0:0:0:
64,192,34457,1,0,0:0:0:0:
320,192,34581,1,0,0:0:0:0:
64,192,34581,1,0,0:0:0:0:
448,192,34705,1,0,0:0:0:0:
192,192,34705,1,0,0:0:0:0:
64,192,34829,1,0,0:0:0:0:
448,192,34829,1,0,0:0:0:0:
320,192,34829,1,0,0:0:0:0:
192,192,34953,1,0,0:0:0:0:
64,192,35077,1,0,0:0:0:0:
320,192,35077,1,0,0:0:0:0:
320,192,35201,1,0,0:0:0:0:
64,192,35325,1,0,0:0:0:0:
448,192,35325,1,0,0:0:0:0:
192,192,35325,1,0,0:0:0:0:
320,192,35386,1,0,0:0:0:0:
448,192,35449,1,0,0:0:0:0:
320,192,35510,1,0,0:0:0:0:
448,192,35573,1,0,0:0:0:0:
320,192,35634,1,0,0:0:0:0:
448,192,35697,1,0,0:0:0:0:
320,192,35758,1,0,0:0:0:0:
64,192,35821,1,0,0:0:0:0:
192,192,35821,1,0,0:0:0:0:
448,192,35821,1,0,0:0:0:0:
320,192,35882,1,0,0:0:0:0:
192,192,35945,1,0,0:0:0:0:
64,192,36006,1,0,0:0:0:0:
448,192,36069,1,0,0:0:0:0:
320,192,36069,1,0,0:0:0:0:
64,192,36130,1,0,0:0:0:0:
192,192,36193,1,0,0:0:0:0:
320,192,36254,1,0,0:0:0:0:
64,192,36317,1,0,0:0:0:0:
448,192,36317,1,0,0:0:0:0:
320,192,36378,1,0,0:0:0:0:
192,192,36441,1,0,0:0:0:0:
64,192,36502,1,0,0:0:0:0:
320,192,36565,1,0,0:0:0:0:
448,192,36565,1,0,0:0:0:0:
64,192,36626,1,0,0:0:0:0:
192,192,36689,1,0,0:0:0:0:
320,192,36750,1,0,0:0:0:0:
64,192,36813,1,0,0:0:0:0:
448,192,36813,1,0,0:0:0:0:
320,192,36874,1,0,0:0:0:0:
192,192,36937,1,0,0:0:0:0:
64,192,36998,1,0,0:0:0:0:
448,192,37061,1,0,0:0:0:0:
320,192,37061,1,0,0:0:0:0:
64,192,37122,1,0,0:0:0:0:
192,192,37185,1,0,0:0:0:0:
320,192,37246,1,0,0:0:0:0:
64,192,37309,1,0,0:0:0:0:
448,192,37309,1,0,0:0:0:0:
320,192,37370,1,0,0:0:0:0:
192,192,37433,1,0,0:0:0:0:
64,192,37494,1,0,0:0:0:0:
192,192,37556,1,0,0:0:0:0:
320,192,37556,1,0,0:0:0:0:
448,192,37618,1,0,0:0:0:0:
320,192,37680,1,0,0:0:0:0:
192,192,37742,1,0,0:0:0:0:
448,192,37804,1,0,0:0:0:0:
64,192,37804,1,0,0:0:0:0:
192,192,37866,1,0,0:0:0:0:
320,192,37928,1,0,0:0:0:0:
448,192,37990,1,0,0:0:0:0:
64,192,38052,1,0,0:0:0:0:
192,192,38052,1,0,0:0:0:0:
448,192,38114,1,0,0:0:0:0:
320,192,38176,1,0,0:0:0:0:
192,192,38237,1,0,0:0:0:0:
448,192,38300,1,0,0:0:0:0:
64,192,38300,1,0,0:0:0:0:
192,192,38361,1,0,0:0:0:0:
320,192,38424,1,0,0:0:0:0:
448,192,38485,1,0,0:0:0:0:
192,192,38548,1,0,0:0:0:0:
64,192,38548,1,0,0:0:0:0:
448,192,38609,1,0,0:0:0:0:
320,192,38672,1,0,0:0:0:0:
192,192,38733,1,0,0:0:0:0:
448,192,38796,1,0,0:0:0:0:
64,192,38796,1,0,0:0:0:0:
192,192,38857,1,0,0:0:0:0:
320,192,38920,1,0,0:0:0:0:
448,192,38981,1,0,0:0:0:0:
320,192,39044,1,0,0:0:0:0:
192,192,39044,1,0,0:0:0:0:
64,192,39105,1,0,0:0:0:0:
192,192,39168,1,0,0:0:0:0:
320,192,39229,1,0,0:0:0:0:
64,192,39292,1,0,0:0:0:0:
448,192,39292,1,0,0:0:0:0:
320,192,39353,1,0,0:0:0:0:
448,192,39416,1,0,0:0:0:0:
192,192,39416,1,0,0:0:0:0:
64,192,39477,1,0,0:0:0:0:
320,192,39540,1,0,0:0:0:0:
448,192,39540,1,0,0:0:0:0:
64,192,39601,1,0,0:0:0:0:
192,192,39664,1,0,0:0:0:0:
320,192,39725,1,0,0:0:0:0:
64,192,39788,1,0,0:0:0:0:
448,192,39788,1,0,0:0:0:0:
320,192,39849,1,0,0:0:0:0:
192,192,39849,1,0,0:0:0:0:
448,192,39912,1,0,0:0:0:0:
192,192,39973,1,0,0:0:0:0:
64,192,39973,1,0,0:0:0:0:
320,192,40036,1,0,0:0:0:0:
192,192,40097,1,0,0:0:0:0:
64,192,40097,1,0,0:0:0:0:
448,192,40160,1,0,0:0:0:0:
192,192,40221,1,0,0:0:0:0:
64,192,40221,1,0,0:0:0:0:
320,192,40284,1,0,0:0:0:0:
448,192,40345,1,0,0:0:0:0:
64,192,40345,1,0,0:0:0:0:
320,192,40408,1,0,0:0:0:0:
448,192,40469,1,0,0:0:0:0:
192,192,40469,1,0,0:0:0:0:
64,192,40532,1,0,0:0:0:0:
320,192,40593,1,0,0:0:0:0:
192,192,40593,1,0,0:0:0:0:
448,192,40656,1,0,0:0:0:0:
192,192,40717,1,0,0:0:0:0:
64,192,40717,1,0,0:0:0:0:
320,192,40780,1,0,0:0:0:0:
64,192,40841,1,0,0:0:0:0:
448,192,40841,1,0,0:0:0:0:
192,192,40903,1,0,0:0:0:0:
64,192,40965,1,0,0:0:0:0:
448,192,40965,1,0,0:0:0:0:
192,192,41027,1,0,0:0:0:0:
320,192,41089,1,0,0:0:0:0:
448,192,41089,1,0,0:0:0:0:
192,192,41151,1,0,0:0:0:0:
448,192,41213,1,0,0:0:0:0:
64,192,41213,1,0,0:0:0:0:
192,192,41275,1,0,0:0:0:0:
320,192,41275,1,0,0:0:0:0:
320,192,41399,1,0,0:0:0:0:
64,192,41399,1,0,0:0:0:0:
192,192,41523,1,0,0:0:0:0:
64,192,41523,1,0,0:0:0:0:
448,192,41647,1,0,0:0:0:0:
320,192,41647,1,0,0:0:0:0:
64,192,41771,1,0,0:0:0:0:
448,192,41771,1,0,0:0:0:0:
192,192,41832,1,0,0:0:0:0:
320,192,41832,1,0,0:0:0:0:
64,192,41895,1,0,0:0:0:0:
448,192,41956,1,0,0:0:0:0:
320,192,41956,1,0,0:0:0:0:
192,192,42019,1,0,0:0:0:0:
448,192,42080,1,0,0:0:0:0:
64,192,42080,1,0,0:0:0:0:
320,192,42143,1,0,0:0:0:0:
64,192,42204,1,0,0:0:0:0:
192,192,42204,1,0,0:0:0:0:
320,192,42267,1,0,0:0:0:0:
64,192,42328,1,0,0:0:0:0:
448,192,42328,1,0,0:0:0:0:
320,192,42391,1,0,0:0:0:0:
64,192,42452,1,0,0:0:0:0:
192,192,42452,1,0,0:0:0:0:
448,192,42515,1,0,0:0:0:0:
192,192,42576,1,0,0:0:0:0:
320,192,42576,1,0,0:0:0:0:
64,192,42639,1,0,0:0:0:0:
192,192,42700,1,0,0:0:0:0:
448,192,42700,1,0,0:0:0:0:
64,192,42763,1,0,0:0:0:0:
320,192,42824,1,0,0:0:0:0:
448,192,42824,1,0,0:0:0:0:
192,192,42887,1,0,0:0:0:0:
448,192,42948,1,0,0:0:0:0:
64,192,42948,1,0,0:0:0:0:
192,192,43011,1,0,0:0:0:0:
448,192,43072,1,0,0:0:0:0:
320,192,43072,1,0,0:0:0:0:
192,192,43135,1,0,0:0:0:0:
64,192,43196,1,0,0:0:0:0:
320,192,43196,1,0,0:0:0:0:
192,192,43259,1,0,0:0:0:0:
448,192,43320,1,0,0:0:0:0:
320,192,43320,1,0,0:0:0:0:
64,192,43383,1,0,0:0:0:0:
320,192,43444,1,0,0:0:0:0:
192,192,43444,1,0,0:0:0:0:
448,192,43507,1,0,0:0:0:0:
320,192,43568,1,0,0:0:0:0:
192,192,43568,1,0,0:0:0:0:
64,192,43631,1,0,0:0:0:0:
320,192,43692,1,0,0:0:0:0:
192,192,43692,1,0,0:0:0:0:
448,192,43755,1,0,0:0:0:0:
64,192,43816,1,0,0:0:0:0:
192,192,43816,1,0,0:0:0:0:
320,192,43879,1,0,0:0:0:0:
192,192,43940,1,0,0:0:0:0:
448,192,43940,1,0,0:0:0:0:
64,192,44003,1,0,0:0:0:0:
320,192,44064,1,0,0:0:0:0:
448,192,44064,1,0,0:0:0:0:
192,192,44127,1,0,0:0:0:0:
448,192,44188,1,0,0:0:0:0:
64,192,44188,1,0,0:0:0:0:
320,192,44251,1,0,0:0:0:0:
64,192,44312,1,0,0:0:0:0:
192,192,44312,1,0,0:0:0:0:
320,192,44374,1,0,0:0:0:0:
192,192,44436,1,0,0:0:0:0:
448,192,44436,1,0,0:0:0:0:
64,192,44498,1,0,0:0:0:0:
448,192,44560,1,0,0:0:0:0:
320,192,44560,1,0,0:0:0:0:
64,192,44622,1,0,0:0:0:0:
320,192,44684,1,0,0:0:0:0:
192,192,44684,1,0,0:0:0:0:
448,192,44746,1,0,0:0:0:0:
192,192,44808,1,0,0:0:0:0:
64,192,44808,1,0,0:0:0:0:
320,192,44870,1,0,0:0:0:0:
64,192,44932,1,0,0:0:0:0:
448,192,44932,1,0,0:0:0:0:
192,192,44994,1,0,0:0:0:0:
448,192,45055,1,0,0:0:0:0:
320,192,45055,1,0,0:0:0:0:
64,192,45118,1,0,0:0:0:0:
192,192,45179,1,0,0:0:0:0:
320,192,45179,1,0,0:0:0:0:
64,192,45242,1,0,0:0:0:0:
192,192,45303,1,0,0:0:0:0:
448,192,45303,1,0,0:0:0:0:
320,192,45366,1,0,0:0:0:0:
64,192,45427,1,0,0:0:0:0:
448,192,45427,1,0,0:0:0:0:
192,192,45490,1,0,0:0:0:0:
64,192,45551,1,0,0:0:0:0:
448,192,45551,1,0,0:0:0:0:
192,192,45614,1,0,0:0:0:0:
448,192,45675,1,0,0:0:0:0:
320,192,45675,1,0,0:0:0:0:
64,192,45738,1,0,0:0:0:0:
320,192,45799,1,0,0:0:0:0:
192,192,45799,1,0,0:0:0:0:
448,192,45862,1,0,0:0:0:0:
64,192,45923,1,0,0:0:0:0:
192,192,45923,1,0,0:0:0:0:
448,192,45986,1,0,0:0:0:0:
192,192,46047,1,0,0:0:0:0:
320,192,46047,1,0,0:0:0:0:
64,192,46110,1,0,0:0:0:0:
448,192,46171,1,0,0:0:0:0:
320,192,46171,1,0,0:0:0:0:
64,192,46234,1,0,0:0:0:0:
320,192,46295,1,0,0:0:0:0:
192,192,46295,1,0,0:0:0:0:
448,192,46358,1,0,0:0:0:0:
320,192,46419,1,0,0:0:0:0:
192,192,46419,1,0,0:0:0:0:
64,192,46482,1,0,0:0:0:0:
448,192,46482,1,0,0:0:0:0:
192,192,46543,1,0,0:0:0:0:
320,192,46543,1,0,0:0:0:0:
64,192,46606,1,0,0:0:0:0:
320,192,46667,1,0,0:0:0:0:
448,192,46667,1,0,0:0:0:0:
192,192,46730,1,0,0:0:0:0:
448,192,46791,1,0,0:0:0:0:
64,192,46791,1,0,0:0:0:0:
192,192,46854,1,0,0:0:0:0:
320,192,46854,1,0,0:0:0:0:
64,192,46915,1,0,0:0:0:0:
448,192,46978,1,0,0:0:0:0:
192,192,47039,1,0,0:0:0:0:
320,192,47039,1,0,0:0:0:0:
448,192,47102,1,0,0:0:0:0:
192,192,47163,1,0,0:0:0:0:
320,192,47163,1,0,0:0:0:0:
448,192,47226,1,0,0:0:0:0:
64,192,47287,1,0,0:0:0:0:
320,192,47287,1,0,0:0:0:0:
192,192,47350,1,0,0:0:0:0:
64,192,47411,1,0,0:0:0:0:
320,192,47411,1,0,0:0:0:0:
192,192,47474,1,0,0:0:0:0:
64,192,47535,1,0,0:0:0:0:
320,192,47535,1,0,0:0:0:0:
192,192,47598,1,0,0:0:0:0:
448,192,47659,1,0,0:0:0:0:
320,192,47659,1,0,0:0:0:0:
192,192,47721,1,0,0:0:0:0:
64,192,47721,1,0,0:0:0:0:
448,192,47783,1,0,0:0:0:0:
320,192,47783,1,0,0:0:0:0:
64,192,47845,1,0,0:0:0:0:
320,192,47907,1,0,0:0:0:0:
192,192,47907,1,0,0:0:0:0:
448,192,47969,1,0,0:0:0:0:
192,192,48031,1,0,0:0:0:0:
64,192,48031,1,0,0:0:0:0:
448,192,48093,1,0,0:0:0:0:
320,192,48155,1,0,0:0:0:0:
64,192,48155,1,0,0:0:0:0:
448,192,48217,1,0,0:0:0:0:
64,192,48279,1,0,0:0:0:0:
192,192,48279,1,0,0:0:0:0:
320,192,48341,1,0,0:0:0:0:
192,192,48403,1,0,0:0:0:0:
448,192,48403,1,0,0:0:0:0:
64,192,48465,1,0,0:0:0:0:
320,192,48526,1,0,0:0:0:0:
448,192,48526,1,0,0:0:0:0:
192,192,48589,1,0,0:0:0:0:
448,192,48650,1,0,0:0:0:0:
64,192,48650,1,0,0:0:0:0:
320,192,48713,1,0,0:0:0:0:
192,192,48774,1,0,0:0:0:0:
64,192,48774,1,0,0:0:0:0:
320,192,48837,1,0,0:0:0:0:
192,192,48898,1,0,0:0:0:0:
448,192,48898,1,0,0:0:0:0:
64,192,48961,1,0,0:0:0:0:
192,192,49022,1,0,0:0:0:0:
320,192,49022,1,0,0:0:0:0:
64,192,49085,1,0,0:0:0:0:
320,192,49146,1,0,0:0:0:0:
448,192,49146,1,0,0:0:0:0:
64,192,49209,1,0,0:0:0:0:
192,192,49209,1,0,0:0:0:0:
320,192,49333,1,0,0:0:0:0:
64,192,49333,1,0,0:0:0:0:
320,192,49457,1,0,0:0:0:0:
192,192,49457,1,0,0:0:0:0:
64,192,49581,1,0,0:0:0:0:
448,192,49581,1,0,0:0:0:0:
192,192,49581,1,0,0:0:0:0:
448,192,49705,1,0,0:0:0:0:
64,192,49705,1,0,0:0:0:0:
192,192,49766,1,0,0:0:0:0:
320,192,49766,1,0,0:0:0:0:
64,192,49829,1,0,0:0:0:0:
448,192,49890,1,0,0:0:0:0:
320,192,49890,1,0,0:0:0:0:
192,192,49953,1,0,0:0:0:0:
448,192,50014,1,0,0:0:0:0:
64,192,50014,1,0,0:0:0:0:
320,192,50077,1,0,0:0:0:0:
64,192,50138,1,0,0:0:0:0:
192,192,50138,1,0,0:0:0:0:
320,192,50201,1,0,0:0:0:0:
192,192,50262,1,0,0:0:0:0:
448,192,50262,1,0,0:0:0:0:
64,192,50325,1,0,0:0:0:0:
448,192,50386,1,0,0:0:0:0:
320,192,50386,1,0,0:0:0:0:
64,192,50449,1,0,0:0:0:0:
320,192,50510,1,0,0:0:0:0:
192,192,50510,1,0,0:0:0:0:
448,192,50573,1,0,0:0:0:0:
192,192,50634,1,0,0:0:0:0:
64,192,50634,1,0,0:0:0:0:
320,192,50697,1,0,0:0:0:0:
192,192,50758,1,0,0:0:0:0:
64,192,50758,1,0,0:0:0:0:
320,192,50821,1,0,0:0:0:0:
448,192,50882,1,0,0:0:0:0:
64,192,50882,1,0,0:0:0:0:
320,192,50945,1,0,0:0:0:0:
64,192,51006,1,0,0:0:0:0:
192,192,51006,1,0,0:0:0:0:
448,192,51069,1,0,0:0:0:0:
320,192,51069,1,0,0:0:0:0:
448,192,51192,1,0,0:0:0:0:
192,192,51192,1,0,0:0:0:0:
64,192,51254,1,0,0:0:0:0:
448,192,51316,1,0,0:0:0:0:
320,192,51316,1,0,0:0:0:0:
320,192,51440,1,0,0:0:0:0:
64,192,51440,1,0,0:0:0:0:
192,192,51564,1,0,0:0:0:0:
64,192,51564,1,0,0:0:0:0:
448,192,51688,1,0,0:0:0:0:
320,192,51688,1,0,0:0:0:0:
64,192,51750,1,0,0:0:0:0:
192,192,51750,1,0,0:0:0:0:
448,192,51812,1,0,0:0:0:0:
192,192,51873,1,0,0:0:0:0:
320,192,51873,1,0,0:0:0:0:
64,192,51936,1,0,0:0:0:0:
192,192,51997,1,0,0:0:0:0:
448,192,51997,1,0,0:0:0:0:
320,192,52060,1,0,0:0:0:0:
64,192,52121,1,0,0:0:0:0:
448,192,52121,1,0,0:0:0:0:
192,192,52184,1,0,0:0:0:0:
448,192,52245,1,0,0:0:0:0:
320,192,52245,1,0,0:0:0:0:
192,192,52308,1,0,0:0:0:0:
320,192,52369,1,0,0:0:0:0:
64,192,52369,1,0,0:0:0:0:
448,192,52432,1,0,0:0:0:0:
192,192,52493,1,0,0:0:0:0:
64,192,52493,1,0,0:0:0:0:
320,192,52556,1,0,0:0:0:0:
64,192,52617,1,0,0:0:0:0:
448,192,52617,1,0,0:0:0:0:
192,192,52680,1,0,0:0:0:0:
64,192,52741,1,0,0:0:0:0:
448,192,52741,1,0,0:0:0:0:
192,192,52804,1,0,0:0:0:0:
448,192,52865,1,0,0:0:0:0:
320,192,52865,1,0,0:0:0:0:
64,192,52928,1,0,0:0:0:0:
320,192,52989,1,0,0:0:0:0:
192,192,52989,1,0,0:0:0:0:
448,192,53052,1,0,0:0:0:0:
64,192,53113,1,0,0:0:0:0:
192,192,53113,1,0,0:0:0:0:
448,192,53176,1,0,0:0:0:0:
320,192,53176,1,0,0:0:0:0:
64,192,53237,1,0,0:0:0:0:
192,192,53237,1,0,0:0:0:0:
448,192,53300,1,0,0:0:0:0:
64,192,53361,1,0,0:0:0:0:
320,192,53361,1,0,0:0:0:0:
448,192,53424,1,0,0:0:0:0:
320,192,53485,1,0,0:0:0:0:
192,192,53485,1,0,0:0:0:0:
192,192,53609,1,0,0:0:0:0:
64,192,53609,1,0,0:0:0:0:
320,192,53733,1,0,0:0:0:0:
448,192,53733,1,0,0:0:0:0:
192,192,53796,1,0,0:0:0:0:
320,192,53857,1,0,0:0:0:0:
64,192,53857,1,0,0:0:0:0:
448,192,53920,1,0,0:0:0:0:
192,192,53981,1,0,0:0:0:0:
64,192,53981,1,0,0:0:0:0:
320,192,54044,1,0,0:0:0:0:
192,192,54105,1,0,0:0:0:0:
448,192,54105,1,0,0:0:0:0:
64,192,54168,1,0,0:0:0:0:
320,192,54229,1,0,0:0:0:0:
448,192,54229,1,0,0:0:0:0:
192,192,54292,1,0,0:0:0:0:
448,192,54353,1,0,0:0:0:0:
64,192,54353,1,0,0:0:0:0:
320,192,54416,1,0,0:0:0:0:
192,192,54477,1,0,0:0:0:0:
64,192,54477,1,0,0:0:0:0:
320,192,54539,1,0,0:0:0:0:
192,192,54601,1,0,0:0:0:0:
448,192,54601,1,0,0:0:0:0:
64,192,54663,1,0,0:0:0:0:
448,192,54725,1,0,0:0:0:0:
320,192,54725,1,0,0:0:0:0:
192,192,54787,1,0,0:0:0:0:
64,192,54787,1,0,0:0:0:0:
448,192,54849,1,0,0:0:0:0:
320,192,54849,1,0,0:0:0:0:
192,192,54911,1,0,0:0:0:0:
320,192,54973,1,0,0:0:0:0:
64,192,54973,1,0,0:0:0:0:
192,192,55035,1,0,0:0:0:0:
320,192,55097,1,0,0:0:0:0:
64,192,55097,1,0,0:0:0:0:
192,192,55159,1,0,0:0:0:0:
64,192,55221,1,0,0:0:0:0:
320,192,55283,1,0,0:0:0:0:
192,192,55283,1,0,0:0:0:0:
448,192,55344,1,0,0:0:0:0:
320,192,55407,1,0,0:0:0:0:
192,192,55468,1,0,0:0:0:0:
448,192,55468,1,0,0:0:0:0:
320,192,55531,1,0,0:0:0:0:
192,192,55592,1,0,0:0:0:0:
448,192,55655,1,0,0:0:0:0:
320,192,55655,1,0,0:0:0:0:
64,192,55655,1,0,0:0:0:0:
64,192,55903,1,0,0:0:0:0:
192,192,55964,1,0,0:0:0:0:
320,192,56027,1,0,0:0:0:0:
448,192,56088,1,0,0:0:0:0:
320,192,56151,1,0,0:0:0:0:
192,192,56151,1,0,0:0:0:0:
64,192,56151,1,0,0:0:0:0:
448,192,56399,1,0,0:0:0:0:
320,192,56460,1,0,0:0:0:0:
192,192,56523,1,0,0:0:0:0:
64,192,56584,1,0,0:0:0:0:
448,192,56647,1,0,0:0:0:0:
320,192,56647,1,0,0:0:0:0:
192,192,56647,1,0,0:0:0:0:
64,192,56895,1,0,0:0:0:0:
192,192,56956,1,0,0:0:0:0:
320,192,57019,1,0,0:0:0:0:
448,192,57080,1,0,0:0:0:0:
64,192,57143,1,0,0:0:0:0:
192,192,57143,1,0,0:0:0:0:
320,192,57143,1,0,0:0:0:0:
448,192,57391,1,0,0:0:0:0:
320,192,57452,1,0,0:0:0:0:
192,192,57515,1,0,0:0:0:0:
64,192,57576,1,0,0:0:0:0:
448,192,57639,1,0,0:0:0:0:
64,192,57639,1,0,0:0:0:0:
192,192,57639,1,0,0:0:0:0:
320,192,57639,1,0,0:0:0:0:
448,192,58134,1,0,0:0:0:0:
320,192,58134,1,0,0:0:0:0:
192,192,58258,1,0,0:0:0:0:
320,192,58258,1,0,0:0:0:0:
192,192,58382,1,0,0:0:0:0:
64,192,58382,1,0,0:0:0:0:
320,192,58506,1,0,0:0:0:0:
64,192,58506,1,0,0:0:0:0:
448,192,58630,1,0,0:0:0:0:
320,192,58630,1,0,0:0:0:0:
64,192,58630,1,0,0:0:0:0:
192,192,58630,1,0,0:0:0:0:
192,192,58754,1,0,0:0:0:0:
448,192,58878,1,0,0:0:0:0:
320,192,58878,1,0,0:0:0:0:
64,192,59002,1,0,0:0:0:0:
448,192,59002,1,0,0:0:0:0:
64,192,59126,1,0,0:0:0:0:
320,192,59126,1,0,0:0:0:0:
192,192,59126,1,0,0:0:0:0:
192,192,59250,1,0,0:0:0:0:
448,192,59374,1,0,0:0:0:0:
320,192,59374,1,0,0:0:0:0:
320,192,59498,1,0,0:0:0:0:
64,192,59498,1,0,0:0:0:0:
192,192,59622,1,0,0:0:0:0:
448,192,59622,1,0,0:0:0:0:
64,192,59622,1,0,0:0:0:0:
320,192,59746,1,0,0:0:0:0:
448,192,59870,1,0,0:0:0:0:
192,192,59870,1,0,0:0:0:0:
64,192,59994,1,0,0:0:0:0:
448,192,60118,1,0,0:0:0:0:
64,192,60118,1,0,0:0:0:0:
192,192,60118,1,0,0:0:0:0:
320,192,60242,1,0,0:0:0:0:
448,192,60242,1,0,0:0:0:0:
192,192,60366,1,0,0:0:0:0:
448,192,60366,1,0,0:0:0:0:
64,192,60490,1,0,0:0:0:0:
448,192,60490,1,0,0:0:0:0:
192,192,60614,1,0,0:0:0:0:
320,192,60614,1,0,0:0:0:0:
448,192,60614,1,0,0:0:0:0:
64,192,60738,1,0,0:0:0:0:
320,192,60862,1,0,0:0:0:0:
64,192,60862,1,0,0:0:0:0:
320,192,60986,1,0,0:0:0:0:
192,192,60986,1,0,0:0:0:0:
64,192,61110,1,0,0:0:0:0:
448,192,61110,1,0,0:0:0:0:
192,192,61110,1,0,0:0:0:0:
320,192,61234,1,0,0:0:0:0:
64,192,61234,1,0,0:0:0:0:
448,192,61357,1,0,0:0:0:0:
192,192,61357,1,0,0:0:0:0:
320,192,61481,1,0,0:0:0:0:
192,192,61481,1,0,0:0:0:0:
448,192,61605,1,0,0:0:0:0:
320,192,61605,1,0,0:0:0:0:
64,192,61605,1,0,0:0:0:0:
192,192,61729,1,0,0:0:0:0:
448,192,61853,1,0,0:0:0:0:
64,192,61853,1,0,0:0:0:0:
320,192,61977,1,0,0:0:0:0:
64,192,62101,1,0,0:0:0:0:
192,192,62101,1,0,0:0:0:0:
320,192,62101,1,0,0:0:0:0:
448,192,62225,1,0,0:0:0:0:
64,192,62225,1,0,0:0:0:0:
320,192,62349,1,0,0:0:0:0:
64,192,62349,1,0,0:0:0:0:
192,192,62473,1,0,0:0:0:0:
64,192,62473,1,0,0:0:0:0:
448,192,62597,1,0,0:0:0:0:
320,192,62597,1,0,0:0:0:0:
192,192,62597,1,0,0:0:0:0:
320,192,62721,1,0,0:0:0:0:
64,192,62721,1,0,0:0:0:0:
448,192,62845,1,0,0:0:0:0:
192,192,62845,1,0,0:0:0:0:
448,192,62969,1,0,0:0:0:0:
320,192,62969,1,0,0:0:0:0:
64,192,63093,1,0,0:0:0:0:
192,192,63093,1,0,0:0:0:0:
320,192,63093,1,0,0:0:0:0:
448,192,63217,1,0,0:0:0:0:
64,192,63217,1,0,0:0:0:0:
448,192,63341,1,0,0:0:0:0:
192,192,63341,1,0,0:0:0:0:
64,192,63465,1,0,0:0:0:0:
320,192,63465,1,0,0:0:0:0:
192,192,63589,1,0,0:0:0:0:
448,192,63589,1,0,0:0:0:0:
320,192,63589,1,0,0:0:0:0:
64,192,63713,1,0,0:0:0:0:
320,192,63837,1,0,0:0:0:0:
64,192,63837,1,0,0:0:0:0:
192,192,63961,1,0,0:0:0:0:
64,192,64085,1,0,0:0:0:0:
448,192,64085,1,0,0:0:0:0:
320,192,64085,1,0,0:0:0:0:
448,192,64209,1,0,0:0:0:0:
192,192,64209,1,0,0:0:0:0:
448,192,64333,1,0,0:0:0:0:
320,192,64333,1,0,0:0:0:0:
448,192,64457,1,0,0:0:0:0:
192,192,64457,1,0,0:0:0:0:
320,192,64581,1,0,0:0:0:0:
192,192,64581,1,0,0:0:0:0:
64,192,64581,1,0,0:0:0:0:
448,192,64705,1,0,0:0:0:0:
64,192,64705,1,0,0:0:0:0:
320,192,64828,1,0,0:0:0:0:
192,192,64828,1,0,0:0:0:0:
320,192,64952,1,0,0:0:0:0:
64,192,64952,1,0,0:0:0:0:
448,192,65076,1,0,0:0:0:0:
192,192,65076,1,0,0:0:0:0:
64,192,65076,1,0,0:0:0:0:
320,192,65200,1,0,0:0:0:0:
192,192,65200,1,0,0:0:0:0:
448,192,65324,1,0,0:0:0:0:
64,192,65324,1,0,0:0:0:0:
64,192,65448,1,0,0:0:0:0:
192,192,65448,1,0,0:0:0:0:
448,192,65572,1,0,0:0:0:0:
320,192,65572,1,0,0:0:0:0:
192,192,65572,1,0,0:0:0:0:
64,192,65696,1,0,0:0:0:0:
192,192,65820,1,0,0:0:0:0:
448,192,65820,1,0,0:0:0:0:
448,192,65944,1,0,0:0:0:0:
320,192,66068,1,0,0:0:0:0:
192,192,66068,1,0,0:0:0:0:
64,192,66068,1,0,0:0:0:0:
448,192,66129,1,0,0:0:0:0:
320,192,66192,1,0,0:0:0:0:
192,192,66253,1,0,0:0:0:0:
448,192,66316,1,0,0:0:0:0:
64,192,66316,1,0,0:0:0:0:
192,192,66377,1,0,0:0:0:0:
448,192,66440,1,0,0:0:0:0:
64,192,66440,1,0,0:0:0:0:
320,192,66501,1,0,0:0:0:0:
448,192,66564,1,0,0:0:0:0:
192,192,66564,1,0,0:0:0:0:
64,192,66564,1,0,0:0:0:0:
320,192,66625,1,0,0:0:0:0:
192,192,66688,1,0,0:0:0:0:
64,192,66749,1,0,0:0:0:0:
192,192,66812,1,0,0:0:0:0:
448,192,66812,1,0,0:0:0:0:
320,192,66936,1,0,0:0:0:0:
64,192,66936,1,0,0:0:0:0:
448,192,67060,1,0,0:0:0:0:
320,192,67060,1,0,0:0:0:0:
192,192,67060,1,0,0:0:0:0:
192,192,67184,1,0,0:0:0:0:
64,192,67184,1,0,0:0:0:0:
64,192,67308,1,0,0:0:0:0:
320,192,67308,1,0,0:0:0:0:
448,192,67308,1,0,0:0:0:0:
192,192,67369,1,0,0:0:0:0:
320,192,67432,1,0,0:0:0:0:
448,192,67493,1,0,0:0:0:0:
320,192,67556,1,0,0:0:0:0:
192,192,67556,1,0,0:0:0:0:
64,192,67556,1,0,0:0:0:0:
448,192,67680,1,0,0:0:0:0:
192,192,67680,1,0,0:0:0:0:
64,192,67804,1,0,0:0:0:0:
448,192,67804,1,0,0:0:0:0:
320,192,67928,1,0,0:0:0:0:
192,192,67928,1,0,0:0:0:0:
448,192,68052,1,0,0:0:0:0:
192,192,68052,1,0,0:0:0:0:
64,192,68052,1,0,0:0:0:0:
320,192,68175,1,0,0:0:0:0:
448,192,68299,1,0,0:0:0:0:
192,192,68299,1,0,0:0:0:0:
64,192,68423,1,0,0:0:0:0:
448,192,68547,1,0,0:0:0:0:
320,192,68547,1,0,0:0:0:0:
64,192,68547,1,0,0:0:0:0:
192,192,68609,1,0,0:0:0:0:
320,192,68671,1,0,0:0:0:0:
448,192,68733,1,0,0:0:0:0:
192,192,68795,1,0,0:0:0:0:
64,192,68795,1,0,0:0:0:0:
448,192,68919,1,0,0:0:0:0:
192,192,68919,1,0,0:0:0:0:
64,192,69043,1,0,0:0:0:0:
192,192,69043,1,0,0:0:0:0:
320,192,69043,1,0,0:0:0:0:
448,192,69167,1,0,0:0:0:0:
320,192,69167,1,0,0:0:0:0:
192,192,69291,1,0,0:0:0:0:
448,192,69291,1,0,0:0:0:0:
448,192,69415,1,0,0:0:0:0:
320,192,69415,1,0,0:0:0:0:
64,192,69539,1,0,0:0:0:0:
320,192,69539,1,0,0:0:0:0:
192,192,69539,1,0,0:0:0:0:
448,192,69663,1,0,0:0:0:0:
192,192,69787,1,0,0:0:0:0:
320,192,69787,1,0,0:0:0:0:
64,192,69911,1,0,0:0:0:0:
448,192,70035,1,0,0:0:0:0:
320,192,70035,1,0,0:0:0:0:
64,192,70035,1,0,0:0:0:0:
448,192,70159,1,0,0:0:0:0:
192,192,70159,1,0,0:0:0:0:
448,192,70283,1,0,0:0:0:0:
320,192,70283,1,0,0:0:0:0:
448,192,70407,1,0,0:0:0:0:
64,192,70407,1,0,0:0:0:0:
448,192,70531,1,0,0:0:0:0:
192,192,70531,1,0,0:0:0:0:
64,192,70531,1,0,0:0:0:0:
320,192,70592,1,0,0:0:0:0:
192,192,70655,1,0,0:0:0:0:
64,192,70716,1,0,0:0:0:0:
448,192,70779,1,0,0:0:0:0:
320,192,70779,1,0,0:0:0:0:
320,192,70903,1,0,0:0:0:0:
64,192,70903,1,0,0:0:0:0:
448,192,71027,1,0,0:0:0:0:
192,192,71027,1,0,0:0:0:0:
64,192,71027,1,0,0:0:0:0:
448,192,71151,1,0,0:0:0:0:
320,192,71151,1,0,0:0:0:0:
448,192,71275,1,0,0:0:0:0:
192,192,71275,1,0,0:0:0:0:
64,192,71275,1,0,0:0:0:0:
320,192,71336,1,0,0:0:0:0:
192,192,71399,1,0,0:0:0:0:
64,192,71460,1,0,0:0:0:0:
192,192,71523,1,0,0:0:0:0:
448,192,71523,1,0,0:0:0:0:
320,192,71523,1,0,0:0:0:0:
320,192,71646,1,0,0:0:0:0:
64,192,71646,1,0,0:0:0:0:
448,192,71770,1,0,0:0:0:0:
192,192,71770,1,0,0:0:0:0:
64,192,71894,1,0,0:0:0:0:
320,192,72018,1,0,0:0:0:0:
192,192,72018,1,0,0:0:0:0:
64,192,72018,1,0,0:0:0:0:
320,192,72142,1,0,0:0:0:0:
448,192,72266,1,0,0:0:0:0:
320,192,72266,1,0,0:0:0:0:
64,192,72390,1,0,0:0:0:0:
320,192,72514,1,0,0:0:0:0:
192,192,72514,1,0,0:0:0:0:
64,192,72514,1,0,0:0:0:0:
448,192,72575,1,0,0:0:0:0:
320,192,72638,1,0,0:0:0:0:
192,192,72699,1,0,0:0:0:0:
448,192,72762,1,0,0:0:0:0:
64,192,72762,1,0,0:0:0:0:
320,192,72823,1,0,0:0:0:0:
64,192,72886,1,0,0:0:0:0:
192,192,72886,1,0,0:0:0:0:
448,192,73010,1,0,0:0:0:0:
320,192,73010,1,0,0:0:0:0:
320,192,73134,1,0,0:0:0:0:
64,192,73134,1,0,0:0:0:0:
192,192,73258,1,0,0:0:0:0:
64,192,73258,1,0,0:0:0:0:
320,192,73382,1,0,0:0:0:0:
448,192,73382,1,0,0:0:0:0:
448,192,73506,1,0,0:0:0:0:
320,192,73506,1,0,0:0:0:0:
192,192,73506,1,0,0:0:0:0:
64,192,73630,1,0,0:0:0:0:
192,192,73754,1,0,0:0:0:0:
64,192,73754,1,0,0:0:0:0:
448,192,73878,1,0,0:0:0:0:
192,192,73878,1,0,0:0:0:0:
64,192,74002,1,0,0:0:0:0:
448,192,74002,1,0,0:0:0:0:
320,192,74002,1,0,0:0:0:0:
192,192,74063,1,0,0:0:0:0:
320,192,74126,1,0,0:0:0:0:
448,192,74187,1,0,0:0:0:0:
64,192,74250,1,0,0:0:0:0:
192,192,74311,1,0,0:0:0:0:
320,192,74374,1,0,0:0:0:0:
448,192,74435,1,0,0:0:0:0:
320,192,74498,1,0,0:0:0:0:
64,192,74498,1,0,0:0:0:0:
192,192,74559,1,0,0:0:0:0:
320,192,74622,1,0,0:0:0:0:
448,192,74683,1,0,0:0:0:0:
192,192,74746,1,0,0:0:0:0:
64,192,74746,1,0,0:0:0:0:
448,192,74807,1,0,0:0:0:0:
320,192,74870,1,0,0:0:0:0:
192,192,74931,1,0,0:0:0:0:
448,192,74993,1,0,0:0:0:0:
64,192,74993,1,0,0:0:0:0:
192,192,75055,1,0,0:0:0:0:
320,192,75117,1,0,0:0:0:0:
448,192,75179,1,0,0:0:0:0:
192,192,75241,1,0,0:0:0:0:
64,192,75241,1,0,0:0:0:0:
448,192,75303,1,0,0:0:0:0:
320,192,75365,1,0,0:0:0:0:
192,192,75427,1,0,0:0:0:0:
448,192,75489,1,0,0:0:0:0:
64,192,75489,1,0,0:0:0:0:
192,192,75551,1,0,0:0:0:0:
320,192,75613,1,0,0:0:0:0:
448,192,75675,1,0,0:0:0:0:
192,192,75737,1,0,0:0:0:0:
64,192,75737,1,0,0:0:0:0:
448,192,75798,1,0,0:0:0:0:
320,192,75861,1,0,0:0:0:0:
192,192,75922,1,0,0:0:0:0:
448,192,75985,1,0,0:0:0:0:
64,192,75985,1,0,0:0:0:0:
192,192,76046,1,0,0:0:0:0:
320,192,76109,1,0,0:0:0:0:
448,192,76170,1,0,0:0:0:0:
192,192,76233,1,0,0:0:0:0:
320,192,76233,1,0,0:0:0:0:
64,192,76294,1,0,0:0:0:0:
192,192,76357,1,0,0:0:0:0:
320,192,76418,1,0,0:0:0:0:
64,192,76481,1,0,0:0:0:0:
448,192,76481,1,0,0:0:0:0:
320,192,76542,1,0,0:0:0:0:
192,192,76605,1,0,0:0:0:0:
64,192,76666,1,0,0:0:0:0:
448,192,76729,1,0,0:0:0:0:
320,192,76729,1,0,0:0:0:0:
64,192,76790,1,0,0:0:0:0:
192,192,76853,1,0,0:0:0:0:
320,192,76914,1,0,0:0:0:0:
64,192,76977,1,0,0:0:0:0:
448,192,76977,1,0,0:0:0:0:
320,192,77038,1,0,0:0:0:0:
192,192,77101,1,0,0:0:0:0:
64,192,77162,1,0,0:0:0:0:
448,192,77225,1,0,0:0:0:0:
320,192,77225,1,0,0:0:0:0:
64,192,77286,1,0,0:0:0:0:
192,192,77349,1,0,0:0:0:0:
320,192,77410,1,0,0:0:0:0:
64,192,77473,1,0,0:0:0:0:
448,192,77473,1,0,0:0:0:0:
320,192,77534,1,0,0:0:0:0:
192,192,77597,1,0,0:0:0:0:
64,192,77658,1,0,0:0:0:0:
448,192,77721,1,0,0:0:0:0:
320,192,77721,1,0,0:0:0:0:
64,192,77782,1,0,0:0:0:0:
192,192,77845,1,0,0:0:0:0:
320,192,77906,1,0,0:0:0:0:
64,192,77969,1,0,0:0:0:0:
192,192,77969,1,0,0:0:0:0:
448,192,77969,1,0,0:0:0:0:
320,192,78030,1,0,0:0:0:0:
64,192,78093,1,0,0:0:0:0:
192,192,78093,1,0,0:0:0:0:
448,192,78217,1,0,0:0:0:0:
320,192,78217,1,0,0:0:0:0:
448,192,78341,1,0,0:0:0:0:
192,192,78341,1,0,0:0:0:0:
192,192,78464,1,0,0:0:0:0:
64,192,78464,1,0,0:0:0:0:
448,192,78526,1,0,0:0:0:0:
320,192,78526,1,0,0:0:0:0:
64,192,78588,1,0,0:0:0:0:
320,192,78650,1,0,0:0:0:0:
192,192,78650,1,0,0:0:0:0:
448,192,78712,1,0,0:0:0:0:
320,192,78774,1,0,0:0:0:0:
64,192,78774,1,0,0:0:0:0:
448,192,78836,1,0,0:0:0:0:
320,192,78898,1,0,0:0:0:0:
192,192,78898,1,0,0:0:0:0:
448,192,78960,1,0,0:0:0:0:
320,192,79022,1,0,0:0:0:0:
64,192,79022,1,0,0:0:0:0:
448,192,79084,1,0,0:0:0:0:
64,192,79145,1,0,0:0:0:0:
192,192,79145,1,0,0:0:0:0:
320,192,79208,1,0,0:0:0:0:
192,192,79269,1,0,0:0:0:0:
448,192,79269,1,0,0:0:0:0:
64,192,79332,1,0,0:0:0:0:
192,192,79393,1,0,0:0:0:0:
320,192,79393,1,0,0:0:0:0:
64,192,79456,1,0,0:0:0:0:
320,192,79517,1,0,0:0:0:0:
448,192,79517,1,0,0:0:0:0:
192,192,79580,1,0,0:0:0:0:
320,192,79641,1,0,0:0:0:0:
64,192,79641,1,0,0:0:0:0:
192,192,79704,1,0,0:0:0:0:
448,192,79765,1,0,0:0:0:0:
64,192,79765,1,0,0:0:0:0:
320,192,79828,1,0,0:0:0:0:
192,192,79889,1,0,0:0:0:0:
64,192,79889,1,0,0:0:0:0:
320,192,79952,1,0,0:0:0:0:
448,192,79952,1,0,0:0:0:0:
448,192,80076,1,0,0:0:0:0:
192,192,80076,1,0,0:0:0:0:
192,192,80200,1,0,0:0:0:0:
320,192,80200,1,0,0:0:0:0:
320,192,80324,1,0,0:0:0:0:
64,192,80324,1,0,0:0:0:0:
448,192,80448,1,0,0:0:0:0:
192,192,80448,1,0,0:0:0:0:
64,192,80448,1,0,0:0:0:0:
192,192,80509,1,0,0:0:0:0:
320,192,80509,1,0,0:0:0:0:
64,192,80572,1,0,0:0:0:0:
192,192,80633,1,0,0:0:0:0:
320,192,80633,1,0,0:0:0:0:
64,192,80696,1,0,0:0:0:0:
192,192,80757,1,0,0:0:0:0:
320,192,80757,1,0,0:0:0:0:
448,192,80820,1,0,0:0:0:0:
192,192,80881,1,0,0:0:0:0:
320,192,80881,1,0,0:0:0:0:
64,192,80944,1,0,0:0:0:0:
192,192,81005,1,0,0:0:0:0:
448,192,81005,1,0,0:0:0:0:
320,192,81068,1,0,0:0:0:0:
64,192,81129,1,0,0:0:0:0:
448,192,81129,1,0,0:0:0:0:
320,192,81192,1,0,0:0:0:0:
64,192,81253,1,0,0:0:0:0:
192,192,81253,1,0,0:0:0:0:
320,192,81316,1,0,0:0:0:0:
64,192,81377,1,0,0:0:0:0:
192,192,81377,1,0,0:0:0:0:
448,192,81440,1,0,0:0:0:0:
64,192,81501,1,0,0:0:0:0:
320,192,81501,1,0,0:0:0:0:
448,192,81564,1,0,0:0:0:0:
64,192,81625,1,0,0:0:0:0:
192,192,81625,1,0,0:0:0:0:
320,192,81688,1,0,0:0:0:0:
64,192,81749,1,0,0:0:0:0:
192,192,81749,1,0,0:0:0:0:
448,192,81811,1,0,0:0:0:0:
320,192,81811,1,0,0:0:0:0:
448,192,81935,1,0,0:0:0:0:
192,192,81935,1,0,0:0:0:0:
448,192,82059,1,0,0:0:0:0:
320,192,82059,1,0,0:0:0:0:
448,192,82183,1,0,0:0:0:0:
192,192,82183,1,0,0:0:0:0:
192,192,82307,1,0,0:0:0:0:
448,192,82307,1,0,0:0:0:0:
320,192,82307,1,0,0:0:0:0:
192,192,82431,1,0,0:0:0:0:
64,192,82431,1,0,0:0:0:0:
448,192,82493,1,0,0:0:0:0:
320,192,82493,1,0,0:0:0:0:
64,192,82555,1,0,0:0:0:0:
448,192,82616,1,0,0:0:0:0:
320,192,82616,1,0,0:0:0:0:
64,192,82679,1,0,0:0:0:0:
320,192,82740,1,0,0:0:0:0:
192,192,82740,1,0,0:0:0:0:
448,192,82803,1,0,0:0:0:0:
64,192,82864,1,0,0:0:0:0:
192,192,82864,1,0,0:0:0:0:
320,192,82927,1,0,0:0:0:0:
192,192,82988,1,0,0:0:0:0:
448,192,82988,1,0,0:0:0:0:
64,192,83051,1,0,0:0:0:0:
320,192,83112,1,0,0:0:0:0:
448,192,83112,1,0,0:0:0:0:
192,192,83175,1,0,0:0:0:0:
320,192,83236,1,0,0:0:0:0:
64,192,83236,1,0,0:0:0:0:
448,192,83299,1,0,0:0:0:0:
192,192,83360,1,0,0:0:0:0:
64,192,83360,1,0,0:0:0:0:
320,192,83423,1,0,0:0:0:0:
192,192,83484,1,0,0:0:0:0:
448,192,83484,1,0,0:0:0:0:
64,192,83547,1,0,0:0:0:0:
320,192,83608,1,0,0:0:0:0:
448,192,83608,1,0,0:0:0:0:
192,192,83671,1,0,0:0:0:0:
448,192,83732,1,0,0:0:0:0:
64,192,83732,1,0,0:0:0:0:
320,192,83795,1,0,0:0:0:0:
64,192,83856,1,0,0:0:0:0:
192,192,83856,1,0,0:0:0:0:
448,192,83919,1,0,0:0:0:0:
320,192,83919,1,0,0:0:0:0:
448,192,84043,1,0,0:0:0:0:
192,192,84043,1,0,0:0:0:0:
64,192,84167,1,0,0:0:0:0:
320,192,84167,1,0,0:0:0:0:
448,192,84291,1,0,0:0:0:0:
64,192,84291,1,0,0:0:0:0:
192,192,84352,1,0,0:0:0:0:
320,192,84352,1,0,0:0:0:0:
64,192,84415,1,0,0:0:0:0:
320,192,84476,1,0,0:0:0:0:
448,192,84476,1,0,0:0:0:0:
64,192,84539,1,0,0:0:0:0:
320,192,84600,1,0,0:0:0:0:
192,192,84600,1,0,0:0:0:0:
448,192,84663,1,0,0:0:0:0:
64,192,84724,1,0,0:0:0:0:
192,192,84724,1,0,0:0:0:0:
448,192,84787,1,0,0:0:0:0:
192,192,84848,1,0,0:0:0:0:
320,192,84848,1,0,0:0:0:0:
64,192,84911,1,0,0:0:0:0:
320,192,84972,1,0,0:0:0:0:
448,192,84972,1,0,0:0:0:0:
64,192,85035,1,0,0:0:0:0:
320,192,85096,1,0,0:0:0:0:
192,192,85096,1,0,0:0:0:0:
448,192,85159,1,0,0:0:0:0:
64,192,85220,1,0,0:0:0:0:
192,192,85220,1,0,0:0:0:0:
448,192,85282,1,0,0:0:0:0:
192,192,85344,1,0,0:0:0:0:
320,192,85344,1,0,0:0:0:0:
448,192,85406,1,0,0:0:0:0:
64,192,85406,1,0,0:0:0:0:
320,192,85530,1,0,0:0:0:0:
192,192,85530,1,0,0:0:0:0:
320,192,85654,1,0,0:0:0:0:
64,192,85654,1,0,0:0:0:0:
192,192,85778,1,0,0:0:0:0:
64,192,85778,1,0,0:0:0:0:
320,192,85902,1,0,0:0:0:0:
192,192,85902,1,0,0:0:0:0:
448,192,86026,1,0,0:0:0:0:
320,192,86026,1,0,0:0:0:0:
320,192,86150,1,0,0:0:0:0:
64,192,86150,1,0,0:0:0:0:
64,192,86274,1,0,0:0:0:0:
192,192,86274,1,0,0:0:0:0:
192,192,86398,1,0,0:0:0:0:
64,192,86398,1,0,0:0:0:0:
448,192,86459,1,0,0:0:0:0:
320,192,86459,1,0,0:0:0:0:
192,192,86522,1,0,0:0:0:0:
448,192,86583,1,0,0:0:0:0:
320,192,86583,1,0,0:0:0:0:
192,192,86646,1,0,0:0:0:0:
448,192,86707,1,0,0:0:0:0:
320,192,86707,1,0,0:0:0:0:
64,192,86770,1,0,0:0:0:0:
448,192,86831,1,0,0:0:0:0:
192,192,86831,1,0,0:0:0:0:
64,192,86894,1,0,0:0:0:0:
320,192,86955,1,0,0:0:0:0:
192,192,86955,1,0,0:0:0:0:
448,192,87018,1,0,0:0:0:0:
64,192,87079,1,0,0:0:0:0:
192,192,87079,1,0,0:0:0:0:
320,192,87142,1,0,0:0:0:0:
448,192,87203,1,0,0:0:0:0:
192,192,87203,1,0,0:0:0:0:
320,192,87266,1,0,0:0:0:0:
64,192,87327,1,0,0:0:0:0:
192,192,87327,1,0,0:0:0:0:
448,192,87390,1,0,0:0:0:0:
192,192,87451,1,0,0:0:0:0:
320,192,87451,1,0,0:0:0:0:
64,192,87514,1,0,0:0:0:0:
448,192,87575,1,0,0:0:0:0:
320,192,87575,1,0,0:0:0:0:
192,192,87638,1,0,0:0:0:0:
320,192,87699,1,0,0:0:0:0:
64,192,87699,1,0,0:0:0:0:
192,192,87762,1,0,0:0:0:0:
64,192,87823,1,0,0:0:0:0:
448,192,87886,1,0,0:0:0:0:
320,192,87886,1,0,0:0:0:0:
320,192,88010,1,0,0:0:0:0:
64,192,88010,1,0,0:0:0:0:
448,192,88134,1,0,0:0:0:0:
192,192,88134,1,0,0:0:0:0:
320,192,88258,1,0,0:0:0:0:
192,192,88258,1,0,0:0:0:0:
448,192,88382,1,0,0:0:0:0:
64,192,88382,1,0,0:0:0:0:
320,192,88443,1,0,0:0:0:0:
192,192,88443,1,0,0:0:0:0:
448,192,88506,1,0,0:0:0:0:
320,192,88567,1,0,0:0:0:0:
64,192,88567,1,0,0:0:0:0:
448,192,88629,1,0,0:0:0:0:
320,192,88691,1,0,0:0:0:0:
192,192,88691,1,0,0:0:0:0:
448,192,88753,1,0,0:0:0:0:
320,192,88815,1,0,0:0:0:0:
64,192,88815,1,0,0:0:0:0:
448,192,88877,1,0,0:0:0:0:
320,192,88939,1,0,0:0:0:0:
192,192,88939,1,0,0:0:0:0:
448,192,89001,1,0,0:0:0:0:
64,192,89063,1,0,0:0:0:0:
192,192,89063,1,0,0:0:0:0:
320,192,89125,1,0,0:0:0:0:
64,192,89187,1,0,0:0:0:0:
192,192,89187,1,0,0:0:0:0:
448,192,89249,1,0,0:0:0:0:
64,192,89311,1,0,0:0:0:0:
320,192,89311,1,0,0:0:0:0:
448,192,89373,1,0,0:0:0:0:
192,192,89434,1,0,0:0:0:0:
320,192,89434,1,0,0:0:0:0:
64,192,89497,1,0,0:0:0:0:
192,192,89558,1,0,0:0:0:0:
448,192,89558,1,0,0:0:0:0:
320,192,89621,1,0,0:0:0:0:
192,192,89682,1,0,0:0:0:0:
64,192,89682,1,0,0:0:0:0:
320,192,89745,1,0,0:0:0:0:
64,192,89806,1,0,0:0:0:0:
448,192,89806,1,0,0:0:0:0:
320,192,89869,1,0,0:0:0:0:
192,192,89869,1,0,0:0:0:0:
448,192,89993,1,0,0:0:0:0:
320,192,89993,1,0,0:0:0:0:
192,192,90117,1,0,0:0:0:0:
64,192,90117,1,0,0:0:0:0:
192,192,90241,1,0,0:0:0:0:
448,192,90241,1,0,0:0:0:0:
448,192,90365,1,0,0:0:0:0:
320,192,90365,1,0,0:0:0:0:
64,192,90426,1,0,0:0:0:0:
192,192,90426,1,0,0:0:0:0:
320,192,90489,1,0,0:0:0:0:
192,192,90550,1,0,0:0:0:0:
448,192,90550,1,0,0:0:0:0:
64,192,90613,1,0,0:0:0:0:
192,192,90674,1,0,0:0:0:0:
320,192,90674,1,0,0:0:0:0:
64,192,90737,1,0,0:0:0:0:
448,192,90798,1,0,0:0:0:0:
320,192,90798,1,0,0:0:0:0:
64,192,90861,1,0,0:0:0:0:
320,192,90922,1,0,0:0:0:0:
192,192,90922,1,0,0:0:0:0:
448,192,90985,1,0,0:0:0:0:
64,192,91046,1,0,0:0:0:0:
192,192,91046,1,0,0:0:0:0:
320,192,91109,1,0,0:0:0:0:
192,192,91170,1,0,0:0:0:0:
448,192,91170,1,0,0:0:0:0:
320,192,91233,1,0,0:0:0:0:
192,192,91294,1,0,0:0:0:0:
448,192,91294,1,0,0:0:0:0:
64,192,91357,1,0,0:0:0:0:
320,192,91418,1,0,0:0:0:0:
448,192,91418,1,0,0:0:0:0:
192,192,91481,1,0,0:0:0:0:
448,192,91542,1,0,0:0:0:0:
64,192,91542,1,0,0:0:0:0:
320,192,91605,1,0,0:0:0:0:
64,192,91666,1,0,0:0:0:0:
192,192,91666,1,0,0:0:0:0:
448,192,91729,1,0,0:0:0:0:
320,192,91790,1,0,0:0:0:0:
192,192,91790,1,0,0:0:0:0:
448,192,91853,1,0,0:0:0:0:
320,192,91914,1,0,0:0:0:0:
64,192,91914,1,0,0:0:0:0:
192,192,91977,1,0,0:0:0:0:
448,192,92038,1,0,0:0:0:0:
64,192,92038,1,0,0:0:0:0:
192,192,92100,1,0,0:0:0:0:
448,192,92162,1,0,0:0:0:0:
320,192,92162,1,0,0:0:0:0:
64,192,92224,1,0,0:0:0:0:
448,192,92286,1,0,0:0:0:0:
192,192,92286,1,0,0:0:0:0:
192,192,92348,1,0,0:0:0:0:
320,192,92348,1,0,0:0:0:0:
64,192,92410,1,0,0:0:0:0:
192,192,92472,1,0,0:0:0:0:
448,192,92472,1,0,0:0:0:0:
320,192,92534,1,0,0:0:0:0:
64,192,92596,1,0,0:0:0:0:
192,192,92596,1,0,0:0:0:0:
448,192,92658,1,0,0:0:0:0:
320,192,92720,1,0,0:0:0:0:
64,192,92720,1,0,0:0:0:0:
192,192,92781,1,0,0:0:0:0:
448,192,92844,1,0,0:0:0:0:
320,192,92844,1,0,0:0:0:0:
64,192,92905,1,0,0:0:0:0:
448,192,92968,1,0,0:0:0:0:
192,192,92968,1,0,0:0:0:0:
320,192,93029,1,0,0:0:0:0:
64,192,93092,1,0,0:0:0:0:
192,192,93092,1,0,0:0:0:0:
448,192,93216,1,0,0:0:0:0:
192,192,93216,1,0,0:0:0:0:
64,192,93340,1,0,0:0:0:0:
448,192,93340,1,0,0:0:0:0:
320,192,93340,1,0,0:0:0:0:
192,192,93464,1,0,0:0:0:0:
64,192,93464,1,0,0:0:0:0:
320,192,93588,1,0,0:0:0:0:
64,192,93588,1,0,0:0:0:0:
192,192,93649,1,0,0:0:0:0:
320,192,93712,1,0,0:0:0:0:
448,192,93773,1,0,0:0:0:0:
320,192,93836,1,0,0:0:0:0:
192,192,93836,1,0,0:0:0:0:
64,192,93836,1,0,0:0:0:0:
448,192,93960,1,0,0:0:0:0:
320,192,93960,1,0,0:0:0:0:
192,192,94021,1,0,0:0:0:0:
448,192,94084,1,0,0:0:0:0:
64,192,94084,1,0,0:0:0:0:
320,192,94145,1,0,0:0:0:0:
192,192,94208,1,0,0:0:0:0:
64,192,94269,1,0,0:0:0:0:
448,192,94332,1,0,0:0:0:0:
320,192,94332,1,0,0:0:0:0:
192,192,94332,1,0,0:0:0:0:
320,192,94456,1,0,0:0:0:0:
64,192,94456,1,0,0:0:0:0:
448,192,94580,1,0,0:0:0:0:
64,192,94580,1,0,0:0:0:0:
64,192,94641,1,0,0:0:0:0:
320,192,94641,1,0,0:0:0:0:
192,192,94704,1,0,0:0:0:0:
448,192,94765,1,0,0:0:0:0:
320,192,94765,1,0,0:0:0:0:
192,192,94828,1,0,0:0:0:0:
320,192,94889,1,0,0:0:0:0:
64,192,94889,1,0,0:0:0:0:
448,192,94952,1,0,0:0:0:0:
320,192,95013,1,0,0:0:0:0:
192,192,95013,1,0,0:0:0:0:
448,192,95076,1,0,0:0:0:0:
320,192,95137,1,0,0:0:0:0:
192,192,95137,1,0,0:0:0:0:
64,192,95200,1,0,0:0:0:0:
320,192,95261,1,0,0:0:0:0:
448,192,95261,1,0,0:0:0:0:
192,192,95324,1,0,0:0:0:0:
448,192,95385,1,0,0:0:0:0:
64,192,95385,1,0,0:0:0:0:
320,192,95447,1,0,0:0:0:0:
448,192,95509,1,0,0:0:0:0:
192,192,95509,1,0,0:0:0:0:
320,192,95571,1,0,0:0:0:0:
448,192,95633,1,0,0:0:0:0:
64,192,95633,1,0,0:0:0:0:
320,192,95695,1,0,0:0:0:0:
64,192,95757,1,0,0:0:0:0:
192,192,95757,1,0,0:0:0:0:
448,192,95819,1,0,0:0:0:0:
192,192,95881,1,0,0:0:0:0:
320,192,95881,1,0,0:0:0:0:
64,192,95943,1,0,0:0:0:0:
192,192,96005,1,0,0:0:0:0:
448,192,96005,1,0,0:0:0:0:
320,192,96067,1,0,0:0:0:0:
448,192,96129,1,0,0:0:0:0:
64,192,96129,1,0,0:0:0:0:
192,192,96191,1,0,0:0:0:0:
64,192,96252,1,0,0:0:0:0:
320,192,96252,1,0,0:0:0:0:
192,192,96315,1,0,0:0:0:0:
64,192,96376,1,0,0:0:0:0:
448,192,96376,1,0,0:0:0:0:
320,192,96439,1,0,0:0:0:0:
192,192,96500,1,0,0:0:0:0:
448,192,96500,1,0,0:0:0:0:
320,192,96563,1,0,0:0:0:0:
192,192,96624,1,0,0:0:0:0:
448,192,96624,1,0,0:0:0:0:
64,192,96687,1,0,0:0:0:0:
192,192,96748,1,0,0:0:0:0:
320,192,96748,1,0,0:0:0:0:
64,192,96811,1,0,0:0:0:0:
320,192,96872,1,0,0:0:0:0:
448,192,96872,1,0,0:0:0:0:
192,192,96935,1,0,0:0:0:0:
320,192,96996,1,0,0:0:0:0:
64,192,96996,1,0,0:0:0:0:
192,192,97059,1,0,0:0:0:0:
320,192,97120,1,0,0:0:0:0:
64,192,97120,1,0,0:0:0:0:
192,192,97183,1,0,0:0:0:0:
320,192,97244,1,0,0:0:0:0:
448,192,97244,1,0,0:0:0:0:
192,192,97307,1,0,0:0:0:0:
320,192,97368,1,0,0:0:0:0:
64,192,97368,1,0,0:0:0:0:
448,192,97431,1,0,0:0:0:0:
320,192,97492,1,0,0:0:0:0:
192,192,97492,1,0,0:0:0:0:
448,192,97555,1,0,0:0:0:0:
320,192,97616,1,0,0:0:0:0:
192,192,97616,1,0,0:0:0:0:
64,192,97679,1,0,0:0:0:0:
320,192,97740,1,0,0:0:0:0:
192,192,97740,1,0,0:0:0:0:
64,192,97803,1,0,0:0:0:0:
448,192,97803,1,0,0:0:0:0:
320,192,97927,1,0,0:0:0:0:
64,192,97927,1,0,0:0:0:0:
192,192,98051,1,0,0:0:0:0:
64,192,98051,1,0,0:0:0:0:
448,192,98175,1,0,0:0:0:0:
192,192,98175,1,0,0:0:0:0:
320,192,98299,1,0,0:0:0:0:
448,192,98299,1,0,0:0:0:0:
320,192,98423,1,0,0:0:0:0:
64,192,98423,1,0,0:0:0:0:
192,192,98547,1,0,0:0:0:0:
64,192,98547,1,0,0:0:0:0:
448,192,98608,1,0,0:0:0:0:
320,192,98608,1,0,0:0:0:0:
192,192,98671,1,0,0:0:0:0:
448,192,98732,1,0,0:0:0:0:
320,192,98732,1,0,0:0:0:0:
192,192,98795,1,0,0:0:0:0:
320,192,98856,1,0,0:0:0:0:
64,192,98856,1,0,0:0:0:0:
192,192,98918,1,0,0:0:0:0:
320,192,98980,1,0,0:0:0:0:
64,192,98980,1,0,0:0:0:0:
448,192,99042,1,0,0:0:0:0:
320,192,99104,1,0,0:0:0:0:
192,192,99104,1,0,0:0:0:0:
448,192,99166,1,0,0:0:0:0:
320,192,99228,1,0,0:0:0:0:
192,192,99228,1,0,0:0:0:0:
64,192,99290,1,0,0:0:0:0:
320,192,99352,1,0,0:0:0:0:
448,192,99352,1,0,0:0:0:0:
192,192,99414,1,0,0:0:0:0:
320,192,99476,1,0,0:0:0:0:
64,192,99476,1,0,0:0:0:0:
192,192,99538,1,0,0:0:0:0:
320,192,99599,1,0,0:0:0:0:
64,192,99599,1,0,0:0:0:0:
448,192,99662,1,0,0:0:0:0:
320,192,99723,1,0,0:0:0:0:
192,192,99723,1,0,0:0:0:0:
448,192,99786,1,0,0:0:0:0:
64,192,99847,1,0,0:0:0:0:
192,192,99847,1,0,0:0:0:0:
320,192,99910,1,0,0:0:0:0:
192,192,99971,1,0,0:0:0:0:
448,192,99971,1,0,0:0:0:0:
64,192,100034,1,0,0:0:0:0:
320,192,100095,1,0,0:0:0:0:
448,192,100095,1,0,0:0:0:0:
192,192,100158,1,0,0:0:0:0:
320,192,100219,1,0,0:0:0:0:
64,192,100219,1,0,0:0:0:0:
448,192,100282,1,0,0:0:0:0:
192,192,100343,1,0,0:0:0:0:
64,192,100343,1,0,0:0:0:0:
320,192,100406,1,0,0:0:0:0:
192,192,100467,1,0,0:0:0:0:
448,192,100467,1,0,0:0:0:0:
64,192,100530,1,0,0:0:0:0:
320,192,100591,1,0,0:0:0:0:
448,192,100591,1,0,0:0:0:0:
192,192,100654,1,0,0:0:0:0:
320,192,100715,1,0,0:0:0:0:
64,192,100715,1,0,0:0:0:0:
448,192,100778,1,0,0:0:0:0:
192,192,100839,1,0,0:0:0:0:
64,192,100839,1,0,0:0:0:0:
320,192,100902,1,0,0:0:0:0:
192,192,100963,1,0,0:0:0:0:
448,192,100963,1,0,0:0:0:0:
64,192,101026,1,0,0:0:0:0:
320,192,101087,1,0,0:0:0:0:
448,192,101087,1,0,0:0:0:0:
192,192,101150,1,0,0:0:0:0:
320,192,101211,1,0,0:0:0:0:
64,192,101211,1,0,0:0:0:0:
192,192,101274,1,0,0:0:0:0:
448,192,101274,1,0,0:0:0:0:
320,192,101398,1,0,0:0:0:0:
64,192,101398,1,0,0:0:0:0:
192,192,101522,1,0,0:0:0:0:
64,192,101522,1,0,0:0:0:0:
448,192,101583,1,0,0:0:0:0:
320,192,101583,1,0,0:0:0:0:
192,192,101646,1,0,0:0:0:0:
448,192,101707,1,0,0:0:0:0:
320,192,101707,1,0,0:0:0:0:
64,192,101770,1,0,0:0:0:0:
192,192,101770,1,0,0:0:0:0:
448,192,101894,1,0,0:0:0:0:
64,192,101894,1,0,0:0:0:0:
192,192,101955,1,0,0:0:0:0:
320,192,101955,1,0,0:0:0:0:
64,192,102018,1,0,0:0:0:0:
192,192,102079,1,0,0:0:0:0:
320,192,102079,1,0,0:0:0:0:
64,192,102142,1,0,0:0:0:0:
192,192,102203,1,0,0:0:0:0:
320,192,102203,1,0,0:0:0:0:
64,192,102265,1,0,0:0:0:0:
448,192,102265,1,0,0:0:0:0:
320,192,102389,1,0,0:0:0:0:
64,192,102389,1,0,0:0:0:0:
192,192,102513,1,0,0:0:0:0:
448,192,102575,1,0,0:0:0:0:
320,192,102575,1,0,0:0:0:0:
192,192,102637,1,0,0:0:0:0:
448,192,102699,1,0,0:0:0:0:
320,192,102699,1,0,0:0:0:0:
192,192,102761,1,0,0:0:0:0:
320,192,102823,1,0,0:0:0:0:
64,192,102823,1,0,0:0:0:0:
448,192,102885,1,0,0:0:0:0:
320,192,102947,1,0,0:0:0:0:
192,192,102947,1,0,0:0:0:0:
448,192,103009,1,0,0:0:0:0:
320,192,103070,1,0,0:0:0:0:
192,192,103070,1,0,0:0:0:0:
448,192,103133,1,0,0:0:0:0:
64,192,103194,1,0,0:0:0:0:
192,192,103194,1,0,0:0:0:0:
320,192,103257,1,0,0:0:0:0:
64,192,103318,1,0,0:0:0:0:
192,192,103318,1,0,0:0:0:0:
448,192,103381,1,0,0:0:0:0:
64,192,103442,1,0,0:0:0:0:
192,192,103442,1,0,0:0:0:0:
448,192,103505,1,0,0:0:0:0:
320,192,103566,1,0,0:0:0:0:
192,192,103566,1,0,0:0:0:0:
448,192,103629,1,0,0:0:0:0:
192,192,103690,1,0,0:0:0:0:
64,192,103690,1,0,0:0:0:0:
320,192,103753,1,0,0:0:0:0:
64,192,103814,1,0,0:0:0:0:
448,192,103814,1,0,0:0:0:0:
320,192,103877,1,0,0:0:0:0:
192,192,103877,1,0,0:0:0:0:
320,192,104001,1,0,0:0:0:0:
64,192,104001,1,0,0:0:0:0:
448,192,104125,1,0,0:0:0:0:
192,192,104125,1,0,0:0:0:0:
320,192,104249,1,0,0:0:0:0:
448,192,104249,1,0,0:0:0:0:
192,192,104373,1,0,0:0:0:0:
64,192,104373,1,0,0:0:0:0:
320,192,104497,1,0,0:0:0:0:
448,192,104497,1,0,0:0:0:0:
64,192,104558,1,0,0:0:0:0:
192,192,104558,1,0,0:0:0:0:
320,192,104621,1,0,0:0:0:0:
64,192,104682,1,0,0:0:0:0:
192,192,104682,1,0,0:0:0:0:
320,192,104745,1,0,0:0:0:0:
64,192,104806,1,0,0:0:0:0:
192,192,104806,1,0,0:0:0:0:
448,192,104869,1,0,0:0:0:0:
320,192,104930,1,0,0:0:0:0:
192,192,104930,1,0,0:0:0:0:
448,192,104993,1,0,0:0:0:0:
64,192,105054,1,0,0:0:0:0:
320,192,105117,1,0,0:0:0:0:
64,192,105178,1,0,0:0:0:0:
192,192,105178,1,0,0:0:0:0:
448,192,105241,1,0,0:0:0:0:
320,192,105241,1,0,0:0:0:0:
64,192,105302,1,0,0:0:0:0:
192,192,105302,1,0,0:0:0:0:
448,192,105365,1,0,0:0:0:0:
192,192,105426,1,0,0:0:0:0:
320,192,105426,1,0,0:0:0:0:
64,192,105489,1,0,0:0:0:0:
192,192,105550,1,0,0:0:0:0:
320,192,105550,1,0,0:0:0:0:
64,192,105613,1,0,0:0:0:0:
192,192,105674,1,0,0:0:0:0:
320,192,105674,1,0,0:0:0:0:
64,192,105736,1,0,0:0:0:0:
192,192,105798,1,0,0:0:0:0:
320,192,105798,1,0,0:0:0:0:
448,192,105860,1,0,0:0:0:0:
192,192,105922,1,0,0:0:0:0:
320,192,105922,1,0,0:0:0:0:
64,192,105984,1,0,0:0:0:0:
192,192,106046,1,0,0:0:0:0:
320,192,106046,1,0,0:0:0:0:
448,192,106108,1,0,0:0:0:0:
192,192,106170,1,0,0:0:0:0:
320,192,106170,1,0,0:0:0:0:
64,192,106232,1,0,0:0:0:0:
192,192,106294,1,0,0:0:0:0:
448,192,106294,1,0,0:0:0:0:
320,192,106356,1,0,0:0:0:0:
64,192,106417,1,0,0:0:0:0:
448,192,106417,1,0,0:0:0:0:
320,192,106480,1,0,0:0:0:0:
192,192,106480,1,0,0:0:0:0:
64,192,106541,1,0,0:0:0:0:
448,192,106541,1,0,0:0:0:0:
192,192,106604,1,0,0:0:0:0:
448,192,106665,1,0,0:0:0:0:
320,192,106665,1,0,0:0:0:0:
192,192,106728,1,0,0:0:0:0:
448,192,106789,1,0,0:0:0:0:
320,192,106789,1,0,0:0:0:0:
192,192,106852,1,0,0:0:0:0:
320,192,106913,1,0,0:0:0:0:
64,192,106913,1,0,0:0:0:0:
192,192,106976,1,0,0:0:0:0:
320,192,107037,1,0,0:0:0:0:
64,192,107037,1,0,0:0:0:0:
192,192,107100,1,0,0:0:0:0:
448,192,107161,1,0,0:0:0:0:
64,192,107161,1,0,0:0:0:0:
192,192,107224,1,0,0:0:0:0:
448,192,107285,1,0,0:0:0:0:
320,192,107285,1,0,0:0:0:0:
192,192,107348,1,0,0:0:0:0:
448,192,107409,1,0,0:0:0:0:
320,192,107409,1,0,0:0:0:0:
192,192,107472,1,0,0:0:0:0:
448,192,107533,1,0,0:0:0:0:
320,192,107533,1,0,0:0:0:0:
192,192,107596,1,0,0:0:0:0:
320,192,107657,1,0,0:0:0:0:
64,192,107657,1,0,0:0:0:0:
448,192,107720,1,0,0:0:0:0:
320,192,107781,1,0,0:0:0:0:
192,192,107781,1,0,0:0:0:0:
64,192,107844,1,0,0:0:0:0:
192,192,107905,1,0,0:0:0:0:
448,192,107905,1,0,0:0:0:0:
320,192,107968,1,0,0:0:0:0:
64,192,108029,1,0,0:0:0:0:
448,192,108029,1,0,0:0:0:0:
192,192,108092,1,0,0:0:0:0:
448,192,108153,1,0,0:0:0:0:
320,192,108153,1,0,0:0:0:0:
192,192,108216,1,0,0:0:0:0:
64,192,108216,1,0,0:0:0:0:
448,192,108277,1,0,0:0:0:0:
320,192,108277,1,0,0:0:0:0:
64,192,108340,1,0,0:0:0:0:
448,192,108401,1,0,0:0:0:0:
320,192,108401,1,0,0:0:0:0:
64,192,108464,1,0,0:0:0:0:
192,192,108464,1,0,0:0:0:0:
192,192,108712,1,0,0:0:0:0:
64,192,108712,1,0,0:0:0:0:
192,192,108960,1,0,0:0:0:0:
64,192,108960,1,0,0:0:0:0:
320,192,109207,1,0,0:0:0:0:
192,192,109207,1,0,0:0:0:0:
64,192,109207,1,0,0:0:0:0:
192,192,109455,1,0,0:0:0:0:
64,192,109455,1,0,0:0:0:0:
448,192,109703,1,0,0:0:0:0:
192,192,109703,1,0,0:0:0:0:
64,192,109703,1,0,0:0:0:0:
320,192,109951,1,0,0:0:0:0:
192,192,109951,1,0,0:0:0:0:
64,192,109951,1,0,0:0:0:0:
