osu file format v14

[General]
AudioFilename: despacitoFortnite.mp3
AudioLeadIn: 0
PreviewTime: -1
Countdown: 1
SampleSet: None
StackLeniency: 0.7
Mode: 0
LetterboxInBreaks: 0
WidescreenStoryboard: 0

[Editor]
DistanceSpacing: 1.1
BeatDivisor: 4
GridSize: 4
TimelineZoom: 1

[Metadata]
Title:Greater Performances
TitleUnicode:Greater Performances
Artist:Various
ArtistUnicode:Various
Creator:Mitumitu_NotEnd
Version:Fortnite - Despacito Extended [;8]
Source:
Tags:
BeatmapID:1922483
BeatmapSetID:826887

[Difficulty]
HPDrainRate:4.7
CircleSize:4.1
OverallDifficulty:6
ApproachRate:9.5
SliderMultiplier:2
SliderTickRate:1

[Events]
//Background and Video events
//Break Periods
//Storyboard Layer 0 (Background)
//Storyboard Layer 1 (Fail)
//Storyboard Layer 2 (Pass)
//Storyboard Layer 3 (Foreground)
//Storyboard Sound Samples

[TimingPoints]
118,300,4,1,0,100,1,0
118,-100,4,3,4,100,0,0
418,-250,4,3,6,100,0,0
718,-100,4,3,4,100,0,0
1018,-100,4,3,6,100,0,0
1318,-100,4,3,8,100,0,0
1468,-100,4,1,0,100,0,0
3118,-125,4,3,6,100,0,0
3419,-125,4,1,0,100,0,0
3568,-83.3333333333333,4,1,0,100,0,0
5518,-125,4,3,6,100,0,0
5668,-125,4,1,0,100,0,0
5968,-83.3333333333333,4,3,6,100,0,0
6418,-83.3333333333333,4,1,0,100,0,0
7918,-83.3333333333333,4,3,6,100,0,0
8218,-83.3333333333333,4,1,0,100,0,0
8368,-83.3333333333333,4,3,6,100,0,0
8818,-83.3333333333333,4,3,8,100,0,0
8968,-100,4,1,0,100,0,0
9718,-100,4,3,6,100,0,0
10018,-100,4,3,7,100,0,0
10318,-100,4,3,6,100,0,0
10618,-100,4,3,7,100,0,0
10918,-100,4,3,8,100,0,0
11068,-100,4,1,0,100,0,0
12718,-125,4,3,6,100,0,0
13019,-125,4,1,0,100,0,0
13168,-83.3333333333333,4,1,0,100,0,0
15118,-125,4,3,6,100,0,0
15268,-125,4,1,0,100,0,0
15568,-83.3333333333333,4,3,6,100,0,0
16018,-83.3333333333333,4,1,0,100,0,0
17518,-83.3333333333333,4,3,6,100,0,0
17818,-83.3333333333333,4,1,0,100,0,0
17968,-83.3333333333333,4,3,6,100,0,0
18418,-83.3333333333333,4,3,8,100,0,0
18568,-100,4,1,0,100,0,0
20518,-83.3333333333333,4,3,6,100,0,0
21118,-83.3333333333333,4,3,8,100,0,0
21268,-83.3333333333333,4,3,6,100,0,0
21568,-83.3333333333333,4,3,8,100,0,0
21718,-83.3333333333333,4,3,6,100,0,0
22018,-83.3333333333333,4,3,8,100,0,0
22168,-83.3333333333333,4,3,6,100,0,0
22318,-83.3333333333333,4,3,8,100,0,0
22468,-83.3333333333333,4,3,6,100,0,0
22618,-83.3333333333333,4,3,8,100,0,0
23068,-83.3333333333333,4,3,4,100,0,0
24118,-83.3333333333333,4,3,6,100,0,0
28318,-83.3333333333333,4,3,4,100,0,0
30118,-83.3333333333333,4,3,6,100,0,0
30718,-83.3333333333333,4,3,8,100,0,0
30868,-83.3333333333333,4,3,6,100,0,0
31168,-83.3333333333333,4,3,8,100,0,0
31318,-83.3333333333333,4,3,6,100,0,0
31618,-83.3333333333333,4,3,8,100,0,0
31768,-83.3333333333333,4,3,6,100,0,0
31918,-83.3333333333333,4,3,8,100,0,0
32068,-83.3333333333333,4,3,6,100,0,0
32218,-83.3333333333333,4,3,8,100,0,0
32668,-83.3333333333333,4,3,4,100,0,0
33718,-83.3333333333333,4,3,6,100,0,0
37918,-83.3333333333333,4,3,4,100,0,0
38668,-125,4,3,6,100,0,0
39718,-125,4,3,8,100,0,0
39868,-125,4,1,0,100,0,0
40318,-125,4,3,6,100,0,0
40918,-125,4,3,8,100,0,0
41068,-125,4,1,0,100,0,0
41518,-125,4,3,6,100,0,0
42118,-125,4,3,8,100,0,0
42268,-125,4,1,0,100,0,0
42718,-125,4,3,6,100,0,0
43318,-125,4,3,8,100,0,0
43468,-125,4,1,0,100,0,0
43918,-125,4,3,6,100,0,0
44518,-125,4,3,4,100,0,0
45718,-125,4,3,8,100,0,0
46318,-125,4,3,6,100,0,0
46918,-125,4,3,4,100,0,0
48118,-125,4,3,8,100,0,0
48718,-125,4,3,6,100,0,0
49318,-125,4,3,4,100,0,0
51118,-125,4,3,6,100,0,0
51718,-125,4,3,4,100,0,0
53518,-125,4,3,6,100,0,0
54118,-125,4,3,4,100,0,0
55918,-125,4,3,6,100,0,0
56518,-125,4,3,4,100,0,0
58318,-125,4,3,6,100,0,0
58918,-100,4,3,8,100,0,0
59218,-100,4,3,6,100,0,0
60118,-100,4,3,8,100,0,0
60418,-100,4,3,6,100,0,0
61318,-100,4,3,8,100,0,0
61618,-100,4,3,6,100,0,0
63713,-100,4,3,8,100,0,0
64013,-100,4,3,6,100,0,0
64918,-100,4,3,8,100,0,0
65218,-100,4,3,6,100,0,0
66118,-100,4,3,8,100,0,0
66418,-100,4,3,6,100,0,0
66718,-100,4,3,8,100,0,0
66868,-100,4,3,6,100,0,0
67918,-125,4,3,6,100,0,0
68518,-100,4,3,8,100,0,0
68818,-100,4,3,6,100,0,0
69718,-100,4,3,8,100,0,0
70018,-100,4,3,6,100,0,0
70918,-100,4,3,8,100,0,0
71218,-100,4,3,6,100,0,0
73313,-100,4,3,8,100,0,0
73613,-100,4,3,6,100,0,0
74518,-100,4,3,8,100,0,0
74818,-100,4,3,6,100,0,0
75718,-100,4,3,8,100,0,0
76018,-100,4,3,6,100,0,0
76468,-100,4,3,6,100,0,0
78118,-100,4,3,4,100,0,0
78418,-250,4,3,6,100,0,0
78718,-100,4,3,4,100,0,0
79018,-100,4,3,6,100,0,0
79318,-100,4,3,8,100,0,0
79468,-100,4,1,0,100,0,0
81118,-125,4,3,6,100,0,0
81419,-125,4,1,0,100,0,0
81568,-83.3333333333333,4,1,0,100,0,0
83518,-125,4,3,6,100,0,0
83668,-125,4,1,0,100,0,0
83968,-83.3333333333333,4,3,6,100,0,0
84418,-83.3333333333333,4,1,0,100,0,0
85918,-83.3333333333333,4,3,6,100,0,0
86218,-83.3333333333333,4,1,0,100,0,0
86368,-83.3333333333333,4,3,6,100,0,0
86818,-83.3333333333333,4,3,8,100,0,0
86968,-100,4,1,0,100,0,0
87718,-100,4,3,6,100,0,0
88018,-100,4,3,7,100,0,0
88318,-100,4,3,6,100,0,0
88618,-100,4,3,7,100,0,0
88918,-100,4,3,8,100,0,0
89068,-100,4,1,0,100,0,0
90718,-125,4,3,6,100,0,0
91019,-125,4,1,0,100,0,0
91168,-83.3333333333333,4,1,0,100,0,0
93118,-125,4,3,6,100,0,0
93268,-125,4,1,0,100,0,0
93568,-83.3333333333333,4,3,6,100,0,0
94018,-83.3333333333333,4,1,0,100,0,0
95518,-83.3333333333333,4,3,6,100,0,0
95818,-83.3333333333333,4,1,0,100,0,0
95968,-83.3333333333333,4,3,6,100,0,0
96418,-83.3333333333333,4,3,8,100,0,0
96568,-100,4,1,0,100,0,0
97318,-100,4,3,4,100,0,0
97618,-250,4,3,6,100,0,0
97918,-100,4,3,4,100,0,0
98218,-100,4,3,6,100,0,0
98518,-100,4,3,8,100,0,0
101518,-100,4,3,5,5,0,0

[HitObjects]
101,158,118,5,0,0:0:0:0:
276,236,268,1,0,0:0:0:0:
253,65,418,2,0,L|292:40,1,40
158,294,718,1,0,0:0:0:0:
347,201,868,1,0,0:0:0:0:
160,192,1018,5,0,0:0:0:0:
110,167,1093,1,0,0:0:0:0:
89,115,1168,1,0,0:0:0:0:
104,62,1243,1,0,0:0:0:0:
154,41,1318,5,0,0:0:0:0:
238,209,1468,1,0,0:0:0:0:
248,85,1618,5,0,0:0:0:0:
165,313,1768,1,0,0:0:0:0:
168,104,1918,5,0,0:0:0:0:
269,270,2068,1,0,0:0:0:0:
359,72,2218,5,0,0:0:0:0:
218,321,2368,1,0,0:0:0:0:
389,150,2518,5,4,0:0:0:0:
113,151,2668,1,0,0:0:0:0:
404,268,2818,5,0,0:0:0:0:
229,74,2968,1,0,0:0:0:0:
91,232,3118,2,8,B|148:169|156:281|242:207,1,160
427,186,3568,2,8,P|402:110|411:209,1,359.999989013672
257,305,4168,1,0,0:0:0:0:
122,216,4318,5,0,0:0:0:0:
276,149,4468,1,0,0:0:0:0:
143,315,4618,5,0,0:0:0:0:
171,61,4768,1,0,0:0:0:0:
359,161,4918,5,4,0:0:0:0:
116,267,5068,1,0,0:0:0:0:
249,79,5218,5,0,0:0:0:0:
261,323,5368,1,0,0:0:0:0:
76,141,5518,2,8,B|100:110|116:168|154:132,1,80
340,96,5818,1,0,0:0:0:0:
261,323,5968,2,8,B|250:280|241:256|197:217|151:186|92:186|40:233|50:266|72:300|113:315|146:306|167:300,1,359.999989013672
316,201,6568,1,0,0:0:0:0:
114,199,6718,5,0,0:0:0:0:
307,93,6868,1,0,0:0:0:0:
235,286,7018,5,0,0:0:0:0:
202,63,7168,1,0,0:0:0:0:
407,234,7318,5,4,0:0:0:0:
69,123,7468,1,0,0:0:0:0:
408,58,7618,5,0,0:0:0:0:
181,281,7768,1,0,0:0:0:0:
407,234,7918,6,8,B|433:174|354:153|290:210|310:270|362:290|388:317|297:355,1,239.999992675781
85,267,8368,2,8,B|98:259|103:251|109:231|112:213|103:200|84:189|75:185|61:184|49:186|50:182|50:182|78:173|139:73|145:57|153:31|172:21|206:32|218:60|187:77,1,359.999989013672
106,119,9718,6,0,B|114:108|113:105|124:90|142:76|157:76|177:76|179:76|179:76|156:121|173:185,1,200
414,319,10318,2,0,B|422:318|429:316|438:302|441:285|427:272|420:269|415:267|410:267|410:267|378:289|320:277|320:277|325:258|308:247,1,200
87,82,10918,6,0,B|182:169|225:-144|249:162|307:29|291:56,1,200
144,274,11518,6,0,P|83:305|78:302,1,50
232,87,11668,2,0,P|298:57|312:57,1,50
222,282,11818,6,0,P|261:316|268:321,1,50
180,103,11968,2,0,P|156:92|135:67,1,50
393,94,12118,6,0,L|384:156,1,50
112,292,12268,2,0,L|123:226,1,50
404,287,12418,6,0,P|371:253|367:241,1,50
120,71,12568,2,0,P|113:119|114:130,1,50
288,261,12718,2,0,B|379:273|335:178|413:169,1,160
152,121,13168,2,0,P|110:225|158:130,1,359.999989013672
316,99,13918,6,0,L|391:90,1,59.9999981689454
180,321,14068,2,0,L|105:330,1,59.9999981689454
131,101,14218,6,0,P|142:174|144:185,1,59.9999981689454
355,277,14368,2,0,P|372:207|371:204,1,59.9999981689454
181,322,14518,6,0,P|122:325|109:333,1,59.9999981689454
348,129,14668,2,0,P|404:76|413:75,1,59.9999981689454
133,190,14818,6,0,B|99:191|86:192|86:192|105:174|110:173,1,59.9999981689454
383,268,14968,2,0,B|408:267|421:266|421:266|402:284|411:275,1,59.9999981689454
306,75,15118,2,0,B|298:108|303:135|303:135|312:119|315:107,1,80
154,183,15418,1,0,0:0:0:0:
298,345,15568,2,0,B|298:325|308:310|317:290|321:274|321:274|322:253|322:253|332:239|332:239|334:212|334:212|337:202|341:192|348:186|359:179|373:173|389:174|404:178|418:182|430:193|435:204|432:220|425:238|417:247|409:253|402:257|398:258|388:261|384:259|377:258|367:255|364:253|357:249|351:242|351:240,1,359.999989013672
98,112,16318,6,0,L|72:170,1,59.9999981689454
351,241,16468,2,0,L|377:183,1,59.9999981689454
296,70,16618,6,0,P|258:119|242:133,1,59.9999981689454
216,314,16768,2,0,P|254:265|270:251,1,59.9999981689454
152,149,16918,6,0,L|119:204,1,59.9999981689454
287,103,17068,2,0,L|365:94,1,59.9999981689454
313,281,17218,6,0,P|271:330|257:335,1,59.9999981689454
178,71,17368,2,0,P|248:52|253:52,1,59.9999981689454
116,301,17518,6,0,B|120:307|119:311|118:329|107:341|94:341|74:335|60:326|53:307|55:281|64:258|72:250|80:242|95:236|118:232|133:225|140:220|147:210|149:198|149:185|141:178|140:178,1,239.999992675781
244,83,17968,2,0,B|251:91|256:94|263:97|265:97|275:94|287:85|298:74|308:66|324:63|337:65|347:70|357:76|365:81|384:80|384:80|367:88|347:103|340:121|345:133|353:141|368:145|384:147|395:151|400:165|399:174|392:185|386:194|385:210|388:216|388:216|399:204|429:203,1,359.999989013672
89,125,20518,5,0,0:0:0:0:
291,189,20668,1,0,0:0:0:0:
252,71,20818,5,0,0:0:0:0:
122,254,20968,1,0,0:0:0:0:
349,332,21118,6,0,P|358:301|358:205,1,119.999996337891
212,132,21418,1,0,0:0:0:0:
349,332,21568,6,0,P|358:301|358:205,1,119.999996337891
168,261,21868,1,0,0:0:0:0:
349,332,22018,6,0,P|358:301|358:205,1,119.999996337891
163,52,22318,2,0,P|154:83|154:179,1,119.999996337891
349,332,22618,2,0,P|358:301|358:205,1,119.999996337891
69,132,23068,1,0,0:0:0:0:
67,102,23968,5,0,0:0:0:0:
262,207,24118,1,0,0:0:0:0:
140,292,24268,5,0,0:0:0:0:
243,103,24418,1,0,0:0:0:0:
335,299,24568,5,0,0:0:0:0:
101,85,24718,2,0,B|113:96|133:108|147:115|165:117|202:117|228:106|236:76|218:44|179:41|148:65|139:103|159:134|186:141|206:161|191:201|157:187,1,239.999992675781
243,103,25168,2,0,B|241:136|239:139|230:150|212:159|205:161|205:161|233:161|245:196|210:242|201:266|232:290|314:275|327:221|288:216,1,239.999992675781
215,112,26518,5,0,0:0:0:0:
169,284,26668,1,0,0:0:0:0:
304,218,26818,5,0,0:0:0:0:
80,206,26968,1,0,0:0:0:0:
215,112,27118,6,0,P|256:133|325:105,1,119.999996337891
215,112,27418,2,0,P|256:133|325:105,1,119.999996337891
256,262,27868,1,0,0:0:0:0:
210,96,28318,5,0,0:0:0:0:
194,237,28468,1,0,0:0:0:0:
323,123,28618,5,0,0:0:0:0:
293,303,28768,1,0,0:0:0:0:
117,303,28918,5,0,0:0:0:0:
329,194,29068,1,0,0:0:0:0:
105,144,29218,5,0,0:0:0:0:
364,295,29368,1,0,0:0:0:0:
378,116,29818,2,0,P|322:153|261:161,1,119.999996337891
109,95,30118,5,0,0:0:0:0:
95,287,30268,1,0,0:0:0:0:
237,119,30418,5,0,0:0:0:0:
368,281,30568,1,0,0:0:0:0:
73,153,30718,6,0,B|80:149|83:143|90:141|93:139|104:143|111:148|121:162|136:168|164:152|164:134|150:125|163:110|124:114,1,119.999996337891
260,235,31018,1,0,0:0:0:0:
319,65,31168,6,0,P|350:134|396:157,1,119.999996337891
260,235,31468,1,0,0:0:0:0:
147,283,31618,6,0,B|142:288|129:296|118:301|103:299|94:273|94:273|110:260|100:210,1,119.999996337891
260,235,31918,2,0,B|256:222|253:199|258:180|262:163|268:148|288:135|302:133|318:133,2,119.999996337891
161,149,32368,2,0,P|144:81|73:172,1,239.999992675781
312,162,33568,5,0,0:0:0:0:
229,285,33718,1,0,0:0:0:0:
190,107,33868,1,0,0:0:0:0:
118,318,34018,5,0,0:0:0:0:
295,156,34168,1,0,0:0:0:0:
133,120,34318,2,0,B|145:125|147:126|166:132|176:123|198:103|212:81|235:74|235:74|205:74|158:61|132:56|100:67,1,239.999992675781
393,233,34768,2,0,B|391:228|385:225|383:219|380:204|384:187|385:165|370:153|356:150|343:150|321:166|321:166|309:143|298:132|293:119|295:104|300:85|304:68|315:59|319:65,1,239.999992675781
171,112,36118,2,0,B|163:114|155:116|149:125|146:150|155:159|156:159|156:159|133:172|113:174|89:166|68:187,1,119.999996337891
305,261,36418,2,0,B|316:261|325:255|330:236|320:205|306:207|323:210|323:210|354:199|397:175|417:190,1,119.999996337891
213,62,36718,5,0,0:0:0:0:
162,269,36868,1,0,0:0:0:0:
273,130,37018,5,0,0:0:0:0:
363,266,37168,1,0,0:0:0:0:
105,198,37468,2,0,B|177:212|190:205|194:202|205:187|209:169|208:147|202:141|184:132|178:137|178:137|147:135|117:130|112:88|126:68|145:56|157:61|168:72|181:84|214:82|237:73|246:68,1,359.999989013672
179,107,38668,5,0,0:0:0:0:
233,296,38818,1,0,0:0:0:0:
343,127,38968,1,0,0:0:0:0:
123,293,39118,1,0,0:0:0:0:
101,90,39268,1,0,0:0:0:0:
293,149,39418,1,0,0:0:0:0:
170,282,39568,1,0,0:0:0:0:
100,127,39718,5,0,0:0:0:0:
332,245,39868,1,0,0:0:0:0:
319,202,39943,1,0,0:0:0:0:
142,107,40168,1,0,0:0:0:0:
166,272,40318,1,0,0:0:0:0:
211,79,40468,1,0,0:0:0:0:
89,323,40618,1,0,0:0:0:0:
263,144,40768,1,0,0:0:0:0:
75,132,40918,5,0,0:0:0:0:
241,243,41068,1,0,0:0:0:0:
277,218,41143,1,0,0:0:0:0:
282,105,41368,1,0,0:0:0:0:
60,187,41518,1,0,0:0:0:0:
360,208,41668,1,0,0:0:0:0:
93,334,41818,1,0,0:0:0:0:
198,119,41968,1,0,0:0:0:0:
194,289,42118,6,0,P|247:298|282:292,1,80
313,279,42343,1,0,0:0:0:0:
163,224,42568,1,0,0:0:0:0:
304,99,42718,1,0,0:0:0:0:
454,246,42868,1,0,0:0:0:0:
196,87,43018,1,0,0:0:0:0:
302,286,43168,1,0,0:0:0:0:
128,119,43318,6,0,P|174:139|236:139,1,80
247,144,43543,1,0,0:0:0:0:
276,274,43918,5,0,0:0:0:0:
264,49,44068,1,0,0:0:0:0:
200,316,44218,1,0,0:0:0:0:
354,105,44368,1,0,0:0:0:0:
136,233,44518,5,0,0:0:0:0:
187,60,44668,1,0,0:0:0:0:
257,333,44818,5,0,0:0:0:0:
290,108,44968,1,0,0:0:0:0:
367,193,45118,5,0,0:0:0:0:
171,223,45268,1,0,0:0:0:0:
323,136,45418,5,0,0:0:0:0:
87,111,45568,1,0,0:0:0:0:
174,320,45718,2,0,P|203:256|293:229,1,160
160,132,46318,5,0,0:0:0:0:
264,293,46468,1,0,0:0:0:0:
298,105,46618,1,0,0:0:0:0:
107,346,46768,1,0,0:0:0:0:
391,188,46918,5,0,0:0:0:0:
261,290,47068,1,0,0:0:0:0:
286,156,47218,5,0,0:0:0:0:
183,339,47368,1,0,0:0:0:0:
200,105,47518,5,0,0:0:0:0:
69,289,47668,1,0,0:0:0:0:
229,334,47818,5,0,0:0:0:0:
331,210,47968,1,0,0:0:0:0:
92,110,48118,2,0,B|104:115|112:115|123:115|142:103|142:102|142:102|149:121|167:126|182:116|183:115|183:115|176:141|180:154|202:166,1,160
111,134,48718,5,0,0:0:0:0:
280,130,48868,1,0,0:0:0:0:
144,297,49018,1,0,0:0:0:0:
378,225,49168,1,0,0:0:0:0:
131,129,49318,5,0,0:0:0:0:
233,221,49468,1,0,0:0:0:0:
249,69,49618,5,0,0:0:0:0:
174,299,49768,1,0,0:0:0:0:
344,176,49918,5,0,0:0:0:0:
109,171,50068,1,0,0:0:0:0:
336,284,50218,5,0,0:0:0:0:
271,119,50368,1,0,0:0:0:0:
142,223,50518,6,0,P|120:177|118:66,2,160
174,252,51193,1,0,0:0:0:0:
352,110,51343,1,0,0:0:0:0:
311,127,51418,1,0,0:0:0:0:
98,200,51568,1,0,0:0:0:0:
251,312,51718,5,0,0:0:0:0:
278,203,51868,1,0,0:0:0:0:
393,313,52018,5,0,0:0:0:0:
316,172,52168,1,0,0:0:0:0:
478,219,52318,5,0,0:0:0:0:
235,60,52468,1,0,0:0:0:0:
113,159,52618,5,0,0:0:0:0:
296,244,52768,1,0,0:0:0:0:
205,312,52918,6,0,B|200:305|204:293|198:271|184:263|158:254|158:254|158:251|158:236|148:227|133:222|108:216|99:201|99:181,2,160
296,230,53668,1,0,0:0:0:0:
287,94,53818,1,0,0:0:0:0:
169,27,53968,1,0,0:0:0:0:
94,159,54118,2,0,P|100:226|106:248,1,80
213,325,54418,5,0,0:0:0:0:
189,175,54568,1,0,0:0:0:0:
325,281,54718,5,0,0:0:0:0:
271,125,54868,1,0,0:0:0:0:
139,277,55018,5,0,0:0:0:0:
311,194,55318,2,0,B|317:187|318:176|320:172|336:166|336:166|339:146|339:146|364:156|364:156|365:145|372:136|382:130|396:125|402:116|413:95,2,160
242,275,56068,1,0,0:0:0:0:
140,336,56218,1,0,0:0:0:0:
50,253,56368,1,0,0:0:0:0:
205,134,56518,6,0,B|167:118|133:121|114:130|98:133|76:116|76:116|84:110|100:96,2,160
288,151,57268,1,0,0:0:0:0:
375,187,57418,1,0,0:0:0:0:
263,250,57568,2,0,B|239:285|216:296|207:297|207:297|198:282|196:259|196:259|188:272|147:281,1,160
131,159,58018,2,0,L|150:63,1,80
262,145,58318,6,0,P|313:120|407:186,1,160
324,207,58768,1,0,0:0:0:0:
399,244,58918,2,0,P|377:272|240:229,1,200
153,106,59518,5,0,0:0:0:0:
164,268,59668,1,0,0:0:0:0:
247,96,59818,5,0,0:0:0:0:
75,312,59968,1,0,0:0:0:0:
316,187,60118,2,0,B|251:210|180:181|180:181|169:212|178:259,1,200
355,295,60718,5,0,0:0:0:0:
175,240,60868,1,0,0:0:0:0:
349,125,61018,5,0,0:0:0:0:
212,329,61168,1,0,0:0:0:0:
60,165,61318,2,0,B|77:165|113:143|113:143|114:152|114:152|116:138|116:138|116:150|116:150|118:142|118:142|133:142|164:125|192:110|220:116,1,200
338,112,61768,1,0,0:0:0:0:
393,256,61918,6,0,B|336:318|248:262|193:351,1,200
280,199,62368,1,0,0:0:0:0:
188,154,62518,2,0,B|187:143|189:134|191:118|198:103|206:94|222:86|225:85|241:84|253:86|267:94|276:105|281:126|282:131|282:131|292:114|324:102,1,200
401,206,63118,5,0,0:0:0:0:
218,335,63268,1,0,0:0:0:0:
180,159,63418,5,0,0:0:0:0:
382,325,63568,1,0,0:0:0:0:
313,118,63718,6,0,B|301:116|292:121|281:130|271:141|271:161|278:174|298:181|316:176|316:176|316:204|322:220|333:236|349:241|371:241|384:233,1,200
127,170,64318,5,0,0:0:0:0:
251,226,64468,1,0,0:0:0:0:
172,94,64618,5,0,0:0:0:0:
179,297,64768,1,0,0:0:0:0:
277,196,64918,2,0,B|282:192|289:176|286:160|286:160|300:157|314:154|324:143|328:134|328:134|318:131|302:124|284:106|281:82|281:82|269:108|233:93,1,200
128,168,65518,5,0,0:0:0:0:
152,299,65668,1,0,0:0:0:0:
184,91,65818,5,0,0:0:0:0:
257,330,65968,1,0,0:0:0:0:
280,201,66118,2,0,B|378:166|403:175|403:175|378:165|342:172|322:152|320:139,1,200
214,127,66568,1,0,0:0:0:0:
83,121,66718,2,0,P|80:194|89:229,1,100
184,319,67018,2,0,P|196:251|193:205,1,100
293,72,67318,2,0,P|307:130|444:161,1,200
316,273,67768,5,0,0:0:0:0:
140,273,67918,2,0,P|153:212|119:114,1,160
256,61,68368,1,0,0:0:0:0:
315,188,68518,6,0,B|272:212|224:211|224:211|220:205|220:205|220:215|220:215|214:212|214:212|179:212|126:195,2,200
408,99,69268,1,0,0:0:0:0:
278,108,69418,1,0,0:0:0:0:
147,93,69568,1,0,0:0:0:0:
242,202,69718,6,0,B|218:200|185:204|158:234|158:234|153:226|153:226|151:239|151:239|146:235|146:235|132:254|66:264,2,200
352,197,70468,1,0,0:0:0:0:
465,151,70618,1,0,0:0:0:0:
336,92,70768,1,0,0:0:0:0:
184,129,70918,6,0,B|125:134|125:134|122:129|122:129|121:132|121:132|108:137|66:138,2,100
344,117,71368,1,0,0:0:0:0:
258,231,71518,6,0,B|244:285|244:285|237:287|237:287|240:292|240:292|226:336,2,100
286,72,71968,1,0,0:0:0:0:
151,128,72118,2,0,B|142:134|133:138|118:154|110:172|110:173|110:173|110:179|110:179|107:180|107:180|99:190|92:201|88:216|85:241|85:241|90:240|90:240|84:243|84:243|86:244|86:244|92:276|114:301,2,200
253,90,72868,1,0,0:0:0:0:
359,81,73018,1,0,0:0:0:0:
447,142,73168,1,0,0:0:0:0:
337,226,73318,6,0,B|296:254|296:254|247:273|247:273|197:274|197:274|146:261|146:261,2,200
427,124,74068,1,0,0:0:0:0:
296,128,74218,1,0,0:0:0:0:
178,115,74368,1,0,0:0:0:0:
76,65,74518,6,0,P|57:135|93:275,2,200
178,115,75268,1,0,0:0:0:0:
296,128,75418,1,0,0:0:0:0:
427,124,75568,1,0,0:0:0:0:
316,272,75718,2,0,P|258:309|127:284,1,200
133,289,76168,1,0,0:0:0:0:
196,122,76468,5,0,0:0:0:0:
238,258,76618,1,0,0:0:0:0:
133,289,76768,1,0,0:0:0:0:
161,156,76918,6,0,B|168:141|183:125|207:110|207:110|210:105|210:105|215:118|215:118|216:107|216:107|223:100|245:95|265:72|269:58|269:58|270:59|270:59|271:54|271:54|272:39|269:25,2,200
373,264,77818,1,0,0:0:0:0:
276,247,78118,6,0,P|188:261|169:257,1,100
184,83,78418,1,0,0:0:0:0:
178,259,78568,1,0,0:0:0:0:
379,97,78718,6,0,P|329:124|276:127,1,100
75,114,79018,1,0,0:0:0:0:
124,137,79093,1,0,0:0:0:0:
171,165,79168,1,0,0:0:0:0:
222,184,79243,1,0,0:0:0:0:
269,212,79318,6,0,P|329:252|362:263,1,100
389,81,79618,2,0,P|332:105|283:103,1,100
164,114,79918,5,0,0:0:0:0:
134,272,80068,1,0,0:0:0:0:
142,30,80218,5,0,0:0:0:0:
188,320,80368,1,0,0:0:0:0:
342,174,80518,5,0,0:0:0:0:
158,280,80668,1,0,0:0:0:0:
236,85,80818,5,0,0:0:0:0:
258,319,80968,1,0,0:0:0:0:
140,254,81118,2,8,P|120:202|136:94,1,160
284,195,81568,2,8,B|284:193|277:184|276:170|276:144|280:127|293:112|313:96|338:91|376:101|396:123|399:152|391:179|379:199|369:222|367:247|402:308|448:305,1,359.999989013672
188,194,82318,5,0,0:0:0:0:
306,165,82468,1,0,0:0:0:0:
173,270,82618,5,0,0:0:0:0:
299,85,82768,1,0,0:0:0:0:
248,272,82918,5,0,0:0:0:0:
180,74,83068,1,0,0:0:0:0:
331,336,83218,5,0,0:0:0:0:
267,144,83368,1,0,0:0:0:0:
140,89,83518,2,8,B|124:80|116:68|98:74|84:96|87:129|107:155|132:190|127:216|105:219,1,160
304,289,83968,2,8,B|308:270|308:270|302:248|302:248|307:226|307:226|300:209|300:209|299:207|299:202|304:188|312:176|324:168|338:165|366:165|387:171|402:184|404:205|396:232|387:261|378:296|375:324|402:334|445:310,1,359.999989013672
212,87,84718,5,0,0:0:0:0:
161,227,84868,1,0,0:0:0:0:
281,105,85018,5,0,0:0:0:0:
246,297,85168,1,0,0:0:0:0:
197,152,85318,5,0,0:0:0:0:
354,223,85468,1,0,0:0:0:0:
262,261,85618,5,0,0:0:0:0:
406,304,85768,1,0,0:0:0:0:
254,315,85918,2,8,B|235:292|235:292|224:262|224:262|222:228|222:228|229:204|229:204|240:167|240:167|213:183|208:183|179:188|179:188|136:182|136:182|123:172,1,239.999992675781
393,96,86368,2,8,B|389:128|379:143|370:151|360:159|350:169|342:185|338:209|346:232|360:260|413:275|442:268|464:255|464:219|460:200|458:183|449:175|444:171|437:168|428:166|420:166|388:174|369:176|349:176|336:168,1,359.999989013672
66,158,87718,6,0,B|77:186|77:186|75:212|75:213|92:213|92:213|102:213|139:200|153:175|151:147|128:133|95:139,1,200
328,95,88318,2,0,B|344:90|344:90|366:78|375:77|411:71|411:71|390:98|383:114|389:137|393:188|388:199,1,200
160,90,88918,1,0,0:0:0:0:
312,264,89218,1,0,0:0:0:0:
141,252,89518,6,0,L|138:309,1,50
109,129,89668,2,0,L|106:72,1,50
248,154,89818,6,0,P|289:120|306:115,1,50
356,255,89968,2,0,P|396:290|416:294,1,50
200,274,90118,6,0,P|147:305|138:307,1,50
248,154,90268,2,0,L|292:87,1,50
138,86,90418,6,0,P|108:144|105:157,1,50
249,277,90568,2,0,B|199:276|183:271|178:269,1,50
213,119,90718,2,0,B|235:112|235:112|261:123|261:123|282:114|301:109|337:113|358:139|327:169|320:181,1,160
169,288,91168,2,0,B|162:268|158:258|159:241|169:224|193:212|193:212|166:218|147:219|136:216|124:206|115:187|116:169|126:137|127:132|115:116|102:117|102:117|112:105|114:87|100:63|82:61|58:70|43:51,1,359.999989013672
288,90,91918,6,0,P|353:99|364:98,1,59.9999981689454
333,209,92068,2,0,P|398:218|409:217,1,59.9999981689454
224,294,92218,6,0,P|159:285|148:286,1,59.9999981689454
179,175,92368,2,0,P|114:166|103:167,1,59.9999981689454
256,134,92518,6,0,P|254:107|256:67,1,59.9999981689454
256,250,92668,2,0,P|258:277|256:317,1,59.9999981689454
111,311,92818,6,0,P|166:284|176:281,1,59.9999981689454
391,218,92968,6,0,P|336:245|326:248,1,59.9999981689454
89,148,93118,2,0,B|102:154|102:154|118:144|118:144|127:152|127:152|147:144|147:144|160:154|160:154|171:142|171:142|171:140|153:128|152:114|162:97|182:80,1,160
321,102,93568,6,0,P|384:157|313:103,1,359.999989013672
191,87,94318,6,0,L|127:116,1,59.9999981689454
246,249,94468,2,0,L|310:220,1,59.9999981689454
147,133,94618,6,0,L|106:190,1,59.9999981689454
275,246,94768,2,0,L|316:189,1,59.9999981689454
132,195,94918,6,0,L|125:265,1,59.9999981689454
300,229,95068,2,0,L|307:159,1,59.9999981689454
151,257,95218,6,0,L|180:321,1,59.9999981689454
313,202,95368,2,0,L|284:138,1,59.9999981689454
129,79,95518,2,0,B|133:177|64:202|64:202|96:198|119:217|147:234,1,239.999992675781
333,103,95968,2,0,B|301:178|311:203|323:216|323:216|354:203|354:203|371:226|371:226|347:256|347:281|369:304|369:304|351:290|294:298|257:320,1,359.999989013672
150,116,97318,5,0,0:0:0:0:
220,300,97468,1,0,0:0:0:0:
382,152,97618,2,0,P|336:175|308:178,1,80
140,166,98068,1,0,0:0:0:0:
250,301,98218,6,0,P|309:314|429:243,1,200
140,166,98818,5,0,0:0:0:0:
256,192,98893,12,0,101518,0:0:0:0:
