osu file format v14

[General]
AudioFilename: xi - Parousia (Long Version).mp3
AudioLeadIn: 0
PreviewTime: 163869
Countdown: 1
SampleSet: None
StackLeniency: 0.7
Mode: 3
LetterboxInBreaks: 1
SpecialStyle: 0
WidescreenStoryboard: 1

[Editor]
DistanceSpacing: 0.8
BeatDivisor: 4
GridSize: 8
TimelineZoom: 1.7

[Metadata]
Title:5K Madness Volume II
TitleUnicode:5K Madness Volume II
Artist:Various
ArtistUnicode:Various
Creator:JamesHappy
Version:xi - Parousia
Source:
Tags:
BeatmapID:876695
BeatmapSetID:403078

[Difficulty]
HPDrainRate:5
CircleSize:5
OverallDifficulty:7
ApproachRate:5
SliderMultiplier:1.4
SliderTickRate:1

[Events]
//Background and Video events
0,0,"MM.jpg",0,0
//Break Periods
//Storyboard Layer 0 (Background)
//Storyboard Layer 1 (Fail)
//Storyboard Layer 2 (Pass)
//Storyboard Layer 3 (Foreground)
//Storyboard Sound Samples

[TimingPoints]
1075,810.810810810811,4,1,0,20,1,0
1075,-67.1140939597315,4,1,0,20,0,0
10804,1071.42857142857,4,1,0,20,1,0
10804,-50.6329113924051,4,1,0,20,0,0
15089,705.882352941176,4,1,0,20,1,0
15089,-76.9230769230769,4,1,0,20,0,0
17912,714.285714285714,4,1,0,20,1,0
17912,-75.7575757575758,4,1,0,20,0,0
20769,705.882352941176,4,1,0,20,1,0
20769,-76.9230769230769,4,1,0,20,0,0
23592,681.818181818182,4,1,0,20,1,0
23592,-79.3650793650794,4,1,0,20,0,0
24955,631.578947368421,4,1,0,20,1,0
24955,-86.2068965517241,4,1,0,20,0,0
26218,659.340659340659,4,1,0,20,1,0
26218,-81.9672131147541,4,1,0,20,0,0
28855,640,4,1,0,20,1,0
28855,-84.7457627118644,4,1,0,20,0,0
31415,550.45871559633,4,1,0,20,1,0
31415,-99.009900990099,4,1,0,20,0,0
33616,625,4,1,0,20,1,0
33616,-86.9565217391304,4,1,0,20,0,0
35491,645.161290322581,4,1,0,20,1,0
35491,-84.0336134453781,4,1,0,20,0,0
36136,659.340659340659,4,1,0,20,1,0
36136,-81.9672131147541,4,1,0,20,0,0
38773,701.754385964912,4,1,0,20,1,0
38773,-77.5193798449612,4,1,0,20,0,0
41580,655.737704918033,4,1,0,20,1,0
41580,-83.3333333333333,4,1,0,20,0,0
44202,628.272251308901,4,1,0,20,1,0
44202,-86.2068965517241,4,1,0,20,0,0
45458,618.556701030928,4,1,0,20,1,0
45458,-87.719298245614,4,1,0,20,0,0
46695,607.594936708861,4,1,0,20,1,0
46695,-89.2857142857143,4,1,0,20,0,0
49125,588.235294117647,4,1,0,20,1,0
49125,-92.5925925925926,4,1,0,20,0,0
52653,542.986425339367,4,1,0,20,1,0
52653,-99.9100809271656,4,1,0,20,0,0
53738,600,4,1,0,20,1,0
53738,-90.4159132007233,4,1,0,20,0,0
54938,588.235294117647,4,1,0,20,1,0
54938,-129.11555842479,4,1,0,20,0,0
55526,-84.7457627118644,4,1,0,20,0,0
56114,-73.5294117647059,4,1,0,20,0,0
56702,588.235294117647,4,1,0,20,1,0
56702,-64.5577792123951,4,1,0,20,0,0
56898,550.45871559633,4,1,0,20,1,0
56898,-68.9893066574681,4,1,0,20,0,0
57448,454.545454545455,4,1,0,20,1,0
57448,-83.5491686857716,4,1,0,20,0,0
57599,504.201680672269,4,1,0,20,1,0
57599,-75.3182194772915,4,1,0,20,0,0
58103,422.535211267606,4,1,0,20,1,0
58103,-89.8795613877404,4,1,0,20,0,0
58948,379.746835443038,4,1,0,20,1,0
58948,-100,4,1,0,20,0,0
59707,400,4,1,0,20,1,0
59707,-94.9397132820659,4,1,0,20,0,0
60507,466.926070038911,4,1,0,20,1,0
60507,-81.3338755591704,4,1,0,20,0,0
60973,585.365853658537,4,1,0,20,1,0
60973,-64.8760866744518,4,1,0,20,0,0
62143,379.746835443038,4,1,0,20,1,0
62143,-125,4,1,0,20,0,0
74294,-111.111111111111,4,1,0,20,0,0
80370,-100,4,1,0,20,0,0
136573,-105.263157894737,4,1,0,20,0,0
137332,-111.111111111111,4,1,0,20,0,0
138092,-117.647058823529,4,1,0,20,0,0
142630,379.746835443038,4,1,0,20,1,0
142630,-117.647058823529,4,1,0,20,0,0
146390,379.746835443038,4,1,0,20,1,0
146390,-117.647058823529,4,1,0,20,0,0
147149,379.746835443038,4,1,0,20,1,0
147149,-117.647058823529,4,1,0,20,0,0
149440,379.746835443038,4,1,0,20,1,0
149440,-111.111111111111,4,1,0,20,0,0
149819,-105.263157894737,4,1,0,20,0,0
150199,379.746835443038,4,1,0,20,1,0
150199,-100,4,1,0,20,0,0
160831,-117.647058823529,4,1,0,20,0,0
164249,-113.636363636364,4,1,0,20,0,0
164629,-108.695652173913,4,1,0,20,0,0
165009,-104.166666666667,4,1,0,20,0,0
165388,-100,4,1,0,20,0,1
173743,-133.333333333333,4,1,0,20,0,1
173869,-66.6666666666667,4,1,0,20,0,1
173996,-133.333333333333,4,1,0,20,0,1
174123,-66.6666666666667,4,1,0,20,0,1
174249,-133.333333333333,4,1,0,20,0,1
174376,-66.6666666666667,4,1,0,20,0,1
174502,-100,4,1,0,20,0,1
182097,-133.333333333333,4,1,0,20,0,1
182224,-66.6666666666667,4,1,0,20,0,1
182350,-133.333333333333,4,1,0,20,0,1
182477,-66.6666666666667,4,1,0,20,0,1
182604,-133.333333333333,4,1,0,20,0,1
182730,-66.6666666666667,4,1,0,20,0,1
182857,-133.333333333333,4,1,0,20,0,1
182983,-66.6666666666667,4,1,0,20,0,1
183110,-133.333333333333,4,1,0,20,0,1
183236,-66.6666666666667,4,1,0,20,0,1
183363,-133.333333333333,4,1,0,20,0,1
183490,-66.6666666666667,4,1,0,20,0,1
183616,-100,4,1,0,20,0,1
188173,-117.647058823529,4,1,0,20,0,1
188553,-113.636363636364,4,1,0,20,0,1
188933,-108.695652173913,4,1,0,20,0,1
189312,-104.166666666667,4,1,0,20,0,1
189692,-100,4,1,0,20,0,1
198047,-133.333333333333,4,1,0,20,0,1
198173,-66.6666666666667,4,1,0,20,0,1
198300,-133.333333333333,4,1,0,20,0,1
198426,-66.6666666666667,4,1,0,20,0,1
198553,-133.333333333333,4,1,0,20,0,1
198680,-66.6666666666667,4,1,0,20,0,1
198806,-100,4,1,0,20,0,1
206401,-133.333333333333,4,1,0,20,0,1
206528,-66.6666666666667,4,1,0,20,0,1
206654,-133.333333333333,4,1,0,20,0,1
206781,-66.6666666666667,4,1,0,20,0,1
206907,-133.333333333333,4,1,0,20,0,1
207034,-66.6666666666667,4,1,0,20,0,1
207161,-133.333333333333,4,1,0,20,0,1
207287,-66.6666666666667,4,1,0,20,0,1
207414,-133.333333333333,4,1,0,20,0,1
207540,-66.6666666666667,4,1,0,20,0,1
207667,-133.333333333333,4,1,0,20,0,1
207793,-66.6666666666667,4,1,0,20,0,1
207920,-100,4,1,0,20,0,1
213996,-100,4,1,0,20,0,0
239819,784.313725490196,4,1,0,20,1,0
239819,-60.6060606060606,4,1,0,20,0,0
241387,810.810810810811,4,1,0,20,1,0
241387,-58.4795321637427,4,1,0,20,0,0
243008,845.070422535211,4,1,0,20,1,0
243008,-56.1797752808989,4,1,0,20,0,0
245543,909.090909090909,4,1,0,20,1,0
245543,-52.0833333333333,4,1,0,20,0,0
246452,833.333333333333,4,1,0,20,1,0
246452,-56.8181818181818,4,1,0,20,0,0
249785,857.142857142857,4,1,0,20,1,0
249785,-55.2486187845304,4,1,0,20,0,0
251499,898.876404494382,4,1,0,20,1,0
251499,-52.9100529100529,4,1,0,20,0,0
253296,902.255639097744,4,1,0,20,1,0
253296,-52.6315789473684,4,1,0,20,0,0
256905,909.090909090909,4,1,0,20,1,0
256905,-52.0833333333333,4,1,0,20,0,0
260541,1008.40336134454,4,1,0,20,1,0
260541,-47.1698113207547,4,1,0,20,0,0
262557,1016.94915254237,4,1,0,20,1,0
262557,-46.7289719626168,4,1,0,20,0,0
263573,1052.63157894737,4,1,0,20,1,0
263573,-45.045045045045,4,1,0,20,0,0
264099,1395.3488372093,4,1,0,20,1,0
264099,-34.0136054421769,4,1,0,20,0,0
264796,1445.78313253012,4,1,0,20,1,0
264796,-32.7868852459016,4,1,0,20,0,0
265518,722.89156626506,4,1,0,20,1,0
265518,-65.7894736842105,4,1,0,20,0,0

[HitObjects]
460,192,1075,5,0,0:0:0:0:
460,192,4318,1,0,0:0:0:0:
460,192,7561,1,0,0:0:0:0:
460,192,10804,1,0,0:0:0:0:
51,192,15089,1,0,0:0:0:0:
256,192,15089,1,0,0:0:0:0:
153,192,17912,1,0,0:0:0:0:
358,192,17912,1,0,0:0:0:0:
256,192,20769,1,0,0:0:0:0:
460,192,20769,1,0,0:0:0:0:
153,192,23592,1,0,0:0:0:0:
358,192,23592,1,0,0:0:0:0:
51,192,24955,1,0,0:0:0:0:
51,192,26218,1,0,0:0:0:0:
256,192,26218,1,0,0:0:0:0:
153,192,28608,1,0,0:0:0:0:
256,192,28855,1,0,0:0:0:0:
460,192,28855,1,0,0:0:0:0:
358,192,28855,1,0,0:0:0:0:
358,192,31175,1,0,0:0:0:0:
256,192,31415,1,0,0:0:0:0:
153,192,31415,1,0,0:0:0:0:
51,192,31415,1,0,0:0:0:0:
51,192,32515,1,0,0:0:0:0:
153,192,32882,1,0,0:0:0:0:
256,192,33249,1,0,0:0:0:0:
358,192,33616,1,0,0:0:0:0:
51,192,33616,1,0,0:0:0:0:
460,192,33616,1,0,0:0:0:0:
460,192,34787,1,0,0:0:0:0:
358,192,34813,1,0,0:0:0:0:
256,192,34866,1,0,0:0:0:0:
51,192,35491,1,0,0:0:0:0:
358,192,35491,1,0,0:0:0:0:
153,192,35652,1,0,0:0:0:0:
256,192,35813,1,0,0:0:0:0:
358,192,35974,1,0,0:0:0:0:
460,192,36136,1,0,0:0:0:0:
153,192,36136,1,0,0:0:0:0:
51,192,36136,1,0,0:0:0:0:
153,192,38773,1,0,0:0:0:0:
256,192,38773,1,0,0:0:0:0:
358,192,38773,1,0,0:0:0:0:
51,192,41580,1,0,0:0:0:0:
256,192,41580,1,0,0:0:0:0:
460,192,41580,1,0,0:0:0:0:
256,192,44202,1,0,0:0:0:0:
358,192,44202,1,0,0:0:0:0:
460,192,44202,1,0,0:0:0:0:
153,192,45458,1,0,0:0:0:0:
51,192,45458,1,0,0:0:0:0:
256,192,46695,1,0,0:0:0:0:
358,192,46695,1,0,0:0:0:0:
153,192,46695,1,0,0:0:0:0:
51,192,48897,1,0,0:0:0:0:
256,192,48897,1,0,0:0:0:0:
153,192,49125,1,0,0:0:0:0:
358,192,49125,1,0,0:0:0:0:
460,192,49125,1,0,0:0:0:0:
256,192,51183,1,0,0:0:0:0:
460,192,51183,1,0,0:0:0:0:
51,192,51477,1,0,0:0:0:0:
153,192,51477,1,0,0:0:0:0:
358,192,51477,1,0,0:0:0:0:
460,192,52617,1,0,0:0:0:0:
51,192,52654,1,0,0:0:0:0:
153,192,53738,1,0,0:0:0:0:
256,192,53738,1,0,0:0:0:0:
358,192,53738,1,0,0:0:0:0:
460,192,54938,1,0,0:0:0:0:
460,192,56702,1,0,0:0:0:0:
358,192,56898,1,0,0:0:0:0:
256,192,57035,1,0,0:0:0:0:
153,192,57173,1,0,0:0:0:0:
51,192,57310,1,0,0:0:0:0:
256,192,57448,1,0,0:0:0:0:
460,192,57561,1,0,0:0:0:0:
358,192,57725,1,0,0:0:0:0:
153,192,57851,1,0,0:0:0:0:
256,192,57977,1,0,0:0:0:0:
460,192,58103,1,0,0:0:0:0:
358,192,58173,1,0,0:0:0:0:
153,192,58243,1,0,0:0:0:0:
358,192,58314,1,0,0:0:0:0:
153,192,58384,1,0,0:0:0:0:
256,192,58455,1,0,0:0:0:0:
358,192,58525,1,0,0:0:0:0:
460,192,58631,1,0,0:0:0:0:
256,192,58736,1,0,0:0:0:0:
51,192,58842,1,0,0:0:0:0:
153,192,58948,1,0,0:0:0:0:
256,192,59011,1,0,0:0:0:0:
358,192,59074,1,0,0:0:0:0:
460,192,59137,1,0,0:0:0:0:
51,192,59201,1,0,0:0:0:0:
153,192,59264,1,0,0:0:0:0:
256,192,59327,1,0,0:0:0:0:
358,192,59422,1,0,0:0:0:0:
460,192,59517,1,0,0:0:0:0:
51,192,59612,1,0,0:0:0:0:
460,192,59707,1,0,0:0:0:0:
358,192,59773,1,0,0:0:0:0:
256,192,59840,1,0,0:0:0:0:
153,192,59907,1,0,0:0:0:0:
51,192,59973,1,0,0:0:0:0:
153,192,60040,1,0,0:0:0:0:
256,192,60107,1,0,0:0:0:0:
460,192,60207,1,0,0:0:0:0:
256,192,60307,1,0,0:0:0:0:
51,192,60407,1,0,0:0:0:0:
358,192,60507,1,0,0:0:0:0:
153,192,60584,1,0,0:0:0:0:
358,192,60662,1,0,0:0:0:0:
256,192,60740,1,0,0:0:0:0:
51,192,60857,1,0,0:0:0:0:
153,192,60973,1,0,0:0:0:0:
460,192,60973,1,0,0:0:0:0:
256,192,61558,1,0,0:0:0:0:
51,192,62143,128,0,62902:0:0:0:0:
256,192,62143,1,0,0:0:0:0:
153,192,62143,128,0,62902:0:0:0:0:
460,192,62902,1,0,0:0:0:0:
256,192,62902,1,0,0:0:0:0:
153,192,63661,1,0,0:0:0:0:
358,192,63661,1,0,0:0:0:0:
51,192,64421,1,0,0:0:0:0:
256,192,64421,1,0,0:0:0:0:
153,192,65180,1,0,0:0:0:0:
358,192,65180,1,0,0:0:0:0:
460,192,65180,1,0,0:0:0:0:
256,192,65940,1,0,0:0:0:0:
460,192,66699,1,0,0:0:0:0:
51,192,67459,1,0,0:0:0:0:
256,192,67459,1,0,0:0:0:0:
153,192,67839,1,0,0:0:0:0:
358,192,67839,1,0,0:0:0:0:
256,192,68218,1,0,0:0:0:0:
460,192,68218,1,0,0:0:0:0:
358,192,68218,1,0,0:0:0:0:
153,192,69358,1,0,0:0:0:0:
358,192,69358,1,0,0:0:0:0:
51,192,69737,1,0,0:0:0:0:
256,192,69737,1,0,0:0:0:0:
153,192,69737,1,0,0:0:0:0:
358,192,70497,1,0,0:0:0:0:
153,192,70497,1,0,0:0:0:0:
460,192,71256,1,0,0:0:0:0:
256,192,71256,1,0,0:0:0:0:
153,192,71256,1,0,0:0:0:0:
51,192,72775,1,0,0:0:0:0:
256,192,72775,1,0,0:0:0:0:
153,192,73535,1,0,0:0:0:0:
51,192,73725,1,0,0:0:0:0:
256,192,73820,1,0,0:0:0:0:
460,192,73915,1,0,0:0:0:0:
256,192,74010,1,0,0:0:0:0:
51,192,74105,1,0,0:0:0:0:
358,192,74199,1,0,0:0:0:0:
51,192,74294,1,0,0:0:0:0:
153,192,74294,1,0,0:0:0:0:
460,192,74294,1,0,0:0:0:0:
256,192,74484,1,0,0:0:0:0:
51,192,74674,1,0,0:0:0:0:
256,192,74864,1,0,0:0:0:0:
358,192,74959,1,0,0:0:0:0:
153,192,75054,1,0,0:0:0:0:
460,192,75244,1,0,0:0:0:0:
256,192,75339,1,0,0:0:0:0:
51,192,75434,1,0,0:0:0:0:
358,192,75529,1,0,0:0:0:0:
153,192,75624,1,0,0:0:0:0:
358,192,75718,1,0,0:0:0:0:
460,192,75813,1,0,0:0:0:0:
51,192,75813,1,0,0:0:0:0:
256,192,75908,1,0,0:0:0:0:
153,192,76003,1,0,0:0:0:0:
51,192,76193,1,0,0:0:0:0:
358,192,76383,1,0,0:0:0:0:
460,192,76573,1,0,0:0:0:0:
256,192,76573,1,0,0:0:0:0:
51,192,76763,1,0,0:0:0:0:
153,192,76858,1,0,0:0:0:0:
358,192,76953,1,0,0:0:0:0:
256,192,77048,1,0,0:0:0:0:
153,192,77143,1,0,0:0:0:0:
51,192,77332,1,0,0:0:0:0:
256,192,77332,1,0,0:0:0:0:
460,192,77522,1,0,0:0:0:0:
153,192,77712,1,0,0:0:0:0:
256,192,77902,1,0,0:0:0:0:
358,192,77997,1,0,0:0:0:0:
51,192,78092,1,0,0:0:0:0:
460,192,78092,1,0,0:0:0:0:
256,192,78282,1,0,0:0:0:0:
51,192,78377,1,0,0:0:0:0:
358,192,78472,1,0,0:0:0:0:
153,192,78567,1,0,0:0:0:0:
460,192,78661,1,0,0:0:0:0:
256,192,78756,1,0,0:0:0:0:
51,192,78851,1,0,0:0:0:0:
153,192,78851,1,0,0:0:0:0:
460,192,78946,1,0,0:0:0:0:
358,192,79041,1,0,0:0:0:0:
256,192,79231,128,0,79611:0:0:0:0:
51,192,79611,128,0,79991:0:0:0:0:
358,192,79611,128,0,79991:0:0:0:0:
460,192,79991,128,0,80370:0:0:0:0:
256,192,79991,1,0,0:0:0:0:
153,192,80086,1,0,0:0:0:0:
51,192,80180,1,0,0:0:0:0:
153,192,80275,1,0,0:0:0:0:
256,192,80370,128,0,81510:0:0:0:0:
358,192,80370,128,0,81510:0:0:0:0:
51,192,80370,1,0,0:0:0:0:
460,192,80560,1,0,0:0:0:0:
153,192,80750,1,0,0:0:0:0:
460,192,80940,1,0,0:0:0:0:
153,192,81130,1,0,0:0:0:0:
460,192,81320,1,0,0:0:0:0:
153,192,81510,128,0,81889:0:0:0:0:
51,192,81510,1,0,0:0:0:0:
256,192,81699,1,0,0:0:0:0:
358,192,81889,128,0,82649:0:0:0:0:
460,192,81889,128,0,82649:0:0:0:0:
51,192,81889,1,0,0:0:0:0:
256,192,82079,1,0,0:0:0:0:
51,192,82269,1,0,0:0:0:0:
256,192,82459,1,0,0:0:0:0:
51,192,82649,1,0,0:0:0:0:
153,192,82744,128,0,83029:0:0:0:0:
256,192,82839,128,0,83029:0:0:0:0:
358,192,82934,128,0,83029:0:0:0:0:
460,192,83029,1,0,0:0:0:0:
51,192,83029,1,0,0:0:0:0:
153,192,83218,128,0,83408:0:0:0:0:
256,192,83313,128,0,83408:0:0:0:0:
460,192,83408,128,0,84548:0:0:0:0:
358,192,83408,128,0,84548:0:0:0:0:
51,192,83408,1,0,0:0:0:0:
51,192,83598,1,0,0:0:0:0:
256,192,83693,1,0,0:0:0:0:
153,192,83788,1,0,0:0:0:0:
256,192,83978,1,0,0:0:0:0:
51,192,84073,1,0,0:0:0:0:
153,192,84168,1,0,0:0:0:0:
256,192,84358,1,0,0:0:0:0:
153,192,84453,1,0,0:0:0:0:
51,192,84548,1,0,0:0:0:0:
153,192,84595,1,0,0:0:0:0:
358,192,84643,1,0,0:0:0:0:
460,192,84690,1,0,0:0:0:0:
51,192,84737,1,0,0:0:0:0:
153,192,84785,1,0,0:0:0:0:
358,192,84832,1,0,0:0:0:0:
460,192,84880,1,0,0:0:0:0:
153,192,84927,128,0,86446:0:0:0:0:
51,192,84927,128,0,86446:0:0:0:0:
256,192,84927,1,0,0:0:0:0:
256,192,85497,1,0,0:0:0:0:
358,192,85592,1,0,0:0:0:0:
460,192,85687,1,0,0:0:0:0:
358,192,85877,1,0,0:0:0:0:
256,192,85972,1,0,0:0:0:0:
460,192,86067,1,0,0:0:0:0:
358,192,86161,1,0,0:0:0:0:
256,192,86446,1,0,0:0:0:0:
460,192,86446,1,0,0:0:0:0:
358,192,86446,1,0,0:0:0:0:
51,192,86541,1,0,0:0:0:0:
256,192,86636,1,0,0:0:0:0:
153,192,86731,1,0,0:0:0:0:
358,192,86826,1,0,0:0:0:0:
256,192,86921,1,0,0:0:0:0:
358,192,87016,1,0,0:0:0:0:
460,192,87111,1,0,0:0:0:0:
51,192,87206,1,0,0:0:0:0:
256,192,87301,1,0,0:0:0:0:
153,192,87396,1,0,0:0:0:0:
358,192,87491,1,0,0:0:0:0:
256,192,87586,1,0,0:0:0:0:
153,192,87680,1,0,0:0:0:0:
460,192,87775,1,0,0:0:0:0:
358,192,87870,1,0,0:0:0:0:
153,192,87965,1,0,0:0:0:0:
358,192,88060,1,0,0:0:0:0:
153,192,88155,1,0,0:0:0:0:
51,192,88250,1,0,0:0:0:0:
358,192,88345,1,0,0:0:0:0:
153,192,88440,1,0,0:0:0:0:
358,192,88535,1,0,0:0:0:0:
460,192,88630,1,0,0:0:0:0:
51,192,88725,1,0,0:0:0:0:
153,192,88820,1,0,0:0:0:0:
256,192,88915,1,0,0:0:0:0:
51,192,89010,1,0,0:0:0:0:
153,192,89105,1,0,0:0:0:0:
460,192,89105,128,0,89294:0:0:0:0:
256,192,89199,1,0,0:0:0:0:
51,192,89294,1,0,0:0:0:0:
358,192,89294,128,0,89484:0:0:0:0:
153,192,89389,1,0,0:0:0:0:
460,192,89484,128,0,89674:0:0:0:0:
256,192,89484,128,0,89674:0:0:0:0:
51,192,89484,1,0,0:0:0:0:
153,192,89674,1,0,0:0:0:0:
51,192,89864,1,0,0:0:0:0:
256,192,90054,1,0,0:0:0:0:
358,192,90149,1,0,0:0:0:0:
153,192,90244,128,0,90370:0:0:0:0:
460,192,90244,1,0,0:0:0:0:
358,192,90370,128,0,90497:0:0:0:0:
153,192,90497,128,0,90624:0:0:0:0:
358,192,90624,128,0,90750:0:0:0:0:
153,192,90750,128,0,90877:0:0:0:0:
358,192,90877,128,0,91003:0:0:0:0:
51,192,91003,1,0,0:0:0:0:
460,192,91003,1,0,0:0:0:0:
153,192,91193,1,0,0:0:0:0:
256,192,91288,1,0,0:0:0:0:
460,192,91288,1,0,0:0:0:0:
358,192,91383,1,0,0:0:0:0:
51,192,91573,1,0,0:0:0:0:
256,192,91573,1,0,0:0:0:0:
460,192,91763,1,0,0:0:0:0:
358,192,91826,1,0,0:0:0:0:
256,192,91889,1,0,0:0:0:0:
51,192,91953,1,0,0:0:0:0:
153,192,92016,1,0,0:0:0:0:
256,192,92079,1,0,0:0:0:0:
358,192,92143,1,0,0:0:0:0:
153,192,92237,1,0,0:0:0:0:
358,192,92332,1,0,0:0:0:0:
153,192,92427,1,0,0:0:0:0:
358,192,92522,1,0,0:0:0:0:
256,192,92522,1,0,0:0:0:0:
460,192,92570,1,0,0:0:0:0:
51,192,92617,1,0,0:0:0:0:
153,192,92665,1,0,0:0:0:0:
358,192,92712,1,0,0:0:0:0:
460,192,92760,1,0,0:0:0:0:
256,192,92807,1,0,0:0:0:0:
153,192,92855,1,0,0:0:0:0:
51,192,92902,1,0,0:0:0:0:
460,192,92902,1,0,0:0:0:0:
256,192,92997,1,0,0:0:0:0:
358,192,93092,1,0,0:0:0:0:
153,192,93187,1,0,0:0:0:0:
460,192,93282,128,0,93408:0:0:0:0:
256,192,93282,1,0,0:0:0:0:
51,192,93408,128,0,93535:0:0:0:0:
460,192,93535,128,0,93661:0:0:0:0:
51,192,93661,128,0,93788:0:0:0:0:
460,192,93788,128,0,93915:0:0:0:0:
51,192,93915,128,0,94041:0:0:0:0:
153,192,94041,1,0,0:0:0:0:
358,192,94041,1,0,0:0:0:0:
256,192,94231,1,0,0:0:0:0:
460,192,94231,1,0,0:0:0:0:
51,192,94231,1,0,0:0:0:0:
358,192,94421,1,0,0:0:0:0:
153,192,94516,1,0,0:0:0:0:
256,192,94611,1,0,0:0:0:0:
460,192,94611,1,0,0:0:0:0:
51,192,94801,1,0,0:0:0:0:
358,192,94801,1,0,0:0:0:0:
153,192,94991,1,0,0:0:0:0:
256,192,94991,1,0,0:0:0:0:
460,192,94991,1,0,0:0:0:0:
51,192,95180,1,0,0:0:0:0:
358,192,95180,1,0,0:0:0:0:
256,192,95275,1,0,0:0:0:0:
153,192,95370,1,0,0:0:0:0:
460,192,95370,1,0,0:0:0:0:
358,192,95465,1,0,0:0:0:0:
256,192,95560,1,0,0:0:0:0:
51,192,95560,1,0,0:0:0:0:
153,192,95560,1,0,0:0:0:0:
358,192,95750,1,0,0:0:0:0:
51,192,95845,1,0,0:0:0:0:
153,192,95940,1,0,0:0:0:0:
460,192,95940,1,0,0:0:0:0:
358,192,96130,1,0,0:0:0:0:
256,192,96225,1,0,0:0:0:0:
153,192,96320,1,0,0:0:0:0:
51,192,96320,1,0,0:0:0:0:
460,192,96383,1,0,0:0:0:0:
358,192,96446,1,0,0:0:0:0:
256,192,96510,1,0,0:0:0:0:
153,192,96573,1,0,0:0:0:0:
51,192,96636,1,0,0:0:0:0:
358,192,96699,1,0,0:0:0:0:
460,192,96699,1,0,0:0:0:0:
153,192,96794,1,0,0:0:0:0:
358,192,96889,1,0,0:0:0:0:
153,192,96984,1,0,0:0:0:0:
256,192,97079,1,0,0:0:0:0:
460,192,97079,1,0,0:0:0:0:
358,192,97269,1,0,0:0:0:0:
256,192,97364,1,0,0:0:0:0:
51,192,97364,1,0,0:0:0:0:
153,192,97459,1,0,0:0:0:0:
256,192,97554,1,0,0:0:0:0:
358,192,97649,1,0,0:0:0:0:
51,192,97649,1,0,0:0:0:0:
256,192,97744,1,0,0:0:0:0:
460,192,97839,1,0,0:0:0:0:
153,192,97839,1,0,0:0:0:0:
358,192,97902,1,0,0:0:0:0:
256,192,97965,1,0,0:0:0:0:
51,192,98029,1,0,0:0:0:0:
153,192,98092,1,0,0:0:0:0:
256,192,98155,1,0,0:0:0:0:
358,192,98218,128,0,98598:0:0:0:0:
460,192,98218,128,0,98408:0:0:0:0:
153,192,98408,128,0,98598:0:0:0:0:
460,192,98598,1,0,0:0:0:0:
51,192,98598,128,0,98693:0:0:0:0:
256,192,98693,128,0,98788:0:0:0:0:
460,192,98788,128,0,98883:0:0:0:0:
153,192,98883,128,0,98978:0:0:0:0:
358,192,98978,1,0,0:0:0:0:
51,192,98978,128,0,99358:0:0:0:0:
460,192,99073,1,0,0:0:0:0:
153,192,99168,1,0,0:0:0:0:
256,192,99263,1,0,0:0:0:0:
358,192,99358,1,0,0:0:0:0:
460,192,99358,128,0,100117:0:0:0:0:
153,192,99548,1,0,0:0:0:0:
51,192,99737,1,0,0:0:0:0:
358,192,99737,1,0,0:0:0:0:
153,192,99832,1,0,0:0:0:0:
358,192,99927,1,0,0:0:0:0:
153,192,100022,1,0,0:0:0:0:
256,192,100117,1,0,0:0:0:0:
358,192,100117,1,0,0:0:0:0:
51,192,100307,1,0,0:0:0:0:
153,192,100307,1,0,0:0:0:0:
358,192,100307,1,0,0:0:0:0:
256,192,100497,1,0,0:0:0:0:
153,192,100592,1,0,0:0:0:0:
51,192,100687,1,0,0:0:0:0:
460,192,100782,1,0,0:0:0:0:
256,192,100782,128,0,101636:0:0:0:0:
358,192,100829,1,0,0:0:0:0:
153,192,100877,1,0,0:0:0:0:
51,192,100924,1,0,0:0:0:0:
460,192,100972,1,0,0:0:0:0:
358,192,101019,1,0,0:0:0:0:
153,192,101067,1,0,0:0:0:0:
51,192,101114,1,0,0:0:0:0:
460,192,101161,1,0,0:0:0:0:
358,192,101209,1,0,0:0:0:0:
153,192,101256,1,0,0:0:0:0:
51,192,101304,1,0,0:0:0:0:
460,192,101351,1,0,0:0:0:0:
358,192,101399,1,0,0:0:0:0:
153,192,101446,1,0,0:0:0:0:
51,192,101494,1,0,0:0:0:0:
460,192,101541,1,0,0:0:0:0:
358,192,101589,1,0,0:0:0:0:
153,192,101636,1,0,0:0:0:0:
51,192,101636,1,0,0:0:0:0:
460,192,101636,1,0,0:0:0:0:
358,192,101826,1,0,0:0:0:0:
153,192,102016,1,0,0:0:0:0:
460,192,102206,1,0,0:0:0:0:
358,192,102301,1,0,0:0:0:0:
256,192,102396,1,0,0:0:0:0:
51,192,102396,128,0,102522:0:0:0:0:
460,192,102522,128,0,102649:0:0:0:0:
153,192,102649,128,0,102775:0:0:0:0:
358,192,102775,128,0,102902:0:0:0:0:
51,192,102902,128,0,103029:0:0:0:0:
460,192,103029,128,0,103155:0:0:0:0:
256,192,103155,1,0,0:0:0:0:
153,192,103155,1,0,0:0:0:0:
358,192,103345,1,0,0:0:0:0:
51,192,103440,1,0,0:0:0:0:
256,192,103440,1,0,0:0:0:0:
153,192,103535,1,0,0:0:0:0:
358,192,103630,1,0,0:0:0:0:
153,192,103725,1,0,0:0:0:0:
460,192,103725,1,0,0:0:0:0:
256,192,103915,1,0,0:0:0:0:
51,192,103915,1,0,0:0:0:0:
358,192,104010,1,0,0:0:0:0:
153,192,104105,1,0,0:0:0:0:
256,192,104199,1,0,0:0:0:0:
358,192,104294,1,0,0:0:0:0:
460,192,104294,1,0,0:0:0:0:
153,192,104484,1,0,0:0:0:0:
256,192,104484,1,0,0:0:0:0:
460,192,104674,1,0,0:0:0:0:
51,192,104674,1,0,0:0:0:0:
358,192,104722,1,0,0:0:0:0:
153,192,104769,1,0,0:0:0:0:
51,192,104817,1,0,0:0:0:0:
460,192,104864,1,0,0:0:0:0:
358,192,104911,1,0,0:0:0:0:
256,192,104959,1,0,0:0:0:0:
153,192,105006,1,0,0:0:0:0:
460,192,105054,1,0,0:0:0:0:
51,192,105054,1,0,0:0:0:0:
358,192,105149,1,0,0:0:0:0:
153,192,105244,1,0,0:0:0:0:
256,192,105339,1,0,0:0:0:0:
358,192,105434,1,0,0:0:0:0:
51,192,105434,1,0,0:0:0:0:
153,192,105529,1,0,0:0:0:0:
460,192,105624,1,0,0:0:0:0:
358,192,105718,1,0,0:0:0:0:
256,192,105813,1,0,0:0:0:0:
51,192,105813,1,0,0:0:0:0:
460,192,105908,1,0,0:0:0:0:
153,192,106003,1,0,0:0:0:0:
460,192,106098,1,0,0:0:0:0:
153,192,106193,1,0,0:0:0:0:
358,192,106193,1,0,0:0:0:0:
256,192,106383,1,0,0:0:0:0:
51,192,106383,1,0,0:0:0:0:
460,192,106383,1,0,0:0:0:0:
153,192,106573,1,0,0:0:0:0:
358,192,106668,1,0,0:0:0:0:
256,192,106763,1,0,0:0:0:0:
51,192,106763,1,0,0:0:0:0:
460,192,106953,1,0,0:0:0:0:
358,192,106953,1,0,0:0:0:0:
256,192,107143,1,0,0:0:0:0:
153,192,107143,1,0,0:0:0:0:
51,192,107143,1,0,0:0:0:0:
358,192,107332,1,0,0:0:0:0:
460,192,107332,1,0,0:0:0:0:
51,192,107427,1,0,0:0:0:0:
153,192,107522,1,0,0:0:0:0:
358,192,107522,1,0,0:0:0:0:
460,192,107617,1,0,0:0:0:0:
51,192,107712,1,0,0:0:0:0:
153,192,107712,1,0,0:0:0:0:
256,192,107712,1,0,0:0:0:0:
358,192,107902,1,0,0:0:0:0:
153,192,107997,1,0,0:0:0:0:
256,192,108092,1,0,0:0:0:0:
358,192,108282,1,0,0:0:0:0:
51,192,108377,1,0,0:0:0:0:
153,192,108472,1,0,0:0:0:0:
256,192,108472,1,0,0:0:0:0:
358,192,108519,1,0,0:0:0:0:
460,192,108567,1,0,0:0:0:0:
51,192,108614,1,0,0:0:0:0:
153,192,108661,1,0,0:0:0:0:
358,192,108709,1,0,0:0:0:0:
460,192,108756,1,0,0:0:0:0:
51,192,108804,1,0,0:0:0:0:
153,192,108851,1,0,0:0:0:0:
256,192,108851,1,0,0:0:0:0:
460,192,108946,1,0,0:0:0:0:
256,192,109041,1,0,0:0:0:0:
51,192,109136,1,0,0:0:0:0:
460,192,109231,1,0,0:0:0:0:
358,192,109231,1,0,0:0:0:0:
256,192,109231,1,0,0:0:0:0:
51,192,109421,1,0,0:0:0:0:
153,192,109516,1,0,0:0:0:0:
358,192,109516,1,0,0:0:0:0:
256,192,109611,1,0,0:0:0:0:
358,192,109706,1,0,0:0:0:0:
256,192,109801,1,0,0:0:0:0:
51,192,109801,1,0,0:0:0:0:
153,192,109991,1,0,0:0:0:0:
460,192,109991,1,0,0:0:0:0:
358,192,110180,1,0,0:0:0:0:
256,192,110275,1,0,0:0:0:0:
51,192,110370,1,0,0:0:0:0:
153,192,110465,1,0,0:0:0:0:
256,192,110560,1,0,0:0:0:0:
358,192,110655,1,0,0:0:0:0:
460,192,110750,1,0,0:0:0:0:
51,192,110750,1,0,0:0:0:0:
153,192,110845,1,0,0:0:0:0:
256,192,110940,1,0,0:0:0:0:
358,192,110940,1,0,0:0:0:0:
460,192,110940,1,0,0:0:0:0:
153,192,111130,1,0,0:0:0:0:
256,192,111193,1,0,0:0:0:0:
358,192,111256,1,0,0:0:0:0:
460,192,111320,1,0,0:0:0:0:
51,192,111383,1,0,0:0:0:0:
153,192,111446,1,0,0:0:0:0:
256,192,111510,1,0,0:0:0:0:
460,192,111510,128,0,111605:0:0:0:0:
460,192,111699,128,0,111794:0:0:0:0:
51,192,111699,1,0,0:0:0:0:
460,192,111889,128,0,111984:0:0:0:0:
153,192,111889,1,0,0:0:0:0:
460,192,112079,128,0,112174:0:0:0:0:
256,192,112079,1,0,0:0:0:0:
51,192,112269,1,0,0:0:0:0:
153,192,112269,1,0,0:0:0:0:
460,192,112364,1,0,0:0:0:0:
358,192,112459,1,0,0:0:0:0:
256,192,112459,1,0,0:0:0:0:
51,192,112649,1,0,0:0:0:0:
358,192,112744,1,0,0:0:0:0:
256,192,112839,1,0,0:0:0:0:
153,192,112839,1,0,0:0:0:0:
460,192,112934,1,0,0:0:0:0:
358,192,113029,1,0,0:0:0:0:
51,192,113029,1,0,0:0:0:0:
153,192,113155,1,0,0:0:0:0:
256,192,113282,1,0,0:0:0:0:
358,192,113408,1,0,0:0:0:0:
460,192,113408,128,0,113788:0:0:0:0:
153,192,113598,1,0,0:0:0:0:
256,192,113693,1,0,0:0:0:0:
358,192,113788,1,0,0:0:0:0:
51,192,113788,1,0,0:0:0:0:
153,192,113788,1,0,0:0:0:0:
256,192,113978,1,0,0:0:0:0:
358,192,114168,1,0,0:0:0:0:
460,192,114358,1,0,0:0:0:0:
358,192,114453,1,0,0:0:0:0:
153,192,114548,1,0,0:0:0:0:
51,192,114548,1,0,0:0:0:0:
256,192,114737,1,0,0:0:0:0:
358,192,114832,1,0,0:0:0:0:
460,192,114927,1,0,0:0:0:0:
51,192,114927,128,0,115687:0:0:0:0:
153,192,114927,128,0,115307:0:0:0:0:
358,192,115022,1,0,0:0:0:0:
256,192,115117,1,0,0:0:0:0:
358,192,115212,1,0,0:0:0:0:
460,192,115307,128,0,115687:0:0:0:0:
256,192,115307,1,0,0:0:0:0:
256,192,115497,1,0,0:0:0:0:
153,192,115592,1,0,0:0:0:0:
358,192,115687,1,0,0:0:0:0:
256,192,115782,1,0,0:0:0:0:
153,192,115877,1,0,0:0:0:0:
460,192,115877,1,0,0:0:0:0:
51,192,116067,1,0,0:0:0:0:
358,192,116067,1,0,0:0:0:0:
256,192,116193,1,0,0:0:0:0:
153,192,116256,1,0,0:0:0:0:
460,192,116320,1,0,0:0:0:0:
358,192,116383,1,0,0:0:0:0:
51,192,116446,1,0,0:0:0:0:
256,192,116446,1,0,0:0:0:0:
460,192,116636,1,0,0:0:0:0:
358,192,116636,1,0,0:0:0:0:
256,192,116731,1,0,0:0:0:0:
460,192,116826,1,0,0:0:0:0:
51,192,116826,1,0,0:0:0:0:
358,192,116874,1,0,0:0:0:0:
256,192,116921,1,0,0:0:0:0:
153,192,116968,1,0,0:0:0:0:
358,192,117016,128,0,117206:0:0:0:0:
51,192,117016,128,0,117206:0:0:0:0:
460,192,117016,128,0,117206:0:0:0:0:
256,192,117206,1,0,0:0:0:0:
153,192,117301,1,0,0:0:0:0:
460,192,117396,1,0,0:0:0:0:
51,192,117396,1,0,0:0:0:0:
153,192,117491,1,0,0:0:0:0:
256,192,117586,128,0,117775:0:0:0:0:
358,192,117586,128,0,117775:0:0:0:0:
460,192,117586,128,0,117775:0:0:0:0:
51,192,117775,1,0,0:0:0:0:
153,192,117870,1,0,0:0:0:0:
256,192,117965,1,0,0:0:0:0:
358,192,118060,1,0,0:0:0:0:
460,192,118155,1,0,0:0:0:0:
153,192,118155,1,0,0:0:0:0:
256,192,118250,1,0,0:0:0:0:
51,192,118345,128,0,118535:0:0:0:0:
358,192,118345,128,0,118535:0:0:0:0:
460,192,118345,1,0,0:0:0:0:
256,192,118535,1,0,0:0:0:0:
153,192,118725,1,0,0:0:0:0:
256,192,118820,1,0,0:0:0:0:
460,192,118915,1,0,0:0:0:0:
358,192,118915,1,0,0:0:0:0:
358,192,119105,128,0,119294:0:0:0:0:
153,192,119105,128,0,119294:0:0:0:0:
51,192,119105,1,0,0:0:0:0:
256,192,119294,1,0,0:0:0:0:
51,192,119484,128,0,119864:0:0:0:0:
153,192,119484,1,0,0:0:0:0:
460,192,119674,128,0,119864:0:0:0:0:
358,192,119674,1,0,0:0:0:0:
153,192,119864,1,0,0:0:0:0:
256,192,119864,1,0,0:0:0:0:
358,192,119864,1,0,0:0:0:0:
51,192,120054,1,0,0:0:0:0:
153,192,120244,1,0,0:0:0:0:
358,192,120434,1,0,0:0:0:0:
256,192,120529,1,0,0:0:0:0:
51,192,120624,1,0,0:0:0:0:
460,192,120624,1,0,0:0:0:0:
153,192,120813,1,0,0:0:0:0:
256,192,120908,1,0,0:0:0:0:
460,192,121003,128,0,121763:0:0:0:0:
358,192,121003,128,0,121383:0:0:0:0:
51,192,121098,1,0,0:0:0:0:
153,192,121193,1,0,0:0:0:0:
256,192,121288,1,0,0:0:0:0:
153,192,121383,1,0,0:0:0:0:
51,192,121383,128,0,121763:0:0:0:0:
358,192,121573,1,0,0:0:0:0:
256,192,121668,1,0,0:0:0:0:
153,192,121668,1,0,0:0:0:0:
358,192,121763,1,0,0:0:0:0:
256,192,121858,1,0,0:0:0:0:
153,192,121953,1,0,0:0:0:0:
51,192,121953,1,0,0:0:0:0:
256,192,122143,1,0,0:0:0:0:
358,192,122143,1,0,0:0:0:0:
460,192,122143,1,0,0:0:0:0:
460,192,122332,1,0,0:0:0:0:
256,192,122427,1,0,0:0:0:0:
51,192,122522,1,0,0:0:0:0:
153,192,122617,1,0,0:0:0:0:
358,192,122712,1,0,0:0:0:0:
460,192,122712,1,0,0:0:0:0:
256,192,122807,1,0,0:0:0:0:
51,192,122902,1,0,0:0:0:0:
358,192,122902,1,0,0:0:0:0:
460,192,122997,1,0,0:0:0:0:
153,192,123092,128,0,123282:0:0:0:0:
256,192,123092,128,0,123282:0:0:0:0:
358,192,123092,128,0,123282:0:0:0:0:
51,192,123282,1,0,0:0:0:0:
51,192,123472,1,0,0:0:0:0:
460,192,123472,1,0,0:0:0:0:
153,192,123567,1,0,0:0:0:0:
358,192,123567,1,0,0:0:0:0:
256,192,123661,128,0,124041:0:0:0:0:
460,192,123661,128,0,124041:0:0:0:0:
51,192,123661,128,0,124041:0:0:0:0:
153,192,124041,1,0,0:0:0:0:
358,192,124041,1,0,0:0:0:0:
256,192,124136,1,0,0:0:0:0:
153,192,124231,1,0,0:0:0:0:
358,192,124231,1,0,0:0:0:0:
460,192,124326,1,0,0:0:0:0:
51,192,124421,128,0,124801:0:0:0:0:
153,192,124421,128,0,124611:0:0:0:0:
256,192,124421,1,0,0:0:0:0:
358,192,124516,1,0,0:0:0:0:
460,192,124611,1,0,0:0:0:0:
256,192,124706,1,0,0:0:0:0:
358,192,124801,1,0,0:0:0:0:
51,192,124991,1,0,0:0:0:0:
256,192,124991,1,0,0:0:0:0:
153,192,125086,1,0,0:0:0:0:
460,192,125180,128,0,125560:0:0:0:0:
358,192,125180,128,0,125370:0:0:0:0:
256,192,125180,1,0,0:0:0:0:
153,192,125370,1,0,0:0:0:0:
256,192,125560,1,0,0:0:0:0:
51,192,125560,128,0,125940:0:0:0:0:
358,192,125750,1,0,0:0:0:0:
153,192,125750,128,0,125940:0:0:0:0:
256,192,125940,1,0,0:0:0:0:
358,192,125940,1,0,0:0:0:0:
460,192,125940,1,0,0:0:0:0:
51,192,126130,1,0,0:0:0:0:
153,192,126320,1,0,0:0:0:0:
358,192,126510,1,0,0:0:0:0:
153,192,126605,1,0,0:0:0:0:
256,192,126699,1,0,0:0:0:0:
358,192,126699,1,0,0:0:0:0:
51,192,126794,1,0,0:0:0:0:
256,192,126889,1,0,0:0:0:0:
460,192,126984,1,0,0:0:0:0:
153,192,127079,1,0,0:0:0:0:
358,192,127079,128,0,127459:0:0:0:0:
51,192,127079,128,0,127839:0:0:0:0:
256,192,127174,1,0,0:0:0:0:
153,192,127269,1,0,0:0:0:0:
256,192,127364,1,0,0:0:0:0:
153,192,127459,1,0,0:0:0:0:
460,192,127459,128,0,127839:0:0:0:0:
358,192,127649,1,0,0:0:0:0:
256,192,127744,1,0,0:0:0:0:
153,192,127744,1,0,0:0:0:0:
358,192,127839,1,0,0:0:0:0:
153,192,127934,1,0,0:0:0:0:
358,192,128029,1,0,0:0:0:0:
256,192,128029,1,0,0:0:0:0:
51,192,128218,1,0,0:0:0:0:
460,192,128218,1,0,0:0:0:0:
153,192,128218,1,0,0:0:0:0:
256,192,128408,1,0,0:0:0:0:
358,192,128503,1,0,0:0:0:0:
153,192,128598,1,0,0:0:0:0:
256,192,128693,1,0,0:0:0:0:
51,192,128788,1,0,0:0:0:0:
358,192,128788,1,0,0:0:0:0:
153,192,128883,1,0,0:0:0:0:
51,192,128978,1,0,0:0:0:0:
358,192,128978,1,0,0:0:0:0:
256,192,129073,1,0,0:0:0:0:
51,192,129168,128,0,129358:0:0:0:0:
153,192,129168,128,0,129358:0:0:0:0:
460,192,129168,128,0,129548:0:0:0:0:
358,192,129358,1,0,0:0:0:0:
256,192,129453,1,0,0:0:0:0:
51,192,129548,1,0,0:0:0:0:
358,192,129643,1,0,0:0:0:0:
256,192,129737,128,0,129927:0:0:0:0:
153,192,129737,128,0,129927:0:0:0:0:
460,192,129737,128,0,130117:0:0:0:0:
51,192,129927,1,0,0:0:0:0:
358,192,130022,1,0,0:0:0:0:
51,192,130117,1,0,0:0:0:0:
153,192,130212,1,0,0:0:0:0:
256,192,130307,1,0,0:0:0:0:
358,192,130307,1,0,0:0:0:0:
51,192,130402,1,0,0:0:0:0:
256,192,130497,128,0,130687:0:0:0:0:
460,192,130497,128,0,130877:0:0:0:0:
153,192,130497,1,0,0:0:0:0:
51,192,130687,1,0,0:0:0:0:
256,192,130877,5,0,0:0:0:0:
51,192,131067,1,0,0:0:0:0:
153,192,131067,1,0,0:0:0:0:
358,192,131256,128,0,131446:0:0:0:0:
460,192,131256,128,0,131636:0:0:0:0:
256,192,131256,1,0,0:0:0:0:
51,192,131446,1,0,0:0:0:0:
153,192,131636,128,0,131826:0:0:0:0:
256,192,131636,128,0,131826:0:0:0:0:
358,192,131826,128,0,132016:0:0:0:0:
51,192,131826,1,0,0:0:0:0:
51,192,132016,128,0,133155:0:0:0:0:
153,192,132016,1,0,0:0:0:0:
460,192,132016,1,0,0:0:0:0:
256,192,132111,1,0,0:0:0:0:
358,192,132206,1,0,0:0:0:0:
460,192,132301,1,0,0:0:0:0:
256,192,132396,1,0,0:0:0:0:
358,192,132491,1,0,0:0:0:0:
460,192,132586,1,0,0:0:0:0:
153,192,132680,1,0,0:0:0:0:
358,192,132775,1,0,0:0:0:0:
460,192,132870,1,0,0:0:0:0:
153,192,132965,1,0,0:0:0:0:
256,192,133060,1,0,0:0:0:0:
358,192,133155,128,0,133535:0:0:0:0:
460,192,133155,1,0,0:0:0:0:
153,192,133250,1,0,0:0:0:0:
51,192,133345,1,0,0:0:0:0:
460,192,133440,1,0,0:0:0:0:
256,192,133535,128,0,134294:0:0:0:0:
153,192,133535,1,0,0:0:0:0:
51,192,133630,1,0,0:0:0:0:
460,192,133725,1,0,0:0:0:0:
358,192,133820,1,0,0:0:0:0:
51,192,133915,1,0,0:0:0:0:
153,192,134010,1,0,0:0:0:0:
460,192,134105,1,0,0:0:0:0:
358,192,134199,1,0,0:0:0:0:
460,192,134294,128,0,134864:0:0:0:0:
153,192,134389,1,0,0:0:0:0:
358,192,134484,128,0,134864:0:0:0:0:
51,192,134484,1,0,0:0:0:0:
256,192,134579,1,0,0:0:0:0:
153,192,134674,128,0,135054:0:0:0:0:
51,192,134864,128,0,135054:0:0:0:0:
256,192,135054,128,0,136573:0:0:0:0:
460,192,135054,128,0,136193:0:0:0:0:
358,192,135054,128,0,136193:0:0:0:0:
153,192,136067,128,0,136193:0:0:0:0:
51,192,136193,128,0,136320:0:0:0:0:
460,192,136320,128,0,136446:0:0:0:0:
153,192,136446,128,0,136573:0:0:0:0:
51,192,136573,128,0,137332:0:0:0:0:
358,192,136573,128,0,138092:0:0:0:0:
153,192,137332,128,0,138092:0:0:0:0:
51,192,138092,128,0,140750:0:0:0:0:
256,192,138092,128,0,141130:0:0:0:0:
460,192,138092,1,0,0:0:0:0:
460,192,139231,1,0,0:0:0:0:
358,192,139611,1,0,0:0:0:0:
153,192,139611,1,0,0:0:0:0:
460,192,140370,1,0,0:0:0:0:
358,192,140750,1,0,0:0:0:0:
153,192,141130,1,0,0:0:0:0:
460,192,141130,1,0,0:0:0:0:
51,192,141889,1,0,0:0:0:0:
256,192,142269,1,0,0:0:0:0:
460,192,142630,1,0,0:0:0:0:
153,192,142630,1,0,0:0:0:0:
358,192,143009,1,0,0:0:0:0:
256,192,143389,1,0,0:0:0:0:
153,192,143769,1,0,0:0:0:0:
358,192,144148,1,0,0:0:0:0:
51,192,144148,1,0,0:0:0:0:
256,192,144148,1,0,0:0:0:0:
256,192,145288,1,0,0:0:0:0:
51,192,145288,1,0,0:0:0:0:
358,192,145414,1,0,0:0:0:0:
153,192,145541,1,0,0:0:0:0:
256,192,145667,1,0,0:0:0:0:
460,192,145667,1,0,0:0:0:0:
358,192,145667,1,0,0:0:0:0:
256,192,146390,1,0,0:0:0:0:
460,192,146390,1,0,0:0:0:0:
153,192,146643,1,0,0:0:0:0:
358,192,146643,1,0,0:0:0:0:
51,192,146896,1,0,0:0:0:0:
256,192,146896,1,0,0:0:0:0:
51,192,147149,1,0,0:0:0:0:
153,192,147149,1,0,0:0:0:0:
460,192,147149,1,0,0:0:0:0:
358,192,148288,1,0,0:0:0:0:
256,192,148414,1,0,0:0:0:0:
153,192,148541,1,0,0:0:0:0:
460,192,148667,1,0,0:0:0:0:
358,192,148667,1,0,0:0:0:0:
51,192,148667,1,0,0:0:0:0:
256,192,148794,1,0,0:0:0:0:
153,192,148921,1,0,0:0:0:0:
358,192,149047,1,0,0:0:0:0:
51,192,149427,128,0,149819:0:0:0:0:
256,192,149427,128,0,149819:0:0:0:0:
153,192,149819,128,0,150199:0:0:0:0:
358,192,149819,128,0,150199:0:0:0:0:
256,192,150199,128,0,151338:0:0:0:0:
460,192,150199,128,0,151338:0:0:0:0:
51,192,150199,1,0,0:0:0:0:
153,192,150388,1,0,0:0:0:0:
51,192,150578,1,0,0:0:0:0:
358,192,150578,1,0,0:0:0:0:
153,192,150768,1,0,0:0:0:0:
51,192,150958,1,0,0:0:0:0:
358,192,150958,1,0,0:0:0:0:
153,192,151148,1,0,0:0:0:0:
358,192,151338,128,0,151717:0:0:0:0:
51,192,151338,1,0,0:0:0:0:
256,192,151528,1,0,0:0:0:0:
153,192,151623,1,0,0:0:0:0:
51,192,151717,128,0,152097:0:0:0:0:
460,192,151717,1,0,0:0:0:0:
256,192,151907,1,0,0:0:0:0:
153,192,152097,128,0,152477:0:0:0:0:
358,192,152097,1,0,0:0:0:0:
460,192,152287,1,0,0:0:0:0:
256,192,152477,128,0,152857:0:0:0:0:
51,192,152477,128,0,152857:0:0:0:0:
358,192,152477,1,0,0:0:0:0:
460,192,152667,1,0,0:0:0:0:
358,192,152857,128,0,153236:0:0:0:0:
460,192,152857,1,0,0:0:0:0:
153,192,152952,1,0,0:0:0:0:
51,192,153047,1,0,0:0:0:0:
153,192,153142,1,0,0:0:0:0:
256,192,153236,128,0,154376:0:0:0:0:
460,192,153236,128,0,154376:0:0:0:0:
51,192,153236,1,0,0:0:0:0:
153,192,153426,1,0,0:0:0:0:
358,192,153616,1,0,0:0:0:0:
51,192,153616,1,0,0:0:0:0:
153,192,153806,1,0,0:0:0:0:
51,192,153996,1,0,0:0:0:0:
358,192,153996,1,0,0:0:0:0:
153,192,154186,1,0,0:0:0:0:
358,192,154376,128,0,154755:0:0:0:0:
51,192,154376,1,0,0:0:0:0:
153,192,154566,1,0,0:0:0:0:
460,192,154661,1,0,0:0:0:0:
256,192,154755,128,0,155895:0:0:0:0:
51,192,154755,128,0,155895:0:0:0:0:
153,192,154945,1,0,0:0:0:0:
358,192,155135,1,0,0:0:0:0:
460,192,155135,1,0,0:0:0:0:
153,192,155325,1,0,0:0:0:0:
358,192,155515,1,0,0:0:0:0:
460,192,155515,1,0,0:0:0:0:
153,192,155705,1,0,0:0:0:0:
460,192,155895,1,0,0:0:0:0:
358,192,155990,1,0,0:0:0:0:
51,192,156085,1,0,0:0:0:0:
460,192,156180,1,0,0:0:0:0:
153,192,156274,128,0,156369:0:0:0:0:
256,192,156274,128,0,156369:0:0:0:0:
358,192,156274,128,0,156369:0:0:0:0:
153,192,156464,128,0,156654:0:0:0:0:
256,192,156464,128,0,156654:0:0:0:0:
358,192,156464,128,0,156654:0:0:0:0:
460,192,156654,1,0,0:0:0:0:
51,192,156654,1,0,0:0:0:0:
256,192,156844,1,0,0:0:0:0:
358,192,156844,1,0,0:0:0:0:
153,192,157034,128,0,157414:0:0:0:0:
460,192,157034,1,0,0:0:0:0:
51,192,157034,1,0,0:0:0:0:
256,192,157224,1,0,0:0:0:0:
358,192,157414,128,0,157793:0:0:0:0:
460,192,157414,1,0,0:0:0:0:
153,192,157604,1,0,0:0:0:0:
256,192,157793,128,0,157888:0:0:0:0:
51,192,157793,128,0,157888:0:0:0:0:
460,192,157793,128,0,157888:0:0:0:0:
51,192,157983,128,0,158173:0:0:0:0:
256,192,157983,128,0,158173:0:0:0:0:
460,192,157983,128,0,158173:0:0:0:0:
153,192,158363,1,0,0:0:0:0:
358,192,158363,1,0,0:0:0:0:
51,192,158553,1,0,0:0:0:0:
460,192,158553,1,0,0:0:0:0:
256,192,158553,1,0,0:0:0:0:
358,192,158743,1,0,0:0:0:0:
51,192,158933,1,0,0:0:0:0:
153,192,159028,1,0,0:0:0:0:
358,192,159123,1,0,0:0:0:0:
460,192,159217,1,0,0:0:0:0:
51,192,159312,128,0,159407:0:0:0:0:
153,192,159312,128,0,159407:0:0:0:0:
256,192,159312,128,0,159407:0:0:0:0:
358,192,159312,1,0,0:0:0:0:
460,192,159407,1,0,0:0:0:0:
51,192,159502,128,0,159692:0:0:0:0:
153,192,159502,128,0,159692:0:0:0:0:
256,192,159502,128,0,159692:0:0:0:0:
358,192,159502,1,0,0:0:0:0:
460,192,159597,1,0,0:0:0:0:
358,192,159692,1,0,0:0:0:0:
460,192,159787,1,0,0:0:0:0:
153,192,159882,1,0,0:0:0:0:
358,192,159882,1,0,0:0:0:0:
256,192,159977,1,0,0:0:0:0:
51,192,160072,1,0,0:0:0:0:
153,192,160072,1,0,0:0:0:0:
358,192,160167,1,0,0:0:0:0:
256,192,160262,1,0,0:0:0:0:
51,192,160262,1,0,0:0:0:0:
460,192,160357,1,0,0:0:0:0:
358,192,160452,1,0,0:0:0:0:
153,192,160452,1,0,0:0:0:0:
256,192,160452,1,0,0:0:0:0:
51,192,160547,1,0,0:0:0:0:
460,192,160547,1,0,0:0:0:0:
153,192,160642,1,0,0:0:0:0:
358,192,160642,1,0,0:0:0:0:
51,192,160736,1,0,0:0:0:0:
460,192,160736,1,0,0:0:0:0:
256,192,160831,128,0,162350:0:0:0:0:
153,192,160831,1,0,0:0:0:0:
358,192,160831,1,0,0:0:0:0:
460,192,160958,1,0,0:0:0:0:
358,192,161085,1,0,0:0:0:0:
153,192,161211,1,0,0:0:0:0:
51,192,161338,1,0,0:0:0:0:
460,192,161464,1,0,0:0:0:0:
358,192,161591,1,0,0:0:0:0:
153,192,161717,1,0,0:0:0:0:
51,192,161844,1,0,0:0:0:0:
460,192,161971,1,0,0:0:0:0:
358,192,162097,1,0,0:0:0:0:
153,192,162224,1,0,0:0:0:0:
51,192,162350,1,0,0:0:0:0:
358,192,162350,1,0,0:0:0:0:
460,192,162350,1,0,0:0:0:0:
256,192,162540,1,0,0:0:0:0:
153,192,162730,1,0,0:0:0:0:
358,192,162920,1,0,0:0:0:0:
358,192,163110,1,0,0:0:0:0:
256,192,163236,1,0,0:0:0:0:
460,192,163363,1,0,0:0:0:0:
51,192,163490,1,0,0:0:0:0:
153,192,163585,1,0,0:0:0:0:
256,192,163680,1,0,0:0:0:0:
358,192,163774,1,0,0:0:0:0:
460,192,163869,1,0,0:0:0:0:
51,192,164249,128,0,165199:0:0:0:0:
256,192,164249,128,0,165199:0:0:0:0:
153,192,164629,128,0,165199:0:0:0:0:
358,192,164629,128,0,165199:0:0:0:0:
460,192,165009,128,0,165199:0:0:0:0:
256,192,165388,128,0,166528:0:0:0:0:
358,192,165388,128,0,166528:0:0:0:0:
460,192,165388,128,0,166528:0:0:0:0:
153,192,165388,1,0,0:0:0:0:
51,192,165578,1,0,0:0:0:0:
153,192,165768,1,0,0:0:0:0:
51,192,165768,1,0,0:0:0:0:
153,192,165958,1,0,0:0:0:0:
51,192,166148,1,0,0:0:0:0:
153,192,166338,1,0,0:0:0:0:
51,192,166528,1,0,0:0:0:0:
153,192,166623,1,0,0:0:0:0:
51,192,166717,1,0,0:0:0:0:
153,192,166812,1,0,0:0:0:0:
358,192,166907,1,0,0:0:0:0:
256,192,166907,128,0,167287:0:0:0:0:
460,192,167002,1,0,0:0:0:0:
358,192,167097,1,0,0:0:0:0:
460,192,167192,1,0,0:0:0:0:
358,192,167287,1,0,0:0:0:0:
153,192,167287,128,0,167667:0:0:0:0:
460,192,167382,1,0,0:0:0:0:
358,192,167477,1,0,0:0:0:0:
460,192,167572,1,0,0:0:0:0:
358,192,167667,1,0,0:0:0:0:
51,192,167667,128,0,168047:0:0:0:0:
460,192,167762,1,0,0:0:0:0:
358,192,167857,1,0,0:0:0:0:
460,192,167952,1,0,0:0:0:0:
358,192,168047,128,0,168426:0:0:0:0:
153,192,168047,128,0,168426:0:0:0:0:
256,192,168047,1,0,0:0:0:0:
51,192,168236,1,0,0:0:0:0:
256,192,168426,128,0,169186:0:0:0:0:
460,192,168426,128,0,169186:0:0:0:0:
51,192,168426,1,0,0:0:0:0:
153,192,168616,1,0,0:0:0:0:
51,192,168806,1,0,0:0:0:0:
358,192,168806,1,0,0:0:0:0:
153,192,168996,1,0,0:0:0:0:
153,192,169186,128,0,169945:0:0:0:0:
358,192,169186,128,0,169945:0:0:0:0:
51,192,169186,1,0,0:0:0:0:
460,192,169376,1,0,0:0:0:0:
51,192,169566,1,0,0:0:0:0:
256,192,169566,1,0,0:0:0:0:
460,192,169755,1,0,0:0:0:0:
256,192,169945,128,0,170705:0:0:0:0:
51,192,169945,128,0,170705:0:0:0:0:
460,192,169945,1,0,0:0:0:0:
358,192,170135,1,0,0:0:0:0:
460,192,170325,1,0,0:0:0:0:
358,192,170515,1,0,0:0:0:0:
460,192,170610,1,0,0:0:0:0:
153,192,170705,1,0,0:0:0:0:
358,192,170705,1,0,0:0:0:0:
51,192,170895,128,0,171464:0:0:0:0:
153,192,171085,128,0,171464:0:0:0:0:
460,192,171085,1,0,0:0:0:0:
358,192,171085,1,0,0:0:0:0:
256,192,171274,128,0,171464:0:0:0:0:
460,192,171464,128,0,172224:0:0:0:0:
358,192,171464,1,0,0:0:0:0:
256,192,171559,1,0,0:0:0:0:
153,192,171654,1,0,0:0:0:0:
358,192,171749,1,0,0:0:0:0:
256,192,171844,1,0,0:0:0:0:
153,192,171844,1,0,0:0:0:0:
51,192,171939,1,0,0:0:0:0:
358,192,172034,1,0,0:0:0:0:
153,192,172129,1,0,0:0:0:0:
51,192,172224,1,0,0:0:0:0:
256,192,172224,1,0,0:0:0:0:
358,192,172319,1,0,0:0:0:0:
153,192,172414,128,0,172604:0:0:0:0:
460,192,172414,1,0,0:0:0:0:
256,192,172509,1,0,0:0:0:0:
460,192,172604,1,0,0:0:0:0:
51,192,172604,1,0,0:0:0:0:
358,192,172604,128,0,172793:0:0:0:0:
153,192,172793,128,0,172983:0:0:0:0:
51,192,172793,1,0,0:0:0:0:
460,192,172983,1,0,0:0:0:0:
358,192,172983,1,0,0:0:0:0:
460,192,173078,1,0,0:0:0:0:
460,192,173173,1,0,0:0:0:0:
153,192,173173,1,0,0:0:0:0:
460,192,173268,1,0,0:0:0:0:
256,192,173363,1,0,0:0:0:0:
51,192,173363,1,0,0:0:0:0:
153,192,173458,1,0,0:0:0:0:
358,192,173553,1,0,0:0:0:0:
460,192,173648,1,0,0:0:0:0:
153,192,173743,1,0,0:0:0:0:
256,192,173743,1,0,0:0:0:0:
51,192,173743,128,0,173996:0:0:0:0:
358,192,173996,1,0,0:0:0:0:
256,192,173996,1,0,0:0:0:0:
153,192,173996,128,0,174249:0:0:0:0:
358,192,174249,1,0,0:0:0:0:
460,192,174249,1,0,0:0:0:0:
256,192,174249,128,0,174502:0:0:0:0:
358,192,174502,1,0,0:0:0:0:
460,192,174502,1,0,0:0:0:0:
51,192,174502,1,0,0:0:0:0:
153,192,174550,1,0,0:0:0:0:
256,192,174597,1,0,0:0:0:0:
358,192,174645,1,0,0:0:0:0:
153,192,174740,1,0,0:0:0:0:
256,192,174787,1,0,0:0:0:0:
358,192,174835,1,0,0:0:0:0:
460,192,174882,1,0,0:0:0:0:
51,192,174882,1,0,0:0:0:0:
358,192,174930,1,0,0:0:0:0:
256,192,174977,1,0,0:0:0:0:
153,192,175024,1,0,0:0:0:0:
51,192,175072,1,0,0:0:0:0:
358,192,175167,1,0,0:0:0:0:
153,192,175262,1,0,0:0:0:0:
51,192,175262,1,0,0:0:0:0:
460,192,175262,1,0,0:0:0:0:
256,192,175309,1,0,0:0:0:0:
358,192,175357,1,0,0:0:0:0:
460,192,175404,1,0,0:0:0:0:
51,192,175452,1,0,0:0:0:0:
153,192,175499,1,0,0:0:0:0:
256,192,175547,1,0,0:0:0:0:
358,192,175594,1,0,0:0:0:0:
460,192,175642,1,0,0:0:0:0:
51,192,175642,1,0,0:0:0:0:
153,192,175689,1,0,0:0:0:0:
358,192,175784,1,0,0:0:0:0:
460,192,175831,1,0,0:0:0:0:
153,192,175879,1,0,0:0:0:0:
256,192,175926,1,0,0:0:0:0:
358,192,176021,1,0,0:0:0:0:
460,192,176021,1,0,0:0:0:0:
51,192,176021,1,0,0:0:0:0:
153,192,176069,1,0,0:0:0:0:
256,192,176116,1,0,0:0:0:0:
460,192,176164,1,0,0:0:0:0:
153,192,176211,1,0,0:0:0:0:
358,192,176211,1,0,0:0:0:0:
51,192,176306,1,0,0:0:0:0:
153,192,176401,1,0,0:0:0:0:
256,192,176401,1,0,0:0:0:0:
460,192,176496,1,0,0:0:0:0:
153,192,176591,1,0,0:0:0:0:
51,192,176591,1,0,0:0:0:0:
256,192,176686,1,0,0:0:0:0:
460,192,176781,1,0,0:0:0:0:
51,192,176781,1,0,0:0:0:0:
358,192,176876,1,0,0:0:0:0:
153,192,176971,1,0,0:0:0:0:
256,192,176971,1,0,0:0:0:0:
358,192,177066,1,0,0:0:0:0:
51,192,177161,1,0,0:0:0:0:
460,192,177161,1,0,0:0:0:0:
358,192,177208,1,0,0:0:0:0:
256,192,177255,1,0,0:0:0:0:
153,192,177303,1,0,0:0:0:0:
51,192,177350,1,0,0:0:0:0:
460,192,177398,1,0,0:0:0:0:
358,192,177445,1,0,0:0:0:0:
256,192,177493,1,0,0:0:0:0:
51,192,177540,1,0,0:0:0:0:
153,192,177540,1,0,0:0:0:0:
460,192,177635,1,0,0:0:0:0:
358,192,177635,1,0,0:0:0:0:
256,192,177730,1,0,0:0:0:0:
153,192,177730,1,0,0:0:0:0:
358,192,177825,1,0,0:0:0:0:
51,192,177920,1,0,0:0:0:0:
153,192,177920,1,0,0:0:0:0:
51,192,178015,1,0,0:0:0:0:
51,192,178110,1,0,0:0:0:0:
51,192,178205,1,0,0:0:0:0:
51,192,178300,1,0,0:0:0:0:
256,192,178300,1,0,0:0:0:0:
51,192,178395,1,0,0:0:0:0:
51,192,178490,1,0,0:0:0:0:
51,192,178585,1,0,0:0:0:0:
460,192,178680,1,0,0:0:0:0:
358,192,178774,1,0,0:0:0:0:
256,192,178869,1,0,0:0:0:0:
51,192,178869,1,0,0:0:0:0:
153,192,178964,1,0,0:0:0:0:
358,192,179059,1,0,0:0:0:0:
460,192,179059,1,0,0:0:0:0:
51,192,179154,1,0,0:0:0:0:
153,192,179154,1,0,0:0:0:0:
256,192,179249,1,0,0:0:0:0:
358,192,179249,1,0,0:0:0:0:
153,192,179344,1,0,0:0:0:0:
460,192,179439,1,0,0:0:0:0:
358,192,179439,1,0,0:0:0:0:
460,192,179534,1,0,0:0:0:0:
460,192,179629,1,0,0:0:0:0:
51,192,179629,1,0,0:0:0:0:
460,192,179724,1,0,0:0:0:0:
460,192,179819,1,0,0:0:0:0:
256,192,179819,1,0,0:0:0:0:
460,192,179914,1,0,0:0:0:0:
51,192,180009,1,0,0:0:0:0:
153,192,180104,1,0,0:0:0:0:
256,192,180199,1,0,0:0:0:0:
460,192,180199,1,0,0:0:0:0:
51,192,180293,1,0,0:0:0:0:
153,192,180388,1,0,0:0:0:0:
358,192,180388,1,0,0:0:0:0:
460,192,180483,1,0,0:0:0:0:
51,192,180578,1,0,0:0:0:0:
256,192,180578,1,0,0:0:0:0:
358,192,180673,1,0,0:0:0:0:
153,192,180673,1,0,0:0:0:0:
256,192,180768,1,0,0:0:0:0:
460,192,180768,1,0,0:0:0:0:
51,192,180768,1,0,0:0:0:0:
153,192,180958,1,0,0:0:0:0:
358,192,181053,1,0,0:0:0:0:
256,192,181148,1,0,0:0:0:0:
153,192,181243,1,0,0:0:0:0:
51,192,181338,1,0,0:0:0:0:
358,192,181338,1,0,0:0:0:0:
153,192,181433,1,0,0:0:0:0:
256,192,181433,1,0,0:0:0:0:
460,192,181528,1,0,0:0:0:0:
358,192,181528,1,0,0:0:0:0:
153,192,181623,1,0,0:0:0:0:
460,192,181717,1,0,0:0:0:0:
358,192,181765,1,0,0:0:0:0:
256,192,181812,1,0,0:0:0:0:
51,192,181860,1,0,0:0:0:0:
153,192,181907,1,0,0:0:0:0:
256,192,181955,1,0,0:0:0:0:
460,192,182002,1,0,0:0:0:0:
358,192,182050,1,0,0:0:0:0:
256,192,182097,1,0,0:0:0:0:
153,192,182097,1,0,0:0:0:0:
51,192,182097,128,0,182350:0:0:0:0:
256,192,182350,1,0,0:0:0:0:
358,192,182350,1,0,0:0:0:0:
153,192,182350,128,0,182604:0:0:0:0:
358,192,182604,1,0,0:0:0:0:
460,192,182604,1,0,0:0:0:0:
256,192,182604,128,0,182857:0:0:0:0:
460,192,182857,1,0,0:0:0:0:
51,192,182857,1,0,0:0:0:0:
358,192,182857,128,0,183110:0:0:0:0:
153,192,183110,1,0,0:0:0:0:
51,192,183110,1,0,0:0:0:0:
460,192,183110,128,0,183363:0:0:0:0:
153,192,183363,1,0,0:0:0:0:
256,192,183363,1,0,0:0:0:0:
51,192,183363,128,0,183616:0:0:0:0:
153,192,183616,1,0,0:0:0:0:
358,192,183616,1,0,0:0:0:0:
256,192,183616,128,0,184755:0:0:0:0:
51,192,183806,1,0,0:0:0:0:
460,192,183996,128,0,184755:0:0:0:0:
358,192,183996,1,0,0:0:0:0:
153,192,184186,1,0,0:0:0:0:
51,192,184376,128,0,184755:0:0:0:0:
153,192,184376,1,0,0:0:0:0:
358,192,184566,1,0,0:0:0:0:
153,192,184755,128,0,185135:0:0:0:0:
358,192,184755,1,0,0:0:0:0:
460,192,184945,1,0,0:0:0:0:
256,192,185135,128,0,185895:0:0:0:0:
460,192,185135,1,0,0:0:0:0:
358,192,185230,1,0,0:0:0:0:
51,192,185325,1,0,0:0:0:0:
153,192,185420,1,0,0:0:0:0:
460,192,185515,1,0,0:0:0:0:
358,192,185610,1,0,0:0:0:0:
153,192,185705,1,0,0:0:0:0:
51,192,185800,1,0,0:0:0:0:
460,192,185895,128,0,186654:0:0:0:0:
153,192,185895,1,0,0:0:0:0:
358,192,186085,1,0,0:0:0:0:
153,192,186085,1,0,0:0:0:0:
256,192,186180,1,0,0:0:0:0:
51,192,186274,1,0,0:0:0:0:
153,192,186274,1,0,0:0:0:0:
256,192,186401,1,0,0:0:0:0:
358,192,186464,1,0,0:0:0:0:
256,192,186528,1,0,0:0:0:0:
51,192,186654,1,0,0:0:0:0:
153,192,186654,128,0,186844:0:0:0:0:
358,192,186844,128,0,187414:0:0:0:0:
256,192,186844,1,0,0:0:0:0:
51,192,186939,1,0,0:0:0:0:
460,192,187034,1,0,0:0:0:0:
51,192,187129,1,0,0:0:0:0:
460,192,187224,1,0,0:0:0:0:
256,192,187319,1,0,0:0:0:0:
51,192,187414,5,0,0:0:0:0:
153,192,187461,1,0,0:0:0:0:
256,192,187509,1,0,0:0:0:0:
358,192,187556,1,0,0:0:0:0:
460,192,187604,1,0,0:0:0:0:
51,192,187651,1,0,0:0:0:0:
153,192,187699,1,0,0:0:0:0:
256,192,187746,1,0,0:0:0:0:
358,192,187793,1,0,0:0:0:0:
460,192,187841,1,0,0:0:0:0:
51,192,187888,1,0,0:0:0:0:
153,192,187936,1,0,0:0:0:0:
256,192,187983,1,0,0:0:0:0:
358,192,188031,1,0,0:0:0:0:
460,192,188078,1,0,0:0:0:0:
51,192,188126,1,0,0:0:0:0:
153,192,188173,1,0,0:0:0:0:
256,192,188173,128,0,189692:0:0:0:0:
358,192,188173,128,0,188553:0:0:0:0:
51,192,188553,128,0,189692:0:0:0:0:
153,192,188933,128,0,189692:0:0:0:0:
358,192,189312,128,0,189692:0:0:0:0:
460,192,189692,128,0,190831:0:0:0:0:
256,192,189882,1,0,0:0:0:0:
51,192,190072,1,0,0:0:0:0:
153,192,190072,1,0,0:0:0:0:
358,192,190262,1,0,0:0:0:0:
256,192,190452,1,0,0:0:0:0:
51,192,190452,1,0,0:0:0:0:
153,192,190642,1,0,0:0:0:0:
256,192,190831,1,0,0:0:0:0:
358,192,190831,1,0,0:0:0:0:
153,192,190926,1,0,0:0:0:0:
51,192,191021,1,0,0:0:0:0:
153,192,191116,1,0,0:0:0:0:
358,192,191211,1,0,0:0:0:0:
256,192,191211,128,0,191591:0:0:0:0:
460,192,191306,1,0,0:0:0:0:
358,192,191401,1,0,0:0:0:0:
460,192,191496,1,0,0:0:0:0:
358,192,191591,1,0,0:0:0:0:
153,192,191591,128,0,191971:0:0:0:0:
460,192,191686,1,0,0:0:0:0:
358,192,191781,1,0,0:0:0:0:
460,192,191876,1,0,0:0:0:0:
358,192,191971,1,0,0:0:0:0:
51,192,191971,128,0,192350:0:0:0:0:
460,192,192066,1,0,0:0:0:0:
358,192,192161,1,0,0:0:0:0:
460,192,192255,1,0,0:0:0:0:
358,192,192350,128,0,192730:0:0:0:0:
153,192,192350,128,0,192730:0:0:0:0:
256,192,192350,1,0,0:0:0:0:
51,192,192540,1,0,0:0:0:0:
51,192,192730,1,0,0:0:0:0:
460,192,192730,128,0,193490:0:0:0:0:
256,192,192730,128,0,193490:0:0:0:0:
153,192,192920,1,0,0:0:0:0:
358,192,193110,1,0,0:0:0:0:
51,192,193110,1,0,0:0:0:0:
153,192,193300,1,0,0:0:0:0:
358,192,193490,128,0,194249:0:0:0:0:
51,192,193490,1,0,0:0:0:0:
153,192,193490,128,0,194249:0:0:0:0:
460,192,193680,1,0,0:0:0:0:
51,192,193869,1,0,0:0:0:0:
256,192,193869,1,0,0:0:0:0:
460,192,194059,1,0,0:0:0:0:
460,192,194249,1,0,0:0:0:0:
256,192,194249,128,0,195009:0:0:0:0:
51,192,194249,128,0,195009:0:0:0:0:
358,192,194439,1,0,0:0:0:0:
460,192,194629,1,0,0:0:0:0:
358,192,194819,1,0,0:0:0:0:
460,192,194914,1,0,0:0:0:0:
358,192,195009,1,0,0:0:0:0:
153,192,195009,1,0,0:0:0:0:
51,192,195199,128,0,195768:0:0:0:0:
358,192,195388,128,0,195768:0:0:0:0:
153,192,195578,128,0,195768:0:0:0:0:
460,192,195768,128,0,196528:0:0:0:0:
256,192,195768,1,0,0:0:0:0:
51,192,195863,1,0,0:0:0:0:
153,192,195958,1,0,0:0:0:0:
358,192,196053,1,0,0:0:0:0:
256,192,196148,1,0,0:0:0:0:
153,192,196148,1,0,0:0:0:0:
51,192,196243,1,0,0:0:0:0:
358,192,196338,1,0,0:0:0:0:
153,192,196433,1,0,0:0:0:0:
256,192,196528,1,0,0:0:0:0:
51,192,196528,1,0,0:0:0:0:
358,192,196623,1,0,0:0:0:0:
460,192,196717,1,0,0:0:0:0:
153,192,196717,128,0,196907:0:0:0:0:
256,192,196812,1,0,0:0:0:0:
358,192,196907,128,0,197097:0:0:0:0:
51,192,196907,1,0,0:0:0:0:
460,192,196907,1,0,0:0:0:0:
51,192,197097,1,0,0:0:0:0:
153,192,197097,128,0,197287:0:0:0:0:
256,192,197287,1,0,0:0:0:0:
460,192,197287,1,0,0:0:0:0:
460,192,197382,1,0,0:0:0:0:
460,192,197477,1,0,0:0:0:0:
460,192,197572,1,0,0:0:0:0:
51,192,197667,1,0,0:0:0:0:
256,192,197667,1,0,0:0:0:0:
153,192,197762,1,0,0:0:0:0:
256,192,197857,1,0,0:0:0:0:
358,192,197952,1,0,0:0:0:0:
256,192,198047,1,0,0:0:0:0:
153,192,198047,1,0,0:0:0:0:
51,192,198047,128,0,198300:0:0:0:0:
256,192,198300,1,0,0:0:0:0:
358,192,198300,1,0,0:0:0:0:
153,192,198300,128,0,198553:0:0:0:0:
358,192,198553,1,0,0:0:0:0:
460,192,198553,1,0,0:0:0:0:
256,192,198553,128,0,198806:0:0:0:0:
358,192,198806,1,0,0:0:0:0:
51,192,198806,1,0,0:0:0:0:
460,192,198806,1,0,0:0:0:0:
153,192,198854,1,0,0:0:0:0:
256,192,198901,1,0,0:0:0:0:
358,192,198949,1,0,0:0:0:0:
51,192,198996,1,0,0:0:0:0:
153,192,199043,1,0,0:0:0:0:
256,192,199091,1,0,0:0:0:0:
358,192,199138,1,0,0:0:0:0:
460,192,199186,1,0,0:0:0:0:
51,192,199186,1,0,0:0:0:0:
153,192,199233,1,0,0:0:0:0:
358,192,199281,1,0,0:0:0:0:
460,192,199328,1,0,0:0:0:0:
51,192,199376,1,0,0:0:0:0:
51,192,199566,1,0,0:0:0:0:
460,192,199566,1,0,0:0:0:0:
358,192,199566,1,0,0:0:0:0:
153,192,199613,1,0,0:0:0:0:
256,192,199661,1,0,0:0:0:0:
358,192,199708,1,0,0:0:0:0:
460,192,199755,1,0,0:0:0:0:
51,192,199755,1,0,0:0:0:0:
153,192,199803,1,0,0:0:0:0:
256,192,199850,1,0,0:0:0:0:
358,192,199898,1,0,0:0:0:0:
51,192,199945,1,0,0:0:0:0:
460,192,199945,1,0,0:0:0:0:
358,192,199993,1,0,0:0:0:0:
153,192,200040,1,0,0:0:0:0:
51,192,200088,1,0,0:0:0:0:
460,192,200135,1,0,0:0:0:0:
358,192,200183,1,0,0:0:0:0:
153,192,200230,1,0,0:0:0:0:
51,192,200325,1,0,0:0:0:0:
460,192,200325,1,0,0:0:0:0:
358,192,200325,1,0,0:0:0:0:
153,192,200420,1,0,0:0:0:0:
256,192,200515,1,0,0:0:0:0:
358,192,200515,1,0,0:0:0:0:
51,192,200610,1,0,0:0:0:0:
256,192,200705,1,0,0:0:0:0:
153,192,200705,1,0,0:0:0:0:
460,192,200800,1,0,0:0:0:0:
51,192,200895,1,0,0:0:0:0:
153,192,200895,1,0,0:0:0:0:
256,192,200990,1,0,0:0:0:0:
51,192,201085,1,0,0:0:0:0:
460,192,201085,1,0,0:0:0:0:
358,192,201180,1,0,0:0:0:0:
256,192,201274,1,0,0:0:0:0:
153,192,201274,1,0,0:0:0:0:
460,192,201369,1,0,0:0:0:0:
51,192,201464,1,0,0:0:0:0:
358,192,201464,1,0,0:0:0:0:
153,192,201528,1,0,0:0:0:0:
256,192,201591,1,0,0:0:0:0:
460,192,201654,1,0,0:0:0:0:
358,192,201717,1,0,0:0:0:0:
256,192,201781,1,0,0:0:0:0:
51,192,201844,1,0,0:0:0:0:
153,192,201844,128,0,201939:0:0:0:0:
460,192,201939,1,0,0:0:0:0:
358,192,201939,128,0,202034:0:0:0:0:
51,192,202034,1,0,0:0:0:0:
153,192,202034,128,0,202129:0:0:0:0:
256,192,202129,1,0,0:0:0:0:
358,192,202129,128,0,202224:0:0:0:0:
51,192,202224,1,0,0:0:0:0:
460,192,202224,1,0,0:0:0:0:
51,192,202319,1,0,0:0:0:0:
51,192,202414,1,0,0:0:0:0:
358,192,202414,1,0,0:0:0:0:
51,192,202509,1,0,0:0:0:0:
51,192,202604,1,0,0:0:0:0:
256,192,202604,1,0,0:0:0:0:
51,192,202699,1,0,0:0:0:0:
51,192,202793,1,0,0:0:0:0:
358,192,202793,1,0,0:0:0:0:
51,192,202888,1,0,0:0:0:0:
460,192,202983,1,0,0:0:0:0:
358,192,203078,1,0,0:0:0:0:
256,192,203173,1,0,0:0:0:0:
51,192,203173,1,0,0:0:0:0:
153,192,203268,1,0,0:0:0:0:
460,192,203363,1,0,0:0:0:0:
358,192,203363,128,0,203458:0:0:0:0:
51,192,203458,1,0,0:0:0:0:
153,192,203458,128,0,203553:0:0:0:0:
460,192,203553,1,0,0:0:0:0:
358,192,203553,128,0,203648:0:0:0:0:
153,192,203648,128,0,203743:0:0:0:0:
51,192,203648,1,0,0:0:0:0:
460,192,203743,1,0,0:0:0:0:
256,192,203743,1,0,0:0:0:0:
460,192,203838,1,0,0:0:0:0:
460,192,203933,1,0,0:0:0:0:
51,192,203933,1,0,0:0:0:0:
460,192,204028,1,0,0:0:0:0:
460,192,204123,1,0,0:0:0:0:
153,192,204123,1,0,0:0:0:0:
460,192,204217,1,0,0:0:0:0:
51,192,204312,1,0,0:0:0:0:
153,192,204407,1,0,0:0:0:0:
460,192,204502,1,0,0:0:0:0:
256,192,204502,1,0,0:0:0:0:
51,192,204597,1,0,0:0:0:0:
358,192,204692,1,0,0:0:0:0:
153,192,204692,1,0,0:0:0:0:
460,192,204787,1,0,0:0:0:0:
51,192,204882,1,0,0:0:0:0:
256,192,204882,1,0,0:0:0:0:
358,192,204977,1,0,0:0:0:0:
153,192,204977,1,0,0:0:0:0:
51,192,205072,1,0,0:0:0:0:
256,192,205072,1,0,0:0:0:0:
460,192,205072,1,0,0:0:0:0:
153,192,205262,1,0,0:0:0:0:
358,192,205357,1,0,0:0:0:0:
256,192,205452,1,0,0:0:0:0:
153,192,205547,1,0,0:0:0:0:
51,192,205642,1,0,0:0:0:0:
358,192,205642,1,0,0:0:0:0:
256,192,205736,1,0,0:0:0:0:
153,192,205736,1,0,0:0:0:0:
460,192,205831,1,0,0:0:0:0:
358,192,205831,1,0,0:0:0:0:
153,192,205926,1,0,0:0:0:0:
460,192,206021,1,0,0:0:0:0:
358,192,206069,1,0,0:0:0:0:
256,192,206116,1,0,0:0:0:0:
51,192,206164,1,0,0:0:0:0:
153,192,206211,1,0,0:0:0:0:
256,192,206259,1,0,0:0:0:0:
460,192,206306,1,0,0:0:0:0:
358,192,206354,1,0,0:0:0:0:
153,192,206401,1,0,0:0:0:0:
256,192,206401,1,0,0:0:0:0:
51,192,206401,128,0,206654:0:0:0:0:
256,192,206654,1,0,0:0:0:0:
358,192,206654,1,0,0:0:0:0:
153,192,206654,128,0,206907:0:0:0:0:
460,192,206907,1,0,0:0:0:0:
358,192,206907,1,0,0:0:0:0:
256,192,206907,128,0,207161:0:0:0:0:
51,192,207161,1,0,0:0:0:0:
460,192,207161,1,0,0:0:0:0:
358,192,207161,128,0,207414:0:0:0:0:
153,192,207414,1,0,0:0:0:0:
51,192,207414,1,0,0:0:0:0:
460,192,207414,128,0,207667:0:0:0:0:
153,192,207667,1,0,0:0:0:0:
256,192,207667,1,0,0:0:0:0:
51,192,207667,128,0,207920:0:0:0:0:
153,192,207920,1,0,0:0:0:0:
256,192,207920,128,0,209059:0:0:0:0:
358,192,207920,1,0,0:0:0:0:
51,192,208110,1,0,0:0:0:0:
358,192,208300,1,0,0:0:0:0:
460,192,208300,128,0,209059:0:0:0:0:
153,192,208490,1,0,0:0:0:0:
153,192,208680,1,0,0:0:0:0:
51,192,208680,128,0,209059:0:0:0:0:
358,192,208869,1,0,0:0:0:0:
153,192,209059,128,0,209439:0:0:0:0:
358,192,209059,1,0,0:0:0:0:
460,192,209249,1,0,0:0:0:0:
460,192,209439,1,0,0:0:0:0:
256,192,209439,128,0,210199:0:0:0:0:
358,192,209534,1,0,0:0:0:0:
51,192,209629,1,0,0:0:0:0:
153,192,209724,1,0,0:0:0:0:
460,192,209819,1,0,0:0:0:0:
358,192,209914,1,0,0:0:0:0:
153,192,210009,1,0,0:0:0:0:
51,192,210104,1,0,0:0:0:0:
460,192,210199,128,0,210958:0:0:0:0:
153,192,210199,1,0,0:0:0:0:
358,192,210388,1,0,0:0:0:0:
153,192,210388,1,0,0:0:0:0:
256,192,210483,1,0,0:0:0:0:
153,192,210578,1,0,0:0:0:0:
51,192,210578,1,0,0:0:0:0:
256,192,210705,1,0,0:0:0:0:
358,192,210768,1,0,0:0:0:0:
256,192,210831,1,0,0:0:0:0:
153,192,210958,128,0,211148:0:0:0:0:
51,192,210958,1,0,0:0:0:0:
256,192,211148,1,0,0:0:0:0:
358,192,211148,128,0,211717:0:0:0:0:
51,192,211243,1,0,0:0:0:0:
460,192,211338,1,0,0:0:0:0:
51,192,211433,1,0,0:0:0:0:
460,192,211528,1,0,0:0:0:0:
256,192,211623,1,0,0:0:0:0:
51,192,211717,5,0,0:0:0:0:
153,192,211765,1,0,0:0:0:0:
256,192,211812,1,0,0:0:0:0:
358,192,211860,1,0,0:0:0:0:
460,192,211907,1,0,0:0:0:0:
51,192,211955,1,0,0:0:0:0:
153,192,212002,1,0,0:0:0:0:
256,192,212050,1,0,0:0:0:0:
358,192,212097,1,0,0:0:0:0:
460,192,212145,1,0,0:0:0:0:
51,192,212192,1,0,0:0:0:0:
153,192,212240,1,0,0:0:0:0:
256,192,212287,1,0,0:0:0:0:
358,192,212335,1,0,0:0:0:0:
460,192,212382,1,0,0:0:0:0:
51,192,212430,1,0,0:0:0:0:
153,192,212477,1,0,0:0:0:0:
256,192,212477,128,0,213806:0:0:0:0:
358,192,212477,128,0,212857:0:0:0:0:
460,192,212857,128,0,213616:0:0:0:0:
358,192,213236,128,0,213616:0:0:0:0:
51,192,213616,128,0,213806:0:0:0:0:
153,192,213616,128,0,213806:0:0:0:0:
358,192,213806,128,0,213996:0:0:0:0:
460,192,213806,128,0,213996:0:0:0:0:
153,192,213996,128,0,214186:0:0:0:0:
51,192,213996,128,0,214186:0:0:0:0:
256,192,213996,128,0,214186:0:0:0:0:
460,192,214186,1,0,0:0:0:0:
358,192,214281,1,0,0:0:0:0:
51,192,214376,1,0,0:0:0:0:
256,192,214376,1,0,0:0:0:0:
460,192,214471,1,0,0:0:0:0:
358,192,214566,1,0,0:0:0:0:
153,192,214661,1,0,0:0:0:0:
51,192,214755,1,0,0:0:0:0:
460,192,214755,1,0,0:0:0:0:
358,192,214882,1,0,0:0:0:0:
460,192,214945,1,0,0:0:0:0:
51,192,215009,1,0,0:0:0:0:
153,192,215072,1,0,0:0:0:0:
256,192,215135,128,0,215515:0:0:0:0:
358,192,215230,1,0,0:0:0:0:
153,192,215325,1,0,0:0:0:0:
358,192,215420,1,0,0:0:0:0:
51,192,215515,1,0,0:0:0:0:
460,192,215515,1,0,0:0:0:0:
153,192,215705,1,0,0:0:0:0:
51,192,215705,1,0,0:0:0:0:
358,192,215800,1,0,0:0:0:0:
460,192,215800,1,0,0:0:0:0:
51,192,215990,1,0,0:0:0:0:
153,192,215990,1,0,0:0:0:0:
358,192,216085,1,0,0:0:0:0:
460,192,216085,1,0,0:0:0:0:
51,192,216274,1,0,0:0:0:0:
460,192,216274,1,0,0:0:0:0:
153,192,216338,1,0,0:0:0:0:
358,192,216401,1,0,0:0:0:0:
460,192,216464,1,0,0:0:0:0:
51,192,216528,1,0,0:0:0:0:
153,192,216591,1,0,0:0:0:0:
256,192,216654,1,0,0:0:0:0:
358,192,216654,1,0,0:0:0:0:
51,192,216749,1,0,0:0:0:0:
153,192,216844,1,0,0:0:0:0:
358,192,216939,1,0,0:0:0:0:
460,192,217034,1,0,0:0:0:0:
51,192,217034,1,0,0:0:0:0:
51,192,217224,1,0,0:0:0:0:
153,192,217224,1,0,0:0:0:0:
256,192,217224,1,0,0:0:0:0:
358,192,217414,128,0,217509:0:0:0:0:
153,192,217509,128,0,217604:0:0:0:0:
358,192,217604,128,0,217699:0:0:0:0:
153,192,217699,128,0,217793:0:0:0:0:
460,192,217793,1,0,0:0:0:0:
51,192,217793,1,0,0:0:0:0:
358,192,217857,1,0,0:0:0:0:
153,192,217920,1,0,0:0:0:0:
51,192,217983,1,0,0:0:0:0:
460,192,218047,1,0,0:0:0:0:
358,192,218110,1,0,0:0:0:0:
51,192,218173,1,0,0:0:0:0:
256,192,218173,1,0,0:0:0:0:
153,192,218268,1,0,0:0:0:0:
256,192,218363,1,0,0:0:0:0:
153,192,218458,1,0,0:0:0:0:
460,192,218553,1,0,0:0:0:0:
358,192,218553,1,0,0:0:0:0:
51,192,218553,128,0,218933:0:0:0:0:
256,192,218743,1,0,0:0:0:0:
153,192,218933,1,0,0:0:0:0:
460,192,218933,128,0,219312:0:0:0:0:
358,192,219123,1,0,0:0:0:0:
51,192,219312,1,0,0:0:0:0:
256,192,219312,1,0,0:0:0:0:
153,192,219312,128,0,220072:0:0:0:0:
51,192,219502,128,0,219597:0:0:0:0:
460,192,219597,128,0,219692:0:0:0:0:
358,192,219692,128,0,220072:0:0:0:0:
51,192,219692,128,0,219787:0:0:0:0:
460,192,219787,128,0,219882:0:0:0:0:
51,192,219882,128,0,219977:0:0:0:0:
460,192,219977,128,0,220072:0:0:0:0:
256,192,220072,128,0,220262:0:0:0:0:
51,192,220072,1,0,0:0:0:0:
51,192,220262,1,0,0:0:0:0:
153,192,220357,1,0,0:0:0:0:
358,192,220452,1,0,0:0:0:0:
460,192,220452,1,0,0:0:0:0:
51,192,220547,1,0,0:0:0:0:
256,192,220642,1,0,0:0:0:0:
460,192,220736,1,0,0:0:0:0:
51,192,220831,1,0,0:0:0:0:
153,192,220831,1,0,0:0:0:0:
256,192,220831,128,0,221211:0:0:0:0:
358,192,220958,1,0,0:0:0:0:
460,192,221085,1,0,0:0:0:0:
153,192,221211,128,0,221591:0:0:0:0:
51,192,221211,1,0,0:0:0:0:
358,192,221306,1,0,0:0:0:0:
51,192,221401,1,0,0:0:0:0:
460,192,221496,1,0,0:0:0:0:
358,192,221591,128,0,221971:0:0:0:0:
256,192,221591,1,0,0:0:0:0:
51,192,221781,1,0,0:0:0:0:
153,192,221781,1,0,0:0:0:0:
256,192,221876,1,0,0:0:0:0:
460,192,221876,1,0,0:0:0:0:
51,192,221971,1,0,0:0:0:0:
153,192,222066,1,0,0:0:0:0:
256,192,222066,1,0,0:0:0:0:
358,192,222161,1,0,0:0:0:0:
460,192,222161,1,0,0:0:0:0:
460,192,222350,1,0,0:0:0:0:
256,192,222350,1,0,0:0:0:0:
51,192,222350,128,0,222730:0:0:0:0:
153,192,222445,128,0,222730:0:0:0:0:
358,192,222540,128,0,222730:0:0:0:0:
460,192,222635,128,0,222730:0:0:0:0:
256,192,222730,128,0,222825:0:0:0:0:
256,192,222920,128,0,223015:0:0:0:0:
358,192,223110,1,0,0:0:0:0:
153,192,223110,1,0,0:0:0:0:
51,192,223300,1,0,0:0:0:0:
256,192,223300,128,0,223490:0:0:0:0:
460,192,223300,1,0,0:0:0:0:
153,192,223490,128,0,223616:0:0:0:0:
358,192,223616,128,0,223743:0:0:0:0:
153,192,223743,128,0,223869:0:0:0:0:
460,192,223869,128,0,223964:0:0:0:0:
460,192,224059,128,0,224154:0:0:0:0:
256,192,224059,1,0,0:0:0:0:
460,192,224249,128,0,224344:0:0:0:0:
51,192,224249,1,0,0:0:0:0:
153,192,224249,1,0,0:0:0:0:
460,192,224439,128,0,224534:0:0:0:0:
256,192,224439,1,0,0:0:0:0:
153,192,224534,1,0,0:0:0:0:
51,192,224629,1,0,0:0:0:0:
256,192,224629,1,0,0:0:0:0:
358,192,224819,128,0,225009:0:0:0:0:
460,192,224819,128,0,225009:0:0:0:0:
153,192,224819,1,0,0:0:0:0:
51,192,225009,128,0,225388:0:0:0:0:
153,192,225199,128,0,225483:0:0:0:0:
256,192,225293,128,0,225578:0:0:0:0:
460,192,225388,1,0,0:0:0:0:
358,192,225388,128,0,225673:0:0:0:0:
51,192,225483,128,0,225768:0:0:0:0:
153,192,225578,128,0,225768:0:0:0:0:
256,192,225673,128,0,225768:0:0:0:0:
460,192,225768,128,0,225958:0:0:0:0:
358,192,225768,1,0,0:0:0:0:
51,192,225958,128,0,226148:0:0:0:0:
153,192,225958,1,0,0:0:0:0:
460,192,226148,128,0,226338:0:0:0:0:
358,192,226148,1,0,0:0:0:0:
256,192,226148,1,0,0:0:0:0:
153,192,226338,1,0,0:0:0:0:
51,192,226433,1,0,0:0:0:0:
460,192,226528,1,0,0:0:0:0:
256,192,226528,1,0,0:0:0:0:
153,192,226717,1,0,0:0:0:0:
358,192,226812,1,0,0:0:0:0:
51,192,226907,1,0,0:0:0:0:
256,192,226907,1,0,0:0:0:0:
153,192,226907,1,0,0:0:0:0:
358,192,227034,1,0,0:0:0:0:
460,192,227161,1,0,0:0:0:0:
51,192,227287,128,0,227667:0:0:0:0:
153,192,227287,1,0,0:0:0:0:
358,192,227382,1,0,0:0:0:0:
256,192,227477,1,0,0:0:0:0:
153,192,227572,1,0,0:0:0:0:
460,192,227667,128,0,228047:0:0:0:0:
358,192,227667,1,0,0:0:0:0:
51,192,227857,1,0,0:0:0:0:
256,192,227857,1,0,0:0:0:0:
358,192,227952,1,0,0:0:0:0:
153,192,228047,1,0,0:0:0:0:
256,192,228142,1,0,0:0:0:0:
358,192,228142,1,0,0:0:0:0:
51,192,228236,1,0,0:0:0:0:
153,192,228236,1,0,0:0:0:0:
460,192,228331,1,0,0:0:0:0:
358,192,228426,1,0,0:0:0:0:
51,192,228426,128,0,228711:0:0:0:0:
153,192,228521,128,0,228806:0:0:0:0:
358,192,228616,128,0,228901:0:0:0:0:
460,192,228711,128,0,228996:0:0:0:0:
51,192,228806,128,0,229091:0:0:0:0:
153,192,228901,128,0,229091:0:0:0:0:
256,192,228996,128,0,229186:0:0:0:0:
358,192,229091,128,0,229186:0:0:0:0:
460,192,229186,1,0,0:0:0:0:
51,192,229186,128,0,229376:0:0:0:0:
153,192,229186,1,0,0:0:0:0:
460,192,229376,128,0,229566:0:0:0:0:
358,192,229376,1,0,0:0:0:0:
51,192,229566,1,0,0:0:0:0:
153,192,229566,1,0,0:0:0:0:
358,192,229661,1,0,0:0:0:0:
153,192,229755,1,0,0:0:0:0:
358,192,229850,1,0,0:0:0:0:
256,192,229945,1,0,0:0:0:0:
51,192,229945,1,0,0:0:0:0:
460,192,230072,1,0,0:0:0:0:
153,192,230199,1,0,0:0:0:0:
358,192,230325,1,0,0:0:0:0:
460,192,230325,1,0,0:0:0:0:
51,192,230420,1,0,0:0:0:0:
153,192,230515,1,0,0:0:0:0:
358,192,230610,1,0,0:0:0:0:
460,192,230705,1,0,0:0:0:0:
153,192,230705,1,0,0:0:0:0:
51,192,230705,128,0,231085:0:0:0:0:
256,192,230895,1,0,0:0:0:0:
358,192,231085,1,0,0:0:0:0:
153,192,231085,1,0,0:0:0:0:
460,192,231085,128,0,231464:0:0:0:0:
256,192,231274,1,0,0:0:0:0:
153,192,231464,128,0,231844:0:0:0:0:
51,192,231464,1,0,0:0:0:0:
358,192,231464,1,0,0:0:0:0:
256,192,231654,128,0,231844:0:0:0:0:
358,192,231844,128,0,232034:0:0:0:0:
51,192,231844,1,0,0:0:0:0:
460,192,232034,128,0,232224:0:0:0:0:
153,192,232034,1,0,0:0:0:0:
51,192,232224,5,0,0:0:0:0:
256,192,232224,1,0,0:0:0:0:
358,192,232224,1,0,0:0:0:0:
51,192,232414,1,0,0:0:0:0:
256,192,232414,1,0,0:0:0:0:
51,192,232604,1,0,0:0:0:0:
51,192,232699,1,0,0:0:0:0:
51,192,232793,1,0,0:0:0:0:
51,192,232888,1,0,0:0:0:0:
358,192,232983,1,0,0:0:0:0:
153,192,232983,1,0,0:0:0:0:
153,192,233173,1,0,0:0:0:0:
358,192,233173,1,0,0:0:0:0:
153,192,233363,1,0,0:0:0:0:
153,192,233458,1,0,0:0:0:0:
153,192,233553,1,0,0:0:0:0:
153,192,233648,1,0,0:0:0:0:
256,192,233743,1,0,0:0:0:0:
460,192,233743,1,0,0:0:0:0:
256,192,233933,1,0,0:0:0:0:
460,192,233933,1,0,0:0:0:0:
460,192,234123,1,0,0:0:0:0:
153,192,234123,1,0,0:0:0:0:
358,192,234217,1,0,0:0:0:0:
51,192,234217,1,0,0:0:0:0:
460,192,234312,1,0,0:0:0:0:
153,192,234312,1,0,0:0:0:0:
256,192,234407,1,0,0:0:0:0:
153,192,234502,1,0,0:0:0:0:
460,192,234502,1,0,0:0:0:0:
51,192,234502,1,0,0:0:0:0:
51,192,234597,1,0,0:0:0:0:
51,192,234692,1,0,0:0:0:0:
51,192,234787,1,0,0:0:0:0:
460,192,234882,1,0,0:0:0:0:
358,192,234882,1,0,0:0:0:0:
460,192,234977,1,0,0:0:0:0:
460,192,235072,1,0,0:0:0:0:
460,192,235167,1,0,0:0:0:0:
51,192,235262,128,0,235452:0:0:0:0:
256,192,235262,1,0,0:0:0:0:
153,192,235452,128,0,236021:0:0:0:0:
358,192,235452,128,0,236021:0:0:0:0:
460,192,235452,1,0,0:0:0:0:
256,192,235642,1,0,0:0:0:0:
460,192,235831,1,0,0:0:0:0:
256,192,236021,128,0,236401:0:0:0:0:
51,192,236021,1,0,0:0:0:0:
153,192,236116,1,0,0:0:0:0:
51,192,236211,1,0,0:0:0:0:
153,192,236306,1,0,0:0:0:0:
358,192,236401,128,0,236781:0:0:0:0:
51,192,236401,1,0,0:0:0:0:
153,192,236496,1,0,0:0:0:0:
256,192,236591,1,0,0:0:0:0:
153,192,236686,1,0,0:0:0:0:
460,192,236781,128,0,237161:0:0:0:0:
256,192,236781,1,0,0:0:0:0:
51,192,236781,1,0,0:0:0:0:
358,192,236876,1,0,0:0:0:0:
256,192,236971,1,0,0:0:0:0:
358,192,237066,1,0,0:0:0:0:
51,192,237161,1,0,0:0:0:0:
153,192,237161,1,0,0:0:0:0:
256,192,237161,1,0,0:0:0:0:
460,192,237255,1,0,0:0:0:0:
358,192,237350,1,0,0:0:0:0:
153,192,237445,1,0,0:0:0:0:
51,192,237540,1,0,0:0:0:0:
460,192,237540,1,0,0:0:0:0:
358,192,237588,1,0,0:0:0:0:
256,192,237635,1,0,0:0:0:0:
153,192,237683,1,0,0:0:0:0:
51,192,237730,1,0,0:0:0:0:
460,192,237778,1,0,0:0:0:0:
358,192,237825,1,0,0:0:0:0:
256,192,237873,1,0,0:0:0:0:
153,192,237920,1,0,0:0:0:0:
51,192,237967,1,0,0:0:0:0:
460,192,238015,1,0,0:0:0:0:
358,192,238062,1,0,0:0:0:0:
256,192,238110,1,0,0:0:0:0:
153,192,238157,1,0,0:0:0:0:
51,192,238205,1,0,0:0:0:0:
460,192,238252,1,0,0:0:0:0:
358,192,238300,1,0,0:0:0:0:
256,192,238300,1,0,0:0:0:0:
153,192,238395,1,0,0:0:0:0:
460,192,238490,1,0,0:0:0:0:
51,192,238585,1,0,0:0:0:0:
358,192,238680,1,0,0:0:0:0:
153,192,238774,1,0,0:0:0:0:
256,192,238869,1,0,0:0:0:0:
460,192,238964,1,0,0:0:0:0:
51,192,239059,1,0,0:0:0:0:
153,192,239154,1,0,0:0:0:0:
358,192,239249,1,0,0:0:0:0:
256,192,239344,1,0,0:0:0:0:
51,192,239439,1,0,0:0:0:0:
460,192,239534,1,0,0:0:0:0:
358,192,239629,1,0,0:0:0:0:
153,192,239724,1,0,0:0:0:0:
256,192,239819,128,0,244698:0:0:0:0:
358,192,239819,128,0,244698:0:0:0:0:
460,192,239819,128,0,243008:0:0:0:0:
51,192,240603,1,0,0:0:0:0:
153,192,241387,1,0,0:0:0:0:
51,192,242197,1,0,0:0:0:0:
51,192,243008,1,0,0:0:0:0:
460,192,244698,1,0,0:0:0:0:
256,192,245543,1,0,0:0:0:0:
51,192,246452,1,0,0:0:0:0:
460,192,246452,1,0,0:0:0:0:
153,192,246504,1,0,0:0:0:0:
256,192,246556,1,0,0:0:0:0:
51,192,248118,1,0,0:0:0:0:
256,192,248952,1,0,0:0:0:0:
460,192,249785,1,0,0:0:0:0:
153,192,249785,1,0,0:0:0:0:
358,192,249838,1,0,0:0:0:0:
256,192,251499,1,0,0:0:0:0:
51,192,253296,1,0,0:0:0:0:
460,192,253296,1,0,0:0:0:0:
153,192,256905,1,0,0:0:0:0:
358,192,256905,1,0,0:0:0:0:
51,192,260541,1,0,0:0:0:0:
460,192,260541,1,0,0:0:0:0:
153,192,260604,1,0,0:0:0:0:
256,192,260667,1,0,0:0:0:0:
51,192,261549,1,0,0:0:0:0:
256,192,262053,1,0,0:0:0:0:
153,192,262557,1,0,0:0:0:0:
358,192,263065,1,0,0:0:0:0:
256,192,263573,1,0,0:0:0:0:
460,192,264099,1,0,0:0:0:0:
358,192,264796,1,0,0:0:0:0:
51,192,265518,1,0,0:0:0:0:
153,192,265563,1,0,0:0:0:0:
358,192,265608,1,0,0:0:0:0:
460,192,265653,1,0,0:0:0:0:
