osu file format v14

[General]
AudioFilename: Wizards In Winter.mp3
AudioLeadIn: 0
PreviewTime: -1
Countdown: 0
SampleSet: None
StackLeniency: 0.7
Mode: 3
LetterboxInBreaks: 0
SpecialStyle: 0
WidescreenStoryboard: 1

[Editor]
DistanceSpacing: 1.2
BeatDivisor: 4
GridSize: 4
TimelineZoom: 1

[Metadata]
Title:5K Madness Volume II
TitleUnicode:5K Madness Volume II
Artist:Various
ArtistUnicode:Various
Creator:JamesHappy
Version:Trans-Siberian Orchestra - Wizards in Winter
Source:
Tags:
BeatmapID:876693
BeatmapSetID:403078

[Difficulty]
HPDrainRate:5
CircleSize:5
OverallDifficulty:7.4
ApproachRate:5
SliderMultiplier:1.4
SliderTickRate:1

[Events]
//Background and Video events
0,0,"Winter.jpg",0,0
//Break Periods
//Storyboard Layer 0 (Background)
//Storyboard Layer 1 (Fail)
//Storyboard Layer 2 (Pass)
//Storyboard Layer 3 (Foreground)
//Storyboard Sound Samples

[TimingPoints]
2264,404.312668463612,4,2,1,5,1,0

[HitObjects]
64,192,2264,5,0,0:0:0:0:
256,192,2264,1,0,0:0:0:0:
192,192,2264,1,0,0:0:0:0:
320,192,2466,1,0,0:0:0:0:
448,192,2668,1,0,0:0:0:0:
256,192,2668,1,0,0:0:0:0:
192,192,2870,1,0,0:0:0:0:
358,192,3072,1,0,0:0:0:0:
448,192,3072,1,0,0:0:0:0:
64,192,3072,1,0,0:0:0:0:
153,192,3274,1,0,0:0:0:0:
256,192,3476,1,0,0:0:0:0:
460,192,3476,1,0,0:0:0:0:
358,192,3679,1,0,0:0:0:0:
64,192,3881,1,0,0:0:0:0:
256,192,3881,1,0,0:0:0:0:
460,192,3881,1,0,0:0:0:0:
51,192,4083,1,0,0:0:0:0:
153,192,4285,1,0,0:0:0:0:
256,192,4285,1,0,0:0:0:0:
153,192,4487,1,0,0:0:0:0:
460,192,4689,1,0,0:0:0:0:
256,192,4689,1,0,0:0:0:0:
64,192,4689,1,0,0:0:0:0:
460,192,4892,1,0,0:0:0:0:
320,192,5094,1,0,0:0:0:0:
256,192,5094,1,0,0:0:0:0:
358,192,5296,1,0,0:0:0:0:
448,192,5498,1,0,0:0:0:0:
256,192,5498,1,0,0:0:0:0:
192,192,5498,1,0,0:0:0:0:
64,192,5700,1,0,0:0:0:0:
192,192,5902,1,0,0:0:0:0:
358,192,5902,1,0,0:0:0:0:
460,192,6104,1,0,0:0:0:0:
256,192,6307,1,0,0:0:0:0:
64,192,6307,1,0,0:0:0:0:
320,192,6307,1,0,0:0:0:0:
192,192,6509,1,0,0:0:0:0:
64,192,6711,1,0,0:0:0:0:
448,192,6711,1,0,0:0:0:0:
320,192,6913,1,0,0:0:0:0:
448,192,7115,1,0,0:0:0:0:
256,192,7115,1,0,0:0:0:0:
153,192,7115,1,0,0:0:0:0:
51,192,7317,1,0,0:0:0:0:
192,192,7520,1,0,0:0:0:0:
256,192,7722,1,0,0:0:0:0:
358,192,7924,1,0,0:0:0:0:
153,192,8126,1,0,0:0:0:0:
256,192,8328,1,0,0:0:0:0:
320,192,8530,1,0,0:0:0:0:
192,192,8733,1,0,0:0:0:0:
64,192,8733,1,0,0:0:0:0:
448,192,8733,1,0,0:0:0:0:
320,192,8935,1,0,0:0:0:0:
192,192,9137,1,0,0:0:0:0:
256,192,9137,1,0,0:0:0:0:
320,192,9339,1,0,0:0:0:0:
448,192,9541,1,0,0:0:0:0:
64,192,9541,1,0,0:0:0:0:
192,192,9541,1,0,0:0:0:0:
320,192,9743,1,0,0:0:0:0:
192,192,9945,1,0,0:0:0:0:
256,192,9945,1,0,0:0:0:0:
320,192,10148,1,0,0:0:0:0:
64,192,10350,1,0,0:0:0:0:
448,192,10350,1,0,0:0:0:0:
192,192,10350,1,0,0:0:0:0:
256,192,10552,1,0,0:0:0:0:
448,192,10754,1,0,0:0:0:0:
358,192,10754,1,0,0:0:0:0:
256,192,10956,1,0,0:0:0:0:
64,192,11158,1,0,0:0:0:0:
192,192,11158,1,0,0:0:0:0:
448,192,11158,1,0,0:0:0:0:
256,192,11361,1,0,0:0:0:0:
358,192,11563,1,0,0:0:0:0:
448,192,11563,1,0,0:0:0:0:
256,192,11765,1,0,0:0:0:0:
192,192,11967,1,0,0:0:0:0:
448,192,11967,1,0,0:0:0:0:
51,192,11967,1,0,0:0:0:0:
358,192,12169,1,0,0:0:0:0:
256,192,12371,1,0,0:0:0:0:
51,192,12371,1,0,0:0:0:0:
460,192,12573,1,0,0:0:0:0:
64,192,12776,1,0,0:0:0:0:
358,192,12776,1,0,0:0:0:0:
256,192,12776,1,0,0:0:0:0:
153,192,12978,1,0,0:0:0:0:
448,192,13180,1,0,0:0:0:0:
256,192,13180,1,0,0:0:0:0:
51,192,13382,1,0,0:0:0:0:
256,192,13584,1,0,0:0:0:0:
448,192,13584,1,0,0:0:0:0:
192,192,13584,1,0,0:0:0:0:
51,192,13786,1,0,0:0:0:0:
460,192,13989,1,0,0:0:0:0:
153,192,14191,1,0,0:0:0:0:
358,192,14393,1,0,0:0:0:0:
64,192,14595,1,0,0:0:0:0:
460,192,14797,1,0,0:0:0:0:
153,192,14999,1,0,0:0:0:0:
448,192,15202,1,0,0:0:0:0:
256,192,15202,1,0,0:0:0:0:
64,192,15202,1,0,0:0:0:0:
460,192,15404,1,0,0:0:0:0:
153,192,15606,1,0,0:0:0:0:
448,192,15606,1,0,0:0:0:0:
320,192,15606,1,0,0:0:0:0:
358,192,15808,1,0,0:0:0:0:
256,192,16010,1,0,0:0:0:0:
320,192,16010,1,0,0:0:0:0:
64,192,16010,1,0,0:0:0:0:
51,192,16212,1,0,0:0:0:0:
51,192,16414,1,0,0:0:0:0:
192,192,16414,1,0,0:0:0:0:
358,192,16414,1,0,0:0:0:0:
153,192,16617,1,0,0:0:0:0:
192,192,16819,1,0,0:0:0:0:
448,192,16819,1,0,0:0:0:0:
64,192,16819,1,0,0:0:0:0:
460,192,17021,1,0,0:0:0:0:
153,192,17223,1,0,0:0:0:0:
448,192,17223,1,0,0:0:0:0:
358,192,17223,1,0,0:0:0:0:
320,192,17425,1,0,0:0:0:0:
64,192,17627,1,0,0:0:0:0:
320,192,17627,1,0,0:0:0:0:
256,192,17627,1,0,0:0:0:0:
51,192,17830,1,0,0:0:0:0:
64,192,18032,1,0,0:0:0:0:
358,192,18032,1,0,0:0:0:0:
192,192,18032,1,0,0:0:0:0:
153,192,18234,1,0,0:0:0:0:
256,192,18436,1,0,0:0:0:0:
192,192,18436,1,0,0:0:0:0:
448,192,18436,1,0,0:0:0:0:
256,192,18638,1,0,0:0:0:0:
64,192,18840,1,0,0:0:0:0:
192,192,18840,1,0,0:0:0:0:
448,192,18840,1,0,0:0:0:0:
256,192,18840,1,0,0:0:0:0:
460,192,19042,1,0,0:0:0:0:
460,192,19245,1,0,0:0:0:0:
192,192,19245,1,0,0:0:0:0:
64,192,19245,1,0,0:0:0:0:
51,192,19447,1,0,0:0:0:0:
448,192,19649,1,0,0:0:0:0:
64,192,19649,1,0,0:0:0:0:
256,192,19649,1,0,0:0:0:0:
256,192,19851,1,0,0:0:0:0:
448,192,20053,1,0,0:0:0:0:
64,192,20053,1,0,0:0:0:0:
256,192,20053,1,0,0:0:0:0:
153,192,20255,1,0,0:0:0:0:
358,192,20458,1,0,0:0:0:0:
64,192,20660,1,0,0:0:0:0:
256,192,20862,1,0,0:0:0:0:
460,192,21064,1,0,0:0:0:0:
153,192,21266,1,0,0:0:0:0:
320,192,21468,1,0,0:0:0:0:
256,192,21671,1,0,0:0:0:0:
192,192,21671,1,0,0:0:0:0:
448,192,21671,1,0,0:0:0:0:
192,192,21873,1,0,0:0:0:0:
448,192,22075,1,0,0:0:0:0:
153,192,22075,1,0,0:0:0:0:
320,192,22075,1,0,0:0:0:0:
320,192,22277,1,0,0:0:0:0:
358,192,22479,1,0,0:0:0:0:
192,192,22479,1,0,0:0:0:0:
64,192,22479,1,0,0:0:0:0:
51,192,22681,1,0,0:0:0:0:
64,192,22883,1,0,0:0:0:0:
448,192,22883,1,0,0:0:0:0:
320,192,22883,1,0,0:0:0:0:
460,192,23086,1,0,0:0:0:0:
64,192,23288,1,0,0:0:0:0:
448,192,23288,1,0,0:0:0:0:
192,192,23288,1,0,0:0:0:0:
153,192,23490,1,0,0:0:0:0:
448,192,23692,1,0,0:0:0:0:
320,192,23692,1,0,0:0:0:0:
153,192,23692,1,0,0:0:0:0:
358,192,23894,1,0,0:0:0:0:
64,192,24096,1,0,0:0:0:0:
320,192,24096,1,0,0:0:0:0:
448,192,24096,1,0,0:0:0:0:
51,192,24299,1,0,0:0:0:0:
64,192,24501,1,0,0:0:0:0:
448,192,24501,1,0,0:0:0:0:
192,192,24501,1,0,0:0:0:0:
460,192,24703,1,0,0:0:0:0:
51,192,24905,1,0,0:0:0:0:
358,192,24905,1,0,0:0:0:0:
448,192,24905,1,0,0:0:0:0:
256,192,25107,1,0,0:0:0:0:
64,192,25309,1,0,0:0:0:0:
448,192,25309,1,0,0:0:0:0:
153,192,25309,1,0,0:0:0:0:
256,192,25511,1,0,0:0:0:0:
460,192,25714,1,0,0:0:0:0:
320,192,25714,1,0,0:0:0:0:
64,192,25714,1,0,0:0:0:0:
256,192,25916,1,0,0:0:0:0:
64,192,26118,1,0,0:0:0:0:
448,192,26118,1,0,0:0:0:0:
192,192,26118,1,0,0:0:0:0:
256,192,26320,1,0,0:0:0:0:
64,192,26522,1,0,0:0:0:0:
320,192,26522,1,0,0:0:0:0:
448,192,26522,1,0,0:0:0:0:
64,192,27129,1,0,0:0:0:0:
256,192,27129,1,0,0:0:0:0:
256,192,27331,1,0,0:0:0:0:
448,192,27331,1,0,0:0:0:0:
64,192,27533,1,0,0:0:0:0:
256,192,27533,1,0,0:0:0:0:
256,192,27735,1,0,0:0:0:0:
448,192,27735,1,0,0:0:0:0:
64,192,27937,1,0,0:0:0:0:
256,192,27937,1,0,0:0:0:0:
256,192,28140,1,0,0:0:0:0:
192,192,28140,1,0,0:0:0:0:
320,192,28140,1,0,0:0:0:0:
448,192,28140,1,0,0:0:0:0:
256,192,28746,1,0,0:0:0:0:
448,192,28746,1,0,0:0:0:0:
64,192,28948,1,0,0:0:0:0:
256,192,28948,1,0,0:0:0:0:
256,192,29150,1,0,0:0:0:0:
448,192,29150,1,0,0:0:0:0:
64,192,29352,1,0,0:0:0:0:
256,192,29352,1,0,0:0:0:0:
256,192,29555,1,0,0:0:0:0:
448,192,29555,1,0,0:0:0:0:
64,192,29757,1,0,0:0:0:0:
192,192,29757,1,0,0:0:0:0:
320,192,29757,1,0,0:0:0:0:
256,192,29757,1,0,0:0:0:0:
64,192,30363,1,0,0:0:0:0:
256,192,30363,1,0,0:0:0:0:
320,192,30363,1,0,0:0:0:0:
448,192,30363,1,0,0:0:0:0:
64,192,30565,1,0,0:0:0:0:
256,192,30565,1,0,0:0:0:0:
320,192,30565,1,0,0:0:0:0:
448,192,30565,1,0,0:0:0:0:
64,192,31172,1,0,0:0:0:0:
192,192,31172,1,0,0:0:0:0:
256,192,31172,1,0,0:0:0:0:
448,192,31172,1,0,0:0:0:0:
64,192,31374,1,0,0:0:0:0:
192,192,31374,1,0,0:0:0:0:
256,192,31374,1,0,0:0:0:0:
448,192,31374,1,0,0:0:0:0:
64,192,31778,1,0,0:0:0:0:
192,192,31778,1,0,0:0:0:0:
256,192,31778,1,0,0:0:0:0:
358,192,31778,1,0,0:0:0:0:
153,192,32183,1,0,0:0:0:0:
256,192,32183,1,0,0:0:0:0:
320,192,32183,1,0,0:0:0:0:
448,192,32183,1,0,0:0:0:0:
64,192,32587,1,0,0:0:0:0:
153,192,32587,1,0,0:0:0:0:
448,192,32587,1,0,0:0:0:0:
320,192,32587,1,0,0:0:0:0:
256,192,32688,1,0,0:0:0:0:
51,192,32688,1,0,0:0:0:0:
153,192,32789,1,0,0:0:0:0:
358,192,32789,1,0,0:0:0:0:
460,192,32890,1,0,0:0:0:0:
256,192,32890,1,0,0:0:0:0:
448,192,32991,1,0,0:0:0:0:
64,192,32991,1,0,0:0:0:0:
192,192,32991,1,0,0:0:0:0:
358,192,32991,1,0,0:0:0:0:
256,192,33193,1,0,0:0:0:0:
358,192,33396,1,0,0:0:0:0:
153,192,33396,1,0,0:0:0:0:
448,192,33396,1,0,0:0:0:0:
256,192,33598,1,0,0:0:0:0:
64,192,33800,1,0,0:0:0:0:
153,192,33800,1,0,0:0:0:0:
358,192,33800,1,0,0:0:0:0:
256,192,34002,1,0,0:0:0:0:
358,192,34204,1,0,0:0:0:0:
460,192,34204,1,0,0:0:0:0:
153,192,34204,1,0,0:0:0:0:
256,192,34406,1,0,0:0:0:0:
51,192,34609,1,0,0:0:0:0:
320,192,34609,1,0,0:0:0:0:
448,192,34609,1,0,0:0:0:0:
51,192,34811,1,0,0:0:0:0:
256,192,35013,1,0,0:0:0:0:
64,192,35013,1,0,0:0:0:0:
448,192,35013,1,0,0:0:0:0:
448,192,35215,1,0,0:0:0:0:
192,192,35417,1,0,0:0:0:0:
460,192,35417,1,0,0:0:0:0:
64,192,35417,1,0,0:0:0:0:
64,192,35619,1,0,0:0:0:0:
448,192,35821,1,0,0:0:0:0:
256,192,35821,1,0,0:0:0:0:
51,192,35821,1,0,0:0:0:0:
448,192,36024,1,0,0:0:0:0:
153,192,36226,1,0,0:0:0:0:
256,192,36226,1,0,0:0:0:0:
460,192,36226,1,0,0:0:0:0:
153,192,36428,1,0,0:0:0:0:
192,192,36630,1,0,0:0:0:0:
320,192,36630,1,0,0:0:0:0:
448,192,36630,1,0,0:0:0:0:
358,192,36832,1,0,0:0:0:0:
320,192,37034,1,0,0:0:0:0:
153,192,37034,1,0,0:0:0:0:
256,192,37034,1,0,0:0:0:0:
153,192,37237,1,0,0:0:0:0:
358,192,37439,1,0,0:0:0:0:
192,192,37439,1,0,0:0:0:0:
64,192,37439,1,0,0:0:0:0:
358,192,37641,1,0,0:0:0:0:
256,192,37843,1,0,0:0:0:0:
64,192,37843,1,0,0:0:0:0:
192,192,37843,1,0,0:0:0:0:
320,192,37843,1,0,0:0:0:0:
64,192,38247,1,0,0:0:0:0:
256,192,38247,1,0,0:0:0:0:
192,192,38449,1,0,0:0:0:0:
358,192,38449,1,0,0:0:0:0:
256,192,38652,1,0,0:0:0:0:
460,192,38652,1,0,0:0:0:0:
192,192,38854,1,0,0:0:0:0:
358,192,38854,1,0,0:0:0:0:
64,192,39056,1,0,0:0:0:0:
256,192,39056,1,0,0:0:0:0:
192,192,39258,1,0,0:0:0:0:
358,192,39258,1,0,0:0:0:0:
64,192,39460,1,0,0:0:0:0:
256,192,39460,1,0,0:0:0:0:
448,192,39460,1,0,0:0:0:0:
153,192,39460,1,0,0:0:0:0:
358,192,39662,1,0,0:0:0:0:
256,192,39865,1,0,0:0:0:0:
51,192,39865,1,0,0:0:0:0:
448,192,39865,1,0,0:0:0:0:
192,192,40067,1,0,0:0:0:0:
64,192,40269,1,0,0:0:0:0:
256,192,40269,1,0,0:0:0:0:
448,192,40269,1,0,0:0:0:0:
320,192,40471,1,0,0:0:0:0:
64,192,40673,1,0,0:0:0:0:
448,192,40673,1,0,0:0:0:0:
192,192,40673,1,0,0:0:0:0:
358,192,40875,1,0,0:0:0:0:
64,192,41078,1,0,0:0:0:0:
192,192,41078,1,0,0:0:0:0:
256,192,41078,1,0,0:0:0:0:
460,192,41280,1,0,0:0:0:0:
153,192,41482,1,0,0:0:0:0:
358,192,41482,1,0,0:0:0:0:
256,192,41482,1,0,0:0:0:0:
51,192,41684,1,0,0:0:0:0:
256,192,41886,1,0,0:0:0:0:
153,192,41886,1,0,0:0:0:0:
358,192,41886,1,0,0:0:0:0:
460,192,42088,1,0,0:0:0:0:
192,192,42290,1,0,0:0:0:0:
320,192,42290,1,0,0:0:0:0:
256,192,42290,1,0,0:0:0:0:
51,192,42493,1,0,0:0:0:0:
358,192,42695,1,0,0:0:0:0:
192,192,42695,1,0,0:0:0:0:
256,192,42695,1,0,0:0:0:0:
358,192,42897,1,0,0:0:0:0:
64,192,43099,1,0,0:0:0:0:
460,192,43099,1,0,0:0:0:0:
153,192,43099,1,0,0:0:0:0:
460,192,43301,1,0,0:0:0:0:
64,192,43503,1,0,0:0:0:0:
192,192,43503,1,0,0:0:0:0:
358,192,43503,1,0,0:0:0:0:
192,192,43706,1,0,0:0:0:0:
64,192,43908,1,0,0:0:0:0:
320,192,43908,1,0,0:0:0:0:
448,192,43908,1,0,0:0:0:0:
51,192,44110,1,0,0:0:0:0:
256,192,44312,1,0,0:0:0:0:
192,192,44312,1,0,0:0:0:0:
320,192,44312,1,0,0:0:0:0:
448,192,44312,1,0,0:0:0:0:
64,192,44918,1,0,0:0:0:0:
256,192,44918,1,0,0:0:0:0:
51,192,45121,1,0,0:0:0:0:
153,192,45121,1,0,0:0:0:0:
64,192,45323,1,0,0:0:0:0:
358,192,45323,1,0,0:0:0:0:
51,192,45525,1,0,0:0:0:0:
256,192,45525,1,0,0:0:0:0:
64,192,45727,1,0,0:0:0:0:
460,192,45727,1,0,0:0:0:0:
64,192,45929,1,0,0:0:0:0:
192,192,45929,1,0,0:0:0:0:
320,192,45929,1,0,0:0:0:0:
256,192,45929,1,0,0:0:0:0:
448,192,46536,1,0,0:0:0:0:
256,192,46536,1,0,0:0:0:0:
358,192,46738,1,0,0:0:0:0:
460,192,46738,1,0,0:0:0:0:
192,192,46940,1,0,0:0:0:0:
448,192,46940,1,0,0:0:0:0:
256,192,47142,1,0,0:0:0:0:
460,192,47142,1,0,0:0:0:0:
448,192,47344,1,0,0:0:0:0:
51,192,47344,1,0,0:0:0:0:
256,192,47547,1,0,0:0:0:0:
192,192,47547,1,0,0:0:0:0:
320,192,47547,1,0,0:0:0:0:
448,192,47547,1,0,0:0:0:0:
192,192,48153,1,0,0:0:0:0:
64,192,48153,1,0,0:0:0:0:
256,192,48153,1,0,0:0:0:0:
358,192,48153,1,0,0:0:0:0:
64,192,48355,1,0,0:0:0:0:
192,192,48355,1,0,0:0:0:0:
256,192,48355,1,0,0:0:0:0:
358,192,48355,1,0,0:0:0:0:
153,192,48962,1,0,0:0:0:0:
256,192,48962,1,0,0:0:0:0:
320,192,48962,1,0,0:0:0:0:
448,192,48962,1,0,0:0:0:0:
153,192,49164,1,0,0:0:0:0:
256,192,49164,1,0,0:0:0:0:
320,192,49164,1,0,0:0:0:0:
448,192,49164,1,0,0:0:0:0:
64,192,49568,1,0,0:0:0:0:
256,192,49568,1,0,0:0:0:0:
192,192,49972,1,0,0:0:0:0:
358,192,49972,1,0,0:0:0:0:
256,192,50377,1,0,0:0:0:0:
460,192,50377,1,0,0:0:0:0:
358,192,50781,1,0,0:0:0:0:
192,192,50781,1,0,0:0:0:0:
64,192,51185,1,0,0:0:0:0:
256,192,51185,1,0,0:0:0:0:
192,192,51590,1,0,0:0:0:0:
358,192,51590,1,0,0:0:0:0:
256,192,51994,128,0,52398:0:0:0:0:
460,192,51994,128,0,52398:0:0:0:0:
192,192,52398,1,0,0:0:0:0:
51,192,52398,1,0,0:0:0:0:
358,192,52398,1,0,0:0:0:0:
51,192,52600,1,0,0:0:0:0:
256,192,52803,1,0,0:0:0:0:
64,192,52803,1,0,0:0:0:0:
448,192,52803,1,0,0:0:0:0:
448,192,53005,1,0,0:0:0:0:
192,192,53207,1,0,0:0:0:0:
64,192,53207,1,0,0:0:0:0:
460,192,53207,1,0,0:0:0:0:
153,192,53409,1,0,0:0:0:0:
448,192,53611,1,0,0:0:0:0:
320,192,53611,1,0,0:0:0:0:
192,192,53611,1,0,0:0:0:0:
358,192,53813,1,0,0:0:0:0:
320,192,54016,1,0,0:0:0:0:
64,192,54016,1,0,0:0:0:0:
448,192,54016,1,0,0:0:0:0:
153,192,54218,1,0,0:0:0:0:
448,192,54420,1,0,0:0:0:0:
256,192,54420,1,0,0:0:0:0:
64,192,54420,1,0,0:0:0:0:
358,192,54622,1,0,0:0:0:0:
64,192,54824,1,0,0:0:0:0:
256,192,54824,1,0,0:0:0:0:
460,192,54824,1,0,0:0:0:0:
153,192,55026,1,0,0:0:0:0:
256,192,55228,1,0,0:0:0:0:
64,192,55228,1,0,0:0:0:0:
448,192,55228,1,0,0:0:0:0:
358,192,55431,1,0,0:0:0:0:
153,192,55633,1,0,0:0:0:0:
256,192,55633,1,0,0:0:0:0:
448,192,55633,1,0,0:0:0:0:
153,192,55835,1,0,0:0:0:0:
51,192,56037,1,0,0:0:0:0:
256,192,56037,1,0,0:0:0:0:
460,192,56037,1,0,0:0:0:0:
448,192,56239,1,0,0:0:0:0:
64,192,56441,1,0,0:0:0:0:
192,192,56441,1,0,0:0:0:0:
256,192,56441,1,0,0:0:0:0:
64,192,56644,1,0,0:0:0:0:
448,192,56846,1,0,0:0:0:0:
320,192,56846,1,0,0:0:0:0:
256,192,56846,1,0,0:0:0:0:
448,192,57048,1,0,0:0:0:0:
320,192,57250,1,0,0:0:0:0:
64,192,57250,1,0,0:0:0:0:
192,192,57250,1,0,0:0:0:0:
256,192,57452,1,0,0:0:0:0:
448,192,57654,1,0,0:0:0:0:
320,192,57654,1,0,0:0:0:0:
192,192,57654,1,0,0:0:0:0:
256,192,57856,1,0,0:0:0:0:
320,192,58059,1,0,0:0:0:0:
64,192,58059,1,0,0:0:0:0:
192,192,58059,1,0,0:0:0:0:
256,192,58261,1,0,0:0:0:0:
448,192,58463,1,0,0:0:0:0:
192,192,58463,1,0,0:0:0:0:
320,192,58463,1,0,0:0:0:0:
256,192,58665,1,0,0:0:0:0:
64,192,58867,1,0,0:0:0:0:
192,192,58867,1,0,0:0:0:0:
320,192,58867,1,0,0:0:0:0:
64,192,59069,1,0,0:0:0:0:
192,192,59272,1,0,0:0:0:0:
64,192,59272,1,0,0:0:0:0:
256,192,59272,1,0,0:0:0:0:
320,192,59474,1,0,0:0:0:0:
64,192,59474,1,0,0:0:0:0:
448,192,59676,1,0,0:0:0:0:
64,192,59676,1,0,0:0:0:0:
192,192,59676,1,0,0:0:0:0:
64,192,59878,1,0,0:0:0:0:
448,192,60080,1,0,0:0:0:0:
64,192,60080,1,0,0:0:0:0:
256,192,60080,1,0,0:0:0:0:
153,192,60080,1,0,0:0:0:0:
64,192,60282,1,0,0:0:0:0:
256,192,60485,1,0,0:0:0:0:
64,192,60485,1,0,0:0:0:0:
448,192,60485,1,0,0:0:0:0:
448,192,60687,1,0,0:0:0:0:
448,192,60889,1,0,0:0:0:0:
320,192,60889,1,0,0:0:0:0:
256,192,60889,1,0,0:0:0:0:
448,192,61091,1,0,0:0:0:0:
192,192,61091,1,0,0:0:0:0:
448,192,61293,1,0,0:0:0:0:
64,192,61293,1,0,0:0:0:0:
320,192,61293,1,0,0:0:0:0:
448,192,61495,1,0,0:0:0:0:
448,192,61697,1,0,0:0:0:0:
64,192,61697,1,0,0:0:0:0:
256,192,61697,1,0,0:0:0:0:
320,192,61697,1,0,0:0:0:0:
448,192,61900,1,0,0:0:0:0:
192,192,62102,1,0,0:0:0:0:
64,192,62102,1,0,0:0:0:0:
448,192,62102,1,0,0:0:0:0:
192,192,62304,1,0,0:0:0:0:
460,192,62506,1,0,0:0:0:0:
192,192,62506,1,0,0:0:0:0:
64,192,62506,1,0,0:0:0:0:
320,192,62708,1,0,0:0:0:0:
192,192,62708,1,0,0:0:0:0:
256,192,62910,1,0,0:0:0:0:
192,192,62910,1,0,0:0:0:0:
64,192,62910,1,0,0:0:0:0:
192,192,63113,1,0,0:0:0:0:
256,192,63315,1,0,0:0:0:0:
64,192,63315,1,0,0:0:0:0:
192,192,63315,1,0,0:0:0:0:
460,192,63315,1,0,0:0:0:0:
192,192,63517,1,0,0:0:0:0:
448,192,63719,1,0,0:0:0:0:
320,192,63719,1,0,0:0:0:0:
192,192,63719,1,0,0:0:0:0:
320,192,63921,1,0,0:0:0:0:
51,192,63921,1,0,0:0:0:0:
320,192,64123,1,0,0:0:0:0:
192,192,64123,1,0,0:0:0:0:
460,192,64123,1,0,0:0:0:0:
320,192,64325,1,0,0:0:0:0:
51,192,64528,1,0,0:0:0:0:
256,192,64528,1,0,0:0:0:0:
320,192,64528,1,0,0:0:0:0:
448,192,64528,1,0,0:0:0:0:
320,192,64730,1,0,0:0:0:0:
320,192,64932,1,0,0:0:0:0:
64,192,64932,1,0,0:0:0:0:
256,192,64932,1,0,0:0:0:0:
320,192,65134,1,0,0:0:0:0:
448,192,65336,1,0,0:0:0:0:
64,192,65336,1,0,0:0:0:0:
320,192,65336,1,0,0:0:0:0:
64,192,65538,1,0,0:0:0:0:
64,192,65741,1,0,0:0:0:0:
192,192,65741,1,0,0:0:0:0:
448,192,65741,1,0,0:0:0:0:
256,192,65943,1,0,0:0:0:0:
448,192,65943,1,0,0:0:0:0:
358,192,66145,1,0,0:0:0:0:
448,192,66145,1,0,0:0:0:0:
64,192,66145,1,0,0:0:0:0:
64,192,66347,1,0,0:0:0:0:
460,192,66549,1,0,0:0:0:0:
64,192,66549,1,0,0:0:0:0:
256,192,66549,1,0,0:0:0:0:
460,192,66751,1,0,0:0:0:0:
460,192,66954,1,0,0:0:0:0:
64,192,66954,1,0,0:0:0:0:
256,192,66954,1,0,0:0:0:0:
51,192,67156,1,0,0:0:0:0:
64,192,67358,1,0,0:0:0:0:
192,192,67358,1,0,0:0:0:0:
448,192,67358,1,0,0:0:0:0:
448,192,67560,1,0,0:0:0:0:
256,192,67560,1,0,0:0:0:0:
448,192,67762,1,0,0:0:0:0:
358,192,67762,1,0,0:0:0:0:
64,192,67762,1,0,0:0:0:0:
51,192,67964,1,0,0:0:0:0:
448,192,68166,1,0,0:0:0:0:
51,192,68166,1,0,0:0:0:0:
256,192,68166,1,0,0:0:0:0:
460,192,68369,1,0,0:0:0:0:
256,192,68571,1,0,0:0:0:0:
64,192,68571,1,0,0:0:0:0:
448,192,68571,1,0,0:0:0:0:
64,192,68773,1,0,0:0:0:0:
256,192,68975,1,0,0:0:0:0:
64,192,68975,1,0,0:0:0:0:
448,192,68975,1,0,0:0:0:0:
460,192,69177,1,0,0:0:0:0:
192,192,69177,1,0,0:0:0:0:
64,192,69379,1,0,0:0:0:0:
448,192,69379,1,0,0:0:0:0:
256,192,69379,1,0,0:0:0:0:
51,192,69582,1,0,0:0:0:0:
448,192,69784,1,0,0:0:0:0:
64,192,69784,1,0,0:0:0:0:
192,192,69784,1,0,0:0:0:0:
192,192,69986,1,0,0:0:0:0:
192,192,70188,1,0,0:0:0:0:
64,192,70188,1,0,0:0:0:0:
256,192,70188,1,0,0:0:0:0:
256,192,70390,1,0,0:0:0:0:
448,192,70592,1,0,0:0:0:0:
320,192,70592,1,0,0:0:0:0:
256,192,70592,1,0,0:0:0:0:
358,192,70794,1,0,0:0:0:0:
192,192,70997,1,0,0:0:0:0:
448,192,70997,1,0,0:0:0:0:
320,192,70997,1,0,0:0:0:0:
460,192,71199,1,0,0:0:0:0:
460,192,71401,1,0,0:0:0:0:
256,192,71401,1,0,0:0:0:0:
64,192,71401,1,0,0:0:0:0:
256,192,71603,1,0,0:0:0:0:
64,192,71805,1,0,0:0:0:0:
256,192,71805,1,0,0:0:0:0:
153,192,71805,1,0,0:0:0:0:
448,192,71805,1,0,0:0:0:0:
64,192,72412,1,0,0:0:0:0:
460,192,72412,1,0,0:0:0:0:
192,192,72614,1,0,0:0:0:0:
358,192,72614,1,0,0:0:0:0:
64,192,72816,1,0,0:0:0:0:
460,192,72816,1,0,0:0:0:0:
358,192,73018,1,0,0:0:0:0:
192,192,73018,1,0,0:0:0:0:
460,192,73220,1,0,0:0:0:0:
64,192,73220,1,0,0:0:0:0:
64,192,73423,1,0,0:0:0:0:
192,192,73423,1,0,0:0:0:0:
320,192,73423,1,0,0:0:0:0:
448,192,73423,1,0,0:0:0:0:
192,192,74029,1,0,0:0:0:0:
358,192,74029,1,0,0:0:0:0:
64,192,74231,1,0,0:0:0:0:
460,192,74231,1,0,0:0:0:0:
192,192,74433,1,0,0:0:0:0:
358,192,74433,1,0,0:0:0:0:
460,192,74635,1,0,0:0:0:0:
64,192,74635,1,0,0:0:0:0:
192,192,74838,1,0,0:0:0:0:
358,192,74838,1,0,0:0:0:0:
64,192,75040,1,0,0:0:0:0:
192,192,75040,1,0,0:0:0:0:
320,192,75040,1,0,0:0:0:0:
448,192,75040,1,0,0:0:0:0:
64,192,75646,1,0,0:0:0:0:
192,192,75646,1,0,0:0:0:0:
320,192,75646,1,0,0:0:0:0:
448,192,75646,1,0,0:0:0:0:
64,192,75848,1,0,0:0:0:0:
192,192,75848,1,0,0:0:0:0:
320,192,75848,1,0,0:0:0:0:
448,192,75848,1,0,0:0:0:0:
64,192,76455,1,0,0:0:0:0:
192,192,76455,1,0,0:0:0:0:
320,192,76455,1,0,0:0:0:0:
448,192,76455,1,0,0:0:0:0:
320,192,76657,1,0,0:0:0:0:
448,192,76657,1,0,0:0:0:0:
64,192,76657,1,0,0:0:0:0:
192,192,76657,1,0,0:0:0:0:
64,192,77061,1,0,0:0:0:0:
192,192,77061,1,0,0:0:0:0:
256,192,77061,1,0,0:0:0:0:
448,192,77061,1,0,0:0:0:0:
64,192,77466,1,0,0:0:0:0:
256,192,77466,1,0,0:0:0:0:
320,192,77466,1,0,0:0:0:0:
448,192,77466,1,0,0:0:0:0:
64,192,77870,1,0,0:0:0:0:
320,192,77870,1,0,0:0:0:0:
448,192,77870,1,0,0:0:0:0:
192,192,77870,1,0,0:0:0:0:
256,192,77971,1,0,0:0:0:0:
51,192,77971,1,0,0:0:0:0:
358,192,78072,1,0,0:0:0:0:
153,192,78072,1,0,0:0:0:0:
256,192,78173,1,0,0:0:0:0:
460,192,78173,1,0,0:0:0:0:
320,192,78274,1,0,0:0:0:0:
64,192,78274,1,0,0:0:0:0:
448,192,78274,1,0,0:0:0:0:
153,192,78274,1,0,0:0:0:0:
256,192,78375,1,0,0:0:0:0:
320,192,78476,1,0,0:0:0:0:
448,192,78578,1,0,0:0:0:0:
256,192,78679,1,0,0:0:0:0:
358,192,78679,1,0,0:0:0:0:
64,192,78679,1,0,0:0:0:0:
153,192,78780,1,0,0:0:0:0:
256,192,78881,1,0,0:0:0:0:
358,192,78982,1,0,0:0:0:0:
256,192,79083,1,0,0:0:0:0:
64,192,79083,1,0,0:0:0:0:
448,192,79083,1,0,0:0:0:0:
358,192,79184,1,0,0:0:0:0:
256,192,79285,1,0,0:0:0:0:
153,192,79386,1,0,0:0:0:0:
448,192,79487,1,0,0:0:0:0:
64,192,79487,1,0,0:0:0:0:
358,192,79487,1,0,0:0:0:0:
256,192,79588,1,0,0:0:0:0:
192,192,79689,1,0,0:0:0:0:
64,192,79790,1,0,0:0:0:0:
320,192,79892,1,0,0:0:0:0:
256,192,79892,1,0,0:0:0:0:
448,192,79892,1,0,0:0:0:0:
153,192,79993,1,0,0:0:0:0:
256,192,80094,1,0,0:0:0:0:
358,192,80195,1,0,0:0:0:0:
448,192,80296,1,0,0:0:0:0:
256,192,80296,1,0,0:0:0:0:
64,192,80296,1,0,0:0:0:0:
153,192,80397,1,0,0:0:0:0:
256,192,80498,1,0,0:0:0:0:
358,192,80599,1,0,0:0:0:0:
64,192,80700,1,0,0:0:0:0:
256,192,80700,1,0,0:0:0:0:
448,192,80700,1,0,0:0:0:0:
358,192,80801,1,0,0:0:0:0:
256,192,80902,1,0,0:0:0:0:
153,192,81003,1,0,0:0:0:0:
448,192,81104,1,0,0:0:0:0:
256,192,81104,1,0,0:0:0:0:
64,192,81104,1,0,0:0:0:0:
320,192,81206,1,0,0:0:0:0:
256,192,81307,1,0,0:0:0:0:
153,192,81408,1,0,0:0:0:0:
320,192,81509,1,0,0:0:0:0:
64,192,81509,1,0,0:0:0:0:
448,192,81509,1,0,0:0:0:0:
192,192,81610,1,0,0:0:0:0:
256,192,81711,1,0,0:0:0:0:
358,192,81812,1,0,0:0:0:0:
64,192,81913,1,0,0:0:0:0:
192,192,81913,1,0,0:0:0:0:
448,192,81913,1,0,0:0:0:0:
320,192,82014,1,0,0:0:0:0:
256,192,82115,1,0,0:0:0:0:
153,192,82216,1,0,0:0:0:0:
64,192,82317,1,0,0:0:0:0:
320,192,82317,1,0,0:0:0:0:
448,192,82317,1,0,0:0:0:0:
192,192,82418,1,0,0:0:0:0:
256,192,82520,1,0,0:0:0:0:
358,192,82621,1,0,0:0:0:0:
64,192,82722,1,0,0:0:0:0:
448,192,82722,1,0,0:0:0:0:
192,192,82722,1,0,0:0:0:0:
320,192,82823,1,0,0:0:0:0:
256,192,82924,1,0,0:0:0:0:
153,192,83025,1,0,0:0:0:0:
64,192,83126,1,0,0:0:0:0:
256,192,83126,1,0,0:0:0:0:
320,192,83126,1,0,0:0:0:0:
448,192,83126,1,0,0:0:0:0:
64,192,83530,1,0,0:0:0:0:
256,192,83530,1,0,0:0:0:0:
192,192,83733,1,0,0:0:0:0:
320,192,83733,1,0,0:0:0:0:
256,192,83935,1,0,0:0:0:0:
448,192,83935,1,0,0:0:0:0:
192,192,84137,1,0,0:0:0:0:
320,192,84137,1,0,0:0:0:0:
64,192,84339,1,0,0:0:0:0:
256,192,84339,1,0,0:0:0:0:
192,192,84541,1,0,0:0:0:0:
320,192,84541,1,0,0:0:0:0:
64,192,84743,1,0,0:0:0:0:
256,192,84743,1,0,0:0:0:0:
448,192,84743,1,0,0:0:0:0:
358,192,84743,1,0,0:0:0:0:
153,192,84844,1,0,0:0:0:0:
256,192,84945,1,0,0:0:0:0:
153,192,85047,1,0,0:0:0:0:
64,192,85148,1,0,0:0:0:0:
256,192,85148,1,0,0:0:0:0:
448,192,85148,1,0,0:0:0:0:
358,192,85249,1,0,0:0:0:0:
256,192,85350,1,0,0:0:0:0:
358,192,85451,1,0,0:0:0:0:
64,192,85552,1,0,0:0:0:0:
256,192,85552,1,0,0:0:0:0:
448,192,85552,1,0,0:0:0:0:
153,192,85653,1,0,0:0:0:0:
256,192,85754,1,0,0:0:0:0:
153,192,85855,1,0,0:0:0:0:
64,192,85956,1,0,0:0:0:0:
256,192,85956,1,0,0:0:0:0:
448,192,85956,1,0,0:0:0:0:
358,192,86057,1,0,0:0:0:0:
256,192,86158,1,0,0:0:0:0:
358,192,86259,1,0,0:0:0:0:
64,192,86361,1,0,0:0:0:0:
256,192,86361,1,0,0:0:0:0:
448,192,86361,1,0,0:0:0:0:
192,192,86462,1,0,0:0:0:0:
320,192,86563,1,0,0:0:0:0:
153,192,86664,1,0,0:0:0:0:
64,192,86765,1,0,0:0:0:0:
256,192,86765,1,0,0:0:0:0:
448,192,86765,1,0,0:0:0:0:
320,192,86866,1,0,0:0:0:0:
192,192,86967,1,0,0:0:0:0:
358,192,87068,1,0,0:0:0:0:
64,192,87169,1,0,0:0:0:0:
448,192,87169,1,0,0:0:0:0:
256,192,87169,1,0,0:0:0:0:
192,192,87270,1,0,0:0:0:0:
320,192,87371,1,0,0:0:0:0:
153,192,87472,1,0,0:0:0:0:
64,192,87573,1,0,0:0:0:0:
256,192,87573,1,0,0:0:0:0:
448,192,87573,1,0,0:0:0:0:
320,192,87675,1,0,0:0:0:0:
192,192,87776,1,0,0:0:0:0:
358,192,87877,1,0,0:0:0:0:
64,192,87978,1,0,0:0:0:0:
192,192,87978,1,0,0:0:0:0:
448,192,87978,1,0,0:0:0:0:
320,192,88079,1,0,0:0:0:0:
51,192,88180,1,0,0:0:0:0:
256,192,88281,1,0,0:0:0:0:
64,192,88382,1,0,0:0:0:0:
320,192,88382,1,0,0:0:0:0:
448,192,88382,1,0,0:0:0:0:
192,192,88483,1,0,0:0:0:0:
460,192,88584,1,0,0:0:0:0:
256,192,88685,1,0,0:0:0:0:
64,192,88786,1,0,0:0:0:0:
192,192,88786,1,0,0:0:0:0:
448,192,88786,1,0,0:0:0:0:
320,192,88887,1,0,0:0:0:0:
51,192,88989,1,0,0:0:0:0:
256,192,89090,1,0,0:0:0:0:
64,192,89191,1,0,0:0:0:0:
320,192,89191,1,0,0:0:0:0:
448,192,89191,1,0,0:0:0:0:
153,192,89292,1,0,0:0:0:0:
460,192,89393,1,0,0:0:0:0:
256,192,89494,1,0,0:0:0:0:
64,192,89595,1,0,0:0:0:0:
320,192,89595,1,0,0:0:0:0:
448,192,89595,1,0,0:0:0:0:
192,192,89595,1,0,0:0:0:0:
64,192,90202,1,0,0:0:0:0:
358,192,90202,1,0,0:0:0:0:
256,192,90404,1,0,0:0:0:0:
448,192,90404,1,0,0:0:0:0:
358,192,90606,1,0,0:0:0:0:
64,192,90606,1,0,0:0:0:0:
256,192,90808,1,0,0:0:0:0:
448,192,90808,1,0,0:0:0:0:
358,192,91010,1,0,0:0:0:0:
64,192,91010,1,0,0:0:0:0:
64,192,91212,1,0,0:0:0:0:
192,192,91212,1,0,0:0:0:0:
256,192,91212,1,0,0:0:0:0:
448,192,91212,1,0,0:0:0:0:
153,192,91819,1,0,0:0:0:0:
448,192,91819,1,0,0:0:0:0:
256,192,92021,1,0,0:0:0:0:
64,192,92021,1,0,0:0:0:0:
153,192,92223,1,0,0:0:0:0:
448,192,92223,1,0,0:0:0:0:
256,192,92425,1,0,0:0:0:0:
64,192,92425,1,0,0:0:0:0:
153,192,92627,1,0,0:0:0:0:
448,192,92627,1,0,0:0:0:0:
64,192,92830,1,0,0:0:0:0:
256,192,92830,1,0,0:0:0:0:
320,192,92830,1,0,0:0:0:0:
448,192,92830,1,0,0:0:0:0:
64,192,93436,1,0,0:0:0:0:
256,192,93436,1,0,0:0:0:0:
192,192,93638,1,0,0:0:0:0:
358,192,93638,1,0,0:0:0:0:
256,192,93840,1,0,0:0:0:0:
460,192,93840,1,0,0:0:0:0:
51,192,94042,1,0,0:0:0:0:
256,192,94042,1,0,0:0:0:0:
153,192,94245,1,0,0:0:0:0:
358,192,94245,1,0,0:0:0:0:
256,192,94447,1,0,0:0:0:0:
448,192,94447,1,0,0:0:0:0:
153,192,94851,1,0,0:0:0:0:
358,192,94851,1,0,0:0:0:0:
64,192,95255,1,0,0:0:0:0:
256,192,95255,1,0,0:0:0:0:
358,192,95660,1,0,0:0:0:0:
192,192,95660,1,0,0:0:0:0:
256,192,96064,1,0,0:0:0:0:
460,192,96064,1,0,0:0:0:0:
153,192,96468,1,0,0:0:0:0:
358,192,96468,1,0,0:0:0:0:
64,192,96873,1,0,0:0:0:0:
256,192,96873,1,0,0:0:0:0:
358,192,97277,1,0,0:0:0:0:
192,192,97277,1,0,0:0:0:0:
256,192,97681,1,0,0:0:0:0:
448,192,97681,1,0,0:0:0:0:
358,192,97883,1,0,0:0:0:0:
192,192,97883,1,0,0:0:0:0:
64,192,98086,1,0,0:0:0:0:
448,192,98086,1,0,0:0:0:0:
153,192,98288,1,0,0:0:0:0:
320,192,98288,1,0,0:0:0:0:
64,192,98490,1,0,0:0:0:0:
256,192,98490,1,0,0:0:0:0:
320,192,98692,1,0,0:0:0:0:
153,192,98692,1,0,0:0:0:0:
64,192,98894,1,0,0:0:0:0:
448,192,98894,1,0,0:0:0:0:
192,192,99096,1,0,0:0:0:0:
358,192,99096,1,0,0:0:0:0:
256,192,99299,1,0,0:0:0:0:
448,192,99299,1,0,0:0:0:0:
192,192,99501,1,0,0:0:0:0:
358,192,99501,1,0,0:0:0:0:
64,192,99703,1,0,0:0:0:0:
448,192,99703,1,0,0:0:0:0:
320,192,99905,1,0,0:0:0:0:
153,192,99905,1,0,0:0:0:0:
256,192,100107,1,0,0:0:0:0:
64,192,100107,1,0,0:0:0:0:
153,192,100309,1,0,0:0:0:0:
320,192,100309,1,0,0:0:0:0:
51,192,100511,1,0,0:0:0:0:
448,192,100511,1,0,0:0:0:0:
192,192,100714,1,0,0:0:0:0:
358,192,100714,1,0,0:0:0:0:
51,192,100916,1,0,0:0:0:0:
448,192,100916,1,0,0:0:0:0:
153,192,100916,1,0,0:0:0:0:
358,192,100916,1,0,0:0:0:0:
448,192,101118,1,0,0:0:0:0:
153,192,101118,1,0,0:0:0:0:
51,192,101118,1,0,0:0:0:0:
358,192,101118,1,0,0:0:0:0:
256,192,101320,1,0,0:0:0:0:
192,192,101522,1,0,0:0:0:0:
320,192,101522,1,0,0:0:0:0:
448,192,101522,1,0,0:0:0:0:
192,192,101724,1,0,0:0:0:0:
358,192,101724,1,0,0:0:0:0:
64,192,101724,1,0,0:0:0:0:
192,192,101927,1,0,0:0:0:0:
320,192,101927,1,0,0:0:0:0:
448,192,101927,1,0,0:0:0:0:
256,192,102129,1,0,0:0:0:0:
64,192,102331,1,0,0:0:0:0:
192,192,102331,1,0,0:0:0:0:
320,192,102331,1,0,0:0:0:0:
64,192,102533,1,0,0:0:0:0:
448,192,102533,1,0,0:0:0:0:
320,192,102533,1,0,0:0:0:0:
64,192,102735,1,0,0:0:0:0:
192,192,102735,1,0,0:0:0:0:
320,192,102735,1,0,0:0:0:0:
256,192,102937,1,0,0:0:0:0:
320,192,103140,1,0,0:0:0:0:
64,192,103140,1,0,0:0:0:0:
448,192,103140,1,0,0:0:0:0:
320,192,103342,1,0,0:0:0:0:
192,192,103342,1,0,0:0:0:0:
448,192,103342,1,0,0:0:0:0:
448,192,103544,1,0,0:0:0:0:
64,192,103544,1,0,0:0:0:0:
192,192,103544,1,0,0:0:0:0:
256,192,103746,1,0,0:0:0:0:
192,192,103948,1,0,0:0:0:0:
448,192,103948,1,0,0:0:0:0:
64,192,103948,1,0,0:0:0:0:
320,192,104150,1,0,0:0:0:0:
64,192,104150,1,0,0:0:0:0:
448,192,104150,1,0,0:0:0:0:
192,192,104352,1,0,0:0:0:0:
64,192,104352,1,0,0:0:0:0:
448,192,104352,1,0,0:0:0:0:
256,192,104555,1,0,0:0:0:0:
448,192,104757,1,0,0:0:0:0:
64,192,104757,1,0,0:0:0:0:
320,192,104757,1,0,0:0:0:0:
448,192,104959,1,0,0:0:0:0:
64,192,104959,1,0,0:0:0:0:
192,192,104959,1,0,0:0:0:0:
448,192,105161,1,0,0:0:0:0:
320,192,105161,1,0,0:0:0:0:
64,192,105161,1,0,0:0:0:0:
256,192,105363,1,0,0:0:0:0:
192,192,105565,1,0,0:0:0:0:
64,192,105565,1,0,0:0:0:0:
320,192,105565,1,0,0:0:0:0:
192,192,105768,1,0,0:0:0:0:
320,192,105768,1,0,0:0:0:0:
448,192,105768,1,0,0:0:0:0:
192,192,105970,1,0,0:0:0:0:
320,192,105970,1,0,0:0:0:0:
64,192,105970,1,0,0:0:0:0:
256,192,106172,1,0,0:0:0:0:
448,192,106374,1,0,0:0:0:0:
320,192,106374,1,0,0:0:0:0:
192,192,106374,1,0,0:0:0:0:
320,192,106576,1,0,0:0:0:0:
192,192,106576,1,0,0:0:0:0:
64,192,106576,1,0,0:0:0:0:
448,192,106778,1,0,0:0:0:0:
320,192,106778,1,0,0:0:0:0:
192,192,106778,1,0,0:0:0:0:
256,192,106980,1,0,0:0:0:0:
320,192,107183,1,0,0:0:0:0:
192,192,107183,1,0,0:0:0:0:
64,192,107183,1,0,0:0:0:0:
256,192,107385,1,0,0:0:0:0:
64,192,107385,1,0,0:0:0:0:
460,192,107385,128,0,107991:0:0:0:0:
192,192,107587,1,0,0:0:0:0:
64,192,107587,1,0,0:0:0:0:
358,192,107587,1,0,0:0:0:0:
256,192,107789,1,0,0:0:0:0:
192,192,107991,1,0,0:0:0:0:
64,192,107991,1,0,0:0:0:0:
358,192,107991,128,0,108598:0:0:0:0:
192,192,108193,1,0,0:0:0:0:
460,192,108193,1,0,0:0:0:0:
64,192,108193,1,0,0:0:0:0:
192,192,108396,1,0,0:0:0:0:
51,192,108396,1,0,0:0:0:0:
448,192,108396,1,0,0:0:0:0:
256,192,108598,128,0,109204:0:0:0:0:
64,192,108800,1,0,0:0:0:0:
192,192,108800,1,0,0:0:0:0:
448,192,108800,1,0,0:0:0:0:
64,192,109002,1,0,0:0:0:0:
320,192,109002,1,0,0:0:0:0:
448,192,109002,1,0,0:0:0:0:
358,192,109204,1,0,0:0:0:0:
448,192,109204,1,0,0:0:0:0:
153,192,109204,128,0,109811:0:0:0:0:
51,192,109406,1,0,0:0:0:0:
320,192,109609,1,0,0:0:0:0:
448,192,109609,1,0,0:0:0:0:
256,192,109609,1,0,0:0:0:0:
448,192,109811,1,0,0:0:0:0:
358,192,109811,1,0,0:0:0:0:
51,192,109811,128,0,110417:0:0:0:0:
320,192,110013,1,0,0:0:0:0:
448,192,110013,1,0,0:0:0:0:
256,192,110013,1,0,0:0:0:0:
192,192,110215,1,0,0:0:0:0:
358,192,110417,1,0,0:0:0:0:
448,192,110417,1,0,0:0:0:0:
153,192,110417,128,0,111024:0:0:0:0:
256,192,110619,1,0,0:0:0:0:
320,192,110619,1,0,0:0:0:0:
448,192,110619,1,0,0:0:0:0:
64,192,110821,1,0,0:0:0:0:
320,192,110821,1,0,0:0:0:0:
448,192,110821,1,0,0:0:0:0:
358,192,111024,128,0,111630:0:0:0:0:
64,192,111226,1,0,0:0:0:0:
192,192,111226,1,0,0:0:0:0:
448,192,111226,1,0,0:0:0:0:
64,192,111428,1,0,0:0:0:0:
192,192,111428,1,0,0:0:0:0:
256,192,111428,1,0,0:0:0:0:
64,192,111630,1,0,0:0:0:0:
192,192,111630,1,0,0:0:0:0:
460,192,111630,128,0,112237:0:0:0:0:
256,192,111832,1,0,0:0:0:0:
320,192,112034,1,0,0:0:0:0:
153,192,112034,1,0,0:0:0:0:
64,192,112034,1,0,0:0:0:0:
320,192,112237,1,0,0:0:0:0:
256,192,112237,1,0,0:0:0:0:
51,192,112237,128,0,112641:0:0:0:0:
320,192,112439,1,0,0:0:0:0:
448,192,112439,1,0,0:0:0:0:
153,192,112439,1,0,0:0:0:0:
153,192,112641,128,0,113045:0:0:0:0:
256,192,112843,1,0,0:0:0:0:
51,192,112843,1,0,0:0:0:0:
448,192,112843,1,0,0:0:0:0:
64,192,113045,1,0,0:0:0:0:
448,192,113045,1,0,0:0:0:0:
256,192,113045,128,0,113449:0:0:0:0:
358,192,113247,1,0,0:0:0:0:
64,192,113247,1,0,0:0:0:0:
448,192,113247,1,0,0:0:0:0:
358,192,113449,128,0,113854:0:0:0:0:
448,192,113652,1,0,0:0:0:0:
153,192,113652,1,0,0:0:0:0:
64,192,113652,1,0,0:0:0:0:
192,192,113854,1,0,0:0:0:0:
64,192,113854,1,0,0:0:0:0:
460,192,113854,128,0,114258:0:0:0:0:
256,192,114056,1,0,0:0:0:0:
320,192,114056,1,0,0:0:0:0:
64,192,114056,1,0,0:0:0:0:
153,192,114258,1,0,0:0:0:0:
358,192,114258,128,0,114662:0:0:0:0:
460,192,114460,1,0,0:0:0:0:
64,192,114460,1,0,0:0:0:0:
256,192,114460,1,0,0:0:0:0:
448,192,114662,1,0,0:0:0:0:
64,192,114662,1,0,0:0:0:0:
256,192,114662,128,0,115067:0:0:0:0:
192,192,114865,1,0,0:0:0:0:
64,192,114865,1,0,0:0:0:0:
448,192,114865,1,0,0:0:0:0:
153,192,115067,128,0,115471:0:0:0:0:
64,192,115269,1,0,0:0:0:0:
448,192,115269,1,0,0:0:0:0:
256,192,115269,1,0,0:0:0:0:
320,192,115471,1,0,0:0:0:0:
448,192,115471,1,0,0:0:0:0:
51,192,115471,128,0,115875:0:0:0:0:
320,192,115673,1,0,0:0:0:0:
256,192,115673,1,0,0:0:0:0:
448,192,115673,1,0,0:0:0:0:
153,192,115875,128,0,116280:0:0:0:0:
64,192,116078,1,0,0:0:0:0:
256,192,116078,1,0,0:0:0:0:
460,192,116078,1,0,0:0:0:0:
64,192,116280,1,0,0:0:0:0:
256,192,116280,1,0,0:0:0:0:
358,192,116280,128,0,116684:0:0:0:0:
64,192,116482,1,0,0:0:0:0:
460,192,116482,1,0,0:0:0:0:
256,192,116482,1,0,0:0:0:0:
460,192,116684,128,0,117088:0:0:0:0:
256,192,116886,1,0,0:0:0:0:
192,192,116886,1,0,0:0:0:0:
64,192,116886,1,0,0:0:0:0:
256,192,117088,1,0,0:0:0:0:
192,192,117088,1,0,0:0:0:0:
358,192,117088,1,0,0:0:0:0:
320,192,117290,1,0,0:0:0:0:
192,192,117290,1,0,0:0:0:0:
64,192,117290,1,0,0:0:0:0:
256,192,117493,1,0,0:0:0:0:
192,192,117695,1,0,0:0:0:0:
64,192,117695,1,0,0:0:0:0:
320,192,117695,1,0,0:0:0:0:
192,192,117897,1,0,0:0:0:0:
448,192,117897,1,0,0:0:0:0:
64,192,117897,1,0,0:0:0:0:
192,192,118099,1,0,0:0:0:0:
320,192,118099,1,0,0:0:0:0:
448,192,118099,1,0,0:0:0:0:
256,192,118301,1,0,0:0:0:0:
320,192,118503,1,0,0:0:0:0:
448,192,118503,1,0,0:0:0:0:
51,192,118503,1,0,0:0:0:0:
320,192,118706,1,0,0:0:0:0:
153,192,118706,1,0,0:0:0:0:
448,192,118706,1,0,0:0:0:0:
320,192,118908,1,0,0:0:0:0:
192,192,118908,1,0,0:0:0:0:
64,192,118908,1,0,0:0:0:0:
256,192,119110,1,0,0:0:0:0:
64,192,119312,1,0,0:0:0:0:
192,192,119312,1,0,0:0:0:0:
320,192,119312,1,0,0:0:0:0:
64,192,119514,1,0,0:0:0:0:
320,192,119514,1,0,0:0:0:0:
448,192,119514,1,0,0:0:0:0:
64,192,119716,1,0,0:0:0:0:
192,192,119716,1,0,0:0:0:0:
320,192,119716,1,0,0:0:0:0:
256,192,119918,1,0,0:0:0:0:
320,192,120121,1,0,0:0:0:0:
192,192,120121,1,0,0:0:0:0:
64,192,120121,1,0,0:0:0:0:
320,192,120323,1,0,0:0:0:0:
192,192,120323,1,0,0:0:0:0:
64,192,120323,1,0,0:0:0:0:
320,192,120525,1,0,0:0:0:0:
64,192,120525,1,0,0:0:0:0:
192,192,120525,1,0,0:0:0:0:
256,192,120727,1,0,0:0:0:0:
192,192,120929,1,0,0:0:0:0:
320,192,120929,1,0,0:0:0:0:
448,192,120929,1,0,0:0:0:0:
192,192,121131,1,0,0:0:0:0:
320,192,121131,1,0,0:0:0:0:
448,192,121131,1,0,0:0:0:0:
192,192,121334,1,0,0:0:0:0:
320,192,121334,1,0,0:0:0:0:
448,192,121334,1,0,0:0:0:0:
256,192,121536,1,0,0:0:0:0:
460,192,121738,1,0,0:0:0:0:
192,192,121738,1,0,0:0:0:0:
64,192,121738,1,0,0:0:0:0:
320,192,121940,1,0,0:0:0:0:
192,192,121940,1,0,0:0:0:0:
64,192,121940,1,0,0:0:0:0:
256,192,121940,128,0,126792:0:0:0:0:
460,192,122142,1,0,0:0:0:0:
64,192,122142,1,0,0:0:0:0:
192,192,122142,1,0,0:0:0:0:
358,192,122344,1,0,0:0:0:0:
192,192,122547,1,0,0:0:0:0:
448,192,122547,1,0,0:0:0:0:
64,192,122547,1,0,0:0:0:0:
192,192,122749,1,0,0:0:0:0:
448,192,122749,1,0,0:0:0:0:
64,192,122749,1,0,0:0:0:0:
192,192,122951,1,0,0:0:0:0:
448,192,122951,1,0,0:0:0:0:
64,192,122951,1,0,0:0:0:0:
153,192,123153,1,0,0:0:0:0:
448,192,123355,1,0,0:0:0:0:
64,192,123355,1,0,0:0:0:0:
320,192,123355,1,0,0:0:0:0:
448,192,123557,1,0,0:0:0:0:
320,192,123557,1,0,0:0:0:0:
64,192,123557,1,0,0:0:0:0:
448,192,123759,1,0,0:0:0:0:
320,192,123759,1,0,0:0:0:0:
64,192,123759,1,0,0:0:0:0:
358,192,123962,1,0,0:0:0:0:
192,192,124164,1,0,0:0:0:0:
64,192,124164,1,0,0:0:0:0:
448,192,124164,1,0,0:0:0:0:
192,192,124366,1,0,0:0:0:0:
64,192,124366,1,0,0:0:0:0:
448,192,124366,1,0,0:0:0:0:
192,192,124568,1,0,0:0:0:0:
64,192,124568,1,0,0:0:0:0:
448,192,124568,1,0,0:0:0:0:
153,192,124770,1,0,0:0:0:0:
358,192,124972,1,0,0:0:0:0:
448,192,124972,1,0,0:0:0:0:
64,192,124972,1,0,0:0:0:0:
153,192,125175,1,0,0:0:0:0:
320,192,125175,1,0,0:0:0:0:
448,192,125175,1,0,0:0:0:0:
64,192,125377,1,0,0:0:0:0:
358,192,125377,1,0,0:0:0:0:
448,192,125377,1,0,0:0:0:0:
320,192,125579,1,0,0:0:0:0:
64,192,125781,1,0,0:0:0:0:
192,192,125781,1,0,0:0:0:0:
448,192,125781,1,0,0:0:0:0:
192,192,125983,1,0,0:0:0:0:
320,192,125983,1,0,0:0:0:0:
448,192,125983,1,0,0:0:0:0:
64,192,126185,1,0,0:0:0:0:
320,192,126185,1,0,0:0:0:0:
448,192,126185,1,0,0:0:0:0:
153,192,126387,1,0,0:0:0:0:
64,192,126590,1,0,0:0:0:0:
320,192,126590,1,0,0:0:0:0:
448,192,126590,1,0,0:0:0:0:
64,192,126792,1,0,0:0:0:0:
192,192,126792,1,0,0:0:0:0:
320,192,126792,1,0,0:0:0:0:
448,192,126792,1,0,0:0:0:0:
64,192,127398,1,0,0:0:0:0:
256,192,127398,1,0,0:0:0:0:
153,192,127600,1,0,0:0:0:0:
358,192,127600,1,0,0:0:0:0:
256,192,127803,1,0,0:0:0:0:
460,192,127803,1,0,0:0:0:0:
153,192,128005,1,0,0:0:0:0:
358,192,128005,1,0,0:0:0:0:
51,192,128207,1,0,0:0:0:0:
256,192,128207,1,0,0:0:0:0:
64,192,128409,1,0,0:0:0:0:
192,192,128409,1,0,0:0:0:0:
320,192,128409,1,0,0:0:0:0:
448,192,128409,1,0,0:0:0:0:
256,192,129016,1,0,0:0:0:0:
448,192,129016,1,0,0:0:0:0:
192,192,129218,1,0,0:0:0:0:
358,192,129218,1,0,0:0:0:0:
256,192,129420,1,0,0:0:0:0:
64,192,129420,1,0,0:0:0:0:
153,192,129622,1,0,0:0:0:0:
320,192,129622,1,0,0:0:0:0:
460,192,129824,1,0,0:0:0:0:
256,192,129824,1,0,0:0:0:0:
64,192,130026,1,0,0:0:0:0:
192,192,130026,1,0,0:0:0:0:
320,192,130026,1,0,0:0:0:0:
448,192,130026,1,0,0:0:0:0:
153,192,130633,1,0,0:0:0:0:
256,192,130633,1,0,0:0:0:0:
320,192,130633,1,0,0:0:0:0:
448,192,130633,1,0,0:0:0:0:
153,192,130835,1,0,0:0:0:0:
256,192,130835,1,0,0:0:0:0:
320,192,130835,1,0,0:0:0:0:
448,192,130835,1,0,0:0:0:0:
64,192,131441,1,0,0:0:0:0:
192,192,131441,1,0,0:0:0:0:
256,192,131441,1,0,0:0:0:0:
358,192,131441,1,0,0:0:0:0:
64,192,131644,1,0,0:0:0:0:
192,192,131644,1,0,0:0:0:0:
256,192,131644,1,0,0:0:0:0:
358,192,131644,1,0,0:0:0:0:
64,192,132048,1,0,0:0:0:0:
460,192,132048,1,0,0:0:0:0:
320,192,132048,1,0,0:0:0:0:
256,192,132048,1,0,0:0:0:0:
64,192,132452,1,0,0:0:0:0:
192,192,132452,1,0,0:0:0:0:
256,192,132452,1,0,0:0:0:0:
448,192,132452,1,0,0:0:0:0:
460,192,132856,1,0,0:0:0:0:
358,192,132856,1,0,0:0:0:0:
64,192,132856,1,0,0:0:0:0:
192,192,132856,1,0,0:0:0:0:
460,192,132958,1,0,0:0:0:0:
256,192,132958,1,0,0:0:0:0:
358,192,133059,1,0,0:0:0:0:
153,192,133059,1,0,0:0:0:0:
51,192,133160,1,0,0:0:0:0:
256,192,133160,1,0,0:0:0:0:
192,192,133261,1,0,0:0:0:0:
448,192,133261,1,0,0:0:0:0:
64,192,133261,1,0,0:0:0:0:
320,192,133362,1,0,0:0:0:0:
51,192,133463,1,0,0:0:0:0:
153,192,133564,1,0,0:0:0:0:
64,192,133665,1,0,0:0:0:0:
448,192,133665,1,0,0:0:0:0:
256,192,133665,1,0,0:0:0:0:
320,192,133766,1,0,0:0:0:0:
51,192,133867,1,0,0:0:0:0:
153,192,133968,1,0,0:0:0:0:
64,192,134069,1,0,0:0:0:0:
448,192,134069,1,0,0:0:0:0:
256,192,134069,1,0,0:0:0:0:
358,192,134171,1,0,0:0:0:0:
51,192,134272,1,0,0:0:0:0:
153,192,134373,1,0,0:0:0:0:
64,192,134474,1,0,0:0:0:0:
448,192,134474,1,0,0:0:0:0:
256,192,134474,1,0,0:0:0:0:
358,192,134575,1,0,0:0:0:0:
51,192,134676,1,0,0:0:0:0:
153,192,134777,1,0,0:0:0:0:
64,192,134878,1,0,0:0:0:0:
448,192,134878,1,0,0:0:0:0:
256,192,134878,1,0,0:0:0:0:
153,192,134979,1,0,0:0:0:0:
460,192,135080,1,0,0:0:0:0:
358,192,135181,1,0,0:0:0:0:
64,192,135282,1,0,0:0:0:0:
256,192,135282,1,0,0:0:0:0:
448,192,135282,1,0,0:0:0:0:
153,192,135383,1,0,0:0:0:0:
460,192,135485,1,0,0:0:0:0:
358,192,135586,1,0,0:0:0:0:
64,192,135687,1,0,0:0:0:0:
256,192,135687,1,0,0:0:0:0:
448,192,135687,1,0,0:0:0:0:
192,192,135788,1,0,0:0:0:0:
460,192,135889,1,0,0:0:0:0:
358,192,135990,1,0,0:0:0:0:
256,192,136091,1,0,0:0:0:0:
64,192,136091,1,0,0:0:0:0:
448,192,136091,1,0,0:0:0:0:
192,192,136192,1,0,0:0:0:0:
460,192,136293,1,0,0:0:0:0:
358,192,136394,1,0,0:0:0:0:
64,192,136495,1,0,0:0:0:0:
256,192,136495,1,0,0:0:0:0:
460,192,136495,1,0,0:0:0:0:
320,192,136596,1,0,0:0:0:0:
192,192,136697,1,0,0:0:0:0:
256,192,136799,1,0,0:0:0:0:
64,192,136900,1,0,0:0:0:0:
448,192,136900,1,0,0:0:0:0:
153,192,136900,1,0,0:0:0:0:
320,192,137001,1,0,0:0:0:0:
192,192,137102,1,0,0:0:0:0:
256,192,137203,1,0,0:0:0:0:
358,192,137304,1,0,0:0:0:0:
448,192,137304,1,0,0:0:0:0:
64,192,137304,1,0,0:0:0:0:
153,192,137405,1,0,0:0:0:0:
358,192,137506,1,0,0:0:0:0:
256,192,137607,1,0,0:0:0:0:
64,192,137708,1,0,0:0:0:0:
448,192,137708,1,0,0:0:0:0:
358,192,137708,1,0,0:0:0:0:
192,192,137809,1,0,0:0:0:0:
358,192,137910,1,0,0:0:0:0:
256,192,138011,1,0,0:0:0:0:
64,192,138113,1,0,0:0:0:0:
192,192,138113,1,0,0:0:0:0:
320,192,138113,1,0,0:0:0:0:
448,192,138113,1,0,0:0:0:0:
64,192,138517,1,0,0:0:0:0:
192,192,138517,1,0,0:0:0:0:
256,192,138719,1,0,0:0:0:0:
320,192,138719,1,0,0:0:0:0:
64,192,138921,1,0,0:0:0:0:
153,192,138921,1,0,0:0:0:0:
448,192,139123,1,0,0:0:0:0:
358,192,139123,1,0,0:0:0:0:
192,192,139325,1,0,0:0:0:0:
256,192,139325,1,0,0:0:0:0:
320,192,139528,1,0,0:0:0:0:
448,192,139528,1,0,0:0:0:0:
64,192,139730,1,0,0:0:0:0:
153,192,139730,1,0,0:0:0:0:
256,192,139730,1,0,0:0:0:0:
358,192,139730,1,0,0:0:0:0:
192,192,139831,1,0,0:0:0:0:
256,192,139932,1,0,0:0:0:0:
358,192,140033,1,0,0:0:0:0:
256,192,140134,1,0,0:0:0:0:
448,192,140134,1,0,0:0:0:0:
64,192,140134,1,0,0:0:0:0:
153,192,140235,1,0,0:0:0:0:
256,192,140336,1,0,0:0:0:0:
358,192,140437,1,0,0:0:0:0:
256,192,140538,1,0,0:0:0:0:
64,192,140538,1,0,0:0:0:0:
448,192,140538,1,0,0:0:0:0:
320,192,140640,1,0,0:0:0:0:
256,192,140741,1,0,0:0:0:0:
153,192,140842,1,0,0:0:0:0:
64,192,140943,1,0,0:0:0:0:
448,192,140943,1,0,0:0:0:0:
256,192,140943,1,0,0:0:0:0:
358,192,141044,1,0,0:0:0:0:
256,192,141145,1,0,0:0:0:0:
153,192,141246,1,0,0:0:0:0:
256,192,141347,1,0,0:0:0:0:
64,192,141347,1,0,0:0:0:0:
448,192,141347,1,0,0:0:0:0:
358,192,141448,1,0,0:0:0:0:
256,192,141549,1,0,0:0:0:0:
153,192,141650,1,0,0:0:0:0:
256,192,141751,1,0,0:0:0:0:
448,192,141751,1,0,0:0:0:0:
64,192,141751,1,0,0:0:0:0:
320,192,141852,1,0,0:0:0:0:
256,192,141954,1,0,0:0:0:0:
153,192,142055,1,0,0:0:0:0:
64,192,142156,1,0,0:0:0:0:
448,192,142156,1,0,0:0:0:0:
256,192,142156,1,0,0:0:0:0:
153,192,142257,1,0,0:0:0:0:
256,192,142358,1,0,0:0:0:0:
358,192,142459,1,0,0:0:0:0:
64,192,142560,1,0,0:0:0:0:
448,192,142560,1,0,0:0:0:0:
256,192,142560,1,0,0:0:0:0:
192,192,142661,1,0,0:0:0:0:
256,192,142762,1,0,0:0:0:0:
358,192,142863,1,0,0:0:0:0:
64,192,142964,1,0,0:0:0:0:
256,192,142964,1,0,0:0:0:0:
448,192,142964,1,0,0:0:0:0:
358,192,143065,1,0,0:0:0:0:
153,192,143166,1,0,0:0:0:0:
358,192,143268,1,0,0:0:0:0:
64,192,143369,1,0,0:0:0:0:
256,192,143369,1,0,0:0:0:0:
448,192,143369,1,0,0:0:0:0:
153,192,143470,1,0,0:0:0:0:
358,192,143571,1,0,0:0:0:0:
153,192,143672,1,0,0:0:0:0:
64,192,143773,1,0,0:0:0:0:
256,192,143773,1,0,0:0:0:0:
448,192,143773,1,0,0:0:0:0:
358,192,143874,1,0,0:0:0:0:
153,192,143975,1,0,0:0:0:0:
358,192,144076,1,0,0:0:0:0:
64,192,144177,1,0,0:0:0:0:
256,192,144177,1,0,0:0:0:0:
448,192,144177,1,0,0:0:0:0:
153,192,144278,1,0,0:0:0:0:
358,192,144379,1,0,0:0:0:0:
153,192,144480,1,0,0:0:0:0:
64,192,144582,1,0,0:0:0:0:
448,192,144582,1,0,0:0:0:0:
256,192,144582,1,0,0:0:0:0:
320,192,144582,1,0,0:0:0:0:
153,192,144683,1,0,0:0:0:0:
256,192,144784,1,0,0:0:0:0:
358,192,144885,1,0,0:0:0:0:
460,192,144986,1,0,0:0:0:0:
358,192,145087,1,0,0:0:0:0:
256,192,145188,1,0,0:0:0:0:
192,192,145289,1,0,0:0:0:0:
51,192,145390,1,0,0:0:0:0:
153,192,145491,1,0,0:0:0:0:
256,192,145592,1,0,0:0:0:0:
358,192,145693,1,0,0:0:0:0:
460,192,145794,1,0,0:0:0:0:
358,192,145896,1,0,0:0:0:0:
256,192,145997,1,0,0:0:0:0:
153,192,146098,1,0,0:0:0:0:
64,192,146199,1,0,0:0:0:0:
256,192,146199,1,0,0:0:0:0:
320,192,146199,1,0,0:0:0:0:
448,192,146199,1,0,0:0:0:0:
153,192,146300,1,0,0:0:0:0:
256,192,146401,1,0,0:0:0:0:
358,192,146502,1,0,0:0:0:0:
460,192,146603,1,0,0:0:0:0:
320,192,146704,1,0,0:0:0:0:
256,192,146805,1,0,0:0:0:0:
153,192,146906,1,0,0:0:0:0:
51,192,147007,1,0,0:0:0:0:
153,192,147109,1,0,0:0:0:0:
256,192,147210,1,0,0:0:0:0:
320,192,147311,1,0,0:0:0:0:
448,192,147412,1,0,0:0:0:0:
320,192,147513,1,0,0:0:0:0:
256,192,147614,1,0,0:0:0:0:
153,192,147715,1,0,0:0:0:0:
64,192,147816,1,0,0:0:0:0:
153,192,147816,1,0,0:0:0:0:
320,192,147816,1,0,0:0:0:0:
448,192,147816,1,0,0:0:0:0:
256,192,147917,1,0,0:0:0:0:
358,192,148018,1,0,0:0:0:0:
153,192,148119,1,0,0:0:0:0:
256,192,148220,1,0,0:0:0:0:
358,192,148321,1,0,0:0:0:0:
153,192,148423,1,0,0:0:0:0:
256,192,148524,1,0,0:0:0:0:
320,192,148625,1,0,0:0:0:0:
460,192,148625,1,0,0:0:0:0:
192,192,148625,1,0,0:0:0:0:
64,192,148625,1,0,0:0:0:0:
256,192,148726,1,0,0:0:0:0:
153,192,148827,1,0,0:0:0:0:
358,192,148928,1,0,0:0:0:0:
256,192,149029,1,0,0:0:0:0:
153,192,149130,1,0,0:0:0:0:
358,192,149231,1,0,0:0:0:0:
256,192,149332,1,0,0:0:0:0:
64,192,149433,1,0,0:0:0:0:
192,192,149433,1,0,0:0:0:0:
320,192,149433,1,0,0:0:0:0:
448,192,149433,1,0,0:0:0:0:
256,192,149534,1,0,0:0:0:0:
51,192,149635,1,0,0:0:0:0:
256,192,149737,1,0,0:0:0:0:
460,192,149838,1,0,0:0:0:0:
358,192,149838,1,0,0:0:0:0:
192,192,149838,1,0,0:0:0:0:
64,192,149838,1,0,0:0:0:0:
256,192,149939,1,0,0:0:0:0:
460,192,150040,1,0,0:0:0:0:
256,192,150141,1,0,0:0:0:0:
192,192,150242,1,0,0:0:0:0:
320,192,150242,1,0,0:0:0:0:
64,192,150242,1,0,0:0:0:0:
448,192,150242,1,0,0:0:0:0:
256,192,150343,1,0,0:0:0:0:
51,192,150444,1,0,0:0:0:0:
256,192,150545,1,0,0:0:0:0:
320,192,150646,1,0,0:0:0:0:
64,192,150646,1,0,0:0:0:0:
192,192,150646,1,0,0:0:0:0:
448,192,150646,1,0,0:0:0:0:
256,192,150747,1,0,0:0:0:0:
448,192,150747,1,0,0:0:0:0:
358,192,150848,1,0,0:0:0:0:
153,192,150848,1,0,0:0:0:0:
51,192,150949,1,0,0:0:0:0:
256,192,150949,1,0,0:0:0:0:
64,192,151051,1,0,0:0:0:0:
320,192,151051,1,0,0:0:0:0:
448,192,151051,1,0,0:0:0:0:
153,192,151051,1,0,0:0:0:0:
256,192,151152,1,0,0:0:0:0:
320,192,151253,1,0,0:0:0:0:
256,192,151354,1,0,0:0:0:0:
448,192,151455,1,0,0:0:0:0:
153,192,151455,1,0,0:0:0:0:
64,192,151455,1,0,0:0:0:0:
320,192,151556,1,0,0:0:0:0:
256,192,151657,1,0,0:0:0:0:
320,192,151758,1,0,0:0:0:0:
448,192,151859,1,0,0:0:0:0:
64,192,151859,1,0,0:0:0:0:
256,192,151859,1,0,0:0:0:0:
192,192,151960,1,0,0:0:0:0:
256,192,152061,1,0,0:0:0:0:
192,192,152162,1,0,0:0:0:0:
64,192,152264,1,0,0:0:0:0:
320,192,152264,1,0,0:0:0:0:
448,192,152264,1,0,0:0:0:0:
256,192,152365,1,0,0:0:0:0:
192,192,152466,1,0,0:0:0:0:
256,192,152567,1,0,0:0:0:0:
64,192,152668,1,0,0:0:0:0:
358,192,152668,1,0,0:0:0:0:
448,192,152668,1,0,0:0:0:0:
153,192,152769,1,0,0:0:0:0:
256,192,152870,1,0,0:0:0:0:
153,192,152971,1,0,0:0:0:0:
64,192,153072,1,0,0:0:0:0:
256,192,153072,1,0,0:0:0:0:
448,192,153072,1,0,0:0:0:0:
358,192,153173,1,0,0:0:0:0:
153,192,153274,1,0,0:0:0:0:
256,192,153274,1,0,0:0:0:0:
358,192,153375,1,0,0:0:0:0:
256,192,153476,1,0,0:0:0:0:
64,192,153476,1,0,0:0:0:0:
448,192,153476,1,0,0:0:0:0:
192,192,153578,1,0,0:0:0:0:
358,192,153679,1,0,0:0:0:0:
256,192,153780,1,0,0:0:0:0:
192,192,153881,1,0,0:0:0:0:
448,192,153881,1,0,0:0:0:0:
64,192,153881,1,0,0:0:0:0:
320,192,153982,1,0,0:0:0:0:
192,192,154083,1,0,0:0:0:0:
256,192,154184,1,0,0:0:0:0:
51,192,154285,1,0,0:0:0:0:
320,192,154285,1,0,0:0:0:0:
448,192,154285,1,0,0:0:0:0:
256,192,154386,1,0,0:0:0:0:
460,192,154487,1,0,0:0:0:0:
192,192,154588,1,0,0:0:0:0:
448,192,154689,1,0,0:0:0:0:
64,192,154689,1,0,0:0:0:0:
256,192,154689,1,0,0:0:0:0:
320,192,154790,1,0,0:0:0:0:
51,192,154892,1,0,0:0:0:0:
256,192,154993,1,0,0:0:0:0:
64,192,155094,1,0,0:0:0:0:
448,192,155094,1,0,0:0:0:0:
358,192,155094,1,0,0:0:0:0:
192,192,155195,1,0,0:0:0:0:
460,192,155296,1,0,0:0:0:0:
256,192,155397,1,0,0:0:0:0:
448,192,155498,1,0,0:0:0:0:
64,192,155498,1,0,0:0:0:0:
153,192,155498,1,0,0:0:0:0:
320,192,155599,1,0,0:0:0:0:
51,192,155700,1,0,0:0:0:0:
256,192,155801,1,0,0:0:0:0:
448,192,155902,1,0,0:0:0:0:
358,192,155902,1,0,0:0:0:0:
64,192,155902,1,0,0:0:0:0:
153,192,156003,1,0,0:0:0:0:
460,192,156104,1,0,0:0:0:0:
358,192,156206,1,0,0:0:0:0:
256,192,156307,1,0,0:0:0:0:
64,192,156307,1,0,0:0:0:0:
448,192,156307,1,0,0:0:0:0:
192,192,156408,1,0,0:0:0:0:
448,192,156509,1,0,0:0:0:0:
256,192,156509,1,0,0:0:0:0:
320,192,156610,1,0,0:0:0:0:
64,192,156711,1,0,0:0:0:0:
448,192,156711,1,0,0:0:0:0:
256,192,156711,1,0,0:0:0:0:
153,192,156812,1,0,0:0:0:0:
256,192,156913,1,0,0:0:0:0:
192,192,157014,1,0,0:0:0:0:
256,192,157115,1,0,0:0:0:0:
64,192,157115,1,0,0:0:0:0:
448,192,157115,1,0,0:0:0:0:
358,192,157216,1,0,0:0:0:0:
256,192,157317,1,0,0:0:0:0:
320,192,157418,1,0,0:0:0:0:
448,192,157520,1,0,0:0:0:0:
192,192,157520,1,0,0:0:0:0:
64,192,157520,1,0,0:0:0:0:
256,192,157621,1,0,0:0:0:0:
192,192,157722,1,0,0:0:0:0:
64,192,157823,1,0,0:0:0:0:
448,192,157924,1,0,0:0:0:0:
256,192,157924,1,0,0:0:0:0:
192,192,157924,1,0,0:0:0:0:
320,192,158025,1,0,0:0:0:0:
256,192,158126,1,0,0:0:0:0:
153,192,158227,1,0,0:0:0:0:
51,192,158328,1,0,0:0:0:0:
256,192,158328,1,0,0:0:0:0:
320,192,158328,1,0,0:0:0:0:
153,192,158429,1,0,0:0:0:0:
256,192,158530,1,0,0:0:0:0:
358,192,158631,1,0,0:0:0:0:
64,192,158733,1,0,0:0:0:0:
460,192,158733,1,0,0:0:0:0:
153,192,158733,1,0,0:0:0:0:
256,192,158834,1,0,0:0:0:0:
358,192,158935,1,0,0:0:0:0:
448,192,159036,1,0,0:0:0:0:
192,192,159137,1,0,0:0:0:0:
358,192,159137,1,0,0:0:0:0:
64,192,159137,1,0,0:0:0:0:
256,192,159238,1,0,0:0:0:0:
358,192,159339,1,0,0:0:0:0:
460,192,159440,1,0,0:0:0:0:
358,192,159541,1,0,0:0:0:0:
64,192,159541,1,0,0:0:0:0:
256,192,159541,1,0,0:0:0:0:
153,192,159642,1,0,0:0:0:0:
256,192,159743,1,0,0:0:0:0:
358,192,159844,1,0,0:0:0:0:
256,192,159945,1,0,0:0:0:0:
64,192,159945,1,0,0:0:0:0:
448,192,159945,1,0,0:0:0:0:
192,192,160047,1,0,0:0:0:0:
320,192,160148,1,0,0:0:0:0:
256,192,160249,1,0,0:0:0:0:
448,192,160350,1,0,0:0:0:0:
64,192,160350,1,0,0:0:0:0:
153,192,160350,1,0,0:0:0:0:
358,192,160451,1,0,0:0:0:0:
153,192,160552,1,0,0:0:0:0:
256,192,160653,1,0,0:0:0:0:
153,192,160754,1,0,0:0:0:0:
448,192,160754,1,0,0:0:0:0:
64,192,160754,1,0,0:0:0:0:
358,192,160754,128,0,161158:0:0:0:0:
256,192,160855,1,0,0:0:0:0:
153,192,160956,1,0,0:0:0:0:
51,192,161057,1,0,0:0:0:0:
153,192,161158,1,0,0:0:0:0:
256,192,161158,1,0,0:0:0:0:
460,192,161158,128,0,161563:0:0:0:0:
51,192,161259,1,0,0:0:0:0:
192,192,161361,1,0,0:0:0:0:
256,192,161462,1,0,0:0:0:0:
153,192,161563,1,0,0:0:0:0:
51,192,161563,1,0,0:0:0:0:
358,192,161563,128,0,161967:0:0:0:0:
256,192,161664,1,0,0:0:0:0:
153,192,161765,1,0,0:0:0:0:
51,192,161866,1,0,0:0:0:0:
153,192,161967,1,0,0:0:0:0:
256,192,161967,1,0,0:0:0:0:
460,192,161967,128,0,162371:0:0:0:0:
51,192,162068,1,0,0:0:0:0:
192,192,162169,1,0,0:0:0:0:
358,192,162169,1,0,0:0:0:0:
51,192,162270,1,0,0:0:0:0:
256,192,162270,1,0,0:0:0:0:
358,192,162371,1,0,0:0:0:0:
153,192,162371,1,0,0:0:0:0:
51,192,162371,128,0,162776:0:0:0:0:
256,192,162472,1,0,0:0:0:0:
358,192,162573,1,0,0:0:0:0:
460,192,162675,1,0,0:0:0:0:
256,192,162776,1,0,0:0:0:0:
320,192,162776,1,0,0:0:0:0:
153,192,162776,128,0,163180:0:0:0:0:
460,192,162877,1,0,0:0:0:0:
320,192,162978,1,0,0:0:0:0:
256,192,163079,1,0,0:0:0:0:
448,192,163180,1,0,0:0:0:0:
51,192,163180,128,0,163584:0:0:0:0:
358,192,163180,1,0,0:0:0:0:
256,192,163281,1,0,0:0:0:0:
358,192,163382,1,0,0:0:0:0:
460,192,163483,1,0,0:0:0:0:
256,192,163584,1,0,0:0:0:0:
320,192,163584,1,0,0:0:0:0:
153,192,163584,128,0,163989:0:0:0:0:
460,192,163685,1,0,0:0:0:0:
320,192,163786,1,0,0:0:0:0:
256,192,163887,1,0,0:0:0:0:
320,192,163989,1,0,0:0:0:0:
64,192,163989,1,0,0:0:0:0:
460,192,163989,1,0,0:0:0:0:
64,192,164191,1,0,0:0:0:0:
320,192,164191,1,0,0:0:0:0:
64,192,164393,1,0,0:0:0:0:
320,192,164393,1,0,0:0:0:0:
320,192,164595,1,0,0:0:0:0:
64,192,164595,1,0,0:0:0:0:
320,192,164797,1,0,0:0:0:0:
64,192,164797,1,0,0:0:0:0:
192,192,164797,1,0,0:0:0:0:
448,192,164797,1,0,0:0:0:0:
192,192,164999,1,0,0:0:0:0:
448,192,164999,1,0,0:0:0:0:
192,192,165202,1,0,0:0:0:0:
448,192,165202,1,0,0:0:0:0:
448,192,165404,1,0,0:0:0:0:
192,192,165404,1,0,0:0:0:0:
192,192,165606,1,0,0:0:0:0:
256,192,165606,1,0,0:0:0:0:
448,192,165606,1,0,0:0:0:0:
64,192,165606,1,0,0:0:0:0:
64,192,165808,1,0,0:0:0:0:
256,192,165808,1,0,0:0:0:0:
64,192,166010,1,0,0:0:0:0:
256,192,166010,1,0,0:0:0:0:
192,192,166010,1,0,0:0:0:0:
358,192,166010,1,0,0:0:0:0:
192,192,166212,1,0,0:0:0:0:
358,192,166212,1,0,0:0:0:0:
192,192,166414,1,0,0:0:0:0:
448,192,166414,1,0,0:0:0:0:
320,192,166414,1,0,0:0:0:0:
256,192,166414,1,0,0:0:0:0:
256,192,166617,1,0,0:0:0:0:
460,192,166617,1,0,0:0:0:0:
153,192,166819,1,0,0:0:0:0:
320,192,166819,1,0,0:0:0:0:
64,192,166819,1,0,0:0:0:0:
448,192,166819,1,0,0:0:0:0:
51,192,166920,1,0,0:0:0:0:
256,192,166920,1,0,0:0:0:0:
153,192,167021,1,0,0:0:0:0:
358,192,167021,1,0,0:0:0:0:
256,192,167122,1,0,0:0:0:0:
460,192,167122,1,0,0:0:0:0:
64,192,167223,1,0,0:0:0:0:
153,192,167223,1,0,0:0:0:0:
320,192,167223,1,0,0:0:0:0:
448,192,167223,1,0,0:0:0:0:
153,192,167425,1,0,0:0:0:0:
256,192,167425,1,0,0:0:0:0:
358,192,167425,1,0,0:0:0:0:
51,192,167627,1,0,0:0:0:0:
153,192,167627,1,0,0:0:0:0:
256,192,167627,1,0,0:0:0:0:
153,192,167830,1,0,0:0:0:0:
256,192,167830,1,0,0:0:0:0:
358,192,167830,1,0,0:0:0:0:
256,192,168032,1,0,0:0:0:0:
358,192,168032,1,0,0:0:0:0:
460,192,168032,1,0,0:0:0:0:
358,192,168234,1,0,0:0:0:0:
256,192,168234,1,0,0:0:0:0:
153,192,168234,1,0,0:0:0:0:
51,192,168436,1,0,0:0:0:0:
153,192,168436,1,0,0:0:0:0:
256,192,168436,1,0,0:0:0:0:
153,192,168638,1,0,0:0:0:0:
256,192,168638,1,0,0:0:0:0:
358,192,168638,1,0,0:0:0:0:
460,192,168840,1,0,0:0:0:0:
256,192,168840,1,0,0:0:0:0:
358,192,168840,1,0,0:0:0:0:
256,192,169245,1,0,0:0:0:0:
358,192,169245,1,0,0:0:0:0:
460,192,169245,1,0,0:0:0:0:
153,192,169447,1,0,0:0:0:0:
256,192,169447,1,0,0:0:0:0:
358,192,169447,1,0,0:0:0:0:
51,192,169649,1,0,0:0:0:0:
153,192,169649,1,0,0:0:0:0:
256,192,169649,1,0,0:0:0:0:
153,192,169851,1,0,0:0:0:0:
256,192,169851,1,0,0:0:0:0:
358,192,169851,1,0,0:0:0:0:
256,192,170053,1,0,0:0:0:0:
358,192,170053,1,0,0:0:0:0:
460,192,170053,1,0,0:0:0:0:
358,192,170255,1,0,0:0:0:0:
256,192,170255,1,0,0:0:0:0:
153,192,170255,1,0,0:0:0:0:
256,192,170458,1,0,0:0:0:0:
51,192,170458,1,0,0:0:0:0:
153,192,170458,1,0,0:0:0:0:
460,192,170862,1,0,0:0:0:0:
256,192,170862,1,0,0:0:0:0:
358,192,170862,1,0,0:0:0:0:
358,192,171064,1,0,0:0:0:0:
153,192,171064,1,0,0:0:0:0:
256,192,171064,1,0,0:0:0:0:
153,192,171266,1,0,0:0:0:0:
51,192,171266,1,0,0:0:0:0:
256,192,171266,1,0,0:0:0:0:
358,192,171468,1,0,0:0:0:0:
256,192,171468,1,0,0:0:0:0:
153,192,171468,1,0,0:0:0:0:
256,192,171671,1,0,0:0:0:0:
153,192,171671,1,0,0:0:0:0:
358,192,171671,1,0,0:0:0:0:
460,192,171873,1,0,0:0:0:0:
256,192,171873,1,0,0:0:0:0:
51,192,171873,1,0,0:0:0:0:
256,192,172075,1,0,0:0:0:0:
460,192,172075,1,0,0:0:0:0:
64,192,172075,1,0,0:0:0:0:
460,192,172479,1,0,0:0:0:0:
358,192,172479,1,0,0:0:0:0:
256,192,172479,1,0,0:0:0:0:
256,192,172681,1,0,0:0:0:0:
153,192,172681,1,0,0:0:0:0:
51,192,172681,1,0,0:0:0:0:
256,192,172883,1,0,0:0:0:0:
358,192,172883,1,0,0:0:0:0:
460,192,172883,1,0,0:0:0:0:
256,192,173086,1,0,0:0:0:0:
153,192,173086,1,0,0:0:0:0:
51,192,173086,1,0,0:0:0:0:
256,192,173288,1,0,0:0:0:0:
358,192,173288,1,0,0:0:0:0:
460,192,173288,1,0,0:0:0:0:
256,192,173490,1,0,0:0:0:0:
153,192,173490,1,0,0:0:0:0:
51,192,173490,1,0,0:0:0:0:
256,192,173692,1,0,0:0:0:0:
51,192,173692,1,0,0:0:0:0:
320,192,173692,1,0,0:0:0:0:
448,192,173692,1,0,0:0:0:0:
192,192,173793,1,0,0:0:0:0:
256,192,173894,1,0,0:0:0:0:
358,192,173995,1,0,0:0:0:0:
460,192,174096,1,0,0:0:0:0:
358,192,174197,1,0,0:0:0:0:
256,192,174299,1,0,0:0:0:0:
153,192,174400,1,0,0:0:0:0:
64,192,174501,1,0,0:0:0:0:
256,192,174501,1,0,0:0:0:0:
320,192,174501,1,0,0:0:0:0:
448,192,174501,1,0,0:0:0:0:
153,192,174602,1,0,0:0:0:0:
256,192,174703,1,0,0:0:0:0:
358,192,174804,1,0,0:0:0:0:
460,192,174905,1,0,0:0:0:0:
320,192,175006,1,0,0:0:0:0:
256,192,175107,1,0,0:0:0:0:
153,192,175208,1,0,0:0:0:0:
64,192,175309,1,0,0:0:0:0:
256,192,175309,1,0,0:0:0:0:
153,192,175309,1,0,0:0:0:0:
448,192,175309,1,0,0:0:0:0:
358,192,175410,1,0,0:0:0:0:
256,192,175511,1,0,0:0:0:0:
192,192,175613,1,0,0:0:0:0:
51,192,175714,1,0,0:0:0:0:
153,192,175815,1,0,0:0:0:0:
256,192,175916,1,0,0:0:0:0:
358,192,176017,1,0,0:0:0:0:
64,192,176118,1,0,0:0:0:0:
192,192,176118,1,0,0:0:0:0:
256,192,176118,1,0,0:0:0:0:
448,192,176118,1,0,0:0:0:0:
358,192,176219,1,0,0:0:0:0:
256,192,176320,1,0,0:0:0:0:
153,192,176421,1,0,0:0:0:0:
51,192,176522,1,0,0:0:0:0:
153,192,176623,1,0,0:0:0:0:
256,192,176724,1,0,0:0:0:0:
358,192,176825,1,0,0:0:0:0:
64,192,176927,1,0,0:0:0:0:
192,192,176927,1,0,0:0:0:0:
256,192,176927,1,0,0:0:0:0:
448,192,176927,1,0,0:0:0:0:
358,192,177028,1,0,0:0:0:0:
153,192,177129,1,0,0:0:0:0:
448,192,177230,1,0,0:0:0:0:
51,192,177331,1,0,0:0:0:0:
358,192,177432,1,0,0:0:0:0:
153,192,177533,1,0,0:0:0:0:
256,192,177634,1,0,0:0:0:0:
64,192,177735,1,0,0:0:0:0:
192,192,177735,1,0,0:0:0:0:
320,192,177735,1,0,0:0:0:0:
448,192,177735,1,0,0:0:0:0:
256,192,177836,1,0,0:0:0:0:
51,192,177937,1,0,0:0:0:0:
320,192,178038,1,0,0:0:0:0:
192,192,178140,1,0,0:0:0:0:
460,192,178241,1,0,0:0:0:0:
51,192,178342,1,0,0:0:0:0:
256,192,178443,1,0,0:0:0:0:
64,192,178544,1,0,0:0:0:0:
192,192,178544,1,0,0:0:0:0:
320,192,178544,1,0,0:0:0:0:
448,192,178544,1,0,0:0:0:0:
256,192,178645,1,0,0:0:0:0:
320,192,178746,1,0,0:0:0:0:
51,192,178847,1,0,0:0:0:0:
256,192,178948,1,0,0:0:0:0:
460,192,179049,1,0,0:0:0:0:
153,192,179150,1,0,0:0:0:0:
256,192,179251,1,0,0:0:0:0:
64,192,179352,1,0,0:0:0:0:
192,192,179352,1,0,0:0:0:0:
320,192,179352,1,0,0:0:0:0:
448,192,179352,1,0,0:0:0:0:
256,192,179454,1,0,0:0:0:0:
64,192,179454,1,0,0:0:0:0:
153,192,179555,1,0,0:0:0:0:
448,192,179555,1,0,0:0:0:0:
64,192,179656,1,0,0:0:0:0:
358,192,179656,1,0,0:0:0:0:
256,192,179757,1,0,0:0:0:0:
448,192,179757,1,0,0:0:0:0:
358,192,179858,1,0,0:0:0:0:
64,192,179858,1,0,0:0:0:0:
153,192,179959,1,0,0:0:0:0:
448,192,179959,1,0,0:0:0:0:
256,192,180060,1,0,0:0:0:0:
64,192,180060,1,0,0:0:0:0:
64,192,180161,128,0,183294:0:0:0:0:
192,192,180161,128,0,183294:0:0:0:0:
320,192,180161,128,0,183294:0:0:0:0:
448,192,180161,128,0,183294:0:0:0:0:
256,192,180161,128,0,183294:0:0:0:0:
64,192,183396,128,0,183598:0:0:0:0:
192,192,183396,128,0,183598:0:0:0:0:
320,192,183396,128,0,183598:0:0:0:0:
448,192,183396,128,0,183598:0:0:0:0:
256,192,183396,128,0,183598:0:0:0:0:
