osu file format v14

[General]
AudioFilename: audio.mp3
AudioLeadIn: 0
PreviewTime: 68882
Countdown: 0
SampleSet: Normal
StackLeniency: 0.7
Mode: 0
LetterboxInBreaks: 0
WidescreenStoryboard: 0

[Editor]
Bookmarks: 44399,45088,46468,47157,58709,59226,59571,60088,60606,61985,62847,63364,66468,111295,114744,137847,160261
DistanceSpacing: 1
BeatDivisor: 4
GridSize: 4
TimelineZoom: 1

[Metadata]
Title:Valkyrie (feat. Laura Brehm)
TitleUnicode:Valkyrie (feat. Laura Brehm)
Artist:Varien
ArtistUnicode:Varien
Creator:Lumin
Version:Hard
Source:
Tags:drumstep english monstercat dance music electronic drum n bass dubstep dnb Hidari C00L
BeatmapID:935785
BeatmapSetID:426143

[Difficulty]
HPDrainRate:4
CircleSize:3.5
OverallDifficulty:7
ApproachRate:7
SliderMultiplier:1.4
SliderTickRate:1

[Events]
//Background and Video events
0,0,"ipWcbVI.jpg",0,0
//Break Periods
2,47357,52120
2,105288,110395
2,160461,170395
//Storyboard Layer 0 (Background)
//Storyboard Layer 1 (Fail)
//Storyboard Layer 2 (Pass)
//Storyboard Layer 3 (Foreground)
//Storyboard Sound Samples

[TimingPoints]
3020,344.827586206897,4,2,0,30,1,0
3020,-133.333333333333,4,2,1,30,0,0
58020,-100,4,1,1,60,0,0
58192,-100,4,1,1,60,0,0
67847,-100,4,2,1,40,0,0
68882,-100,4,1,1,50,0,0
69226,-100,4,1,1,50,0,1
100261,-100,4,1,1,50,0,1
102330,-100,4,1,1,50,0,1
103020,-100,4,1,1,50,0,1
104054,-100,4,1,1,50,0,1
105088,-100,4,1,1,50,0,0
111295,-100,4,2,1,20,0,0
116123,-100,4,1,1,50,0,0
137157,-133.333333333333,4,2,1,20,0,0
137502,-100,4,1,1,50,0,0
137847,-133.333333333333,4,2,1,20,0,0
138192,-100,4,1,1,50,0,1
160261,-100,4,1,1,50,0,0
171295,-133.333333333333,4,2,1,30,0,0

[Colours]
Combo1 : 170,60,167
Combo2 : 44,182,99
Combo3 : 37,123,169
Combo4 : 144,144,144
Combo5 : 174,183,128
Combo6 : 228,58,63

[HitObjects]
352,328,3020,38,0,L|456:288,1,105.000004005432
412,216,3709,2,0,L|316:168,1,105.000004005432
279,92,4399,2,0,P|232:144|231:188,1,105.000004005432
284,236,5088,2,0,P|240:260|184:248,1,105.000004005432
100,192,5778,5,0,0:0:0:0:
156,128,6123,1,0,0:0:0:0:
227,174,6468,1,0,0:0:0:0:
236,256,6813,1,0,0:0:0:0:
304,208,7157,1,0,0:0:0:0:
227,174,7502,1,0,0:0:0:0:
272,104,7847,1,0,0:0:0:0:
188,108,8192,1,0,0:0:0:0:
140,180,8537,70,0,L|80:68,1,105.000004005432
180,84,9226,2,0,L|232:184,1,105.000004005432
272,252,9916,2,0,P|316:232|352:176,1,105.000004005432
420,140,10606,2,0,P|368:104|312:108,1,105.000004005432
260,144,11295,5,0,0:0:0:0:
196,200,11640,1,0,0:0:0:0:
144,264,11985,2,0,P|104:236|84:180,1,105.000004005432
84,100,12675,1,0,0:0:0:0:
160,60,13020,1,0,0:0:0:0:
232,100,13364,2,0,L|340:100,1,105.000004005432
448,120,14054,70,0,L|448:232,1,105.000004005432
448,332,14744,1,0,0:0:0:0:
360,272,15088,1,0,0:0:0:0:
256,260,15433,2,0,P|192:284|152:308,1,105.000004005432
72,360,16123,1,0,0:0:0:0:
56,256,16468,1,0,0:0:0:0:
68,152,16813,6,0,P|88:112|144:56,1,105.000004005432
232,68,17502,2,0,P|267:106|292:152,1,105.000004005432
328,252,18192,2,0,P|364:296|412:320,1,105.000004005432
508,292,18882,2,0,P|472:248|424:224,1,105.000004005432
324,156,19571,69,0,0:0:0:0:
324,52,19916,1,0,0:0:0:0:
240,112,20261,2,0,L|240:224,1,105.000004005432
292,308,20951,1,0,0:0:0:0:
196,348,21295,1,0,0:0:0:0:
100,308,21640,2,0,P|56:252|44:220,1,105.000004005432
40,116,22330,6,0,P|61:68|95:28,1,105.000004005432
148,120,23020,1,0,0:0:0:0:
232,184,23364,1,0,0:0:0:0:
324,132,23709,1,0,0:0:0:0:
416,184,24054,1,0,0:0:0:0:
372,280,24399,1,0,0:0:0:0:
268,280,24744,1,0,0:0:0:0:
232,184,25088,38,0,P|188:148|152:92,1,105.000004005432
68,60,25778,1,0,0:0:0:0:
68,60,25951,1,0,0:0:0:0:
68,60,26123,1,0,0:0:0:0:
96,160,26468,2,0,L|96:284,1,105.000004005432
180,332,27157,2,0,P|240:344|288:328,1,105.000004005432
376,248,27847,6,0,B|424:172|424:172|407:121|440:48,1,210.000008010865
336,52,28882,1,0,0:0:0:0:
315,156,29226,2,0,B|215:180|215:180|95:172,1,210.000008010865
20,116,30261,1,0,0:0:0:0:
44,220,30606,6,0,B|112:296|112:296|220:320,1,210.000008010865
320,304,31640,1,0,0:0:0:0:
396,232,31985,2,0,L|204:120,1,210.000008010865
124,76,33020,1,0,0:0:0:0:
224,48,33364,6,0,B|301:64|301:64|369:104|369:104|424:120,1,210.000008010865
372,320,34744,1,0,0:0:0:0:
256,148,35433,1,0,0:0:0:0:
156,332,36123,37,0,0:0:0:0:
376,208,36813,1,0,0:0:0:0:
376,208,36985,1,0,0:0:0:0:
376,208,37157,1,0,0:0:0:0:
452,280,37502,2,0,P|356:312|278:245,1,210.000008010865
248,148,38537,1,0,0:0:0:0:
208,52,38882,6,0,P|148:131|176:230,1,210.000008010865
352,332,40261,2,0,L|136:332,1,210.000008010865
52,280,41295,1,0,0:0:0:0:
60,176,41640,6,0,B|140:96|140:96|256:72,1,210.000008010865
444,76,43020,2,0,P|396:152|428:272,1,210.000008010865
216,304,44399,2,0,P|146:211|133:119,1,210.000008010865
336,76,45778,1,0,0:0:0:0:
412,272,46468,1,0,0:0:0:0:
224,176,47157,5,0,0:0:0:0:
256,192,53020,12,0,56726,0:0:0:0:
176,268,58020,69,0,0:0:0:0:
176,268,58106,1,0,0:0:0:0:
176,268,58192,54,0,L|104:212,1,70,8|0,0:0|0:0,0:0:0:0:
84,148,58537,1,0,0:0:0:0:
168,136,58709,2,0,L|223:93,1,70,8|0,0:0|0:0,0:0:0:0:
288,40,59054,1,0,0:0:0:0:
336,108,59226,1,8,0:0:0:0:
312,188,59399,1,0,0:0:0:0:
352,264,59571,6,0,L|408:316,1,70,8|0,0:0|0:0,0:0:0:0:
468,252,59916,1,0,0:0:0:0:
464,160,60088,2,0,L|464:64,1,70,8|0,0:0|0:0,0:0:0:0:
392,48,60433,1,0,0:0:0:0:
336,108,60606,1,8,0:0:0:0:
292,44,60778,70,0,L|292:4,2,35,0|0|8,0:0|0:0|0:0,0:0:0:0:
256,120,61123,1,0,0:0:0:0:
300,192,61295,1,0,0:0:0:0:
308,276,61468,2,0,L|228:328,1,70,8|0,0:0|0:0,0:0:0:0:
168,336,61813,1,0,0:0:0:0:
84,336,61985,1,8,0:0:0:0:
124,264,62157,1,0,0:0:0:0:
156,188,62330,6,0,L|192:108,1,70,8|0,0:0|0:0,0:0:0:0:
244,64,62675,1,0,0:0:0:0:
308,120,62847,2,0,L|336:183,1,70,8|0,0:0|0:0,0:0:0:0:
376,260,63192,1,0,0:0:0:0:
340,336,63364,1,8,0:0:0:0:
172,320,63709,70,0,L|120:232,1,70,8|0,0:0|0:0,0:0:0:0:
220,240,64054,2,0,L|248:168,1,70,8|0,0:0|0:0,0:0:0:0:
160,168,64399,2,0,L|120:96,1,70,8|0,0:0|0:0,0:0:0:0:
192,56,64744,1,8,0:0:0:0:
360,72,65088,6,0,P|392:104|408:140,1,70,8|0,0:0|0:0,0:0:0:0:
320,148,65433,2,0,P|288:180|272:216,1,70,8|0,0:0|0:0,0:0:0:0:
360,220,65778,2,0,P|392:252|408:288,1,70,8|0,0:0|0:0,0:0:0:0:
320,292,66123,1,8,0:0:0:0:
152,304,66468,38,8,L|152:256,7,35
152,228,67157,2,8,L|152:180,7,35
152,152,67847,53,0,0:0:0:0:
248,48,68192,1,0,0:0:0:0:
268,188,68537,1,0,0:0:0:0:
340,304,68882,6,0,L|432:224,1,105
440,208,69226,38,0,P|480:152|392:40,1,210,4|0,0:0|0:0,0:0:0:0:
332,28,69916,1,8,0:0:0:0:
296,168,70261,2,0,L|252:308,1,140
64,216,71123,2,0,L|52:184,2,35,0|0|8,0:0|0:0|0:0,0:0:0:0:
52,300,71468,1,0,0:0:0:0:
136,296,71640,1,0,0:0:0:0:
180,224,71813,1,0,0:0:0:0:
212,148,71985,6,0,P|240:100|396:36,1,210
460,40,72675,1,8,0:0:0:0:
436,176,73020,1,0,0:0:0:0:
304,276,73364,1,0,0:0:0:0:
136,316,73882,2,0,L|112:368,2,35,0|0|8,0:0|0:0|0:0,0:0:0:0:
164,244,74226,1,0,0:0:0:0:
200,176,74399,2,0,L|248:60,1,105
252,44,74744,38,0,P|160:40|60:132,1,210
40,188,75433,1,8,0:0:0:0:
76,324,75778,1,0,0:0:0:0:
220,316,76123,1,0,0:0:0:0:
392,224,76640,2,0,L|440:152,1,70,0|8,0:0|0:0,0:0:0:0:
472,100,76985,1,0,0:0:0:0:
340,20,77330,1,0,0:0:0:0:
340,20,77502,6,0,B|312:96|312:96|276:140|276:140|252:216,1,210
236,292,78192,1,8,0:0:0:0:
100,320,78537,2,0,P|60:276|52:176,1,140
56,116,79054,1,8,0:0:0:0:
184,64,79399,2,0,L|184:16,2,35,0|0|8,0:0|0:0|0:0,0:0:0:0:
188,140,79744,1,0,0:0:0:0:
256,104,79916,2,0,L|352:48,1,105
380,32,80261,6,0,P|416:64|416:232,1,210,4|0,0:0|0:0,0:0:0:0:
388,288,80951,1,8,0:0:0:0:
304,176,81295,1,0,0:0:0:0:
180,104,81640,1,0,0:0:0:0:
80,280,82157,2,0,L|24:280,2,35,0|0|8,0:0|0:0|0:0,0:0:0:0:
156,264,82502,1,0,0:0:0:0:
224,232,82675,1,0,0:0:0:0:
292,264,82847,1,0,0:0:0:0:
360,304,83020,6,0,B|424:352|424:352|464:296|468:208,1,210
468,148,83709,1,8,0:0:0:0:
316,72,84054,2,0,P|230:63|176:56,1,140
64,232,84916,2,0,L|40:176,2,35,0|0|8,0:0|0:0|0:0,0:0:0:0:
100,300,85261,1,0,0:0:0:0:
164,340,85433,2,0,P|224:344|296:328,1,105
304,324,85778,38,0,L|300:100,1,210
252,44,86468,1,8,0:0:0:0:
204,176,86813,2,0,L|172:336,1,140
60,136,87675,2,0,L|44:48,1,70
124,36,88020,1,0,0:0:0:0:
204,176,88364,1,0,0:0:0:0:
204,176,88537,6,0,P|272:232|412:264,1,210
472,264,89226,1,8,0:0:0:0:
424,132,89571,2,0,P|340:104|292:56,1,140
244,8,90088,1,8,0:0:0:0:
92,76,90433,2,0,L|60:24,2,35,0|0|8,0:0|0:0|0:0,0:0:0:0:
148,128,90778,1,0,0:0:0:0:
116,200,90951,2,0,L|56:316,1,105
48,328,91295,6,0,B|184:352|184:352|276:320,1,210,4|0,0:0|0:0,0:0:0:0:
320,288,91985,1,8,0:0:0:0:
328,160,92330,1,0,0:0:0:0:
428,256,92675,1,0,0:0:0:0:
236,312,93192,2,0,L|236:356,2,35,0|0|8,0:0|0:0|0:0,0:0:0:0:
232,228,93537,1,0,0:0:0:0:
184,160,93709,1,0,0:0:0:0:
120,108,93882,1,0,0:0:0:0:
52,60,94054,6,0,P|104:80|272:84,1,210
336,64,94744,1,8,0:0:0:0:
468,112,95088,1,0,0:0:0:0:
380,224,95433,1,0,0:0:0:0:
188,192,95951,2,0,L|132:192,2,35,0|0|8,0:0|0:0|0:0,0:0:0:0:
264,192,96295,1,0,0:0:0:0:
340,208,96468,2,0,P|384:236|432:296,1,105
436,308,96813,38,0,P|328:304|200:308,1,210,4|0,0:0|0:0,0:0:0:0:
148,316,97502,1,8,0:0:0:0:
84,192,97847,1,0,0:0:0:0:
164,80,98192,1,0,0:0:0:0:
388,140,98709,2,0,L|448:80,1,70,0|8,0:0|0:0,0:0:0:0:
380,40,99054,1,0,0:0:0:0:
240,40,99399,1,0,0:0:0:0:
240,40,99571,22,0,P|156:60|104:88,1,140,0|8,0:0|0:0,0:0:0:0:
60,144,100088,2,0,L|60:288,1,140
60,364,100606,1,8,0:0:0:0:
196,328,100951,2,0,P|260:296|312:232,1,140,0|8,0:0|0:0,0:0:0:0:
288,36,101813,1,0,0:0:0:0:
288,112,101985,1,0,0:0:0:0:
416,164,102330,6,0,L|496:164,2,70
288,112,103020,2,0,L|204:112,2,70,0|0|8,0:0|0:0|0:0,0:0:0:0:
416,164,103709,2,0,L|340:212,1,70
288,232,104054,2,0,L|196:232,1,70,8|0,0:0|0:0,0:0:0:0:
148,280,104399,1,8,0:0:0:0:
308,336,104744,1,8,0:0:0:0:
428,220,105088,5,4,0:0:0:0:
256,192,111295,12,0,114744,0:0:0:0:
92,340,116123,6,0,P|88:232|92:116,1,210
100,48,116813,1,8,0:0:0:0:
216,124,117157,2,0,P|264:144|364:116,1,140
440,320,118020,2,0,L|468:360,2,35,0|0|8,0:0|0:0|0:0,0:0:0:0:
388,264,118364,1,0,0:0:0:0:
424,196,118537,1,0,0:0:0:0:
428,120,118709,1,0,0:0:0:0:
448,44,118882,22,0,P|360:32|216:56,1,210
176,92,119571,1,8,0:0:0:0:
88,200,119916,2,0,B|51:247|44:272|44:272|104:256,1,140
256,120,120778,2,0,L|256:60,2,35,0|0|8,0:0|0:0|0:0,0:0:0:0:
256,196,121123,1,0,0:0:0:0:
276,268,121295,2,0,P|324:312|380:332,1,105
400,332,121640,6,0,P|404:248|456:124,1,210
492,64,122330,1,8,0:0:0:0:
336,64,122675,1,0,0:0:0:0:
196,64,123020,1,0,0:0:0:0:
72,232,123537,1,0,0:0:0:0:
72,148,123709,1,8,0:0:0:0:
72,64,123882,2,0,B|60:24|60:24|136:104,1,140
184,148,124399,6,0,P|252:208|356:272,1,210
424,316,125088,1,8,0:0:0:0:
280,332,125433,2,0,P|204:328|120:332,1,140
64,340,125951,1,8,0:0:0:0:
140,204,126295,2,0,L|108:240,2,35,0|0|8,0:0|0:0|0:0,0:0:0:0:
196,148,126640,1,0,0:0:0:0:
248,88,126813,2,0,P|292:56|348:36,1,105
376,32,127157,38,0,P|412:116|408:252,1,210,4|0,0:0|0:0,0:0:0:0:
388,308,127847,1,8,0:0:0:0:
280,216,128192,1,0,0:0:0:0:
176,108,128537,1,0,0:0:0:0:
68,292,129054,2,0,L|68:336,2,35,0|0|8,0:0|0:0|0:0,0:0:0:0:
68,208,129399,1,0,0:0:0:0:
140,248,129571,1,0,0:0:0:0:
192,316,129744,1,0,0:0:0:0:
268,352,129916,70,0,P|324:352|460:252,1,210
480,192,130606,1,8,0:0:0:0:
344,156,130951,2,0,B|264:132|264:132|200:76,1,140
92,260,131813,2,0,L|92:308,2,35,0|0|8,0:0|0:0|0:0,0:0:0:0:
92,184,132157,1,0,0:0:0:0:
100,108,132330,2,0,P|124:52|188:28,1,105
200,24,132675,22,0,B|264:32|336:72|336:72|396:48,1,210
468,20,133364,1,8,0:0:0:0:
396,140,133709,1,0,0:0:0:0:
380,280,134054,1,0,0:0:0:0:
172,332,134571,2,0,P|136:316|96:280,1,70,0|8,0:0|0:0,0:0:0:0:
56,236,134916,1,0,0:0:0:0:
216,192,135261,1,0,0:0:0:0:
196,112,135433,6,0,B|156:20|156:20|108:40|60:112,1,210
20,156,136123,1,8,0:0:0:0:
92,308,136468,1,0,0:0:0:0:
216,192,136813,1,4,0:0:0:0:
336,288,137157,22,0,P|368:312|432:304,1,105.000004005432,0|4,0:0|0:0,0:0:0:0:
488,220,137847,1,2,0:0:0:0:
448,120,138192,70,0,L|240:56,1,210,4|0,0:0|0:0,0:0:0:0:
168,32,138882,1,8,0:0:0:0:
48,108,139226,2,0,P|36:168|80:248,1,140
272,296,140088,2,0,L|248:352,2,35,0|0|8,0:0|0:0|0:0,0:0:0:0:
304,216,140433,1,0,0:0:0:0:
360,280,140606,1,0,0:0:0:0:
392,200,140778,1,0,0:0:0:0:
456,144,140951,38,0,B|492:96|508:32|508:32|400:48,1,210
344,64,141640,1,8,0:0:0:0:
220,128,141985,1,0,0:0:0:0:
192,264,142330,1,0,0:0:0:0:
124,64,142847,2,0,L|136:12,2,35
96,136,143192,1,0,0:0:0:0:
76,212,143364,2,0,P|64:276|88:336,1,105
100,344,143709,70,0,L|320:344,1,210
388,340,144399,1,8,0:0:0:0:
324,216,144744,1,0,0:0:0:0:
240,108,145088,1,0,0:0:0:0:
444,44,145606,2,0,L|512:120,1,70,0|8,0:0|0:0,0:0:0:0:
480,180,145951,1,0,0:0:0:0:
344,212,146295,1,0,0:0:0:0:
344,212,146468,22,0,P|236:220|136:168,1,210
96,119,147157,1,8,0:0:0:0:
36,244,147502,2,0,P|80:300|148:332,1,140
217,343,148020,1,8,0:0:0:0:
368,320,148364,2,0,L|375:362,2,35,0|0|8,0:0|0:0|0:0,0:0:0:0:
356,243,148709,1,0,0:0:0:0:
342,166,148882,2,0,P|351:105|392:62,1,105
404,44,149226,6,0,P|320:83|197:68,1,210,4|0,0:0|0:0,0:0:0:0:
137,36,149916,1,8,0:0:0:0:
68,157,150261,1,0,0:0:0:0:
20,288,150606,1,0,0:0:0:0:
209,196,151123,2,0,L|223:157,2,35,0|0|8,0:0|0:0|0:0,0:0:0:0:
184,276,151468,1,0,0:0:0:0:
104,252,151640,1,0,0:0:0:0:
133,173,151813,1,0,0:0:0:0:
211,195,151985,6,0,B|268:208|276:264|276:264|336:248|395:298,1,210
462,325,152675,1,8,0:0:0:0:
464,184,153020,2,0,P|459:133|388:53,1,140
196,64,153882,2,0,L|147:28,2,35
258,108,154226,1,0,0:0:0:0:
323,149,154399,2,0,P|277:202|223:226,1,105
211,233,154744,38,0,B|100:162|100:162|116:213|105:248,1,210
85,312,155433,1,8,0:0:0:0:
222,339,155778,1,0,0:0:0:0:
368,340,156123,1,0,0:0:0:0:
404,131,156640,1,0,0:0:0:0:
342,83,156813,2,0,L|257:43,1,70,8|0,0:0|0:0,0:0:0:0:
249,124,157157,2,0,L|161:134,1,70,8|0,0:0|0:0,0:0:0:0:
103,143,157502,5,4,0:0:0:0:
333,302,158192,2,0,L|333:267,7,35
334,231,158882,5,4,0:0:0:0:
126,199,159399,2,0,L|75:199,9,35
55,199,160261,5,4,0:0:0:0:
137,65,171295,5,0,0:0:0:0:
52,256,171985,2,0,L|112:212,1,52.5000020027161
136,260,172330,2,0,L|192:276,1,52.5000020027161
236,256,172675,1,0,0:0:0:0:
444,280,173364,2,0,P|464:232|456:168,1,105.000004005432
436,132,173882,1,0,0:0:0:0:
436,132,173968,1,0,0:0:0:0:
436,132,174054,6,0,B|388:60|388:60|320:60|256:44,1,210.000008010865
160,56,175088,2,0,L|92:80,1,52.5000020027161
64,100,175433,2,0,B|36:148|88:216|88:216|56:260|44:308,1,210.000008010865,8|0,0:0|0:0,0:0:0:0:
200,328,176640,1,0,0:0:0:0:
228,328,176726,1,0,0:0:0:0:
256,328,176813,2,0,B|336:324|360:264|360:264|403:267|403:267|456:240,1,210.000008010865
436,144,177847,2,0,L|484:144,2,26.2500010013581
384,148,178192,54,0,P|264:184|184:232,1,210.000008010865,8|0,0:0|0:0,0:0:0:0:
36,208,179399,1,0,0:0:0:0:
36,180,179485,1,0,0:0:0:0:
40,156,179571,2,0,B|96:112|96:112|121:120|152:144|152:144|177:129|212:72,1,210.000008010865
280,28,180606,2,0,P|308:28|344:32,1,52.5000020027161
384,44,180951,70,0,B|412:80|388:152|388:152|428:192|428:192|440:240,1,210.000008010865,0|8,0:0|0:0,0:0:0:0:
452,284,181813,1,0,0:0:0:0:
348,292,182157,1,0,0:0:0:0:
348,292,182330,22,0,B|288:260|300:196|300:196|200:228,1,210.000008010865
116,264,183364,2,0,L|60:292,1,52.5000020027161
20,304,183709,2,0,P|16:228|96:120,1,210.000008010865,0|8,0:0|0:0,0:0:0:0:
188,80,184744,1,0,0:0:0:0:
284,48,185088,6,0,B|340:24|376:24|376:24|352:104|364:140,1,210.000008010865,0|8,0:0|0:0,0:0:0:0:
392,236,186123,2,0,L|376:296,1,52.5000020027161
368,328,186468,2,0,B|324:276|324:276|276:264|276:264|248:216|212:200,1,210.000008010865
96,96,187675,1,0,0:0:0:0:
120,84,187761,1,0,0:0:0:0:
144,72,187847,38,0,P|212:52|352:72,1,210.000008010865,0|8,0:0|0:0,0:0:0:0:
440,124,188882,1,0,0:0:0:0:
472,224,189226,2,0,B|484:260|472:300|472:300|404:272|340:308,1,210.000008010865,0|8,0:0|0:0,0:0:0:0:
252,356,190261,1,0,0:0:0:0:
216,256,190606,6,0,P|188:196|80:92,1,210.000008010865,4|0,0:0|0:0,0:0:0:0:
32,152,191554,2,0,L|36:240,1,78.7500030040742
36,284,191985,1,4,0:0:0:0:
240,332,192675,2,0,L|276:304,7,26.2500010013581
284,296,193364,5,4,0:0:0:0:
476,112,194054,2,0,L|364:76,1,105.000004005432
272,56,194744,6,0,P|200:64|108:184,1,210.000008010865
112,264,195778,2,0,B|168:280|168:280|228:280,1,105.000004005432
244,180,196468,2,0,P|328:196|424:288,1,210.000008010865
336,340,197502,37,0,0:0:0:0:
236,312,197847,2,0,B|176:292|176:292|136:252,1,105.000004005432
88,176,198537,1,0,0:0:0:0:
148,92,198882,2,0,B|200:76|240:116|240:116|272:84|272:84|360:92,1,210.000008010865
428,144,199916,1,0,0:0:0:0:
380,240,200261,5,0,0:0:0:0:
300,172,200606,1,0,0:0:0:0:
196,152,200951,1,0,0:0:0:0:
264,72,201295,1,0,0:0:0:0:
256,192,201985,12,0,204399,0:0:0:0:
