osu file format v14

[General]
AudioFilename: audio.mp3
AudioLeadIn: 0
PreviewTime: 35756
Countdown: 0
SampleSet: Normal
StackLeniency: 0.7
Mode: 0
LetterboxInBreaks: 0
WidescreenStoryboard: 1

[Editor]
Bookmarks: 68760
DistanceSpacing: 1.2
BeatDivisor: 4
GridSize: 4
TimelineZoom: 1

[Metadata]
Title:The Silent Ones
TitleUnicode:The Silent Ones
Artist:Varien
ArtistUnicode:Varien
Creator:Fanteer
Version:Hard
Source:
Tags:Epic Slow heroic Pick Your Poison Volume 2 Nick Kaelar Pittsinger
BeatmapID:1025675
BeatmapSetID:476760

[Difficulty]
HPDrainRate:5
CircleSize:4
OverallDifficulty:6
ApproachRate:7
SliderMultiplier:1.3
SliderTickRate:1

[Events]
//Background and Video events
0,0,"anywalls.com-41000.jpg",0,0
//Break Periods
2,3456,7856
2,32706,35856
//Storyboard Layer 0 (Background)
//Storyboard Layer 1 (Fail)
//Storyboard Layer 2 (Pass)
//Storyboard Layer 3 (Foreground)
//Storyboard Sound Samples

[TimingPoints]
756,500,4,2,1,20,1,0
8756,-133.333333333333,4,2,0,20,0,0
10756,-117.647058823529,4,2,0,30,0,0
12756,-105.263157894737,4,2,0,40,0,0
13756,-100,4,2,0,50,0,0
16756,-76.9230769230769,4,1,1,75,0,0
24756,-66.6666666666667,4,1,1,90,0,0
36756,-66.6666666666667,4,1,1,100,0,1
36881,-66.6666666666667,4,1,1,100,0,0
44756,-66.6666666666667,4,1,1,100,0,1
44881,-66.6666666666667,4,1,1,100,0,0
52756,-66.6666666666667,4,1,1,100,0,1
52881,-66.6666666666667,4,1,1,100,0,0
60756,-66.6666666666667,4,1,1,100,0,1
60881,-66.6666666666667,4,1,1,100,0,0
68756,-100,4,1,1,50,0,0
72756,-100,4,1,1,90,0,0
74756,-100,4,1,1,5,0,0
78506,-100,4,2,1,5,0,0

[Colours]
Combo1 : 75,129,154
Combo2 : 182,214,202
Combo3 : 89,171,183
Combo4 : 200,200,200

[HitObjects]
232,244,756,6,0,P|151:267|142:265,1,65,2|0,0:0|0:0,0:0:0:0:
72,228,1256,1,2,0:0:0:0:
280,176,1756,6,0,P|271:147|280:102,1,65,2|0,0:0|0:0,0:0:0:0:
320,16,2256,1,2,0:0:0:0:
312,248,2756,6,0,P|341:253|377:282,1,65,2|2,0:0|0:0,0:0:0:0:
434,358,3256,1,2,0:0:0:0:
140,272,8756,6,0,L|92:276,1,48.750001859665,2|0,0:0|0:0,0:0:0:0:
175,348,9256,2,0,L|224:341,1,48.750001859665,2|0,0:0|0:0,0:0:0:0:
316,291,9756,6,0,L|320:242,1,48.750001859665
206,193,10256,2,0,L|211:242,1,48.750001859665
228,62,10756,6,0,L|151:56,1,55.2500010538101,2|0,0:0|0:0,0:0:0:0:
88,134,11256,2,0,L|143:142,1,55.2500010538101,2|0,0:0|0:0,0:0:0:0:
328,168,11756,6,0,L|384:163,1,55.2500010538101,2|0,0:0|0:0,0:0:0:0:
487,248,12256,2,0,L|431:255,1,55.2500010538101,2|0,0:0|0:0,0:0:0:0:
292,368,12756,6,0,L|284:307,1,61.7499983510972,2|0,0:0|0:0,0:0:0:0:
140,210,13256,2,0,L|134:272,1,61.7499983510972,2|0,0:0|0:0,0:0:0:0:
240,128,13756,6,0,L|305:124,1,65,2|0,0:0|0:0,0:0:0:0:
123,57,14256,2,0,L|59:66,1,65,2|0,0:0|0:0,0:0:0:0:
48,250,14756,6,0,L|53:333,1,65,2|0,0:0|0:0,0:0:0:0:
216,351,15256,2,0,L|225:260,1,65,2|0,0:0|0:0,0:0:0:0:
432,248,15756,6,0,L|358:236,1,65,2|0,0:0|0:0,0:0:0:0:
230,92,16256,2,0,L|306:81,1,65,2|0,0:0|0:0,0:0:0:0:
432,248,16756,6,0,P|437:294|425:340,2,84.4999961318971,6|0|8,0:0|0:0|0:0,0:0:0:0:
318,237,17506,1,0,0:0:0:0:
216,287,17756,2,0,P|172:292|128:287,1,84.4999961318971,2|0,0:0|0:0,0:0:0:0:
23,187,18256,1,8,0:0:0:0:
54,335,18506,1,0,0:0:0:0:
176,209,18756,6,0,P|178:166|157:131,1,84.4999961318971,2|0,0:0|0:0,0:0:0:0:
270,96,19256,2,0,P|310:84|356:93,1,84.4999961318971,8|0,0:0|0:0,0:0:0:0:
157,131,19756,1,2,0:0:0:0:
314,163,20006,1,0,0:0:0:0:
239,252,20256,1,8,0:0:0:0:
270,96,20506,1,0,0:0:0:0:
162,269,20756,6,0,P|179:306|215:328,1,84.4999961318971,2|0,0:0|0:0,0:0:0:0:
441,257,21256,2,0,B|429:215|429:215|429:175,1,84.4999961318971,8|0,0:0|0:0,0:0:0:0:
236,168,21756,2,8,B|244:211|244:211|239:267,1,84.4999961318971,2|0,0:0|0:0,0:0:0:0:
367,356,22256,2,0,B|326:352|326:352|263:356,1,84.4999961318971,8|0,0:0|0:0,0:0:0:0:
152,296,22756,6,0,B|164:259|164:259|168:203,1,84.4999961318971,2|0,0:0|0:0,0:0:0:0:
24,128,23256,2,0,P|5:165|8:207,1,84.4999961318971,8|0,0:0|0:0,0:0:0:0:
88,346,23756,1,2,0:0:0:0:
80,180,24006,1,0,0:0:0:0:
35,285,24256,1,8,0:0:0:0:
171,171,24506,1,0,0:0:0:0:
35,285,24756,6,0,P|84:264|133:280,2,97.50000371933,6|0|8,0:0|0:0|0:0,0:0:0:0:
177,343,25506,1,0,0:0:0:0:
253,185,25756,2,0,P|249:137|218:101,1,97.50000371933,2|0,0:0|0:0,0:0:0:0:
96,32,26256,1,8,0:0:0:0:
175,169,26506,1,0,0:0:0:0:
305,245,26756,6,0,L|402:245,1,97.50000371933,2|0,0:0|0:0,0:0:0:0:
449,177,27256,1,8,0:0:0:0:
357,328,27506,1,0,0:0:0:0:
255,148,27756,2,0,P|210:130|162:137,1,97.50000371933,2|0,0:0|0:0,0:0:0:0:
35,252,28256,2,0,P|27:204|45:159,1,97.50000371933,8|0,0:0|0:0,0:0:0:0:
255,148,28756,5,2,0:0:0:0:
103,212,29006,1,0,0:0:0:0:
192,360,29256,2,0,P|192:304|216:260,1,97.50000371933,8|0,0:0|0:0,0:0:0:0:
316,198,29756,2,0,P|333:153|322:107,1,97.50000371933,2|0,0:0|0:0,0:0:0:0:
172,112,30256,2,0,P|208:144|260:148,1,97.50000371933,8|0,0:0|0:0,0:0:0:0:
385,247,30756,6,0,P|348:278|301:283,1,97.50000371933,2|0,0:0|0:0,0:0:0:0:
321,106,31256,2,0,P|368:97|418:122,1,97.50000371933,8|0,0:0|0:0,0:0:0:0:
464,209,31756,1,2,0:0:0:0:
467,14,32006,1,0,0:0:0:0:
360,175,32256,1,8,0:0:0:0:
509,114,32506,1,0,0:0:0:0:
408,334,36756,6,0,P|422:286|396:226,1,97.50000371933,6|0,0:0|0:0,0:0:0:0:
265,203,37256,2,0,P|254:156|271:97,1,97.50000371933
433,99,37756,1,2,0:0:0:0:
332,156,38006,1,0,0:0:0:0:
480,209,38256,1,8,0:0:0:0:
344,288,38506,1,0,0:0:0:0:
332,156,38756,6,0,P|288:127|240:128,1,97.50000371933,2|0,0:0|0:0,0:0:0:0:
137,199,39256,1,8,0:0:0:0:
235,291,39506,1,0,0:0:0:0:
89,260,39756,2,0,P|62:219|65:171,1,97.50000371933,2|0,0:0|0:0,0:0:0:0:
218,65,40256,2,0,P|171:52|127:69,1,97.50000371933,8|0,0:0|0:0,0:0:0:0:
256,205,40756,6,0,P|272:251|258:299,1,97.50000371933,2|0,0:0|0:0,0:0:0:0:
424,336,41256,2,0,P|376:325|330:338,1,97.50000371933,8|0,0:0|0:0,0:0:0:0:
187,252,41756,2,0,P|175:206|187:159,1,97.50000371933,2|0,0:0|0:0,0:0:0:0:
320,96,42256,2,0,P|372:84|420:104,1,97.50000371933,8|0,0:0|0:0,0:0:0:0:
335,242,42756,6,0,P|324:286|331:339,1,97.50000371933,2|0,0:0|0:0,0:0:0:0:
269,158,43256,2,0,P|225:138|177:145,1,97.50000371933,8|0,0:0|0:0,0:0:0:0:
238,288,43756,1,2,0:0:0:0:
320,96,44006,1,0,0:0:0:0:
212,211,44256,1,8,0:0:0:0:
349,184,44506,1,0,0:0:0:0:
336,292,44756,6,0,L|238:288,1,97.50000371933,6|0,0:0|0:0,0:0:0:0:
400,340,45256,2,0,P|416:284|400:244,1,97.50000371933,8|0,0:0|0:0,0:0:0:0:
306,125,45756,1,2,0:0:0:0:
289,257,46006,1,0,0:0:0:0:
246,71,46256,1,8,0:0:0:0:
390,129,46506,1,0,0:0:0:0:
210,140,46756,6,0,P|154:142|101:98,1,97.50000371933,2|0,0:0|0:0,0:0:0:0:
36,260,47256,2,0,P|59:217|56:170,1,97.50000371933,8|0,0:0|0:0,0:0:0:0:
178,65,47756,1,2,0:0:0:0:
135,214,48006,1,0,0:0:0:0:
279,184,48256,1,8,0:0:0:0:
219,322,48506,1,0,0:0:0:0:
384,341,48756,6,0,P|401:295|393:248,1,97.50000371933,2|0,0:0|0:0,0:0:0:0:
279,184,49256,2,0,P|319:157|368:158,1,97.50000371933,8|0,0:0|0:0,0:0:0:0:
484,220,49756,2,0,P|496:172|484:124,1,97.50000371933,2|0,0:0|0:0,0:0:0:0:
321,286,50256,2,0,P|274:298|227:287,1,97.50000371933,8|0,0:0|0:0,0:0:0:0:
114,139,50756,6,0,P|160:123|208:132,1,97.50000371933,2|0,0:0|0:0,0:0:0:0:
387,68,51256,2,0,P|390:116|367:158,1,97.50000371933,8|0,0:0|0:0,0:0:0:0:
167,216,51756,1,2,0:0:0:0:
309,97,52006,1,0,0:0:0:0:
114,139,52256,1,8,0:0:0:0:
272,184,52506,1,0,0:0:0:0:
219,308,52756,6,0,L|323:296,1,97.50000371933,6|0,0:0|0:0,0:0:0:0:
464,348,53256,2,0,P|476:296|456:244,1,97.50000371933,8|0,0:0|0:0,0:0:0:0:
344,136,53756,1,2,0:0:0:0:
396,300,54006,1,0,0:0:0:0:
246,142,54256,1,8,0:0:0:0:
386,212,54506,1,0,0:0:0:0:
204,232,54756,6,0,L|92:224,1,97.50000371933,2|0,0:0|0:0,0:0:0:0:
246,142,55256,2,0,L|343:135,1,97.50000371933,8|0,0:0|0:0,0:0:0:0:
488,184,55756,1,2,0:0:0:0:
392,72,56006,1,0,0:0:0:0:
400,216,56256,1,8,0:0:0:0:
448,20,56506,1,0,0:0:0:0:
488,184,56756,6,0,P|488:244|456:292,1,97.50000371933,2|0,0:0|0:0,0:0:0:0:
327,273,57256,2,0,P|355:233|399:216,1,97.50000371933,8|0,0:0|0:0,0:0:0:0:
395,323,57756,2,0,P|359:351|271:335,1,97.50000371933,2|0,0:0|0:0,0:0:0:0:
149,325,58256,2,0,P|102:311|55:320,1,97.50000371933,8|0,0:0|0:0,0:0:0:0:
228,352,58756,6,0,P|231:304|206:262,1,97.50000371933,2|0,0:0|0:0,0:0:0:0:
79,193,59256,2,0,P|59:145|71:97,1,97.50000371933,8|0,0:0|0:0,0:0:0:0:
272,80,59756,1,2,0:0:0:0:
136,140,60006,1,0,0:0:0:0:
208,32,60256,1,8,0:0:0:0:
179,250,60506,1,0,0:0:0:0:
336,141,60756,6,0,L|242:164,1,97.50000371933,6|0,0:0|0:0,0:0:0:0:
416,168,61256,2,0,P|416:112|368:64,1,97.50000371933,8|0,0:0|0:0,0:0:0:0:
292,32,61756,1,2,0:0:0:0:
230,164,62006,1,0,0:0:0:0:
393,79,62256,1,8,0:0:0:0:
317,209,62506,1,0,0:0:0:0:
176,113,62756,6,0,P|156:161|172:211,1,97.50000371933,2|0,0:0|0:0,0:0:0:0:
317,209,63256,2,0,P|337:257|321:307,1,97.50000371933,8|0,0:0|0:0,0:0:0:0:
444,196,63756,1,2,0:0:0:0:
254,259,64006,1,0,0:0:0:0:
371,151,64256,1,8,0:0:0:0:
388,348,64506,1,0,0:0:0:0:
444,195,64756,6,0,P|454:148|439:102,1,97.50000371933,2|0,0:0|0:0,0:0:0:0:
341,40,65256,2,0,P|295:54|248:42,1,97.50000371933,8|0,0:0|0:0,0:0:0:0:
154,111,65756,2,0,P|141:157|156:203,1,97.50000371933,2|0,0:0|0:0,0:0:0:0:
258,264,66256,2,0,P|303:249|349:264,1,97.50000371933,8|0,0:0|0:0,0:0:0:0:
248,42,66756,5,2,0:0:0:0:
275,163,67006,1,0,0:0:0:0:
439,102,67256,1,8,0:0:0:0:
447,226,67506,1,0,0:0:0:0:
321,61,67756,5,2,0:0:0:0:
459,14,68006,1,0,0:0:0:0:
507,152,68256,1,8,0:0:0:0:
369,200,68506,1,0,0:0:0:0:
260,296,68756,5,2,0:0:0:0:
260,296,69006,1,0,0:0:0:0:
104,208,69756,5,2,0:0:0:0:
84,184,70006,1,0,0:0:0:0:
216,88,70756,5,2,0:0:0:0:
296,47,71006,1,0,0:0:0:0:
388,252,71756,6,0,L|413:297,3,32.5,2|0|0|0,0:0|0:0|0:0|0:0,0:0:0:0:
256,192,72756,5,8,0:0:0:0:
124,132,73131,1,8,0:0:0:0:
212,288,73506,1,8,0:0:0:0:
300,96,73881,1,8,0:0:0:0:
388,252,74256,1,8,0:0:0:0:
256,192,74756,12,0,78756,0:0:0:0:
