osu file format v14

[General]
AudioFilename: audio.mp3
AudioLeadIn: 0
PreviewTime: 522331
Countdown: 0
SampleSet: Soft
StackLeniency: 0.3
Mode: 0
LetterboxInBreaks: 0
WidescreenStoryboard: 1

[Editor]
DistanceSpacing: 1.4
BeatDivisor: 8
GridSize: 32
TimelineZoom: 2.360003

[Metadata]
Title:Mirai Sekai (Continuous Mix)
TitleUnicode:Mirai Sekai (Continuous Mix)
Artist:Varien & 7 Minutes Dead
ArtistUnicode:Varien & 7 Minutes Dead
Creator:Ksardas
Version:Mirai Sekai Pt.2: Neo-Tokyo
Source:
Tags:未来世界 monstercat marathon synthwave retrowave midtempo dance drum & bass drumstep dubstep edm electro electronic electronica future melody Vancouver 7md
BeatmapID:1860415
BeatmapSetID:889987

[Difficulty]
HPDrainRate:5
CircleSize:4
OverallDifficulty:8
ApproachRate:9.5
SliderMultiplier:2.2
SliderTickRate:1

[Events]
//Background and Video events
0,0,"MSclean.jpg",0,0
//Break Periods
2,392831,397440
//Storyboard Layer 0 (Background)
//Storyboard Layer 1 (Fail)
//Storyboard Layer 2 (Pass)
//Storyboard Layer 3 (Foreground)
//Storyboard Sound Samples

[TimingPoints]
-135,600,4,2,1,75,1,0
19065,-200,4,2,1,75,0,0
38265,-133.333333333333,4,2,1,75,0,0
57465,-100,4,2,1,75,0,0
86265,-100,4,2,1,65,0,0
95265,-133.333333333333,4,2,1,65,0,0
95865,-100,4,2,1,65,0,0
105465,-83.3333333333333,4,2,1,75,0,1
105615,-83.3333333333333,4,2,1,75,0,0
125265,-133.333333333333,4,2,1,75,0,0
161865,-83.3333333333333,4,2,1,75,0,0
181065,-66.6666666666667,4,2,1,75,0,0
196665,-133.333333333333,4,2,1,75,0,0
197865,-100,4,2,1,75,0,0
199065,-80,4,2,1,75,0,0
199665,-76.9230769230769,4,2,1,75,0,0
200265,-74.0740740740741,4,2,1,75,0,0
200865,-71.4285714285714,4,2,1,75,0,0
201465,606.060606060606,4,2,1,75,1,0
203889,612.244897959184,4,2,1,75,1,0
206337,618.556701030928,4,2,1,75,1,0
208811,645.161290322581,4,2,1,75,1,0
213965,666.666666666667,4,2,1,75,1,0
216631,-200,4,2,1,35,0,0
219298,-181.818181818182,4,2,1,35,0,0
221965,-166.666666666667,4,2,1,35,0,0
224631,-153.846153846154,4,2,1,35,0,0
227298,-142.857142857143,4,2,1,35,0,0
229965,-133.333333333333,4,2,1,35,0,0
232631,-125,4,2,1,35,0,0
235298,-111.111111111111,4,2,1,35,0,0
237631,-111.111111111111,4,2,1,75,0,0
237965,-80,4,2,1,75,0,0
247965,-66.6666666666667,4,2,1,75,0,0
248631,-80,4,2,1,75,0,0
258965,-66.6666666666667,4,2,1,75,0,0
259298,-80,4,2,1,75,0,0
301881,-80,4,2,1,5,0,0
301965,-80,4,2,1,75,0,0
344631,-66.6666666666667,4,2,1,75,0,0
365965,-57.1428571428571,4,2,1,75,0,1
387298,-100,4,2,1,45,0,0
408631,-80,4,2,1,75,0,0
451298,-133.333333333333,4,2,1,45,0,0
475224,618.556701030928,4,2,1,75,1,0
477698,594.059405940594,4,2,1,75,1,0
480074,571.428571428571,4,2,1,75,1,0
482359,540.540540540541,4,2,1,75,1,0
484521,526.315789473684,4,2,1,75,1,0
486626,517.241379310345,4,2,1,75,1,0
490761,508.474576271186,4,2,1,75,1,0
490761,-133.333333333333,4,2,1,75,0,0
494831,500,4,2,1,75,1,0
494831,-133.333333333333,4,2,1,75,0,0
506831,-66.6666666666667,4,2,1,75,0,0
521331,-57.1428571428571,4,2,1,75,0,0
522831,-200,4,2,1,75,0,1
554331,-100,4,2,1,75,0,1
554831,-200,4,2,1,75,0,0
569331,-166.666666666667,4,2,1,75,0,0
569706,-142.857142857143,4,2,1,75,0,0
570081,-125,4,2,1,75,0,0
570331,-100,4,2,1,75,0,0
602831,508.474576271186,4,2,1,75,1,0
602831,-200,4,2,1,75,0,0
606897,500,4,2,1,75,1,0
606897,-200,4,2,1,75,0,0
618897,-66.6666666666667,4,2,1,75,0,0
633397,-80,4,2,1,75,0,0
633897,-100,4,2,1,75,0,0
634897,-133.333333333333,4,2,1,75,0,0
638897,-200,4,2,1,75,0,0
640897,-200,4,2,1,75,0,1
666897,512.820512820513,4,2,1,75,1,0
666897,-200,4,2,1,45,0,0
668948,517.241379310345,4,2,1,45,1,0
668948,-200,4,2,1,45,0,0
671016,535.714285714286,4,2,1,45,1,0
671016,-200,4,2,1,45,0,0
673158,540.540540540541,4,2,1,45,1,0
673158,-200,4,2,1,45,0,0
675320,555.555555555556,4,2,1,45,1,0
675320,-200,4,2,1,45,0,0
678249,566.037735849057,4,2,1,45,1,0
678249,-200,4,2,1,45,0,0
682070,571.428571428571,4,2,1,45,1,0
682070,-200,4,2,1,45,0,0
683212,-100,4,2,1,45,0,0
684284,-100,4,2,1,5,0,0
684355,594.059405940594,4,2,1,45,1,0
684355,-400,4,2,1,45,0,0
684429,-400,4,2,1,25,0,0
686731,618.556701030928,4,2,1,25,1,0
686731,-400,4,2,1,25,0,0
689205,674.157303370787,4,2,1,25,1,0
689205,-400,4,2,1,25,0,0
691901,697.674418604651,4,2,1,25,1,0
691901,-400,4,2,1,25,0,0
694691,750,4,2,1,25,1,0
694691,-400,4,2,1,25,0,0
697691,789.473684210526,4,2,1,25,1,0
697691,-400,4,2,1,25,0,0
699269,857.142857142857,4,2,1,25,1,0
699269,-400,4,2,1,25,0,0
700983,857.142857142857,4,2,1,25,1,0

[Colours]
Combo1 : 117,137,252
Combo2 : 253,80,185
Combo3 : 67,235,238
Combo4 : 255,153,255

[HitObjects]
21,374,235298,5,0,3:0:0:0:
40,368,235465,1,0,0:0:0:0:
59,362,235631,1,0,0:0:0:0:
78,356,235798,1,0,0:0:0:0:
47,265,235965,5,0,3:0:0:0:
66,264,236132,1,0,0:0:0:0:
86,263,236298,1,0,0:0:0:0:
106,262,236465,1,0,0:0:0:0:
99,166,236631,5,0,3:0:0:0:
118,170,236798,1,0,0:0:0:0:
137,174,236964,1,0,0:0:0:0:
157,178,237131,1,0,0:0:0:0:
175,83,237298,5,0,3:0:0:0:
252,248,237465,1,0,0:0:0:0:
366,187,237631,5,0,0:0:0:0:
371,160,237715,1,0,0:0:0:0:
376,133,237798,1,0,0:0:0:0:
381,106,237881,1,0,0:0:0:0:
425,48,237965,6,0,P|450:82|452:125,1,68.75,6|0,3:2|0:0,0:0:0:0:
244,210,238298,1,2,0:0:0:0:
305,48,238465,1,0,0:0:0:0:
369,288,238631,2,0,L|443:281,1,68.75,10|0,3:2|0:0,0:0:0:0:
225,112,238965,2,0,L|151:105,1,68.75,2|0,0:0|0:0,0:0:0:0:
5,214,239298,5,0,3:0:0:0:
90,221,239465,1,0,0:0:0:0:
175,228,239631,1,0,0:0:0:0:
260,235,239798,1,0,0:0:0:0:
103,74,239965,5,8,3:2:0:0:
89,244,240131,1,0,0:0:0:0:
187,104,240298,1,0,0:0:0:0:
17,90,240465,1,0,0:0:0:0:
88,267,240631,6,0,L|81:341,2,68.75,0|0|0,3:0|0:0|0:0,0:0:0:0:
97,164,241131,1,0,0:0:0:0:
238,263,241298,5,8,3:2:0:0:
323,271,241465,1,0,0:0:0:0:
331,187,241631,1,0,0:0:0:0:
247,179,241798,1,0,0:0:0:0:
399,363,241965,6,0,L|473:370,2,68.75,2|0|0,3:0|0:0|0:0,0:0:0:0:
331,187,242465,1,0,0:0:0:0:
146,340,242631,1,10,3:2:0:0:
323,271,242798,1,0,0:0:0:0:
137,343,242965,2,0,L|68:336,1,68.75
206,40,243298,6,0,B|215:87|215:87|200:179,1,137.5,2|0,3:0|0:0,0:0:0:0:
92,136,243798,1,0,0:0:0:0:
308,67,243965,2,0,P|345:63|377:68,1,68.75,8|0,3:2|0:0,0:0:0:0:
481,219,244298,2,0,P|444:223|412:218,1,68.75
393,142,244631,1,0,3:0:0:0:
264,306,244798,6,4,L|301:299,1,34.375,4|0,0:0|0:0,0:0:0:0:
498,305,244965,2,4,L|464:311,1,34.375,4|0,0:0|0:0,0:0:0:0:
257,300,245131,2,4,L|294:293,1,34.375,4|0,0:0|0:0,0:0:0:0:
503,384,245298,6,4,L|484:233,1,137.5,12|0,3:2|0:0,0:0:0:0:
504,57,245798,1,0,0:0:0:0:
329,136,245965,5,0,3:0:0:0:
308,26,246131,1,0,0:0:0:0:
249,190,246298,1,0,0:0:0:0:
294,16,246465,1,0,0:0:0:0:
336,233,246631,2,0,L|325:309,1,68.75,8|0,3:2|0:0,0:0:0:0:
58,175,246965,5,0,0:0:0:0:
17,98,247131,1,0,0:0:0:0:
11,249,247298,5,0,3:0:0:0:
145,177,247465,1,0,0:0:0:0:
17,98,247631,1,0,0:0:0:0:
139,328,247798,1,4,0:0:0:0:
149,26,247965,6,4,B|235:36|235:36|264:73,1,123.750004720688,12|0,3:2|0:0,0:0:0:0:
274,48,248298,2,4,B|178:36|178:36|195:62,1,123.750004720688,4|0,0:0|0:0,0:0:0:0:
313,179,248631,6,0,P|362:179|386:168,1,68.75,6|0,3:0|0:0,0:0:0:0:
420,53,248965,1,2,0:0:0:0:
240,140,249131,1,0,0:0:0:0:
460,227,249298,2,0,L|465:307,1,68.75,10|0,3:2|0:0,0:0:0:0:
235,208,249631,2,0,L|239:139,1,68.75,2|0,0:0|0:0,0:0:0:0:
316,23,249965,5,0,3:0:0:0:
420,53,250131,1,0,0:0:0:0:
472,147,250298,1,0,0:0:0:0:
442,250,250465,1,0,0:0:0:0:
245,273,250631,5,8,3:2:0:0:
348,303,250798,1,0,0:0:0:0:
239,271,250965,1,0,0:0:0:0:
353,304,251131,1,0,0:0:0:0:
193,179,251298,5,0,3:0:0:0:
90,149,251465,1,0,0:0:0:0:
12,223,251631,1,0,0:0:0:0:
139,357,251798,1,0,0:0:0:0:
88,141,251965,5,8,3:2:0:0:
201,174,252131,1,0,0:0:0:0:
315,146,252298,1,0,0:0:0:0:
399,64,252465,1,0,0:0:0:0:
234,62,252631,6,0,B|199:52|199:52|167:27,2,68.75,2|0|0,3:0|0:0|0:0,0:0:0:0:
428,177,253131,1,0,0:0:0:0:
403,0,253298,2,0,L|398:77,1,68.75,8|0,3:2|0:0,0:0:0:0:
435,194,253631,2,0,L|440:271,1,68.75
125,282,253965,6,0,P|159:254|208:244,1,68.75,2|0,3:0|0:0,0:0:0:0:
318,279,254298,1,2,0:0:0:0:
212,357,254465,1,0,0:0:0:0:
223,191,254631,2,0,L|228:105,1,68.75,10|0,3:2|0:0,0:0:0:0:
37,258,254965,2,0,L|41:326,1,68.75,2|0,0:0|0:0,0:0:0:0:
352,356,255298,5,0,3:0:0:0:
423,333,255465,1,0,0:0:0:0:
425,258,255631,1,0,0:0:0:0:
355,230,255798,1,0,0:0:0:0:
315,294,255965,5,8,3:2:0:0:
434,256,256131,1,0,0:0:0:0:
396,137,256298,1,0,0:0:0:0:
277,175,256465,1,0,0:0:0:0:
196,332,256631,5,0,3:0:0:0:
120,322,256798,1,0,0:0:0:0:
78,257,256965,1,0,0:0:0:0:
100,183,257131,1,0,0:0:0:0:
410,199,257298,5,8,3:2:0:0:
392,275,257465,1,0,0:0:0:0:
323,310,257631,1,0,0:0:0:0:
253,281,257798,1,0,0:0:0:0:
181,253,257965,6,0,P|200:224|231:209,1,68.75,2|0,3:0|0:0,0:0:0:0:
452,377,258298,2,0,P|418:375|390:358,1,68.75,2|0,0:0|0:0,0:0:0:0:
440,146,258631,2,0,P|438:103|429:86,3,34.375,10|0|0|0,3:2|0:0|0:0|0:0,0:0:0:0:
488,44,258965,6,4,L|405:35,1,82.5000031471254
203,241,259298,5,2,3:0:0:0:
48,211,259465,1,0,0:0:0:0:
78,56,259631,1,0,0:0:0:0:
233,86,259798,1,0,0:0:0:0:
209,250,259965,5,8,3:2:0:0:
38,217,260131,1,0,0:0:0:0:
71,46,260298,1,0,0:0:0:0:
242,79,260465,1,0,0:0:0:0:
216,260,260631,5,0,3:0:0:0:
28,224,260798,1,0,0:0:0:0:
64,36,260965,1,0,0:0:0:0:
252,72,261131,1,0,0:0:0:0:
122,241,261298,5,10,3:2:0:0:
158,53,261465,1,0,0:0:0:0:
46,129,261631,1,2,0:0:0:0:
234,165,261798,1,0,0:0:0:0:
296,345,261965,5,0,3:0:0:0:
414,293,262131,1,0,0:0:0:0:
385,223,262298,1,2,0:0:0:0:
308,213,262465,1,0,0:0:0:0:
290,352,262631,5,8,3:2:0:0:
420,295,262798,1,0,0:0:0:0:
388,219,262965,1,0,0:0:0:0:
303,207,263131,1,0,0:0:0:0:
283,360,263298,5,0,3:0:0:0:
427,298,263465,1,0,0:0:0:0:
391,213,263631,1,0,0:0:0:0:
299,202,263798,2,0,L|319:249,1,34.375
372,372,263965,5,10,3:2:0:0:
194,348,264131,1,0,0:0:0:0:
434,301,264298,1,2,0:0:0:0:
182,350,264465,1,0,0:0:0:0:
394,207,264631,5,0,3:0:0:0:
409,132,264798,1,0,0:0:0:0:
274,27,264965,1,2,0:0:0:0:
289,102,265131,1,0,0:0:0:0:
499,72,265298,5,8,3:2:0:0:
424,57,265465,1,0,0:0:0:0:
349,42,265631,1,0,0:0:0:0:
274,27,265798,1,0,0:0:0:0:
64,147,265965,5,0,3:0:0:0:
139,132,266131,1,0,0:0:0:0:
214,117,266298,1,0,0:0:0:0:
289,102,266465,1,0,0:0:0:0:
155,57,266631,5,10,3:2:0:0:
139,132,266798,1,0,0:0:0:0:
321,252,266965,1,2,0:0:0:0:
289,102,267131,1,0,0:0:0:0:
171,282,267298,5,0,3:0:0:0:
328,250,267465,1,0,0:0:0:0:
265,345,267631,1,0,0:0:0:0:
234,187,267798,1,0,0:0:0:0:
161,275,267965,5,8,3:2:0:0:
337,256,268131,1,0,0:0:0:0:
240,178,268298,1,2,0:0:0:0:
259,354,268465,1,0,0:0:0:0:
151,267,268631,5,0,3:0:0:0:
346,263,268798,1,0,0:0:0:0:
142,258,268965,1,0,0:0:0:0:
355,272,269131,1,0,0:0:0:0:
241,372,269298,5,10,3:2:0:0:
256,158,269465,1,0,0:0:0:0:
230,380,269631,2,4,L|149:368,1,68.75
37,195,269965,5,2,3:0:0:0:
155,148,270131,1,0,0:0:0:0:
173,22,270298,1,2,0:0:0:0:
291,69,270465,1,0,0:0:0:0:
273,195,270631,5,8,3:2:0:0:
148,151,270798,1,0,0:0:0:0:
168,13,270965,1,0,0:0:0:0:
297,65,271131,1,0,0:0:0:0:
278,203,271298,5,0,3:0:0:0:
141,154,271465,1,0,0:0:0:0:
163,4,271631,1,0,0:0:0:0:
303,61,271798,1,0,0:0:0:0:
283,211,271965,5,8,3:2:0:0:
222,108,272131,1,0,0:0:0:0:
286,216,272298,1,0,0:0:0:0:
218,102,272465,1,0,0:0:0:0:
221,302,272631,5,0,3:0:0:0:
328,286,272798,1,0,0:0:0:0:
380,92,272965,1,2,0:0:0:0:
393,200,273131,1,0,0:0:0:0:
133,240,273298,5,8,3:2:0:0:
114,134,273465,1,0,0:0:0:0:
173,44,273631,1,0,0:0:0:0:
277,20,273798,1,0,0:0:0:0:
393,200,273965,5,0,3:0:0:0:
328,286,274131,1,0,0:0:0:0:
221,302,274298,1,0,0:0:0:0:
133,240,274465,1,0,0:0:0:0:
380,92,274631,5,10,3:2:0:0:
328,286,274798,1,0,0:0:0:0:
382,82,274965,2,0,P|359:54|312:44,1,68.75,4|0,0:0|0:0,0:0:0:0:
221,302,275298,5,2,3:0:0:0:
124,348,275465,1,0,0:0:0:0:
36,286,275631,1,2,0:0:0:0:
133,240,275798,1,0,0:0:0:0:
309,364,275965,6,0,P|349:364|403:345,1,68.75,10|0,3:2|0:0,0:0:0:0:
505,279,276298,2,0,P|471:271|437:272,1,68.75,2|0,0:0|0:0,0:0:0:0:
230,302,276631,5,0,3:0:0:0:
123,353,276798,1,0,0:0:0:0:
26,285,276965,1,0,0:0:0:0:
36,167,277131,1,0,0:0:0:0:
240,185,277298,5,8,3:2:0:0:
16,290,277465,1,0,0:0:0:0:
250,179,277631,2,0,L|328:186,1,68.75
477,323,277965,5,0,3:0:0:0:
384,341,278131,1,0,0:0:0:0:
366,248,278298,1,0,0:0:0:0:
459,230,278465,1,0,0:0:0:0:
384,341,278631,5,8,3:2:0:0:
273,266,278798,1,0,0:0:0:0:
348,155,278965,1,0,0:0:0:0:
459,230,279131,1,0,0:0:0:0:
273,266,279298,5,0,3:0:0:0:
237,80,279465,1,0,0:0:0:0:
423,44,279631,1,0,0:0:0:0:
459,230,279798,1,0,0:0:0:0:
237,80,279965,5,8,3:2:0:0:
505,99,280131,1,0,0:0:0:0:
355,322,280298,1,4,0:0:0:0:
374,54,280465,1,4,0:0:0:0:
459,230,280631,6,0,L|311:209,1,137.5,4|0,3:0|0:0,0:0:0:0:
280,94,281131,1,0,0:0:0:0:
67,165,281298,5,8,3:2:0:0:
144,154,281465,1,0,0:0:0:0:
220,142,281631,1,0,0:0:0:0:
124,18,281798,1,0,0:0:0:0:
147,173,281965,6,0,B|136:219|136:219|160:325,1,137.5,0|0,3:0|0:0,0:0:0:0:
319,234,282465,1,0,0:0:0:0:
47,216,282631,5,12,3:2:0:0:
77,350,282798,1,0,0:0:0:0:
219,277,282965,1,0,0:0:0:0:
133,247,283131,1,0,0:0:0:0:
237,367,283298,5,0,3:0:0:0:
215,114,283465,1,0,0:0:0:0:
133,247,283631,1,0,0:0:0:0:
319,234,283798,1,0,0:0:0:0:
115,157,283965,6,0,P|74:160|35:178,2,68.75,8|0|0,3:2|0:0|0:0,0:0:0:0:
226,241,284465,1,0,0:0:0:0:
327,122,284631,6,0,L|332:37,1,68.75,0|0,3:0|0:0,0:0:0:0:
273,15,284965,1,0,0:0:0:0:
448,130,285131,1,0,0:0:0:0:
213,247,285298,2,0,L|128:242,2,68.75,8|0|0,3:2|0:0|0:0,0:0:0:0:
317,255,285798,1,8,0:0:0:0:
40,234,285965,6,0,P|25:279|35:324,1,68.75,0|0,3:0|0:0,0:0:0:0:
394,273,286298,2,0,P|393:238|380:207,1,68.75
241,26,286631,1,8,3:2:0:0:
198,131,286798,1,0,0:0:0:0:
310,116,286965,1,0,0:0:0:0:
129,41,287131,2,0,L|89:26,1,34.375
415,36,287298,6,0,L|400:126,1,68.75,0|0,3:0|0:0,0:0:0:0:
386,204,287631,1,0,0:0:0:0:
481,168,287798,1,0,0:0:0:0:
292,241,287965,5,8,3:2:0:0:
478,245,288131,1,0,0:0:0:0:
293,163,288298,1,0,0:0:0:0:
396,304,288465,1,0,0:0:0:0:
374,103,288631,5,0,3:0:0:0:
296,345,288798,2,0,P|258:349|218:343,1,68.75
169,296,289131,1,0,0:0:0:0:
441,236,289298,2,0,P|463:266|478:304,1,68.75,8|0,3:2|0:0,0:0:0:0:
462,370,289631,1,0,0:0:0:0:
275,165,289798,2,0,P|290:130|315:98,1,68.75,0|0,0:0|3:0,0:0:0:0:
380,79,290131,5,0,0:0:0:0:
333,259,290298,2,0,L|335:303,1,34.375
163,126,290465,1,0,0:0:0:0:
426,185,290631,2,0,L|505:169,1,68.75,8|0,3:2|0:0,0:0:0:0:
223,225,290965,1,0,0:0:0:0:
385,65,291131,1,0,0:0:0:0:
467,305,291298,6,0,P|403:342|336:335,1,137.5,0|0,3:0|0:0,0:0:0:0:
217,217,291798,1,0,0:0:0:0:
56,288,291965,2,0,L|68:372,1,68.75,8|0,3:2|0:0,0:0:0:0:
341,337,292298,2,0,L|350:268,1,68.75
213,138,292631,6,0,P|160:161|145:251,1,137.5,0|0,3:0|0:0,0:0:0:0:
340,350,293131,1,0,0:0:0:0:
369,131,293298,1,8,3:2:0:0:
268,263,293465,1,0,0:0:0:0:
433,286,293631,1,0,0:0:0:0:
370,120,293798,1,0,0:0:0:0:
229,369,293965,6,0,P|186:367|91:313,1,137.5,0|0,3:0|0:0,0:0:0:0:
4,223,294465,1,0,0:0:0:0:
273,194,294631,2,0,L|266:276,1,68.75,8|0,3:2|0:0,0:0:0:0:
89,328,294965,2,0,P|120:351|133:357,1,34.375
229,369,295131,1,0,0:0:0:0:
150,224,295298,6,0,B|123:189|123:189|135:71,1,137.5,0|0,3:0|0:0,0:0:0:0:
140,10,295798,1,0,0:0:0:0:
36,155,295965,5,8,3:2:0:0:
214,174,296131,1,0,0:0:0:0:
476,43,296298,1,0,0:0:0:0:
253,66,296465,1,0,0:0:0:0:
385,248,296631,5,0,3:0:0:0:
374,137,296798,1,0,0:0:0:0:
310,266,296965,1,0,0:0:0:0:
462,248,297131,1,0,0:0:0:0:
363,26,297298,6,0,L|371:105,1,68.75,8|0,3:2|0:0,0:0:0:0:
396,359,297631,1,0,0:0:0:0:
299,180,297798,1,0,0:0:0:0:
193,354,297965,6,0,P|156:336|132:295,1,68.75,0|0,3:0|0:0,0:0:0:0:
89,24,298298,2,0,P|126:42|150:83,1,68.75
13,273,298631,2,0,L|102:261,1,68.75,8|0,3:2|0:0,0:0:0:0:
364,225,298965,2,0,L|295:234,1,68.75
139,314,299298,5,0,3:0:0:0:
174,75,299465,1,0,0:0:0:0:
364,225,299631,1,0,0:0:0:0:
125,191,299798,1,0,0:0:0:0:
288,123,299965,5,8,3:2:0:0:
263,299,300131,1,0,0:0:0:0:
259,321,300215,1,0,0:0:0:0:
255,343,300298,1,8,0:0:0:0:
113,189,300465,1,8,0:0:0:0:
375,226,300631,6,0,L|453:236,1,68.75,0|0,3:0|0:0,0:0:0:0:
158,17,300965,1,8,0:0:0:0:
101,187,301131,1,8,0:0:0:0:
488,137,301298,2,0,P|461:35|357:80,1,240.625,4|0,3:0|0:0,0:0:0:0:
375,226,301965,6,0,L|386:305,1,68.75,0|0,3:0|0:0,0:0:0:0:
458,355,302298,2,0,L|467:286,1,68.75
20,221,302631,2,0,L|31:300,1,68.75,8|0,3:2|0:0,0:0:0:0:
107,346,302965,2,0,P|122:308|123:272,1,68.75
40,136,303298,6,0,P|34:67|98:43,1,137.5,0|0,3:0|0:0,0:0:0:0:
421,102,303798,5,8,0:0:0:0:
51,148,303965,1,0,3:0:0:0:
62,160,304298,5,0,0:0:0:0:
78,73,304465,1,0,0:0:0:0:
155,337,304631,6,0,B|82:348|82:348|22:297,1,137.5,0|0,3:0|0:0,0:0:0:0:
11,279,305131,1,0,0:0:0:0:
260,290,305298,6,0,L|259:222,1,68.75,8|0,3:2|0:0,0:0:0:0:
345,273,305631,2,0,L|344:342,1,68.75
157,252,305965,6,0,B|144:291|144:291|152:326,1,68.75,0|0,3:0|0:0,0:0:0:0:
468,96,306298,2,0,B|481:57|481:57|473:22,1,68.75,8|0,0:0|0:0,0:0:0:0:
312,355,306631,6,0,L|430:339,1,103.125,0|0,3:0|0:0,0:0:0:0:
448,336,306965,1,8,0:0:0:0:
175,373,307131,1,8,0:0:0:0:
280,118,307298,5,0,3:0:0:0:
311,354,307465,1,0,0:0:0:0:
432,218,307631,1,0,0:0:0:0:
159,254,307798,1,0,0:0:0:0:
313,366,307965,5,8,3:2:0:0:
278,106,308131,1,0,0:0:0:0:
230,245,308298,2,0,L|322:232,1,68.75
495,67,308631,6,0,B|457:53|457:53|353:80,1,137.5,0|0,3:0|0:0,0:0:0:0:
119,34,309131,5,8,0:0:0:0:
92,343,309298,1,0,3:0:0:0:
83,360,309631,5,0,0:0:0:0:
122,292,309798,1,0,0:0:0:0:
454,336,309965,6,0,P|421:352|377:351,1,68.75,0|0,3:0|0:0,0:0:0:0:
110,216,310298,2,0,P|144:218|174:233,1,68.75
259,375,310631,2,0,L|265:297,1,68.75,8|0,3:2|0:0,0:0:0:0:
286,25,310965,2,0,L|280:93,1,68.75
85,288,311298,6,0,P|49:261|33:219,1,68.75,0|0,3:0|0:0,0:0:0:0:
135,144,311631,2,0,P|171:171|187:213,1,68.75,4|0,0:0|0:0,0:0:0:0:
334,363,311965,6,0,B|375:353|375:353|403:317,1,68.75,0|0,3:0|0:0,0:0:0:0:
330,291,312298,2,0,B|289:301|289:301|261:337,1,68.75,8|0,0:0|0:0,0:0:0:0:
480,229,312631,6,0,P|490:191|485:152,1,68.75,0|0,3:0|0:0,0:0:0:0:
271,68,312965,2,0,P|315:56|363:62,1,68.75
446,71,313298,1,8,3:2:0:0:
451,60,313631,2,0,L|445:133,1,68.75
381,349,313965,6,0,B|364:313|364:313|241:299,1,137.5,0|0,3:0|0:0,0:0:0:0:
198,328,314465,1,0,0:0:0:0:
133,85,314631,5,8,3:2:0:0:
6,148,314798,1,0,0:0:0:0:
69,275,314965,1,0,0:0:0:0:
196,212,315131,1,0,0:0:0:0:
57,365,315298,6,0,L|68:287,1,68.75,0|0,3:0|0:0,0:0:0:0:
56,90,315631,1,0,0:0:0:0:
190,135,315798,1,0,0:0:0:0:
55,384,315965,6,0,L|44:306,1,68.75,8|0,3:2|0:0,0:0:0:0:
196,212,316298,1,0,0:0:0:0:
6,148,316465,1,0,0:0:0:0:
263,288,316631,6,0,P|289:257|303:213,1,68.75,0|0,3:0|0:0,0:0:0:0:
129,136,316965,2,0,P|103:167|89:211,1,68.75
248,372,317298,5,8,3:2:0:0:
463,206,317465,1,0,0:0:0:0:
267,277,317631,1,0,0:0:0:0:
442,299,317798,1,0,0:0:0:0:
346,356,317965,5,0,3:0:0:0:
364,221,318131,2,0,P|363:187|351:145,2,68.75
417,28,318631,5,8,3:2:0:0:
360,236,318798,1,0,0:0:0:0:
302,105,318965,2,0,P|331:86|385:86,1,68.75
489,335,319298,6,0,L|333:326,1,137.5,0|0,3:0|0:0,0:0:0:0:
248,321,319798,1,0,0:0:0:0:
24,148,319965,5,8,3:2:0:0:
221,107,320131,1,0,0:0:0:0:
102,29,320298,1,0,0:0:0:0:
143,226,320465,1,0,0:0:0:0:
344,36,320631,6,0,B|264:47|264:47|235:84,1,103.125,0|0,3:0|0:0,0:0:0:0:
250,64,320965,2,0,B|330:53,1,68.75
492,129,321298,6,0,L|482:211,1,68.75,8|0,3:2|0:0,0:0:0:0:
236,173,321631,2,0,L|246:255,1,68.75
457,214,321965,2,0,L|447:296,1,68.75,0|0,3:0|0:0,0:0:0:0:
271,258,322298,2,0,L|281:340,1,68.75
359,357,322631,5,8,3:2:0:0:
358,366,322715,1,0,0:0:0:0:
357,375,322798,1,0,0:0:0:0:
236,173,322965,1,0,0:0:0:0:
492,129,323131,1,0,0:0:0:0:
170,365,323298,5,0,3:0:0:0:
234,165,323465,1,0,0:0:0:0:
302,297,323631,1,0,0:0:0:0:
203,265,323798,1,0,0:0:0:0:
389,168,323965,5,8,3:2:0:0:
302,297,324131,1,0,0:0:0:0:
233,157,324298,1,0,0:0:0:0:
363,244,324465,1,0,0:0:0:0:
203,265,324631,5,0,3:0:0:0:
170,365,324798,1,0,0:0:0:0:
131,190,324965,5,0,0:0:0:0:
125,295,325131,1,0,0:0:0:0:
42,136,325298,5,8,3:2:0:0:
63,239,325465,1,0,0:0:0:0:
203,265,325631,1,0,0:0:0:0:
110,373,325798,1,0,0:0:0:0:
131,190,325965,5,0,3:0:0:0:
137,85,326131,1,0,0:0:0:0:
269,235,326298,1,0,0:0:0:0:
275,340,326465,1,0,0:0:0:0:
63,239,326631,5,8,3:2:0:0:
343,89,326798,1,0,0:0:0:0:
275,345,326965,1,0,0:0:0:0:
268,229,327131,1,0,0:0:0:0:
488,337,327298,6,0,L|408:344,1,68.75,0|0,3:0|0:0,0:0:0:0:
259,81,327631,2,0,L|339:88,1,68.75
18,59,327965,5,14,3:1:0:0:
18,59,328631,5,0,3:0:0:0:
120,67,328798,1,0,0:0:0:0:
430,95,328965,5,0,0:0:0:0:
327,86,329131,1,0,0:0:0:0:
208,255,329298,5,8,3:2:0:0:
227,50,329465,1,0,0:0:0:0:
109,219,329631,1,0,0:0:0:0:
315,237,329798,1,0,0:0:0:0:
145,119,329965,5,0,3:0:0:0:
295,132,330131,1,0,0:0:0:0:
227,39,330298,1,0,0:0:0:0:
207,265,330465,1,0,0:0:0:0:
87,65,330631,5,8,3:2:0:0:
360,88,330798,1,0,0:0:0:0:
138,118,330965,1,0,0:0:0:0:
302,132,331131,1,0,0:0:0:0:
206,276,331298,5,0,3:0:0:0:
325,237,331465,1,0,0:0:0:0:
98,218,331631,1,0,0:0:0:0:
197,379,331798,1,0,0:0:0:0:
215,173,331965,5,8,3:2:0:0:
224,70,332131,1,0,0:0:0:0:
322,130,332298,1,0,0:0:0:0:
116,112,332465,1,0,0:0:0:0:
205,281,332631,5,0,3:0:0:0:
153,219,332798,1,0,0:0:0:0:
215,167,332965,1,0,0:0:0:0:
267,229,333131,1,0,0:0:0:0:
40,210,333298,5,8,3:2:0:0:
381,239,333631,1,8,0:0:0:0:
381,239,333798,1,8,0:0:0:0:
409,44,333965,5,0,3:0:0:0:
318,161,334131,1,0,0:0:0:0:
466,89,334298,1,0,0:0:0:0:
260,115,334464,1,0,0:0:0:0:
432,193,334631,5,8,3:2:0:0:
294,11,334797,1,0,0:0:0:0:
206,222,334965,1,0,0:0:0:0:
364,103,335131,1,0,0:0:0:0:
322,237,335298,5,0,3:0:0:0:
294,11,335465,1,0,0:0:0:0:
322,242,335631,1,0,0:0:0:0:
293,6,335798,1,0,0:0:0:0:
184,140,335965,5,8,3:2:0:0:
432,108,336131,1,0,0:0:0:0:
464,356,336298,1,0,0:0:0:0:
324,248,336465,1,0,0:0:0:0:
448,232,336631,5,0,3:0:0:0:
448,232,336798,1,0,0:0:0:0:
308,124,336965,1,0,0:0:0:0:
340,372,337131,1,0,0:0:0:0:
432,108,337298,5,8,3:2:0:0:
432,108,337465,1,0,0:0:0:0:
200,264,337631,1,0,0:0:0:0:
448,232,337798,1,0,0:0:0:0:
184,140,337965,6,0,P|139:153|104:182,1,68.75,0|0,3:0|0:0,0:0:0:0:
61,369,338298,1,0,0:0:0:0:
61,369,338465,1,0,0:0:0:0:
48,55,338631,5,8,3:2:0:0:
55,212,338798,1,0,0:0:0:0:
205,48,338965,1,0,0:0:0:0:
212,205,339131,1,0,0:0:0:0:
130,130,339298,6,0,L|125:47,1,68.75,0|0,3:0|0:0,0:0:0:0:
284,34,339631,2,0,L|279:102,1,68.75
212,212,339965,1,8,3:2:0:0:
204,40,340132,1,0,0:0:0:0:
357,119,340298,1,0,0:0:0:0:
442,115,340465,1,0,0:0:0:0:
187,127,340631,6,0,L|118:130,2,68.75,0|0|0,3:0|0:0|0:0,0:0:0:0:
397,44,341131,1,0,0:0:0:0:
363,267,341298,5,8,3:2:0:0:
281,57,341465,1,0,0:0:0:0:
217,203,341631,1,0,0:0:0:0:
427,121,341798,1,0,0:0:0:0:
276,265,341965,5,0,3:0:0:0:
218,116,342131,1,0,0:0:0:0:
425,207,342298,2,0,P|448:245|448:285,1,68.75
119,241,342631,5,8,3:2:0:0:
376,141,342798,1,0,0:0:0:0:
297,319,342965,1,0,0:0:0:0:
197,62,343132,1,0,0:0:0:0:
193,323,343298,5,0,3:0:0:0:
375,252,343465,1,0,0:0:0:0:
123,141,343632,1,0,0:0:0:0:
304,71,343799,1,0,0:0:0:0:
245,204,343965,5,8,3:2:0:0:
256,200,344132,1,0,0:0:0:0:
252,188,344298,1,0,0:0:0:0:
240,193,344466,1,0,0:0:0:0:
423,312,344631,6,0,P|448:274|439:209,1,82.5000031471254,6|0,3:0|0:0,0:0:0:0:
75,81,344965,2,0,P|50:119|59:184,1,82.5000031471254,2|0,0:0|0:0,0:0:0:0:
435,159,345298,2,0,L|346:145,1,82.5000031471254,10|0,3:2|0:0,0:0:0:0:
63,234,345631,2,0,L|151:247,1,82.5000031471254,2|0,0:0|0:0,0:0:0:0:
405,82,345965,5,0,3:0:0:0:
271,133,346131,1,0,0:0:0:0:
468,222,346298,1,0,0:0:0:0:
471,242,346381,1,0,0:0:0:0:
474,262,346465,1,0,0:0:0:0:
477,283,346548,1,0,0:0:0:0:
480,303,346631,2,0,L|391:289,1,82.5000031471254,8|0,3:2|0:0,0:0:0:0:
201,65,346965,6,0,L|197:44,7,20.6250007867813
189,146,347298,6,0,L|277:132,1,82.5000031471254,0|0,3:0|0:0,0:0:0:0:
392,114,347631,1,0,0:0:0:0:
66,164,347798,1,0,0:0:0:0:
348,229,347965,5,8,3:2:0:0:
315,19,348131,1,0,0:0:0:0:
398,113,348298,1,0,0:0:0:0:
264,134,348465,1,0,0:0:0:0:
482,208,348631,5,2,3:0:0:0:
435,26,348798,1,0,0:0:0:0:
349,239,348965,1,0,0:0:0:0:
318,236,349048,1,0,0:0:0:0:
287,234,349131,1,0,0:0:0:0:
256,231,349215,1,0,0:0:0:0:
162,222,349298,6,0,B|183:249|183:249|169:204|208:153|259:155,1,165.000006294251,10|0,3:2|0:0,0:0:0:0:
250,155,349965,6,0,P|238:109|244:58,1,82.5000031471254,2|0,3:0|0:0,0:0:0:0:
379,66,350298,1,0,0:0:0:0:
99,82,350465,1,0,0:0:0:0:
253,316,350631,5,8,3:2:0:0:
316,191,350798,1,0,0:0:0:0:
176,199,350965,1,0,0:0:0:0:
393,308,351131,1,0,0:0:0:0:
113,324,351298,5,0,3:0:0:0:
244,142,351465,1,0,0:0:0:0:
393,308,351631,1,0,0:0:0:0:
351,310,351714,1,0,0:0:0:0:
310,312,351797,1,0,0:0:0:0:
269,315,351880,1,0,0:0:0:0:
228,317,351965,2,0,B|250:297|250:297|270:226,1,82.5000031471254,8|0,3:2|0:0,0:0:0:0:
263,83,352298,6,0,L|290:84,7,20.6250007867813
387,90,352631,6,0,B|364:70|364:70|344:0,1,82.5000031471254,0|0,3:0|0:0,0:0:0:0:
263,83,352965,1,0,0:0:0:0:
511,97,353131,1,0,0:0:0:0:
290,209,353298,5,8,3:2:0:0:
387,90,353465,1,0,0:0:0:0:
441,233,353631,1,0,0:0:0:0:
400,15,353798,1,0,0:0:0:0:
366,221,353965,5,0,3:0:0:0:
387,90,354131,1,0,0:0:0:0:
345,352,354298,1,0,0:0:0:0:
335,348,354381,1,0,0:0:0:0:
325,345,354464,1,0,0:0:0:0:
315,342,354547,1,0,0:0:0:0:
245,316,354631,5,10,3:2:0:0:
245,316,355298,6,0,B|217:334|217:334|154:340,1,82.5000031471254,2|0,3:0|0:0,0:0:0:0:
33,50,355631,2,0,B|61:32|61:32|124:26,1,82.5000031471254,2|0,0:0|0:0,0:0:0:0:
99,304,355965,2,0,B|81:276|81:276|75:213,1,82.5000031471254,10|0,3:2|0:0,0:0:0:0:
179,62,356298,2,0,B|197:90|197:90|203:153,1,82.5000031471254,2|0,0:0|0:0,0:0:0:0:
18,295,356631,5,0,3:0:0:0:
141,186,356798,1,0,0:0:0:0:
296,238,356965,1,0,0:0:0:0:
336,232,357048,1,0,0:0:0:0:
377,227,357131,1,0,0:0:0:0:
418,222,357214,1,0,0:0:0:0:
458,216,357298,2,0,B|447:265|447:265|459:320,1,82.5000031471254,8|0,3:2|0:0,0:0:0:0:
347,20,357631,6,0,B|371:25,7,20.6250007867813
364,105,357965,6,0,B|375:56|375:56|363:1,1,82.5000031471254,0|0,3:0|0:0,0:0:0:0:
512,54,358298,1,0,0:0:0:0:
233,69,358465,1,0,0:0:0:0:
483,196,358631,5,8,3:2:0:0:
373,62,358798,1,0,0:0:0:0:
403,242,358965,1,0,0:0:0:0:
371,53,359132,1,0,0:0:0:0:
301,242,359298,5,2,3:0:0:0:
173,87,359465,1,0,0:0:0:0:
103,276,359632,1,0,0:0:0:0:
134,249,359715,1,0,0:0:0:0:
166,223,359798,1,0,0:0:0:0:
198,197,359881,1,0,0:0:0:0:
230,171,359965,1,8,3:2:0:0:
68,198,360131,1,0,0:0:0:0:
301,242,360298,6,0,L|321:245,7,20.6250007867813
468,265,360631,6,0,L|386:280,1,82.5000031471254,2|0,3:0|0:0,0:0:0:0:
223,310,360965,1,2,0:0:0:0:
305,75,361131,1,0,0:0:0:0:
411,199,361298,2,0,L|328:214,1,82.5000031471254,10|0,3:2|0:0,0:0:0:0:
117,186,361631,2,0,L|199:170,1,82.5000031471254,2|0,0:0|0:0,0:0:0:0:
466,46,361965,5,0,3:0:0:0:
411,199,362131,1,0,0:0:0:0:
305,75,362298,1,0,0:0:0:0:
264,82,362381,1,0,0:0:0:0:
223,89,362464,1,0,0:0:0:0:
183,97,362547,1,0,0:0:0:0:
142,104,362631,2,0,B|108:141|108:141|116:188,1,82.5000031471254,8|0,3:2|0:0,0:0:0:0:
346,335,362965,6,0,L|367:332,7,20.6250007867813
449,318,363298,6,0,B|483:281|483:281|475:234,1,82.5000031471254,0|0,3:0|0:0,0:0:0:0:
449,86,363631,1,0,0:0:0:0:
392,241,363798,1,0,0:0:0:0:
357,38,363965,5,8,3:2:0:0:
463,168,364131,1,0,0:0:0:0:
236,147,364298,1,0,0:0:0:0:
410,103,364465,1,0,0:0:0:0:
260,268,364631,5,2,3:0:0:0:
251,350,364797,1,0,0:0:0:0:
37,237,364965,2,0,L|29:155,1,82.5000031471254,2|0,0:0|0:0,0:0:0:0:
418,20,365298,2,0,L|409:102,1,82.5000031471254,10|0,3:2|0:0,0:0:0:0:
400,184,365548,1,0,0:0:0:0:
397,204,365631,2,0,L|401:245,1,41.2500015735627
292,120,365798,2,0,L|296:78,1,41.2500015735627
511,325,365965,6,0,L|388:318,1,96.2500009179115,6|0,3:2|0:0,0:0:0:0:
23,197,366298,2,0,L|146:204,1,96.2500009179115,2|0,0:0|0:0,0:0:0:0:
502,330,366631,6,0,L|379:323,1,96.2500009179115,10|0,3:2|0:0,0:0:0:0:
32,192,366964,2,0,L|155:199,1,96.2500009179115,2|0,0:0|0:0,0:0:0:0:
493,335,367298,6,0,L|370:328,1,96.2500009179115,2|0,3:0|0:0,0:0:0:0:
41,187,367631,1,2,0:0:0:0:
299,323,367798,1,2,0:0:0:0:
289,32,367965,5,8,3:2:0:0:
165,110,368131,1,0,0:0:0:0:
243,234,368298,1,2,0:0:0:0:
367,156,368465,1,0,0:0:0:0:
157,33,368631,6,0,P|111:54|87:102,1,96.2500009179115,2|0,3:0|0:0,0:0:0:0:
374,235,368965,2,0,P|420:214|444:166,1,96.2500009179115,2|0,0:0|0:0,0:0:0:0:
153,28,369298,6,0,P|107:49|83:97,1,96.2500009179115,10|0,3:2|0:0,0:0:0:0:
378,240,369632,2,0,P|424:219|448:171,1,96.2500009179115,2|0,0:0|0:0,0:0:0:0:
149,23,369965,6,0,P|103:44|79:92,1,96.2500009179115,2|0,3:0|0:0,0:0:0:0:
382,245,370298,2,0,P|428:224|452:176,1,96.2500009179115
289,32,370631,5,8,3:2:0:0:
259,278,370798,2,0,L|270:337,1,48.1250004589558,2|0,0:0|0:0,0:0:0:0:
145,192,370965,1,2,0:0:0:0:
321,152,371131,1,2,0:0:0:0:
83,318,371298,6,0,B|57:295|57:295|69:216,1,96.2500009179115,2|0,3:0|0:0,0:0:0:0:
383,26,371631,2,0,B|409:49|409:49|397:128,1,96.2500009179115,2|0,0:0|0:0,0:0:0:0:
75,320,371965,6,0,B|49:297|49:297|61:218,1,96.2500009179115,10|0,3:2|0:0,0:0:0:0:
391,24,372298,2,0,B|417:47|417:47|405:126,1,96.2500009179115,2|0,0:0|0:0,0:0:0:0:
67,322,372631,6,0,B|41:299|41:299|53:220,1,96.2500009179115,2|0,3:0|0:0,0:0:0:0:
60,166,372881,1,2,0:0:0:0:
66,130,372965,2,0,B|58:82,1,48.1250004589558,2|0,0:0|0:0,0:0:0:0:
259,278,373131,2,0,B|251:325,1,48.1250004589558,2|0,0:0|0:0,0:0:0:0:
291,37,373298,5,8,3:2:0:0:
276,158,373465,1,0,0:0:0:0:
179,84,373631,1,2,0:0:0:0:
388,111,373798,1,0,0:0:0:0:
261,279,373965,6,0,B|290:375,1,96.2500009179115,2|0,3:0|0:0,0:0:0:0:
55,160,374298,2,0,B|26:64,1,96.2500009179115,2|0,0:0|0:0,0:0:0:0:
259,290,374631,6,0,B|288:386,1,96.2500009179115,10|0,3:2|0:0,0:0:0:0:
89,32,374965,2,0,B|118:126,1,96.2500009179115,2|0,0:0|0:0,0:0:0:0:
63,337,375298,5,0,3:0:0:0:
219,179,375465,1,0,0:0:0:0:
433,235,375631,1,0,0:0:0:0:
141,259,375798,1,0,0:0:0:0:
354,100,375965,5,8,3:2:0:0:
298,314,376131,2,0,L|352:290,1,48.1250004589558,2|2,0:0|0:0,0:0:0:0:
459,242,376298,1,2,0:0:0:0:
192,172,376465,1,2,0:0:0:0:
451,359,376631,6,0,L|460:247,1,96.2500009179115,2|0,3:0|0:0,0:0:0:0:
47,122,376965,2,0,L|38:234,1,96.2500009179115,2|0,0:0|0:0,0:0:0:0:
444,359,377298,6,0,L|453:247,1,96.2500009179115,10|0,3:2|0:0,0:0:0:0:
54,122,377632,2,0,L|45:234,1,96.2500009179115,2|0,0:0|0:0,0:0:0:0:
437,359,377965,6,0,L|446:247,1,96.2500009179115,2|0,3:0|0:0,0:0:0:0:
61,122,378298,1,2,0:0:0:0:
192,329,378465,1,2,0:0:0:0:
181,24,378631,5,8,3:2:0:0:
61,122,378798,1,0,0:0:0:0:
279,144,378965,1,2,0:0:0:0:
159,242,379131,1,0,0:0:0:0:
278,40,379298,6,0,P|323:29|377:32,1,96.2500009179115,2|0,3:0|0:0,0:0:0:0:
216,313,379631,2,0,P|171:324|117:321,1,96.2500009179115
280,47,379965,6,0,P|325:36|379:39,1,96.2500009179115,10|0,3:2|0:0,0:0:0:0:
218,320,380298,2,0,P|173:331|119:328,1,96.2500009179115,2|0,0:0|0:0,0:0:0:0:
282,54,380631,6,0,P|327:43|381:46,1,96.2500009179115,2|0,3:0|0:0,0:0:0:0:
220,327,380965,2,0,P|175:338|121:335,1,96.2500009179115,2|0,0:0|0:0,0:0:0:0:
26,82,381298,5,8,3:2:0:0:
8,233,381465,1,2,0:0:0:0:
253,110,381631,1,2,0:0:0:0:
17,158,381798,1,2,0:0:0:0:
361,274,381965,6,0,B|370:317|370:317|354:378,1,96.2500009179115,2|0,3:0|0:0,0:0:0:0:
180,150,382298,2,0,B|171:107|171:107|187:46,1,96.2500009179115,2|0,0:0|0:0,0:0:0:0:
367,276,382631,6,0,B|376:319|376:319|360:380,1,96.2500009179115,10|0,3:2|0:0,0:0:0:0:
174,148,382965,2,0,B|165:105|165:105|181:44,1,96.2500009179115,2|0,0:0|0:0,0:0:0:0:
373,278,383298,6,0,B|382:321|382:321|366:382,1,96.2500009179115,2|0,3:0|0:0,0:0:0:0:
286,376,383548,5,2,0:0:0:0:
262,369,383631,1,2,0:0:0:0:
512,297,383798,1,2,0:0:0:0:
325,117,383965,5,8,3:2:0:0:
361,242,384131,1,0,0:0:0:0:
249,206,384298,1,2,0:0:0:0:
436,152,384464,1,0,0:0:0:0:
62,260,384631,6,0,L|71:156,1,96.2500009179115,2|0,3:0|0:0,0:0:0:0:
316,21,384965,2,0,L|324:116,1,96.2500009179115,2|0,0:0|0:0,0:0:0:0:
54,269,385298,6,0,L|63:165,1,96.2500009179115,10|0,3:2|0:0,0:0:0:0:
427,56,385631,2,0,L|435:151,1,96.2500009179115,2|0,0:0|0:0,0:0:0:0:
451,342,385965,1,0,3:0:0:0:
342,184,386131,1,0,0:0:0:0:
260,358,386298,2,0,B|301:353|301:353|364:300,1,96.2500009179115,4|0,0:0|0:0,0:0:0:0:
378,12,386631,2,0,P|336:64|349:196,1,192.500001835823,0|4,3:0|0:0,0:0:0:0:
47,147,387298,6,0,B|35:88|35:88|50:41,3,110,0|0|0|0,3:0|0:0|0:0|0:0,0:0:0:0:
125,154,391298,6,0,B|116:216|116:216|60:256|60:256|49:353,2,220
419,48,397965,6,0,B|419:89|419:89|411:118|411:118|411:166,3,110
417,280,399298,6,0,L|430:338,3,55
322,205,399965,2,0,L|334:151,3,55
413,291,400631,2,0,L|426:349,3,55
409,302,401298,2,0,L|422:360,3,55
470,244,401965,6,0,P|422:219|327:279,1,165
160,320,402631,2,0,L|91:315,3,55
52,265,403298,6,0,B|38:251|38:251|48:204,1,55
34,105,403631,2,0,B|48:91|48:91|95:101,1,55
194,87,403965,2,0,B|208:101|208:101|198:148,1,55
212,247,404298,2,0,B|198:261|198:261|151:251,1,55
113,197,404631,6,0,L|111:133,3,55
303,17,405298,2,0,L|301:71,3,55
368,283,405965,6,0,B|382:255|382:255|377:206,3,55
375,286,406631,2,0,B|389:258|389:258|384:209,3,55
394,164,407298,6,0,P|364:166|333:184,1,55
455,347,407631,2,0,L|459:279,1,55
266,161,407965,5,0,0:0:0:0:
269,215,408131,1,0,0:0:0:0:
272,270,408298,1,0,0:0:0:0:
275,325,408465,1,0,0:0:0:0:
260,51,408631,6,0,P|230:41|188:37,1,68.75,0|0,3:0|0:0,0:0:0:0:
92,95,408965,2,0,P|122:105|163:108,1,68.75
394,22,409298,6,0,B|441:14|441:14|488:20,1,68.75,8|0,3:2|0:0,0:0:0:0:
512,82,409631,2,0,B|465:90|465:90|418:84,1,68.75
78,17,409965,6,0,P|29:49|23:138,1,137.5,0|0,3:0|0:0,0:0:0:0:
394,181,410465,5,8,0:2:0:0:
0,264,410631,1,0,3:0:0:0:
5,254,410965,5,0,0:0:0:0:
26,331,411131,1,0,0:0:0:0:
163,85,411298,6,0,B|128:92|128:92|103:195,1,137.5,0|0,3:0|0:0,0:0:0:0:
82,273,411798,1,0,0:0:0:0:
147,16,411965,2,0,B|77:30,1,68.75,8|0,3:2|0:0,0:0:0:0:
190,155,412298,2,0,B|257:141,1,68.75
328,122,412631,6,0,P|308:87|265:69,1,68.75,0|0,3:0|0:0,0:0:0:0:
37,300,412965,2,0,P|57:335|100:353,1,68.75,4|0,0:0|0:0,0:0:0:0:
211,342,413298,6,0,P|245:298|316:300,1,103.125,0|0,3:0|0:0,0:0:0:0:
298,301,413631,2,0,L|292:371,1,68.75
150,236,413965,6,0,P|138:194|145:160,1,68.75,0|0,3:0|0:0,0:0:0:0:
207,22,414298,2,0,P|219:64|212:98,1,68.75
103,169,414631,1,8,3:2:0:0:
10,160,414797,1,0,0:0:0:0:
215,88,414965,2,0,B|247:74|247:74|287:76,1,68.75
395,153,415298,6,0,B|429:173|429:173|415:65,1,137.5,0|0,3:0|0:0,0:0:0:0:
99,95,415798,5,8,0:0:0:0:
501,116,415965,1,0,3:0:0:0:
506,124,416298,5,0,0:0:0:0:
488,41,416465,1,0,0:0:0:0:
386,272,416631,6,0,P|431:279|499:211,1,137.5,0|0,3:0|0:0,0:0:0:0:
418,196,417131,1,0,0:0:0:0:
481,363,417298,2,0,B|456:351|456:351|408:354,1,68.75,8|0,3:2|0:0,0:0:0:0:
304,266,417631,2,0,B|279:278|279:278|231:275,1,68.75
50,289,417965,6,0,P|34:328|48:372,1,68.75,0|0,3:0|0:0,0:0:0:0:
110,334,418298,2,0,P|126:295|112:251,1,68.75,4|0,0:0|0:0,0:0:0:0:
37,111,418631,6,0,B|31:72|31:72|46:29,1,68.75,0|0,3:0|0:0,0:0:0:0:
111,49,418965,2,0,B|102:77|102:77|108:116,1,68.75
291,179,419298,6,0,L|359:175,1,68.75,0|0,3:0|0:0,0:0:0:0:
497,166,419631,2,0,L|429:170,1,68.75
221,183,419965,5,8,3:2:0:0:
221,183,420131,1,0,0:0:0:0:
350,36,420298,1,0,0:0:0:0:
359,174,420464,1,0,0:0:0:0:
212,45,420631,6,0,B|152:36|152:36|169:140,1,137.5,0|0,3:0|0:0,0:0:0:0:
191,280,421131,1,8,0:0:0:0:
83,148,421298,5,0,3:0:0:0:
253,121,421465,1,0,0:0:0:0:
280,291,421631,1,0,0:0:0:0:
110,318,421798,1,0,0:0:0:0:
259,113,421965,6,0,L|250:204,1,68.75,0|0,3:0|0:0,0:0:0:0:
199,329,422298,1,0,0:0:0:0:
354,343,422465,1,0,0:0:0:0:
262,95,422631,6,0,L|271:186,1,68.75,8|0,3:2|0:0,0:0:0:0:
382,322,422965,1,0,0:0:0:0:
174,352,423132,1,0,0:0:0:0:
386,182,423298,6,0,B|404:176|404:176|468:188,1,68.75,0|0,3:0|0:0,0:0:0:0:
512,365,423631,2,0,B|494:371|494:371|430:359,1,68.75,4|0,0:0|0:0,0:0:0:0:
343,106,423965,5,0,3:0:0:0:
419,244,424131,1,0,0:0:0:0:
205,182,424298,1,0,0:0:0:0:
281,320,424465,1,0,0:0:0:0:
313,214,424631,6,0,P|314:169|301:140,1,68.75,0|0,3:0|0:0,0:0:0:0:
158,32,424965,2,0,P|147:64|150:98,1,68.75
352,77,425298,1,8,3:2:0:0:
452,66,425465,1,0,0:0:0:0:
252,88,425631,2,0,L|175:95,1,68.75
37,298,425965,6,0,P|88:289|122:228,1,103.125,0|0,3:0|0:0,0:0:0:0:
107,176,426298,1,4,0:0:0:0:
129,368,426465,1,4,0:0:0:0:
15,136,426631,5,0,3:0:0:0:
37,298,426798,1,0,0:0:0:0:
199,276,426965,1,0,0:0:0:0:
177,114,427131,1,0,0:0:0:0:
129,368,427298,6,0,B|177:355|177:355|279:349,1,137.5,0|0,3:0|0:0,0:0:0:0:
351,373,427798,1,0,0:0:0:0:
268,240,427965,2,0,L|257:164,1,68.75,8|0,3:2|0:0,0:0:0:0:
443,212,428298,2,0,L|454:136,1,68.75
234,164,428631,2,0,L|223:88,1,68.75,0|0,3:0|0:0,0:0:0:0:
477,136,428964,2,0,L|488:60,1,68.75,4|0,0:0|0:0,0:0:0:0:
346,10,429298,5,0,3:0:0:0:
361,284,429465,1,0,0:0:0:0:
231,152,429631,1,0,0:0:0:0:
476,142,429798,1,0,0:0:0:0:
134,316,429965,5,4,3:0:0:0:
66,97,430131,1,0,0:0:0:0:
41,209,430298,1,0,0:0:0:0:
151,175,430465,1,0,0:0:0:0:
40,14,430631,5,8,3:2:0:0:
108,233,430798,1,0,0:0:0:0:
139,103,430965,1,0,0:0:0:0:
8,143,431132,1,0,0:0:0:0:
134,316,431298,6,0,P|190:312|273:274,1,137.5,0|0,3:0|0:0,0:0:0:0:
30,282,431798,5,8,0:0:0:0:
470,313,431965,2,0,L|388:307,1,68.75,0|0,3:0|0:0,0:0:0:0:
368,135,432298,5,8,0:0:0:0:
341,348,432465,1,8,0:0:0:0:
486,46,432631,6,0,L|335:59,1,137.5,0|0,3:0|0:0,0:0:0:0:
212,68,433131,1,0,0:0:0:0:
443,189,433298,6,0,B|456:160|456:160|446:112,1,68.75,8|0,3:2|0:0,0:0:0:0:
110,45,433631,2,0,B|102:81|102:81|115:110,1,68.75
366,190,433965,6,0,B|373:226|373:226|360:255,1,68.75,0|0,3:0|0:0,0:0:0:0:
197,176,434298,2,0,B|184:147|184:147|191:110,1,68.75,4|0,0:0|0:0,0:0:0:0:
296,95,434631,6,0,L|265:257,1,137.5,0|0,3:0|0:0,0:0:0:0:
270,230,435298,5,0,3:0:0:0:
208,64,435465,1,0,0:0:0:0:
382,93,435631,1,0,0:0:0:0:
171,176,435798,1,0,0:0:0:0:
306,11,435965,5,8,3:2:0:0:
270,230,436131,1,0,0:0:0:0:
382,93,436298,2,0,B|417:95|417:95|461:116,1,68.75
491,321,436631,6,0,B|454:359|454:359|394:291,1,137.5,0|0,3:0|0:0,0:0:0:0:
410,20,437131,5,8,0:0:0:0:
330,357,437298,2,0,P|309:322|306:282,1,68.75,0|0,3:0|0:0,0:0:0:0:
185,232,437631,5,8,0:0:0:0:
442,247,437798,1,8,0:0:0:0:
92,350,437965,6,0,B|106:322|106:322|94:198,1,137.5,0|0,3:0|0:0,0:0:0:0:
78,44,438465,1,0,0:0:0:0:
8,202,438631,5,8,3:2:0:0:
148,102,438798,1,0,0:0:0:0:
304,173,438965,2,0,L|393:160,1,68.75
469,78,439298,6,0,B|482:46|482:46|476:4,1,68.75,0|0,3:0|0:0,0:0:0:0:
403,0,439631,2,0,B|390:32|390:32|396:74,1,68.75,4|0,0:0|0:0,0:0:0:0:
473,264,439965,6,0,P|488:307|485:338,1,68.75,0|0,3:0|0:0,0:0:0:0:
428,374,440298,2,0,P|414:342|414:308,1,68.75
475,160,440631,6,0,L|402:152,1,68.75,0|0,3:0|0:0,0:0:0:0:
269,208,440965,2,0,L|200:215,1,68.75
63,230,441298,5,8,3:2:0:0:
77,92,441465,1,0,0:0:0:0:
120,357,441631,2,0,L|47:349,1,68.75
5,62,441965,6,0,L|171:43,1,137.5,0|0,3:0|0:0,0:0:0:0:
345,22,442465,1,8,0:0:0:0:
264,210,442631,5,0,3:0:0:0:
241,7,442798,1,0,0:0:0:0:
151,120,442965,1,0,0:0:0:0:
354,97,443132,1,0,0:0:0:0:
174,323,443298,6,0,P|142:276|140:242,1,68.75,0|0,3:0|0:0,0:0:0:0:
140,121,443631,1,0,0:0:0:0:
346,210,443798,1,0,0:0:0:0:
168,327,443965,6,0,B|138:296|138:296|127:246,1,68.75,8|0,3:2|0:0,0:0:0:0:
163,43,444298,1,0,0:0:0:0:
389,140,444465,1,0,0:0:0:0:
32,82,444631,6,0,L|39:158,1,68.75,0|0,3:0|0:0,0:0:0:0:
339,328,444965,2,0,P|356:277|348:220,1,103.125,4|0,0:0|0:0,0:0:0:0:
248,263,445298,5,0,3:0:0:0:
466,231,445465,1,0,0:0:0:0:
274,119,445631,1,0,0:0:0:0:
382,102,445798,1,0,0:0:0:0:
186,160,445965,6,0,L|67:150,1,103.125,0|0,3:0|0:0,0:0:0:0:
51,148,446298,2,0,P|73:186|71:223,1,68.75
9,357,446631,5,8,3:2:0:0:
148,234,446798,1,0,0:0:0:0:
50,43,446965,2,0,L|135:35,1,68.75
426,123,447298,6,0,B|453:97|453:97|346:111,1,137.5,0|0,3:0|0:0,0:0:0:0:
279,244,447798,1,8,0:0:0:0:
398,31,447965,5,0,3:0:0:0:
391,198,448131,1,0,0:0:0:0:
180,107,448298,1,0,0:0:0:0:
209,284,448465,1,0,0:0:0:0:
278,155,448631,6,0,B|274:114|274:114|290:90|290:90|282:5,1,137.5,0|0,3:0|0:0,0:0:0:0:
154,35,449131,1,0,0:0:0:0:
340,215,449298,5,8,3:2:0:0:
83,141,449465,1,0,0:0:0:0:
174,306,449631,1,0,0:0:0:0:
248,49,449798,1,0,0:0:0:0:
276,295,449965,5,0,3:0:0:0:
94,242,450132,1,0,0:0:0:0:
146,60,450298,1,4,0:0:0:0:
328,113,450465,1,0,0:0:0:0:
211,178,450631,6,0,L|203:258,3,68.75,0|0|0|0,3:0|0:0|0:0|0:0,0:0:0:0:
132,7,451298,5,6,0:0:0:0:
