osu file format v14

[General]
AudioFilename: audio.mp3
AudioLeadIn: 0
PreviewTime: -1
Countdown: 1
SampleSet: None
StackLeniency: 0.7
Mode: 3
LetterboxInBreaks: 0
SpecialStyle: 0
WidescreenStoryboard: 1

[Editor]
DistanceSpacing: 1
BeatDivisor: 4
GridSize: 4
TimelineZoom: 1

[Metadata]
Title:LifeLine
TitleUnicode:LifeLine
Artist:Vaorina
ArtistUnicode:Vaorina
Creator:Vaorina
Version:Insane
Source:No c
Tags:Hola
BeatmapID:1465939
BeatmapSetID:692764

[Difficulty]
HPDrainRate:5
CircleSize:4
OverallDifficulty:5
ApproachRate:4
SliderMultiplier:1.6
SliderTickRate:2

[Events]
//Background and Video events
0,0,"vaorinmtr.jpg",0,0
//Break Periods
//Storyboard Layer 0 (Background)
//Storyboard Layer 1 (Fail)
//Storyboard Layer 2 (Pass)
//Storyboard Layer 3 (Foreground)
//Storyboard Sound Samples

[TimingPoints]
2329.75675675676,540.540540540541,4,2,0,100,1,0

[HitObjects]
320,192,2059,128,0,3816:0:0:0:0:
192,192,2194,1,0,0:0:0:0:
192,192,2735,1,0,0:0:0:0:
192,192,3275,1,0,0:0:0:0:
192,192,3816,1,0,0:0:0:0:
320,192,4356,1,0,0:0:0:0:
192,192,4897,1,0,0:0:0:0:
64,192,5437,1,0,0:0:0:0:
320,192,5843,1,0,0:0:0:0:
192,192,6248,128,0,7870:0:0:0:0:
448,192,6383,1,0,0:0:0:0:
64,192,7059,1,0,0:0:0:0:
448,192,7870,1,0,0:0:0:0:
320,192,8410,1,0,0:0:0:0:
192,192,8816,1,0,0:0:0:0:
64,192,9356,1,0,0:0:0:0:
192,192,9627,1,0,0:0:0:0:
320,192,9897,1,0,0:0:0:0:
320,192,10167,1,0,0:0:0:0:
448,192,10437,1,0,0:0:0:0:
320,192,10708,128,0,11924:0:0:0:0:
448,192,10843,1,0,0:0:0:0:
448,192,11248,1,0,0:0:0:0:
448,192,11924,1,0,0:0:0:0:
448,192,12329,1,0,0:0:0:0:
320,192,12600,1,0,0:0:0:0:
192,192,12870,1,0,0:0:0:0:
64,192,13140,1,0,0:0:0:0:
192,192,13410,1,0,0:0:0:0:
320,192,13681,1,0,0:0:0:0:
448,192,13951,1,0,0:0:0:0:
192,192,14221,128,0,15302:0:0:0:0:
320,192,14491,1,0,0:0:0:0:
448,192,14897,1,0,0:0:0:0:
320,192,15437,128,0,15843:0:0:0:0:
192,192,15573,1,0,0:0:0:0:
192,192,15978,128,0,18410:0:0:0:0:
448,192,16113,1,0,0:0:0:0:
448,192,16654,1,0,0:0:0:0:
320,192,17194,1,0,0:0:0:0:
320,192,17735,1,0,0:0:0:0:
320,192,18275,1,0,0:0:0:0:
320,192,18681,128,0,20032:0:0:0:0:
192,192,18816,1,0,0:0:0:0:
64,192,19086,1,0,0:0:0:0:
192,192,19356,1,0,0:0:0:0:
64,192,19627,1,0,0:0:0:0:
192,192,19897,1,0,0:0:0:0:
64,192,20167,1,0,0:0:0:0:
192,192,20302,1,0,0:0:0:0:
192,192,20843,1,0,0:0:0:0:
320,192,21248,1,0,0:0:0:0:
448,192,21789,1,0,0:0:0:0:
320,192,22329,1,0,0:0:0:0:
192,192,22735,1,0,0:0:0:0:
192,192,23005,128,0,24221:0:0:0:0:
64,192,23275,1,0,0:0:0:0:
64,192,23545,1,0,0:0:0:0:
64,192,23816,1,0,0:0:0:0:
64,192,24086,1,0,0:0:0:0:
64,192,24356,1,0,0:0:0:0:
192,192,24762,1,0,0:0:0:0:
320,192,25302,1,0,0:0:0:0:
320,192,25437,1,0,0:0:0:0:
320,192,25708,1,0,0:0:0:0:
320,192,25843,1,0,0:0:0:0:
320,192,25978,1,0,0:0:0:0:
448,192,26518,1,0,0:0:0:0:
192,192,26789,1,0,0:0:0:0:
64,192,26924,128,0,28140:0:0:0:0:
320,192,27329,1,0,0:0:0:0:
192,192,27600,1,0,0:0:0:0:
320,192,27870,1,0,0:0:0:0:
192,192,28140,1,0,0:0:0:0:
320,192,28410,1,0,0:0:0:0:
448,192,28951,1,0,0:0:0:0:
320,192,29356,1,0,0:0:0:0:
192,192,29897,1,0,0:0:0:0:
64,192,30167,1,0,0:0:0:0:
448,192,30708,128,0,32194:0:0:0:0:
192,192,30708,1,0,0:0:0:0:
320,192,30978,1,0,0:0:0:0:
192,192,31518,1,0,0:0:0:0:
64,192,32059,1,0,0:0:0:0:
192,192,32329,1,0,0:0:0:0:
448,192,32600,1,0,0:0:0:0:
448,192,35032,1,0,0:0:0:0:
320,192,35302,1,0,0:0:0:0:
192,192,35573,1,0,0:0:0:0:
192,192,35843,1,0,0:0:0:0:
192,192,36113,1,0,0:0:0:0:
320,192,36248,128,0,38275:0:0:0:0:
192,192,36383,1,0,0:0:0:0:
448,192,36924,1,0,0:0:0:0:
448,192,37194,1,0,0:0:0:0:
192,192,37464,1,0,0:0:0:0:
64,192,38005,1,0,0:0:0:0:
320,192,38545,1,0,0:0:0:0:
64,192,38681,128,0,40843:0:0:0:0:
448,192,39086,1,0,0:0:0:0:
320,192,39491,1,0,0:0:0:0:
192,192,39762,1,0,0:0:0:0:
320,192,40032,1,0,0:0:0:0:
192,192,40302,1,0,0:0:0:0:
320,192,40573,1,0,0:0:0:0:
320,192,41113,1,0,0:0:0:0:
448,192,41383,128,0,44491:0:0:0:0:
192,192,41383,1,0,0:0:0:0:
64,192,41654,1,0,0:0:0:0:
192,192,41924,1,0,0:0:0:0:
320,192,42194,1,0,0:0:0:0:
320,192,42464,1,0,0:0:0:0:
192,192,42735,1,0,0:0:0:0:
64,192,43005,1,0,0:0:0:0:
192,192,43275,1,0,0:0:0:0:
320,192,43545,1,0,0:0:0:0:
64,192,43816,1,0,0:0:0:0:
192,192,44086,1,0,0:0:0:0:
192,192,44356,1,0,0:0:0:0:
64,192,44627,1,0,0:0:0:0:
320,192,44762,1,0,0:0:0:0:
448,192,45302,1,0,0:0:0:0:
320,192,45843,1,0,0:0:0:0:
192,192,46383,1,0,0:0:0:0:
320,192,46654,1,0,0:0:0:0:
192,192,47329,1,0,0:0:0:0:
320,192,47735,1,0,0:0:0:0:
192,192,48275,1,0,0:0:0:0:
320,192,48410,1,0,0:0:0:0:
192,192,48545,1,0,0:0:0:0:
320,192,50843,128,0,51789:0:0:0:0:
448,192,50978,1,0,0:0:0:0:
192,192,51518,1,0,0:0:0:0:
192,192,51924,128,0,52735:0:0:0:0:
64,192,52059,1,0,0:0:0:0:
320,192,52600,1,0,0:0:0:0:
320,192,53005,128,0,53951:0:0:0:0:
192,192,53140,1,0,0:0:0:0:
192,192,53816,1,0,0:0:0:0:
64,192,54086,128,0,54897:0:0:0:0:
448,192,54221,1,0,0:0:0:0:
192,192,54627,1,0,0:0:0:0:
320,192,55167,128,0,55843:0:0:0:0:
192,192,55167,1,0,0:0:0:0:
448,192,55708,1,0,0:0:0:0:
448,192,56113,128,0,56924:0:0:0:0:
192,192,56248,1,0,0:0:0:0:
320,192,56789,1,0,0:0:0:0:
192,192,57194,1,0,0:0:0:0:
192,192,57464,1,0,0:0:0:0:
320,192,57735,128,0,58140:0:0:0:0:
192,192,57735,1,0,0:0:0:0:
192,192,58005,1,0,0:0:0:0:
192,192,58275,128,0,58681:0:0:0:0:
320,192,58275,1,0,0:0:0:0:
320,192,58545,1,0,0:0:0:0:
64,192,58816,128,0,59221:0:0:0:0:
320,192,58816,1,0,0:0:0:0:
320,192,59086,1,0,0:0:0:0:
192,192,59356,128,0,59627:0:0:0:0:
320,192,59356,1,0,0:0:0:0:
64,192,59627,1,0,0:0:0:0:
320,192,59762,128,0,59897:0:0:0:0:
64,192,59897,1,0,0:0:0:0:
320,192,60032,128,0,60167:0:0:0:0:
64,192,60167,1,0,0:0:0:0:
320,192,60302,128,0,60437:0:0:0:0:
192,192,60302,1,0,0:0:0:0:
192,192,60437,1,0,0:0:0:0:
320,192,60573,128,0,60708:0:0:0:0:
192,192,60573,1,0,0:0:0:0:
192,192,60708,1,0,0:0:0:0:
320,192,60843,128,0,60978:0:0:0:0:
192,192,60843,1,0,0:0:0:0:
320,192,61248,1,0,0:0:0:0:
192,192,61383,128,0,61789:0:0:0:0:
320,192,61924,1,0,0:0:0:0:
448,192,62329,128,0,62870:0:0:0:0:
192,192,62329,1,0,0:0:0:0:
320,192,62600,1,0,0:0:0:0:
64,192,62870,1,0,0:0:0:0:
320,192,63140,1,0,0:0:0:0:
64,192,63275,128,0,63410:0:0:0:0:
448,192,63410,1,0,0:0:0:0:
192,192,63545,128,0,63681:0:0:0:0:
448,192,63681,1,0,0:0:0:0:
320,192,63816,128,0,63951:0:0:0:0:
448,192,64086,1,0,0:0:0:0:
192,192,64086,1,0,0:0:0:0:
320,192,64221,1,0,0:0:0:0:
448,192,64491,128,0,64627:0:0:0:0:
64,192,64762,1,0,0:0:0:0:
320,192,64897,128,0,65032:0:0:0:0:
192,192,65167,128,0,65302:0:0:0:0:
448,192,65302,1,0,0:0:0:0:
64,192,65437,1,0,0:0:0:0:
64,192,65708,1,0,0:0:0:0:
192,192,65708,1,0,0:0:0:0:
64,192,65843,1,0,0:0:0:0:
320,192,65978,1,0,0:0:0:0:
192,192,66248,1,0,0:0:0:0:
448,192,66383,1,0,0:0:0:0:
320,192,66383,1,0,0:0:0:0:
320,192,66789,128,0,67194:0:0:0:0:
192,192,66924,1,0,0:0:0:0:
448,192,67464,1,0,0:0:0:0:
320,192,67600,128,0,68275:0:0:0:0:
448,192,68005,1,0,0:0:0:0:
192,192,68545,128,0,68681:0:0:0:0:
64,192,68951,128,0,69356:0:0:0:0:
448,192,69086,1,0,0:0:0:0:
192,192,69221,1,0,0:0:0:0:
192,192,69491,128,0,70032:0:0:0:0:
448,192,69897,1,0,0:0:0:0:
320,192,70167,128,0,70437:0:0:0:0:
64,192,70437,1,0,0:0:0:0:
448,192,70573,128,0,71518:0:0:0:0:
192,192,70573,1,0,0:0:0:0:
320,192,71113,1,0,0:0:0:0:
192,192,71383,1,0,0:0:0:0:
320,192,71654,1,0,0:0:0:0:
192,192,71924,1,0,0:0:0:0:
320,192,72194,1,0,0:0:0:0:
64,192,72464,1,0,0:0:0:0:
64,192,72870,1,0,0:0:0:0:
192,192,73005,1,0,0:0:0:0:
320,192,73140,1,0,0:0:0:0:
320,192,73275,1,0,0:0:0:0:
448,192,73410,1,0,0:0:0:0:
320,192,73681,1,0,0:0:0:0:
192,192,73816,1,0,0:0:0:0:
192,192,73951,1,0,0:0:0:0:
64,192,74086,1,0,0:0:0:0:
192,192,74356,1,0,0:0:0:0:
320,192,74491,1,0,0:0:0:0:
320,192,74627,1,0,0:0:0:0:
448,192,74897,1,0,0:0:0:0:
64,192,75573,1,0,0:0:0:0:
320,192,75843,1,0,0:0:0:0:
192,192,76113,1,0,0:0:0:0:
320,192,76383,5,0,0:0:0:0:
192,192,76654,1,0,0:0:0:0:
448,192,76924,1,0,0:0:0:0:
192,192,77194,1,0,0:0:0:0:
320,192,77464,128,0,78951:0:0:0:0:
448,192,77600,1,0,0:0:0:0:
192,192,78005,1,0,0:0:0:0:
448,192,78545,1,0,0:0:0:0:
320,192,79221,1,0,0:0:0:0:
320,192,79356,1,0,0:0:0:0:
64,192,79491,128,0,79897:0:0:0:0:
192,192,79627,1,0,0:0:0:0:
448,192,79897,1,0,0:0:0:0:
192,192,80167,128,0,80302:0:0:0:0:
448,192,80167,1,0,0:0:0:0:
320,192,80302,128,0,80843:0:0:0:0:
192,192,80573,1,0,0:0:0:0:
448,192,80843,128,0,81383:0:0:0:0:
64,192,80843,1,0,0:0:0:0:
320,192,81383,1,0,0:0:0:0:
320,192,81654,128,0,81789:0:0:0:0:
448,192,81654,1,0,0:0:0:0:
320,192,81924,1,0,0:0:0:0:
448,192,82059,1,0,0:0:0:0:
192,192,82194,1,0,0:0:0:0:
448,192,82329,1,0,0:0:0:0:
64,192,82464,1,0,0:0:0:0:
448,192,82464,1,0,0:0:0:0:
192,192,82870,128,0,83005:0:0:0:0:
320,192,82870,1,0,0:0:0:0:
320,192,83410,128,0,83545:0:0:0:0:
192,192,83410,1,0,0:0:0:0:
320,192,83816,128,0,83951:0:0:0:0:
64,192,83816,1,0,0:0:0:0:
448,192,84897,128,0,85032:0:0:0:0:
320,192,85032,1,0,0:0:0:0:
320,192,85167,128,0,85302:0:0:0:0:
64,192,85302,1,0,0:0:0:0:
192,192,85573,128,0,87059:0:0:0:0:
448,192,85843,1,0,0:0:0:0:
320,192,86383,1,0,0:0:0:0:
448,192,86924,1,0,0:0:0:0:
320,192,87329,1,0,0:0:0:0:
192,192,87600,1,0,0:0:0:0:
320,192,87870,1,0,0:0:0:0:
192,192,88140,1,0,0:0:0:0:
320,192,88410,1,0,0:0:0:0:
192,192,88681,1,0,0:0:0:0:
64,192,89086,1,0,0:0:0:0:
320,192,89627,128,0,90978:0:0:0:0:
192,192,89627,1,0,0:0:0:0:
64,192,89897,1,0,0:0:0:0:
192,192,90167,1,0,0:0:0:0:
64,192,90437,1,0,0:0:0:0:
64,192,90708,1,0,0:0:0:0:
192,192,91113,128,0,92194:0:0:0:0:
448,192,91248,1,0,0:0:0:0:
320,192,91383,1,0,0:0:0:0:
448,192,91654,1,0,0:0:0:0:
320,192,91924,1,0,0:0:0:0:
448,192,92194,1,0,0:0:0:0:
64,192,92464,128,0,92600:0:0:0:0:
320,192,92464,1,0,0:0:0:0:
448,192,92735,1,0,0:0:0:0:
192,192,92870,128,0,93140:0:0:0:0:
320,192,92870,1,0,0:0:0:0:
448,192,93140,1,0,0:0:0:0:
320,192,93275,128,0,93545:0:0:0:0:
64,192,93545,1,0,0:0:0:0:
448,192,93681,128,0,96248:0:0:0:0:
192,192,93816,1,0,0:0:0:0:
320,192,94221,1,0,0:0:0:0:
320,192,94491,1,0,0:0:0:0:
192,192,94762,1,0,0:0:0:0:
192,192,95032,1,0,0:0:0:0:
64,192,95302,1,0,0:0:0:0:
192,192,95573,1,0,0:0:0:0:
192,192,95843,1,0,0:0:0:0:
320,192,96113,1,0,0:0:0:0:
192,192,96518,1,0,0:0:0:0:
64,192,96789,1,0,0:0:0:0:
320,192,97059,1,0,0:0:0:0:
192,192,97329,1,0,0:0:0:0:
192,192,97600,1,0,0:0:0:0:
320,192,97870,1,0,0:0:0:0:
320,192,98410,1,0,0:0:0:0:
448,192,98816,1,0,0:0:0:0:
320,192,99086,1,0,0:0:0:0:
192,192,99356,1,0,0:0:0:0:
64,192,99627,1,0,0:0:0:0:
192,192,99897,1,0,0:0:0:0:
320,192,100167,1,0,0:0:0:0:
448,192,100573,5,0,0:0:0:0:
320,192,100843,1,0,0:0:0:0:
192,192,101113,1,0,0:0:0:0:
64,192,101383,1,0,0:0:0:0:
192,192,101789,128,0,103951:0:0:0:0:
64,192,101924,1,0,0:0:0:0:
64,192,102329,1,0,0:0:0:0:
64,192,102870,1,0,0:0:0:0:
320,192,103545,1,0,0:0:0:0:
448,192,103951,1,0,0:0:0:0:
448,192,105573,128,0,107600:0:0:0:0:
320,192,105573,1,0,0:0:0:0:
64,192,105978,1,0,0:0:0:0:
192,192,106383,1,0,0:0:0:0:
64,192,106924,1,0,0:0:0:0:
192,192,107194,1,0,0:0:0:0:
64,192,107464,1,0,0:0:0:0:
192,192,107735,1,0,0:0:0:0:
320,192,108005,1,0,0:0:0:0:
448,192,108275,1,0,0:0:0:0:
192,192,108410,128,0,109221:0:0:0:0:
448,192,108545,1,0,0:0:0:0:
448,192,108816,1,0,0:0:0:0:
448,192,109086,1,0,0:0:0:0:
320,192,109356,1,0,0:0:0:0:
192,192,109627,1,0,0:0:0:0:
64,192,109762,1,0,0:0:0:0:
320,192,110032,128,0,111113:0:0:0:0:
192,192,110573,1,0,0:0:0:0:
192,192,111248,1,0,0:0:0:0:
64,192,111383,128,0,111924:0:0:0:0:
448,192,111654,1,0,0:0:0:0:
448,192,111924,1,0,0:0:0:0:
192,192,112059,128,0,113681:0:0:0:0:
448,192,112194,1,0,0:0:0:0:
448,192,113545,1,0,0:0:0:0:
320,192,113816,1,0,0:0:0:0:
192,192,114086,1,0,0:0:0:0:
64,192,114356,1,0,0:0:0:0:
192,192,114762,1,0,0:0:0:0:
320,192,115032,1,0,0:0:0:0:
192,192,115302,1,0,0:0:0:0:
320,192,115573,1,0,0:0:0:0:
192,192,115708,1,0,0:0:0:0:
320,192,115978,1,0,0:0:0:0:
192,192,116248,1,0,0:0:0:0:
64,192,116518,1,0,0:0:0:0:
192,192,116789,1,0,0:0:0:0:
320,192,117059,1,0,0:0:0:0:
448,192,117329,1,0,0:0:0:0:
320,192,117600,5,0,0:0:0:0:
192,192,117870,1,0,0:0:0:0:
64,192,118140,1,0,0:0:0:0:
192,192,118410,1,0,0:0:0:0:
448,192,118681,128,0,120302:0:0:0:0:
192,192,118681,1,0,0:0:0:0:
192,192,118951,1,0,0:0:0:0:
192,192,119221,1,0,0:0:0:0:
192,192,119491,1,0,0:0:0:0:
192,192,119762,1,0,0:0:0:0:
192,192,119897,1,0,0:0:0:0:
192,192,120167,1,0,0:0:0:0:
320,192,120437,1,0,0:0:0:0:
320,192,120708,1,0,0:0:0:0:
64,192,120978,1,0,0:0:0:0:
192,192,121248,1,0,0:0:0:0:
448,192,121518,1,0,0:0:0:0:
192,192,121789,1,0,0:0:0:0:
320,192,122059,1,0,0:0:0:0:
448,192,122329,1,0,0:0:0:0:
320,192,122464,1,0,0:0:0:0:
192,192,122600,1,0,0:0:0:0:
64,192,122735,1,0,0:0:0:0:
192,192,123005,1,0,0:0:0:0:
448,192,123140,1,0,0:0:0:0:
448,192,123275,1,0,0:0:0:0:
192,192,123681,1,0,0:0:0:0:
320,192,123951,1,0,0:0:0:0:
64,192,124221,1,0,0:0:0:0:
192,192,124491,1,0,0:0:0:0:
320,192,124627,128,0,126113:0:0:0:0:
192,192,124762,1,0,0:0:0:0:
64,192,125032,1,0,0:0:0:0:
192,192,125302,1,0,0:0:0:0:
448,192,125573,1,0,0:0:0:0:
448,192,125978,1,0,0:0:0:0:
320,192,126383,1,0,0:0:0:0:
192,192,126654,128,0,127194:0:0:0:0:
64,192,126654,1,0,0:0:0:0:
64,192,127059,1,0,0:0:0:0:
192,192,127464,1,0,0:0:0:0:
448,192,127464,1,0,0:0:0:0:
448,192,127735,128,0,128005:0:0:0:0:
192,192,127735,1,0,0:0:0:0:
320,192,128140,1,0,0:0:0:0:
64,192,128275,128,0,130302:0:0:0:0:
192,192,128410,1,0,0:0:0:0:
320,192,128681,1,0,0:0:0:0:
320,192,128816,1,0,0:0:0:0:
320,192,129221,1,0,0:0:0:0:
192,192,129356,1,0,0:0:0:0:
192,192,129627,1,0,0:0:0:0:
192,192,129897,1,0,0:0:0:0:
320,192,130167,1,0,0:0:0:0:
192,192,130437,1,0,0:0:0:0:
320,192,130708,1,0,0:0:0:0:
192,192,130978,1,0,0:0:0:0:
320,192,131248,1,0,0:0:0:0:
192,192,131518,1,0,0:0:0:0:
192,192,131789,1,0,0:0:0:0:
448,192,131924,128,0,133681:0:0:0:0:
64,192,132059,1,0,0:0:0:0:
192,192,132194,1,0,0:0:0:0:
64,192,132464,1,0,0:0:0:0:
192,192,132735,1,0,0:0:0:0:
64,192,133005,1,0,0:0:0:0:
192,192,133275,1,0,0:0:0:0:
64,192,133410,1,0,0:0:0:0:
192,192,133681,1,0,0:0:0:0:
320,192,133951,1,0,0:0:0:0:
192,192,134086,128,0,134491:0:0:0:0:
320,192,134221,1,0,0:0:0:0:
320,192,134491,1,0,0:0:0:0:
192,192,134627,128,0,135032:0:0:0:0:
448,192,134762,1,0,0:0:0:0:
320,192,134897,1,0,0:0:0:0:
320,192,135167,128,0,135573:0:0:0:0:
192,192,135302,1,0,0:0:0:0:
192,192,135573,1,0,0:0:0:0:
320,192,135708,128,0,136113:0:0:0:0:
192,192,135843,1,0,0:0:0:0:
192,192,135978,1,0,0:0:0:0:
320,192,136248,128,0,136654:0:0:0:0:
192,192,136248,1,0,0:0:0:0:
64,192,136654,1,0,0:0:0:0:
320,192,136789,128,0,137194:0:0:0:0:
64,192,136924,1,0,0:0:0:0:
320,192,137329,128,0,137735:0:0:0:0:
64,192,137329,1,0,0:0:0:0:
320,192,137870,128,0,138275:0:0:0:0:
64,192,137870,1,0,0:0:0:0:
320,192,138410,128,0,138545:0:0:0:0:
64,192,138410,1,0,0:0:0:0:
448,192,138816,128,0,140032:0:0:0:0:
192,192,138951,1,0,0:0:0:0:
192,192,139491,1,0,0:0:0:0:
64,192,139762,1,0,0:0:0:0:
192,192,140032,1,0,0:0:0:0:
320,192,140302,128,0,140573:0:0:0:0:
64,192,140302,1,0,0:0:0:0:
192,192,140437,1,0,0:0:0:0:
192,192,140708,1,0,0:0:0:0:
64,192,140843,128,0,141383:0:0:0:0:
320,192,140978,1,0,0:0:0:0:
448,192,141248,1,0,0:0:0:0:
192,192,141518,128,0,142059:0:0:0:0:
320,192,141518,1,0,0:0:0:0:
448,192,141654,1,0,0:0:0:0:
320,192,141924,1,0,0:0:0:0:
320,192,142194,128,0,142464:0:0:0:0:
448,192,142194,1,0,0:0:0:0:
192,192,142464,1,0,0:0:0:0:
448,192,142600,128,0,142735:0:0:0:0:
192,192,142735,1,0,0:0:0:0:
448,192,142870,128,0,143140:0:0:0:0:
64,192,143005,1,0,0:0:0:0:
192,192,143140,1,0,0:0:0:0:
448,192,143275,128,0,143410:0:0:0:0:
64,192,143410,1,0,0:0:0:0:
448,192,143545,1,0,0:0:0:0:
192,192,143681,1,0,0:0:0:0:
64,192,143816,1,0,0:0:0:0:
448,192,143951,128,0,144086:0:0:0:0:
320,192,144086,1,0,0:0:0:0:
192,192,144356,1,0,0:0:0:0:
448,192,144491,128,0,144627:0:0:0:0:
192,192,144627,1,0,0:0:0:0:
192,192,144762,1,0,0:0:0:0:
448,192,144897,128,0,145167:0:0:0:0:
320,192,145032,1,0,0:0:0:0:
192,192,145302,1,0,0:0:0:0:
320,192,145573,1,0,0:0:0:0:
64,192,145708,1,0,0:0:0:0:
320,192,145843,128,0,145978:0:0:0:0:
64,192,145978,1,0,0:0:0:0:
192,192,146113,128,0,146248:0:0:0:0:
64,192,146248,1,0,0:0:0:0:
320,192,146383,1,0,0:0:0:0:
64,192,146654,128,0,146924:0:0:0:0:
320,192,146924,1,0,0:0:0:0:
192,192,147194,128,0,147329:0:0:0:0:
320,192,147464,1,0,0:0:0:0:
320,192,147735,128,0,147870:0:0:0:0:
192,192,147870,1,0,0:0:0:0:
448,192,148140,128,0,148275:0:0:0:0:
448,192,148410,128,0,148545:0:0:0:0:
192,192,148410,1,0,0:0:0:0:
64,192,148681,1,0,0:0:0:0:
320,192,148816,128,0,148951:0:0:0:0:
192,192,149086,1,0,0:0:0:0:
192,192,149221,128,0,149356:0:0:0:0:
448,192,149221,1,0,0:0:0:0:
64,192,149491,128,0,149627:0:0:0:0:
448,192,149491,1,0,0:0:0:0:
448,192,149627,1,0,0:0:0:0:
192,192,149897,128,0,150437:0:0:0:0:
320,192,150167,1,0,0:0:0:0:
320,192,150708,128,0,151113:0:0:0:0:
192,192,150708,1,0,0:0:0:0:
64,192,150978,1,0,0:0:0:0:
448,192,151383,128,0,151924:0:0:0:0:
64,192,151383,1,0,0:0:0:0:
64,192,151654,1,0,0:0:0:0:
320,192,152194,128,0,152329:0:0:0:0:
192,192,152329,1,0,0:0:0:0:
320,192,152464,128,0,152600:0:0:0:0:
192,192,152600,1,0,0:0:0:0:
192,192,152870,1,0,0:0:0:0:
320,192,153545,1,0,0:0:0:0:
320,192,153816,1,0,0:0:0:0:
320,192,154086,1,0,0:0:0:0:
448,192,154221,1,0,0:0:0:0:
448,192,154491,1,0,0:0:0:0:
448,192,154762,1,0,0:0:0:0:
448,192,155032,1,0,0:0:0:0:
320,192,155302,1,0,0:0:0:0:
192,192,155573,1,0,0:0:0:0:
64,192,155978,1,0,0:0:0:0:
320,192,156383,1,0,0:0:0:0:
448,192,156654,1,0,0:0:0:0:
192,192,156924,1,0,0:0:0:0:
320,192,157194,1,0,0:0:0:0:
320,192,157464,1,0,0:0:0:0:
320,192,157735,5,0,0:0:0:0:
192,192,158140,1,0,0:0:0:0:
320,192,158681,1,0,0:0:0:0:
448,192,158816,128,0,161654:0:0:0:0:
192,192,158951,1,0,0:0:0:0:
320,192,159221,1,0,0:0:0:0:
192,192,159491,1,0,0:0:0:0:
192,192,159762,1,0,0:0:0:0:
320,192,160167,1,0,0:0:0:0:
64,192,160573,1,0,0:0:0:0:
320,192,161113,1,0,0:0:0:0:
320,192,162059,1,0,0:0:0:0:
448,192,162194,128,0,162329:0:0:0:0:
192,192,162329,1,0,0:0:0:0:
320,192,162464,128,0,162600:0:0:0:0:
192,192,162870,128,0,163005:0:0:0:0:
64,192,162870,1,0,0:0:0:0:
320,192,163545,1,0,0:0:0:0:
448,192,164086,1,0,0:0:0:0:
320,192,164491,1,0,0:0:0:0:
320,192,164762,1,0,0:0:0:0:
64,192,165032,1,0,0:0:0:0:
192,192,165302,1,0,0:0:0:0:
64,192,165708,1,0,0:0:0:0:
192,192,165978,1,0,0:0:0:0:
64,192,166383,1,0,0:0:0:0:
448,192,166789,1,0,0:0:0:0:
320,192,166924,128,0,168410:0:0:0:0:
448,192,167059,1,0,0:0:0:0:
448,192,167464,1,0,0:0:0:0:
448,192,167735,1,0,0:0:0:0:
448,192,168275,1,0,0:0:0:0:
320,192,168545,1,0,0:0:0:0:
64,192,168681,128,0,170302:0:0:0:0:
320,192,168951,1,0,0:0:0:0:
320,192,169221,1,0,0:0:0:0:
320,192,169491,1,0,0:0:0:0:
320,192,169627,1,0,0:0:0:0:
320,192,169897,1,0,0:0:0:0:
320,192,170167,1,0,0:0:0:0:
320,192,170573,128,0,171248:0:0:0:0:
192,192,170573,1,0,0:0:0:0:
192,192,171248,1,0,0:0:0:0:
320,192,171789,1,0,0:0:0:0:
320,192,172059,1,0,0:0:0:0:
192,192,172329,1,0,0:0:0:0:
320,192,172600,1,0,0:0:0:0:
192,192,172735,1,0,0:0:0:0:
192,192,173140,128,0,174762:0:0:0:0:
320,192,173140,1,0,0:0:0:0:
448,192,173681,1,0,0:0:0:0:
320,192,174221,1,0,0:0:0:0:
448,192,174627,1,0,0:0:0:0:
448,192,175167,128,0,176789:0:0:0:0:
320,192,175302,1,0,0:0:0:0:
64,192,175708,1,0,0:0:0:0:
320,192,176248,1,0,0:0:0:0:
64,192,176789,1,0,0:0:0:0:
64,192,177194,128,0,178275:0:0:0:0:
448,192,177329,1,0,0:0:0:0:
192,192,178005,1,0,0:0:0:0:
320,192,178545,128,0,178951:0:0:0:0:
64,192,178545,1,0,0:0:0:0:
192,192,179086,128,0,179356:0:0:0:0:
448,192,179086,1,0,0:0:0:0:
448,192,179627,128,0,180573:0:0:0:0:
192,192,179897,1,0,0:0:0:0:
320,192,180437,1,0,0:0:0:0:
64,192,180708,128,0,181924:0:0:0:0:
192,192,181113,1,0,0:0:0:0:
448,192,181654,1,0,0:0:0:0:
64,192,182194,1,0,0:0:0:0:
320,192,182464,128,0,183410:0:0:0:0:
192,192,182464,1,0,0:0:0:0:
192,192,183005,1,0,0:0:0:0:
192,192,183681,1,0,0:0:0:0:
448,192,183951,1,0,0:0:0:0:
448,192,184086,128,0,185302:0:0:0:0:
192,192,184627,1,0,0:0:0:0:
64,192,185167,1,0,0:0:0:0:
64,192,185708,1,0,0:0:0:0:
320,192,185843,128,0,188545:0:0:0:0:
192,192,185978,1,0,0:0:0:0:
192,192,186518,1,0,0:0:0:0:
192,192,187059,1,0,0:0:0:0:
192,192,187329,1,0,0:0:0:0:
192,192,187600,1,0,0:0:0:0:
192,192,187735,1,0,0:0:0:0:
192,192,188005,1,0,0:0:0:0:
192,192,188275,1,0,0:0:0:0:
192,192,188545,1,0,0:0:0:0:
