osu file format v14

[General]
AudioFilename: audio.mp3
AudioLeadIn: 0
PreviewTime: -1
Countdown: 1
SampleSet: None
StackLeniency: 0.7
Mode: 3
LetterboxInBreaks: 0
SpecialStyle: 0
WidescreenStoryboard: 1

[Editor]
DistanceSpacing: 1
BeatDivisor: 4
GridSize: 4
TimelineZoom: 1

[Metadata]
Title:LifeLine
TitleUnicode:LifeLine
Artist:Vaorina
ArtistUnicode:Vaorina
Creator:Vaorina
Version:Easy
Source:No c
Tags:Hola
BeatmapID:1465937
BeatmapSetID:692764

[Difficulty]
HPDrainRate:5
CircleSize:4
OverallDifficulty:5
ApproachRate:4
SliderMultiplier:1.6
SliderTickRate:2

[Events]
//Background and Video events
0,0,"vaorinmtr.jpg",0,0
//Break Periods
//Storyboard Layer 0 (Background)
//Storyboard Layer 1 (Fail)
//Storyboard Layer 2 (Pass)
//Storyboard Layer 3 (Foreground)
//Storyboard Sound Samples

[TimingPoints]
2329.75675675676,540.540540540541,4,2,0,100,1,0

[HitObjects]
320,192,2194,128,0,3816:0:0:0:0:
64,192,4491,1,0,0:0:0:0:
448,192,5437,1,0,0:0:0:0:
192,192,6383,128,0,7870:0:0:0:0:
64,192,6383,1,0,0:0:0:0:
320,192,8275,1,0,0:0:0:0:
192,192,8816,1,0,0:0:0:0:
320,192,9356,1,0,0:0:0:0:
192,192,9897,1,0,0:0:0:0:
448,192,10708,128,0,12059:0:0:0:0:
448,192,12329,1,0,0:0:0:0:
64,192,13005,1,0,0:0:0:0:
448,192,13545,1,0,0:0:0:0:
64,192,14086,1,0,0:0:0:0:
192,192,14356,128,0,15978:0:0:0:0:
448,192,16924,1,0,0:0:0:0:
320,192,18545,128,0,20032:0:0:0:0:
320,192,20843,1,0,0:0:0:0:
64,192,21383,1,0,0:0:0:0:
448,192,21789,1,0,0:0:0:0:
320,192,23005,128,0,24086:0:0:0:0:
64,192,24627,1,0,0:0:0:0:
320,192,25167,1,0,0:0:0:0:
448,192,25573,1,0,0:0:0:0:
64,192,26248,1,0,0:0:0:0:
320,192,26654,1,0,0:0:0:0:
64,192,26924,128,0,28140:0:0:0:0:
448,192,28545,1,0,0:0:0:0:
64,192,29086,1,0,0:0:0:0:
320,192,29627,1,0,0:0:0:0:
192,192,29897,1,0,0:0:0:0:
320,192,30437,128,0,32059:0:0:0:0:
192,192,31383,1,0,0:0:0:0:
320,192,32870,1,0,0:0:0:0:
192,192,33410,1,0,0:0:0:0:
64,192,33951,1,0,0:0:0:0:
320,192,34491,1,0,0:0:0:0:
448,192,35032,1,0,0:0:0:0:
192,192,35708,1,0,0:0:0:0:
64,192,36113,1,0,0:0:0:0:
192,192,36248,128,0,38816:0:0:0:0:
448,192,37735,1,0,0:0:0:0:
320,192,38140,1,0,0:0:0:0:
448,192,38681,1,0,0:0:0:0:
320,192,40437,1,0,0:0:0:0:
320,192,40708,128,0,43140:0:0:0:0:
192,192,41383,1,0,0:0:0:0:
64,192,41789,1,0,0:0:0:0:
192,192,42329,1,0,0:0:0:0:
64,192,42870,1,0,0:0:0:0:
448,192,43951,1,0,0:0:0:0:
192,192,44356,1,0,0:0:0:0:
320,192,44762,128,0,45302:0:0:0:0:
448,192,45437,128,0,45843:0:0:0:0:
320,192,45978,128,0,46924:0:0:0:0:
448,192,47464,1,0,0:0:0:0:
64,192,47870,1,0,0:0:0:0:
320,192,48140,1,0,0:0:0:0:
192,192,48410,1,0,0:0:0:0:
320,192,51113,128,0,51924:0:0:0:0:
448,192,52194,128,0,53275:0:0:0:0:
192,192,54086,128,0,55032:0:0:0:0:
64,192,55978,128,0,57059:0:0:0:0:
320,192,57329,128,0,58816:0:0:0:0:
192,192,57600,1,0,0:0:0:0:
192,192,58140,1,0,0:0:0:0:
192,192,58681,1,0,0:0:0:0:
192,192,59356,128,0,60708:0:0:0:0:
320,192,59491,1,0,0:0:0:0:
320,192,60032,1,0,0:0:0:0:
320,192,60573,1,0,0:0:0:0:
320,192,61518,1,0,0:0:0:0:
192,192,62059,1,0,0:0:0:0:
320,192,62600,1,0,0:0:0:0:
192,192,62870,1,0,0:0:0:0:
320,192,63410,128,0,65437:0:0:0:0:
320,192,65843,1,0,0:0:0:0:
192,192,65978,1,0,0:0:0:0:
320,192,66518,1,0,0:0:0:0:
448,192,67059,128,0,68681:0:0:0:0:
192,192,67059,1,0,0:0:0:0:
192,192,67735,1,0,0:0:0:0:
320,192,69356,128,0,70708:0:0:0:0:
192,192,71248,1,0,0:0:0:0:
448,192,71789,1,0,0:0:0:0:
192,192,72059,1,0,0:0:0:0:
320,192,72600,1,0,0:0:0:0:
64,192,73275,128,0,74897:0:0:0:0:
320,192,74221,1,0,0:0:0:0:
448,192,75708,1,0,0:0:0:0:
320,192,75978,128,0,77059:0:0:0:0:
192,192,75978,1,0,0:0:0:0:
64,192,76383,1,0,0:0:0:0:
192,192,77059,1,0,0:0:0:0:
192,192,77464,128,0,79491:0:0:0:0:
320,192,77464,1,0,0:0:0:0:
320,192,80437,1,0,0:0:0:0:
64,192,80978,1,0,0:0:0:0:
448,192,81248,1,0,0:0:0:0:
448,192,81518,128,0,83816:0:0:0:0:
192,192,82735,1,0,0:0:0:0:
192,192,83275,1,0,0:0:0:0:
192,192,83681,1,0,0:0:0:0:
320,192,84897,1,0,0:0:0:0:
64,192,85167,1,0,0:0:0:0:
192,192,85708,128,0,87329:0:0:0:0:
448,192,87735,1,0,0:0:0:0:
320,192,88005,1,0,0:0:0:0:
64,192,88275,1,0,0:0:0:0:
448,192,88410,128,0,89627:0:0:0:0:
320,192,89762,1,0,0:0:0:0:
64,192,90302,1,0,0:0:0:0:
192,192,90573,1,0,0:0:0:0:
64,192,91113,128,0,93275:0:0:0:0:
192,192,91248,1,0,0:0:0:0:
320,192,92059,1,0,0:0:0:0:
320,192,92464,1,0,0:0:0:0:
320,192,92735,1,0,0:0:0:0:
320,192,93005,1,0,0:0:0:0:
320,192,93681,1,0,0:0:0:0:
64,192,94356,1,0,0:0:0:0:
192,192,94897,1,0,0:0:0:0:
320,192,95167,1,0,0:0:0:0:
448,192,95437,1,0,0:0:0:0:
320,192,95978,1,0,0:0:0:0:
192,192,96518,1,0,0:0:0:0:
64,192,97059,1,0,0:0:0:0:
192,192,97464,1,0,0:0:0:0:
320,192,97735,1,0,0:0:0:0:
448,192,98005,1,0,0:0:0:0:
320,192,98410,1,0,0:0:0:0:
192,192,98951,1,0,0:0:0:0:
192,192,99627,1,0,0:0:0:0:
320,192,99897,1,0,0:0:0:0:
448,192,100978,1,0,0:0:0:0:
64,192,101518,1,0,0:0:0:0:
192,192,102059,1,0,0:0:0:0:
192,192,102464,1,0,0:0:0:0:
192,192,103005,1,0,0:0:0:0:
320,192,103410,1,0,0:0:0:0:
320,192,103951,1,0,0:0:0:0:
192,192,105573,1,0,0:0:0:0:
320,192,106113,1,0,0:0:0:0:
192,192,106654,1,0,0:0:0:0:
320,192,107059,1,0,0:0:0:0:
448,192,107600,1,0,0:0:0:0:
64,192,108140,1,0,0:0:0:0:
192,192,108681,1,0,0:0:0:0:
192,192,109221,1,0,0:0:0:0:
320,192,109627,1,0,0:0:0:0:
448,192,109897,128,0,111924:0:0:0:0:
320,192,110302,1,0,0:0:0:0:
64,192,111518,1,0,0:0:0:0:
448,192,112194,1,0,0:0:0:0:
64,192,113816,128,0,115978:0:0:0:0:
192,192,113816,1,0,0:0:0:0:
320,192,114356,1,0,0:0:0:0:
320,192,116113,1,0,0:0:0:0:
320,192,117870,128,0,118545:0:0:0:0:
64,192,118140,1,0,0:0:0:0:
192,192,118545,1,0,0:0:0:0:
448,192,119627,128,0,120167:0:0:0:0:
192,192,119897,1,0,0:0:0:0:
192,192,120437,1,0,0:0:0:0:
448,192,121248,1,0,0:0:0:0:
64,192,122194,1,0,0:0:0:0:
320,192,123681,1,0,0:0:0:0:
192,192,123951,1,0,0:0:0:0:
320,192,124221,1,0,0:0:0:0:
192,192,124491,1,0,0:0:0:0:
448,192,125573,1,0,0:0:0:0:
320,192,125843,1,0,0:0:0:0:
64,192,126113,1,0,0:0:0:0:
320,192,126518,1,0,0:0:0:0:
320,192,126924,1,0,0:0:0:0:
448,192,127329,128,0,128410:0:0:0:0:
448,192,128816,1,0,0:0:0:0:
320,192,129356,1,0,0:0:0:0:
64,192,129491,128,0,131518:0:0:0:0:
448,192,129897,1,0,0:0:0:0:
192,192,130437,1,0,0:0:0:0:
320,192,130978,1,0,0:0:0:0:
448,192,131654,1,0,0:0:0:0:
192,192,131924,128,0,132329:0:0:0:0:
320,192,132464,128,0,134897:0:0:0:0:
448,192,134086,1,0,0:0:0:0:
448,192,135978,128,0,138005:0:0:0:0:
320,192,136518,1,0,0:0:0:0:
320,192,137059,1,0,0:0:0:0:
320,192,137600,1,0,0:0:0:0:
320,192,138545,128,0,140167:0:0:0:0:
64,192,140573,128,0,142464:0:0:0:0:
320,192,141924,1,0,0:0:0:0:
320,192,142735,1,0,0:0:0:0:
192,192,143005,1,0,0:0:0:0:
320,192,143275,1,0,0:0:0:0:
192,192,143545,1,0,0:0:0:0:
64,192,143951,1,0,0:0:0:0:
448,192,144491,1,0,0:0:0:0:
64,192,145437,1,0,0:0:0:0:
448,192,146113,128,0,146924:0:0:0:0:
192,192,147600,128,0,149356:0:0:0:0:
448,192,150437,128,0,151924:0:0:0:0:
320,192,152194,128,0,154086:0:0:0:0:
192,192,153275,1,0,0:0:0:0:
64,192,153545,1,0,0:0:0:0:
192,192,153951,1,0,0:0:0:0:
64,192,154762,128,0,156789:0:0:0:0:
320,192,155708,1,0,0:0:0:0:
320,192,156248,1,0,0:0:0:0:
192,192,157194,1,0,0:0:0:0:
320,192,157464,128,0,158681:0:0:0:0:
192,192,158951,128,0,161113:0:0:0:0:
320,192,161518,1,0,0:0:0:0:
192,192,162059,1,0,0:0:0:0:
448,192,162329,128,0,163410:0:0:0:0:
64,192,164491,128,0,166113:0:0:0:0:
448,192,165032,1,0,0:0:0:0:
320,192,165302,1,0,0:0:0:0:
448,192,165573,1,0,0:0:0:0:
192,192,165708,1,0,0:0:0:0:
320,192,166924,128,0,168410:0:0:0:0:
320,192,168951,1,0,0:0:0:0:
448,192,169356,128,0,170573:0:0:0:0:
320,192,170843,1,0,0:0:0:0:
320,192,171113,128,0,171924:0:0:0:0:
320,192,172194,1,0,0:0:0:0:
320,192,172600,1,0,0:0:0:0:
192,192,173005,128,0,175167:0:0:0:0:
320,192,176248,1,0,0:0:0:0:
192,192,176789,1,0,0:0:0:0:
448,192,177194,128,0,178816:0:0:0:0:
320,192,179491,1,0,0:0:0:0:
192,192,179897,1,0,0:0:0:0:
320,192,180302,1,0,0:0:0:0:
320,192,180573,128,0,187735:0:0:0:0:
192,192,182735,1,0,0:0:0:0:
192,192,183275,1,0,0:0:0:0:
192,192,183816,1,0,0:0:0:0:
448,192,184356,1,0,0:0:0:0:
448,192,184897,1,0,0:0:0:0:
448,192,185437,1,0,0:0:0:0:
