osu file format v14

[General]
AudioFilename: audio.mp3
AudioLeadIn: 0
PreviewTime: 103794
Countdown: 0
SampleSet: Soft
StackLeniency: 0.7
Mode: 0
LetterboxInBreaks: 0
WidescreenStoryboard: 1

[Editor]
Bookmarks: 18727,30892,43057,55222,67387,79552,128212,134295
DistanceSpacing: 2.1
BeatDivisor: 8
GridSize: 16
TimelineZoom: 1

[Metadata]
Title:Nice to See You (feat. Floor Cry)
TitleUnicode:Nice to See You (feat. Floor Cry)
Artist:Vansire
ArtistUnicode:Vansire
Creator:Mimari
Version:normal
Source:
Tags:wafer kami no kotoba goopert angel youth pop lofi lo-fi dream english ill
BeatmapID:3044343
BeatmapSetID:1484447

[Difficulty]
HPDrainRate:2.8
CircleSize:4
OverallDifficulty:3.8
ApproachRate:4.8
SliderMultiplier:1.5
SliderTickRate:1

[Events]
//Background and Video events
0,0,"wait 4 u..jpg",0,0
//Break Periods
2,24810,28156
2,128419,133079
//Storyboard Layer 0 (Background)
//Storyboard Layer 1 (Fail)
//Storyboard Layer 2 (Pass)
//Storyboard Layer 3 (Foreground)
//Storyboard Layer 4 (Overlay)
//Storyboard Sound Samples

[TimingPoints]
6570,760.311727808401,4,2,2,35,1,0
30899,-100,4,2,2,45,0,0
55229,-100,4,2,2,35,0,0
80320,-100,4,2,2,40,0,0
103889,-100,4,2,2,50,0,0
128219,-100,4,2,2,30,0,0
134112,-100,4,2,2,45,0,0
152549,-100,4,2,2,35,0,0

[Colours]
Combo1 : 235,232,169
Combo2 : 170,207,154
Combo3 : 163,199,228
Combo4 : 227,184,136

[HitObjects]
42,352,18734,6,0,P|33:315|47:273,1,75
97,228,19495,1,8,0:0:0:0:
209,326,20255,2,0,B|293:308|274:364|358:342,1,150,0|8,3:0|0:0,0:0:0:0:
426,360,21396,1,0,0:0:0:0:
471,300,21776,6,0,L|478:220,1,75,0|0,3:0|0:0,0:0:0:0:
414,184,22536,2,0,L|407:104,1,75,8|0,0:0|0:0,0:0:0:0:
442,43,23296,1,0,3:0:0:0:
315,106,24057,2,0,P|278:104|238:85,1,75,8|0,0:0|0:0,0:0:0:0:
108,79,29379,6,0,L|115:148,1,50,10|8,3:0|3:0,0:0:0:0:
33,284,30519,1,0,3:0:0:0:
94,326,30899,6,0,B|178:308|159:364|243:342,1,150,2|10,3:0|0:0,0:0:0:0:
310,314,32040,1,2,0:0:0:0:
310,314,32230,2,0,L|317:190,1,112.5,2|2,3:0|3:0,0:0:0:0:
281,135,33180,1,8,0:0:0:0:
156,219,33941,6,0,P|113:221|92:109,1,150,0|10,3:0|0:0,0:0:0:0:
115,75,35081,1,2,0:0:0:0:
115,75,35271,2,0,L|240:66,1,112.5,2|2,3:0|3:0,0:0:0:0:
293,30,36222,2,0,P|330:22|381:44,1,75,8|2,0:0|0:0,0:0:0:0:
421,81,36982,6,0,P|405:150|392:243,1,150,2|10,3:0|0:0,0:0:0:0:
447,287,38122,1,2,0:0:0:0:
447,287,38313,2,0,P|393:308|338:282,1,112.5,2|2,3:0|3:0,0:0:0:0:
312,221,39263,1,8,0:0:0:0:
278,74,40023,6,0,B|194:56|213:112|129:90,1,150,2|10,3:0|0:0,0:0:0:0:
84,41,41164,1,2,0:0:0:0:
84,41,41354,2,0,L|97:166,1,112.5,2|2,3:0|3:0,0:0:0:0:
35,197,42304,2,0,L|28:281,1,75,8|2,0:0|0:0,0:0:0:0:
78,328,43064,6,0,B|162:310|143:366|227:344,1,150,2|10,3:0|0:0,0:0:0:0:
283,299,44205,1,2,0:0:0:0:
283,299,44395,2,0,L|337:306,1,37.5,2|2,3:0|3:0,0:0:0:0:
384,343,44965,2,0,L|485:332,1,75,2|8,3:0|0:0,0:0:0:0:
489,188,46106,6,0,P|441:125|359:152,1,150,2|10,3:0|0:0,0:0:0:0:
325,185,47246,1,2,0:0:0:0:
325,185,47436,2,0,L|271:192,1,37.5,2|2,3:0|3:0,0:0:0:0:
216,167,48006,1,2,3:0:0:0:
156,212,48387,1,8,0:0:0:0:
23,141,49147,6,0,P|5:83|71:25,1,150,2|10,3:0|0:0,0:0:0:0:
127,63,50287,1,2,0:0:0:0:
199,42,50668,1,2,3:0:0:0:
347,62,51428,2,0,P|384:56|434:40,1,75,10|0,0:0|0:0,0:0:0:0:
486,80,52188,6,0,P|463:132|445:232,1,150,2|10,3:0|0:0,0:0:0:0:
384,266,53329,1,2,0:0:0:0:
318,230,53709,2,0,L|235:214,1,75,2|2,3:0|3:0,0:0:0:0:
174,243,54469,1,10,0:0:0:0:
36,184,55229,6,0,P|50:265|62:350,1,150,0|10,3:0|0:0,0:0:0:0:
130,356,56370,1,2,0:0:0:0:
193,315,56750,2,0,P|231:321|280:329,1,75,2|2,3:0|3:0,0:0:0:0:
329,367,57510,1,10,0:0:0:0:
453,282,58271,6,0,B|471:198|415:217|437:133,1,150,2|10,3:0|0:0,0:0:0:0:
476,74,59411,1,2,0:0:0:0:
430,14,59791,1,2,3:0:0:0:
293,77,60552,1,10,0:0:0:0:
151,28,61312,6,0,P|116:39|63:48,1,75,2|2,3:0|0:0,0:0:0:0:
42,35,61882,2,0,P|13:82|32:160,1,112.5,2|2,0:0|0:0,0:0:0:0:
68,192,62833,1,2,3:0:0:0:
139,169,63213,1,2,3:0:0:0:
139,169,63403,2,0,L|257:183,1,112.5,0|2,0:0|0:0,0:0:0:0:
318,150,64353,6,0,P|364:154|394:225,1,112.5,2|2,3:0|0:0,0:0:0:0:
469,240,65304,1,2,0:0:0:0:
469,240,65494,2,0,P|454:277|443:346,1,75,2|0,0:0|3:0,0:0:0:0:
395,366,66254,6,0,P|386:329|372:294,1,75,2|10,3:0|0:0,0:0:0:0:
312,249,67014,1,2,0:0:0:0:
249,290,67394,6,0,B|165:272|184:328|100:306,1,150,2|10,3:0|0:0,0:0:0:0:
30,176,68915,2,0,P|21:138|44:90,1,75,2|2,3:0|3:0,0:0:0:0:
90,57,69675,1,10,0:0:0:0:
154,96,70056,1,2,0:0:0:0:
211,48,70436,6,0,P|263:56|348:68,2,112.5,2|2|2,3:0|0:0|0:0,0:0:0:0:
154,96,71956,2,0,P|145:166|140:249,1,150,2|8,3:0|0:0,0:0:0:0:
257,339,73477,6,0,B|341:321|322:377|406:355,1,150,2|10,3:0|0:0,0:0:0:0:
461,311,74617,1,2,0:0:0:0:
420,247,74998,2,0,L|340:240,1,75,2|2,3:0|3:0,0:0:0:0:
285,196,75758,2,0,L|205:203,1,75,10|2,0:0|0:0,0:0:0:0:
167,264,76518,6,0,P|140:177|110:142,2,112.5,2|2|2,3:0|0:0|0:0,0:0:0:0:
182,337,78039,1,0,3:0:0:0:
109,356,78419,2,0,P|42:368|22:286,1,150,2|2,3:0|0:0,0:0:0:0:
64,83,80320,6,0,B|148:65|129:121|213:99,1,150,10|2,0:0|3:0,0:0:0:0:
275,67,81460,1,2,3:0:0:0:
343,97,81840,2,0,L|329:201,1,75,8|2,0:0|0:0,0:0:0:0:
374,234,82601,1,0,3:0:0:0:
280,351,83361,5,10,0:0:0:0:
219,306,83741,2,0,P|168:298|132:299,1,75,2|2,0:0|3:0,0:0:0:0:
99,357,84501,2,0,P|98:268|90:206,1,150,2|2,3:0|0:0,0:0:0:0:
46,146,85642,1,2,3:0:0:0:
130,22,86402,5,10,0:0:0:0:
183,73,86782,2,0,P|174:111|174:166,1,75,2|2,0:0|3:0,0:0:0:0:
227,198,87543,2,0,B|311:180|292:236|376:214,1,150,2|2,3:0|0:0,0:0:0:0:
428,166,88683,1,0,3:0:0:0:
500,34,89443,6,0,L|407:20,1,75,10|2,0:0|0:0,0:0:0:0:
364,66,90204,1,2,3:0:0:0:
298,30,90584,2,0,P|199:34|183:100,1,150,2|2,3:0|0:0,0:0:0:0:
218,134,91724,6,0,L|226:228,1,75,2|0,3:0|0:0,0:0:0:0:
294,234,92485,2,0,L|286:331,1,75,10|2,0:0|0:0,0:0:0:0:
236,363,93245,1,2,3:0:0:0:
173,321,93625,2,0,B|89:303|108:359|24:337,1,150,2|2,3:0|0:0,0:0:0:0:
15,264,94766,1,0,3:0:0:0:
46,117,95526,6,0,P|81:108|129:126,1,75,10|2,0:0|0:0,0:0:0:0:
172,169,96286,1,2,3:0:0:0:
244,148,96666,2,0,P|258:86|320:9,1,150,2|2,3:0|0:0,0:0:0:0:
383,7,97807,1,0,3:0:0:0:
474,125,98567,6,0,L|463:226,1,75,10|2,0:0|0:0,0:0:0:0:
414,254,99328,1,2,3:0:0:0:
347,220,99708,2,0,B|263:202|282:258|198:236,1,150,2|2,3:0|0:0,0:0:0:0:
133,321,102369,6,0,L|127:247,1,50,10|8,3:0|3:0,0:0:0:0:
62,109,103509,1,2,3:0:0:0:
127,72,103889,6,0,B|211:54|192:110|276:88,1,150,6|10,3:0|0:0,0:0:0:0:
320,33,105030,1,2,0:0:0:0:
320,33,105220,2,0,L|327:157,1,112.5,2|2,3:0|3:0,0:0:0:0:
393,179,106170,1,8,0:0:0:0:
334,317,106931,6,0,B|250:299|269:355|185:333,1,150,0|10,3:0|0:0,0:0:0:0:
119,349,108071,1,2,0:0:0:0:
119,349,108261,2,0,L|110:224,1,112.5,2|2,3:0|3:0,0:0:0:0:
162,181,109212,2,0,L|249:194,1,75,8|2,0:0|0:0,0:0:0:0:
302,227,109972,6,0,P|394:217|398:141,1,150,2|10,3:0|0:0,0:0:0:0:
419,102,111112,1,2,0:0:0:0:
419,102,111303,2,0,L|299:94,1,112.5,2|2,3:0|3:0,0:0:0:0:
246,49,112253,1,8,0:0:0:0:
100,85,113013,6,0,B|82:169|138:150|116:234,1,150,2|10,3:0|0:0,0:0:0:0:
87,300,114154,1,2,0:0:0:0:
87,300,114344,2,0,P|142:304|189:254,1,112.5,2|2,3:0|3:0,0:0:0:0:
203,196,115294,2,0,L|278:209,1,75,8|2,0:0|0:0,0:0:0:0:
283,283,116054,6,0,B|367:265|348:321|432:299,1,150,2|10,3:0|0:0,0:0:0:0:
464,236,117195,1,2,0:0:0:0:
464,236,117385,2,0,L|471:182,1,37.5,2|2,3:0|3:0,0:0:0:0:
505,133,117955,1,2,3:0:0:0:
465,69,118335,1,8,0:0:0:0:
324,120,119096,6,0,B|240:102|259:158|175:136,1,150,2|10,3:0|0:0,0:0:0:0:
132,85,120236,1,2,0:0:0:0:
132,85,120426,2,0,L|78:92,1,37.5,2|2,3:0|3:0,0:0:0:0:
37,138,120996,1,2,3:0:0:0:
57,210,121377,1,8,0:0:0:0:
150,327,122137,6,0,P|213:302|321:279,1,150,2|10,3:0|0:0,0:0:0:0:
367,291,123277,1,2,0:0:0:0:
410,229,123658,1,2,3:0:0:0:
271,172,124418,2,0,P|264:132|253:88,1,75,10|0,0:0|0:0,0:0:0:0:
299,37,125178,6,0,B|383:19|364:75|448:53,1,150,2|10,3:0|0:0,0:0:0:0:
499,103,126319,1,2,0:0:0:0:
457,165,126699,1,2,3:0:0:0:
505,306,127459,2,0,P|454:287|428:283,1,75,10|2,0:0|0:0,0:0:0:0:
367,318,128219,5,0,0:0:0:0:
114,356,134302,6,0,P|104:285|99:190,1,150,4|10,3:0|0:0,0:0:0:0:
51,154,135442,1,2,0:0:0:0:
51,154,135632,2,0,P|58:94|61:27,1,112.5,2|2,3:0|3:0,0:0:0:0:
205,2,136963,1,2,0:0:0:0:
264,47,137343,6,0,B|348:29|329:85|413:63,1,150,0|10,3:0|0:0,0:0:0:0:
471,114,138484,1,2,0:0:0:0:
471,114,138674,2,0,L|460:238,1,112.5,2|2,3:0|3:0,0:0:0:0:
376,349,140004,1,2,0:0:0:0:
308,316,140384,6,0,B|224:298|243:354|159:332,1,150,2|10,3:0|0:0,0:0:0:0:
117,280,141525,1,2,0:0:0:0:
117,280,141715,2,0,L|110:188,1,75,2|0,3:0|0:0,0:0:0:0:
108,167,142285,2,0,B|192:149|173:205|257:183,1,150,2|2,3:0|0:0,0:0:0:0:
321,214,143426,6,0,P|331:159|343:116,1,75,2|2,3:0|0:0,0:0:0:0:
267,108,144186,2,0,P|257:53|245:10,1,75,10|2,0:0|0:0,0:0:0:0:
221,13,144756,2,0,P|164:7|128:74,1,112.5,2|2,3:0|3:0,0:0:0:0:
43,167,146087,1,2,0:0:0:0:
104,209,146467,6,0,B|188:191|169:247|253:225,1,150,2|10,3:0|0:0,0:0:0:0:
313,188,147607,1,2,0:0:0:0:
382,214,147987,1,2,3:0:0:0:
507,296,148748,2,0,P|491:366|482:384,1,75,10|0,0:0|0:0,0:0:0:0:
417,347,149508,6,0,B|333:329|352:385|268:363,1,150,2|10,3:0|0:0,0:0:0:0:
134,303,151029,1,2,3:0:0:0:
112,231,151409,1,2,3:0:0:0:
184,212,151789,2,0,P|218:221|286:237,1,75,10|2,0:0|0:0,0:0:0:0:
312,179,152549,5,2,0:0:0:0:
