osu file format v14

[General]
AudioFilename: audio.mp3
AudioLeadIn: 0
PreviewTime: 103794
Countdown: 0
SampleSet: Soft
StackLeniency: 0.7
Mode: 0
LetterboxInBreaks: 0
WidescreenStoryboard: 0

[Editor]
Bookmarks: 18727,30892,43057,55222,67387,79552,92478,103882,128212,134295,152542
DistanceSpacing: 2.1
BeatDivisor: 8
GridSize: 16
TimelineZoom: 1

[Metadata]
Title:Nice to See You (feat. Floor Cry)
TitleUnicode:Nice to See You (feat. Floor Cry)
Artist:Vansire
ArtistUnicode:Vansire
Creator:Mimari
Version:i'll wait
Source:
Tags:wafer kami no kotoba goopert angel youth pop lofi lo-fi dream english ill
BeatmapID:3044342
BeatmapSetID:1484447

[Difficulty]
HPDrainRate:4.6
CircleSize:4.4
OverallDifficulty:6.6
ApproachRate:7.4
SliderMultiplier:1.6
SliderTickRate:1

[Events]
//Background and Video events
0,0,"wait 4 u..jpg",0,0
//Break Periods
2,128419,133463
//Storyboard Layer 0 (Background)
//Storyboard Layer 1 (Fail)
//Storyboard Layer 2 (Pass)
//Storyboard Layer 3 (Foreground)
//Storyboard Layer 4 (Overlay)
//Storyboard Sound Samples

[TimingPoints]
6570,760.311727808401,4,2,2,35,1,0
18734,-100,4,2,2,35,0,0
30899,-90.9090909090909,4,2,2,45,0,0
33846,-90.9090909090909,4,2,2,5,0,0
33941,-90.9090909090909,4,2,2,45,0,0
39928,-90.9090909090909,4,2,2,5,0,0
40023,-90.9090909090909,4,2,2,45,0,0
46391,-90.9090909090909,4,2,2,5,0,0
46486,-90.9090909090909,4,2,2,45,0,0
52093,-90.9090909090909,4,2,2,5,0,0
52188,-90.9090909090909,4,2,2,45,0,0
55229,-95.2380952380951,4,2,2,35,0,0
80320,-90.9090909090909,4,2,2,40,0,0
103889,-83.3333333333333,4,2,2,50,0,0
106836,-83.3333333333333,4,2,2,5,0,0
106931,-83.3333333333333,4,2,2,50,0,0
112918,-83.3333333333333,4,2,2,5,0,0
113013,-83.3333333333333,4,2,2,50,0,0
119381,-83.3333333333333,4,2,2,5,0,0
119476,-83.3333333333333,4,2,2,50,0,0
128219,-83.3333333333333,4,2,2,30,0,0
134112,-83.3333333333333,4,2,2,45,0,0
137248,-83.3333333333333,4,2,2,5,0,0
137343,-83.3333333333333,4,2,2,45,0,0
149793,-83.3333333333333,4,2,2,5,0,0
149888,-83.3333333333333,4,2,2,45,0,0
152549,-83.3333333333333,4,2,2,35,0,0

[Colours]
Combo1 : 235,232,169
Combo2 : 170,207,154
Combo3 : 163,199,228
Combo4 : 227,184,136

[HitObjects]
202,354,18734,6,0,P|198:317|184:252,1,80
301,197,19495,1,8,0:0:0:0:
354,249,19875,1,0,0:0:0:0:
353,257,20065,1,0,3:0:0:0:
352,266,20255,5,0,3:0:0:0:
196,195,20635,1,0,3:0:0:0:
348,137,21015,2,0,P|352:100|366:35,1,80,8|0,0:0|0:0,0:0:0:0:
215,6,21776,6,0,P|153:9|126:73,1,120,0|0,3:0|0:0,0:0:0:0:
132,70,22536,1,8,0:0:0:0:
257,112,22916,1,0,0:0:0:0:
256,104,23106,1,0,3:0:0:0:
255,95,23296,5,0,3:0:0:0:
178,196,23677,2,0,P|170:235|165:275,1,80,0|8,3:0|0:0,0:0:0:0:
329,361,24437,1,0,0:0:0:0:
329,361,25577,5,2,0:0:0:0:
330,352,25957,1,2,0:0:0:0:
331,344,26338,1,2,0:0:0:0:
198,316,26718,5,2,0:0:0:0:
130,358,27478,1,2,0:0:0:0:
353,266,28238,5,2,0:0:0:0:
352,274,28619,1,2,0:0:0:0:
351,283,28999,1,2,0:0:0:0:
255,152,29379,5,10,3:0:0:0:
254,144,29632,5,8,3:0:0:0:
337,66,30012,5,8,3:0:0:0:
203,253,30393,5,8,3:0:0:0:
133,269,30519,1,0,3:0:0:0:
336,361,30899,6,0,P|379:367|431:383,1,88.000002685547,2|0,3:0|0:0,0:0:0:0:
512,265,31660,1,10,0:0:0:0:
428,293,32040,5,2,0:0:0:0:
436,299,32230,1,2,3:0:0:0:
444,304,32420,2,0,P|439:283|435:244,1,44.0000013427735,0|0,3:0|0:0,0:0:0:0:
374,171,32800,6,0,P|368:221|354:274,1,88.000002685547,2|8,3:0|0:0,0:0:0:0:
502,141,33561,6,0,P|491:104|488:56,1,66.0000020141602,2|0,0:0|0:0,0:0:0:0:
494,69,33941,1,0,3:0:0:0:
494,69,34701,6,0,P|501:50|505:18,1,44.0000013427735,10|0,0:0|0:0,0:0:0:0:
351,108,35081,1,2,0:0:0:0:
428,142,35271,6,0,P|424:96|405:41,1,88.000002685547,2|0,3:0|0:0,0:0:0:0:
306,16,35842,1,2,3:0:0:0:
488,229,36222,6,0,P|501:184|504:126,1,88.000002685547,8|2,0:0|0:0,0:0:0:0:
297,298,36982,6,0,P|306:342|313:400,1,88.000002685547,2|0,3:0|0:0,0:0:0:0:
412,212,37742,1,10,0:0:0:0:
404,335,38122,5,2,0:0:0:0:
396,332,38313,1,2,3:0:0:0:
387,329,38503,2,0,P|391:302|407:272,1,44.0000013427735,0|0,3:0|0:0,0:0:0:0:
307,164,38883,2,0,P|333:208|341:260,1,88.000002685547,2|8,3:0|0:0,0:0:0:0:
481,378,39643,6,0,P|496:352|500:308,1,66.0000020141602,2|0,0:0|0:0,0:0:0:0:
493,306,40023,1,2,3:0:0:0:
493,306,40784,6,0,L|431:325,1,44.0000013427735,10|0,0:0|0:0,0:0:0:0:
355,231,41164,1,2,0:0:0:0:
455,236,41354,6,0,L|353:219,1,88.000002685547,2|0,3:0|0:0,0:0:0:0:
297,299,41925,1,2,3:0:0:0:
512,184,42304,6,0,P|506:134|483:90,1,88.000002685547,8|2,0:0|0:0,0:0:0:0:
356,0,43064,6,0,P|350:23|326:58,1,44.0000013427735,2|0,3:0|0:0,0:0:0:0:
280,83,43445,1,2,0:0:0:0:
457,33,43825,1,10,0:0:0:0:
342,177,44205,5,2,0:0:0:0:
331,173,44395,1,2,3:0:0:0:
395,124,44585,5,2,3:0:0:0:
426,348,44965,1,2,3:0:0:0:
466,161,45345,6,0,P|455:210|449:278,1,88.000002685547,8|2,0:0|0:0,0:0:0:0:
355,384,46106,6,0,P|347:331|336:307,1,66.0000020141602,2|0,3:0|0:0,0:0:0:0:
332,313,46486,2,0,P|304:321|274:327,1,44.0000013427735,2|0,0:0|0:0,0:0:0:0:
375,242,46866,5,10,0:0:0:0:
478,353,47246,5,2,0:0:0:0:
482,339,47436,1,2,3:0:0:0:
486,326,47626,2,0,P|498:289|525:229,1,88.000002685547,2|2,3:0|3:0,0:0:0:0:
325,74,48387,5,8,0:0:0:0:
296,189,48767,1,2,0:0:0:0:
488,150,49147,6,0,P|481:121|465:104,1,44.0000013427735,2|0,3:0|0:0,0:0:0:0:
408,67,49528,1,2,0:0:0:0:
326,269,49907,5,10,0:0:0:0:
418,159,50287,2,0,P|412:206|393:268,1,88.000002685547,2|2,0:0|3:0,0:0:0:0:
312,352,51048,1,2,3:0:0:0:
293,119,51428,6,0,P|316:79|422:78,1,154.000004699707,10|0,0:0|0:0,0:0:0:0:
430,87,52188,6,0,P|436:134|455:196,1,88.000002685547,2|2,3:0|0:0,0:0:0:0:
483,19,52949,5,10,0:0:0:0:
340,44,53329,1,2,0:0:0:0:
329,42,53519,1,0,3:0:0:0:
320,41,53709,5,2,3:0:0:0:
505,141,54089,1,2,3:0:0:0:
326,259,54469,6,0,P|337:216|342:172,1,88.000002685547,10|2,0:0|0:0,0:0:0:0:
50,36,55229,6,0,P|61:79|66:121,1,83.9999974365235,0|2,3:0|0:0,0:0:0:0:
153,255,55990,1,10,0:0:0:0:
197,180,56370,1,2,0:0:0:0:
207,181,56560,1,0,3:0:0:0:
216,182,56750,5,2,3:0:0:0:
60,229,57130,1,2,3:0:0:0:
179,348,57510,6,0,P|167:300|163:262,1,83.9999974365235,10|2,0:0|0:0,0:0:0:0:
219,34,58271,6,0,P|202:83|190:164,1,125.999996154785,2|0,3:0|0:0,0:0:0:0:
220,220,59031,1,10,0:0:0:0:
42,119,59411,1,2,0:0:0:0:
103,0,59791,6,0,P|118:39|126:84,1,83.9999974365235,2|2,3:0|3:0,0:0:0:0:
51,229,60552,2,0,P|61:207|68:180,1,41.9999987182618,10|0,0:0|0:0,0:0:0:0:
37,123,60932,1,2,0:0:0:0:
206,17,61312,6,0,P|216:39|223:66,1,41.9999987182618,2|0,3:0|0:0,0:0:0:0:
194,125,61692,1,2,0:0:0:0:
148,63,61882,2,0,P|141:128|119:204,1,125.999996154785,2|2,0:0|0:0,0:0:0:0:
211,342,62833,5,2,3:0:0:0:
136,264,63213,1,2,3:0:0:0:
146,263,63403,1,0,0:0:0:0:
157,261,63593,5,10,0:0:0:0:
78,384,63973,1,2,0:0:0:0:
20,254,64353,6,0,P|17:228|3:199,1,41.9999987182618,2|0,3:0|0:0,0:0:0:0:
106,122,64733,1,2,0:0:0:0:
90,213,64923,6,0,P|96:169|115:120,1,83.9999974365235,2|2,0:0|0:0,0:0:0:0:
172,80,65494,1,2,0:0:0:0:
219,299,65874,5,0,3:0:0:0:
20,254,66254,1,2,3:0:0:0:
177,72,66634,2,0,P|185:119|212:172,1,83.9999974365235,10|2,0:0|0:0,0:0:0:0:
84,372,67394,6,0,P|104:331|108:272,1,83.9999974365235,2|0,3:0|0:0,0:0:0:0:
71,101,68155,2,0,P|16:102|14:181,1,125.999996154785,10|0,0:0|3:0,0:0:0:0:
57,206,68915,5,2,3:0:0:0:
215,133,69295,1,2,3:0:0:0:
123,1,69675,6,0,P|118:27|98:61,1,41.9999987182618,10|0,0:0|0:0,0:0:0:0:
66,96,70056,1,2,0:0:0:0:
185,286,70436,6,0,P|162:233|150:154,2,125.999996154785,2|2|2,3:0|0:0|0:0,0:0:0:0:
209,351,71766,1,0,3:0:0:0:
219,355,71956,1,2,3:0:0:0:
77,236,72336,5,2,3:0:0:0:
97,383,72717,2,0,P|108:346|114:284,1,83.9999974365235,8|2,0:0|0:0,0:0:0:0:
20,183,73477,6,0,P|9:146|3:84,1,83.9999974365235,2|2,3:0|0:0,0:0:0:0:
149,16,74237,1,10,0:0:0:0:
188,178,74617,5,2,0:0:0:0:
187,189,74807,1,0,3:0:0:0:
185,199,74998,2,0,P|163:204|140:216,1,41.9999987182618,2|0,3:0|0:0,0:0:0:0:
88,265,75378,5,2,3:0:0:0:
141,87,75758,2,0,P|177:109|228:114,1,83.9999974365235,10|2,0:0|0:0,0:0:0:0:
60,23,76518,6,0,P|8:39|9:102,1,125.999996154785,2|2,3:0|0:0,0:0:0:0:
78,130,77278,1,10,0:0:0:0:
206,219,77659,5,2,0:0:0:0:
210,207,77849,1,0,3:0:0:0:
214,197,78039,1,0,3:0:0:0:
58,247,78419,6,0,P|75:290|83:336,1,83.9999974365235,2|8,3:0|0:0,0:0:0:0:
161,384,79179,2,0,P|165:359|176:333,1,41.9999987182618,2|0,0:0|0:0,0:0:0:0:
220,292,79559,5,0,0:0:0:0:
467,352,80320,6,0,P|458:332|447:261,1,88.000002685547,10|2,0:0|0:0,0:0:0:0:
418,206,80890,1,0,3:0:0:0:
422,194,81080,1,2,3:0:0:0:
316,58,81460,6,0,P|307:78|296:149,1,88.000002685547,2|8,3:0|0:0,0:0:0:0:
470,105,82221,2,0,P|461:80|462:54,1,44.0000013427735,2|0,0:0|0:0,0:0:0:0:
501,2,82601,1,0,3:0:0:0:
420,219,83361,6,0,P|377:206|334:200,1,88.000002685547,10|2,0:0|0:0,0:0:0:0:
289,310,84121,2,0,P|310:301|345:296,1,44.0000013427735,2|0,3:0|0:0,0:0:0:0:
388,377,84501,6,0,P|400:328|422:289,1,88.000002685547,2|8,3:0|0:0,0:0:0:0:
308,70,85262,2,0,P|318:91|327:121,1,44.0000013427735,2|0,0:0|0:0,0:0:0:0:
295,176,85642,5,2,3:0:0:0:
462,108,86022,1,0,0:0:0:0:
489,317,86402,6,0,P|471:275|465:217,1,88.000002685547,10|2,0:0|0:0,0:0:0:0:
496,171,86972,1,0,3:0:0:0:
506,174,87163,1,2,3:0:0:0:
363,217,87543,1,2,3:0:0:0:
423,46,87923,2,0,P|405:88|399:146,1,88.000002685547,8|2,0:0|0:0,0:0:0:0:
316,335,88683,6,0,P|309:291|291:251,1,88.000002685547,0|0,3:0|0:0,0:0:0:0:
295,64,89443,2,0,P|345:68|372:107,1,88.000002685547,10|2,0:0|0:0,0:0:0:0:
343,162,90014,1,0,3:0:0:0:
333,164,90204,1,2,3:0:0:0:
492,197,90584,5,2,3:0:0:0:
443,83,90965,2,0,P|445:104|452:125,1,44.0000013427735,8|0,0:0|0:0,0:0:0:0:
379,271,91345,2,0,P|405:227|413:175,2,88.000002685547,2|2|0,0:0|3:0|0:0,0:0:0:0:
256,130,92485,5,10,0:0:0:0:
171,200,92865,1,2,0:0:0:0:
160,198,93055,1,0,3:0:0:0:
150,195,93245,5,2,3:0:0:0:
66,87,93625,1,2,3:0:0:0:
40,264,94005,2,0,P|58:222|64:164,1,88.000002685547,8|2,0:0|0:0,0:0:0:0:
146,6,94766,6,0,P|152:49|170:89,1,88.000002685547,0|0,3:0|0:0,0:0:0:0:
308,197,95526,1,10,0:0:0:0:
335,96,95906,1,2,0:0:0:0:
325,94,96096,1,0,3:0:0:0:
314,92,96286,5,2,3:0:0:0:
203,192,96666,1,2,3:0:0:0:
409,131,97047,2,0,P|419:85|431:60,1,44.0000013427735,8|0,0:0|0:0,0:0:0:0:
373,29,97427,1,2,0:0:0:0:
297,266,97807,6,0,P|340:272|382:285,1,88.000002685547,0|0,3:0|0:0,0:0:0:0:
512,192,98567,2,0,P|469:204|426:211,1,88.000002685547,10|2,0:0|0:0,0:0:0:0:
361,194,99137,1,0,3:0:0:0:
353,190,99328,1,2,3:0:0:0:
443,28,99708,2,0,P|413:90|408:128,1,88.000002685547,2|8,3:0|0:0,0:0:0:0:
442,296,100468,5,2,0:0:0:0:
442,296,102369,5,10,3:0:0:0:
450,295,102622,5,8,3:0:0:0:
381,380,103002,5,10,3:0:0:0:
323,163,103383,5,8,3:0:0:0:
307,233,103509,1,2,3:0:0:0:
176,361,103889,6,0,P|133:367|71:387,1,95.9999970703126,6|0,3:0|0:0,0:0:0:0:
0,265,104650,1,10,0:0:0:0:
84,293,105030,5,2,0:0:0:0:
76,299,105220,1,2,3:0:0:0:
68,304,105410,2,0,P|73:283|79:239,1,47.9999985351563,0|0,3:0|0:0,0:0:0:0:
143,163,105790,6,0,P|149:213|165:273,1,95.9999970703126,2|8,3:0|0:0,0:0:0:0:
16,165,106551,6,0,P|27:128|31:93,1,71.9999978027344,2|0,0:0|0:0,0:0:0:0:
23,86,106931,1,0,3:0:0:0:
23,86,107691,6,0,P|16:67|11:29,1,47.9999985351563,10|0,0:0|0:0,0:0:0:0:
73,5,108071,1,2,0:0:0:0:
91,173,108261,6,0,P|118:131|154:96,1,95.9999970703126,2|0,3:0|0:0,0:0:0:0:
217,67,108832,1,2,3:0:0:0:
399,207,109212,6,0,P|347:207|303:170,1,95.9999970703126,8|2,0:0|0:0,0:0:0:0:
354,35,109972,6,0,P|367:88|374:146,1,95.9999970703126,2|0,3:0|0:0,0:0:0:0:
254,246,110732,1,10,0:0:0:0:
389,313,111112,5,2,0:0:0:0:
381,310,111303,1,2,3:0:0:0:
372,307,111493,2,0,P|376:280|397:247,1,47.9999985351563,0|0,3:0|0:0,0:0:0:0:
283,139,111873,2,0,P|316:184|324:236,1,95.9999970703126,2|8,3:0|0:0,0:0:0:0:
480,384,112633,6,0,P|495:358|501:309,1,71.9999978027344,2|0,0:0|0:0,0:0:0:0:
493,306,113013,1,2,3:0:0:0:
493,306,113774,6,0,L|425:297,1,47.9999985351563,10|0,0:0|0:0,0:0:0:0:
330,338,114154,1,2,0:0:0:0:
449,215,114344,6,0,L|348:240,1,95.9999970703126,2|0,3:0|0:0,0:0:0:0:
246,192,114915,1,2,3:0:0:0:
373,28,115294,6,0,P|367:78|342:129,1,95.9999970703126,8|2,0:0|0:0,0:0:0:0:
309,293,116054,6,0,P|304:266|280:231,1,47.9999985351563,2|0,3:0|0:0,0:0:0:0:
246,192,116435,1,2,0:0:0:0:
75,316,116815,1,10,0:0:0:0:
227,382,117195,5,2,0:0:0:0:
229,372,117385,1,2,3:0:0:0:
178,311,117575,5,2,3:0:0:0:
392,370,117955,1,2,3:0:0:0:
308,118,118335,2,0,P|317:165|333:224,1,95.9999970703126,8|2,0:0|0:0,0:0:0:0:
178,311,119096,6,0,P|192:271|197:234,1,71.9999978027344,2|0,3:0|0:0,0:0:0:0:
188,235,119476,2,0,L|126:251,1,47.9999985351563,2|0,0:0|0:0,0:0:0:0:
67,213,119856,5,10,0:0:0:0:
302,355,120236,5,2,0:0:0:0:
306,341,120426,1,2,3:0:0:0:
310,328,120616,2,0,P|322:291|355:227,1,95.9999970703126,2|2,3:0|3:0,0:0:0:0:
242,43,121377,5,8,0:0:0:0:
271,158,121757,1,2,0:0:0:0:
67,30,122137,6,0,P|96:37|115:57,1,47.9999985351563,2|0,3:0|0:0,0:0:0:0:
149,109,122518,1,2,0:0:0:0:
10,261,122897,5,10,0:0:0:0:
59,107,123277,2,0,P|65:154|78:200,1,95.9999970703126,2|2,0:0|3:0,0:0:0:0:
202,354,124038,1,2,3:0:0:0:
277,149,124418,6,0,P|260:213|248:296,1,143.999995605469,10|0,0:0|0:0,0:0:0:0:
298,348,125178,6,0,P|347:333|398:322,1,95.9999970703126,2|2,3:0|0:0,0:0:0:0:
503,148,125939,5,10,0:0:0:0:
362,229,126319,1,2,0:0:0:0:
351,227,126509,1,0,3:0:0:0:
342,226,126699,5,2,3:0:0:0:
445,262,127079,1,2,3:0:0:0:
325,17,127459,6,0,P|319:60|304:114,1,95.9999970703126,10|2,0:0|0:0,0:0:0:0:
202,250,128219,5,0,0:0:0:0:
315,377,134302,6,0,P|321:334|341:272,1,95.9999970703126,4|2,3:0|0:0,0:0:0:0:
208,150,135063,1,10,0:0:0:0:
231,293,135443,5,2,0:0:0:0:
239,299,135633,1,2,3:0:0:0:
247,304,135823,2,0,P|242:283|236:239,1,47.9999985351563,0|0,3:0|0:0,0:0:0:0:
321,121,136203,6,0,P|315:171|299:231,1,95.9999970703126,2|8,3:0|0:0,0:0:0:0:
163,341,136964,6,0,L|90:331,1,71.9999978027344,2|0,0:0|0:0,0:0:0:0:
77,337,137344,1,0,3:0:0:0:
77,337,138104,6,0,L|130:328,1,47.9999985351563,10|0,0:0|0:0,0:0:0:0:
170,266,138484,1,2,0:0:0:0:
259,380,138674,6,0,P|271:331|297:281,1,95.9999970703126,2|0,3:0|0:0,0:0:0:0:
360,253,139245,1,2,3:0:0:0:
181,67,139624,6,0,P|205:111|219:165,1,95.9999970703126,8|2,0:0|0:0,0:0:0:0:
98,296,140384,6,0,P|27:273|-9:268,1,95.9999970703126,2|2,3:0|0:0,0:0:0:0:
185,383,141145,1,10,0:0:0:0:
158,199,141525,5,2,0:0:0:0:
166,202,141716,1,2,3:0:0:0:
175,205,141906,2,0,P|171:232|150:265,1,47.9999985351563,2|0,3:0|0:0,0:0:0:0:
278,365,142286,2,0,P|255:322|246:265,1,95.9999970703126,2|8,3:0|0:0,0:0:0:0:
340,49,143046,6,0,P|355:75|358:110,1,47.9999985351563,2|0,0:0|0:0,0:0:0:0:
330,154,143426,1,2,3:0:0:0:
178,32,143806,1,2,0:0:0:0:
243,247,144186,6,0,P|258:221|261:186,1,47.9999985351563,10|0,0:0|0:0,0:0:0:0:
233,142,144566,1,2,0:0:0:0:
181,317,144756,6,0,P|171:267|145:218,1,95.9999970703126,2|0,3:0|0:0,0:0:0:0:
86,187,145326,1,2,3:0:0:0:
256,365,145707,6,0,P|304:369|359:335,1,95.9999970703126,8|2,0:0|0:0,0:0:0:0:
463,168,146467,6,0,P|458:195|434:230,1,47.9999985351563,2|0,3:0|0:0,0:0:0:0:
400,269,146848,1,2,0:0:0:0:
229,145,147228,1,10,0:0:0:0:
381,79,147608,5,2,0:0:0:0:
383,89,147798,1,0,3:0:0:0:
332,150,147988,5,2,3:0:0:0:
144,90,148368,1,0,3:0:0:0:
302,328,148748,2,0,P|311:281|327:222,1,95.9999970703126,10|0,0:0|0:0,0:0:0:0:
216,22,149509,6,0,P|222:57|234:91,1,71.9999978027344,2|0,3:0|0:0,0:0:0:0:
247,101,149889,2,0,L|313:87,1,47.9999985351563,2|0,0:0|0:0,0:0:0:0:
392,137,150269,5,10,0:0:0:0:
212,221,150649,5,2,0:0:0:0:
198,217,150839,1,2,3:0:0:0:
185,213,151029,2,0,P|148:201|84:168,1,95.9999970703126,2|2,3:0|3:0,0:0:0:0:
343,21,151790,5,10,0:0:0:0:
314,282,152169,2,0,P|306:258|308:213,1,47.9999985351563,2|0,0:0|3:0,0:0:0:0:
346,174,152549,5,2,0:0:0:0:
