osu file format v14

[General]
AudioFilename: audio.mp3
AudioLeadIn: 0
PreviewTime: 64998
Countdown: 0
SampleSet: Normal
StackLeniency: 0.7
Mode: 1
LetterboxInBreaks: 0
WidescreenStoryboard: 0

[Editor]
DistanceSpacing: 0.5
BeatDivisor: 4
GridSize: 32
TimelineZoom: 2.999999

[Metadata]
Title:Metamodernity
TitleUnicode:Metamodernity
Artist:Vansire
ArtistUnicode:Vansire
Creator:wafer
Version:tradition
Source:
Tags:english indie pop bedroom pop dream pop laid back lo-fi lofi slacker pop kami no kotoba goopert hivie
BeatmapID:2952218
BeatmapSetID:1434606

[Difficulty]
HPDrainRate:7
CircleSize:3
OverallDifficulty:6
ApproachRate:9
SliderMultiplier:1.4
SliderTickRate:1

[Events]
//Background and Video events
0,0,"vansire map.png",0,-100
//Break Periods
2,128271,135094
//Storyboard Layer 0 (Background)
//Storyboard Layer 1 (Fail)
//Storyboard Layer 2 (Pass)
//Storyboard Layer 3 (Foreground)
//Storyboard Layer 4 (Overlay)
//Storyboard Sound Samples

[TimingPoints]
204,491.803278688525,4,1,0,60,1,0
204,-99.9999999999999,4,1,0,60,0,0
15941,535.714285714286,4,1,0,60,1,0
15941,-91.8032786885245,4,1,0,60,0,0
16213,535.714285714286,4,1,0,60,1,8
16213,-91.8032786885245,4,1,0,60,0,8
16480,652.173913043478,4,1,0,60,1,8
16480,-75.4098360655738,4,1,0,60,0,8
16806,731.707317073171,4,1,0,60,1,8
16806,-67.2131147540983,4,1,0,60,0,8
17171,491.803278688525,4,1,0,60,1,8
17171,-99.9999999999999,4,1,0,60,0,8
17908,491.803278688525,4,1,0,60,1,0
17908,-99.9999999999999,4,1,0,60,0,0
65121,-100,4,1,0,60,0,1
80858,-100,4,1,0,60,0,0
112334,-111.111111111111,4,1,0,60,0,0
119216,-108.695652173913,4,1,0,60,0,0
119462,-106.382978723404,4,1,0,60,0,0
119708,-104.166666666667,4,1,0,60,0,0
119954,-102.040816326531,4,1,0,60,0,0
120077,-101.010101010101,4,1,0,60,0,0
120200,-99.9999999999999,4,1,0,60,0,0
135940,-99.9999999999999,4,1,0,60,0,0

[HitObjects]
256,196,204,5,0,0:0:0:0:
256,196,695,1,8,0:0:0:0:
256,196,941,1,0,0:0:0:0:
256,196,1187,1,0,0:0:0:0:
256,196,1433,1,0,0:0:0:0:
256,196,1679,1,8,0:0:0:0:
256,196,1925,1,8,0:0:0:0:
256,196,2048,1,8,0:0:0:0:
256,196,2171,1,8,0:0:0:0:
256,196,2417,1,0,0:0:0:0:
256,196,2663,1,8,0:0:0:0:
256,196,3154,1,0,0:0:0:0:
256,196,3400,1,8,0:0:0:0:
256,196,3646,1,8,0:0:0:0:
256,196,3892,1,0,0:0:0:0:
256,196,4015,1,0,0:0:0:0:
256,196,4138,1,0,0:0:0:0:
256,196,4384,1,8,0:0:0:0:
256,196,4630,1,8,0:0:0:0:
256,196,5121,1,0,0:0:0:0:
256,196,5367,1,8,0:0:0:0:
256,196,5613,1,8,0:0:0:0:
256,196,5859,1,0,0:0:0:0:
256,196,6105,1,0,0:0:0:0:
256,196,6228,1,0,0:0:0:0:
256,196,6351,1,0,0:0:0:0:
256,196,6597,1,8,0:0:0:0:
256,196,7088,1,0,0:0:0:0:
256,196,7334,1,8,0:0:0:0:
256,196,7580,1,8,0:0:0:0:
256,196,7826,1,8,0:0:0:0:
256,196,7949,1,8,0:0:0:0:
256,196,8072,1,8,0:0:0:0:
256,196,8318,1,0,0:0:0:0:
256,196,8564,1,8,0:0:0:0:
256,196,9055,1,0,0:0:0:0:
256,196,9301,1,0,0:0:0:0:
256,196,9547,1,8,0:0:0:0:
256,196,9793,1,0,0:0:0:0:
256,196,10040,1,8,0:0:0:0:
256,196,10163,1,0,0:0:0:0:
256,196,10286,1,0,0:0:0:0:
256,196,10532,1,8,0:0:0:0:
256,196,11023,1,0,0:0:0:0:
256,196,11269,1,0,0:0:0:0:
256,196,11515,1,8,0:0:0:0:
256,196,11761,1,0,0:0:0:0:
256,196,11884,1,8,0:0:0:0:
256,196,12007,1,8,0:0:0:0:
256,196,12499,1,8,0:0:0:0:
256,196,12990,1,0,0:0:0:0:
256,196,13236,1,0,0:0:0:0:
256,196,13482,1,8,0:0:0:0:
256,196,13974,1,8,0:0:0:0:
256,196,14220,1,0,0:0:0:0:
256,196,14466,1,0,0:0:0:0:
256,196,14957,1,0,0:0:0:0:
256,196,15203,1,0,0:0:0:0:
256,196,15449,1,8,0:0:0:0:
256,196,15695,1,8,0:0:0:0:
256,196,15818,1,8,0:0:0:0:
256,196,15941,1,8,0:0:0:0:
256,196,16213,1,0,0:0:0:0:
256,196,16480,1,0,0:0:0:0:
256,196,16806,1,0,0:0:0:0:
256,196,17171,1,8,0:0:0:0:
256,196,17416,1,8,0:0:0:0:
256,196,17662,1,0,0:0:0:0:
256,196,17908,1,12,0:0:0:0:
256,196,18399,1,0,0:0:0:0:
256,196,18891,1,0,0:0:0:0:
256,196,19137,1,8,0:0:0:0:
256,196,19383,1,0,0:0:0:0:
256,196,19629,1,0,0:0:0:0:
256,196,19752,1,0,0:0:0:0:
256,196,19875,1,0,0:0:0:0:
256,196,20121,1,8,0:0:0:0:
256,196,20367,1,8,0:0:0:0:
256,196,20612,1,0,0:0:0:0:
256,196,21104,1,0,0:0:0:0:
256,196,21350,1,8,0:0:0:0:
256,196,21596,1,0,0:0:0:0:
256,196,21719,1,0,0:0:0:0:
256,196,21842,1,0,0:0:0:0:
256,196,22334,1,0,0:0:0:0:
256,196,22826,1,0,0:0:0:0:
256,196,23072,1,8,0:0:0:0:
256,196,23318,1,0,0:0:0:0:
256,196,23564,1,8,0:0:0:0:
256,196,23687,1,8,0:0:0:0:
256,196,23810,1,8,0:0:0:0:
256,196,24056,1,8,0:0:0:0:
256,196,24547,1,0,0:0:0:0:
256,196,25039,1,0,0:0:0:0:
256,196,25285,1,8,0:0:0:0:
256,196,25531,1,0,0:0:0:0:
256,196,25654,1,0,0:0:0:0:
256,196,25777,1,0,0:0:0:0:
256,196,26268,1,0,0:0:0:0:
256,196,26760,1,0,0:0:0:0:
256,196,27006,1,8,0:0:0:0:
256,196,27252,1,0,0:0:0:0:
256,196,27498,1,8,0:0:0:0:
256,196,27621,1,8,0:0:0:0:
256,196,27744,1,8,0:0:0:0:
256,196,27990,1,8,0:0:0:0:
256,196,28481,1,0,0:0:0:0:
256,196,28973,1,0,0:0:0:0:
256,196,29219,1,8,0:0:0:0:
256,196,29465,1,0,0:0:0:0:
256,196,29588,1,0,0:0:0:0:
256,196,29711,1,0,0:0:0:0:
256,196,30203,1,0,0:0:0:0:
256,196,30694,1,0,0:0:0:0:
256,196,30940,1,8,0:0:0:0:
256,196,31186,1,0,0:0:0:0:
256,196,31432,1,8,0:0:0:0:
256,196,31555,1,8,0:0:0:0:
256,196,31678,1,8,0:0:0:0:
256,196,31924,1,0,0:0:0:0:
256,196,32415,1,8,0:0:0:0:
256,196,32907,1,8,0:0:0:0:
256,196,33153,1,8,0:0:0:0:
256,196,33399,1,8,0:0:0:0:
256,196,33645,1,4,0:0:0:0:
256,192,37580,1,8,0:0:0:0:
256,192,38071,1,0,0:0:0:0:
256,192,38563,1,0,0:0:0:0:
256,192,38809,1,8,0:0:0:0:
256,192,39055,1,0,0:0:0:0:
256,192,39547,1,0,0:0:0:0:
256,192,40039,1,8,0:0:0:0:
256,192,40530,1,0,0:0:0:0:
256,192,40653,1,0,0:0:0:0:
256,192,41022,1,0,0:0:0:0:
256,192,41514,1,8,0:0:0:0:
256,192,42005,1,0,0:0:0:0:
256,192,42497,1,0,0:0:0:0:
256,192,42743,1,8,0:0:0:0:
256,192,42989,1,0,0:0:0:0:
256,192,43481,1,0,0:0:0:0:
256,192,43973,1,8,0:0:0:0:
256,192,44464,1,0,0:0:0:0:
256,192,44711,1,8,0:0:0:0:
256,192,44956,1,0,0:0:0:0:
256,192,45203,1,0,0:0:0:0:
256,192,45326,1,0,0:0:0:0:
256,192,45448,1,0,0:0:0:0:
256,192,45939,1,8,0:0:0:0:
256,192,46431,1,0,0:0:0:0:
256,192,46677,1,8,0:0:0:0:
256,192,46923,1,0,0:0:0:0:
256,192,47416,1,0,0:0:0:0:
256,192,49383,1,4,0:0:0:0:
256,192,49875,1,8,0:0:0:0:
256,192,50367,1,0,0:0:0:0:
256,192,50859,1,8,0:0:0:0:
256,192,51104,1,0,0:0:0:0:
256,192,51227,1,0,0:0:0:0:
256,192,51350,1,0,0:0:0:0:
256,192,51842,1,8,0:0:0:0:
256,192,52334,1,0,0:0:0:0:
256,192,52703,1,0,0:0:0:0:
256,192,52826,1,8,0:0:0:0:
256,192,53316,1,0,0:0:0:0:
256,192,53808,1,8,0:0:0:0:
256,192,54301,1,0,0:0:0:0:
256,192,54547,1,0,0:0:0:0:
256,192,54792,1,8,0:0:0:0:
256,192,55039,1,0,0:0:0:0:
256,192,55162,1,0,0:0:0:0:
256,192,55285,1,0,0:0:0:0:
256,192,55775,1,8,0:0:0:0:
256,192,56267,1,0,0:0:0:0:
256,192,56759,1,8,0:0:0:0:
256,192,57006,1,0,0:0:0:0:
256,192,57252,1,0,0:0:0:0:
256,192,57744,1,8,0:0:0:0:
256,192,58236,1,0,0:0:0:0:
256,192,58481,1,0,0:0:0:0:
256,192,58604,1,0,0:0:0:0:
256,192,58727,1,0,0:0:0:0:
256,192,59219,1,0,0:0:0:0:
256,192,59711,1,8,0:0:0:0:
256,192,60203,1,0,0:0:0:0:
256,192,60695,1,8,0:0:0:0:
256,192,61185,1,0,0:0:0:0:
256,192,61677,1,8,0:0:0:0:
256,192,62169,1,0,0:0:0:0:
256,192,62416,1,0,0:0:0:0:
256,192,62661,1,8,0:0:0:0:
256,192,62908,1,0,0:0:0:0:
256,192,63031,1,0,0:0:0:0:
256,192,63153,1,0,0:0:0:0:
256,192,63644,1,8,0:0:0:0:
256,192,64136,1,0,0:0:0:0:
256,192,64383,1,0,0:0:0:0:
256,192,64628,1,8,0:0:0:0:
448,96,65121,1,12,0:0:0:0:
448,96,65367,1,8,0:0:0:0:
384,288,65612,1,0,1:0:0:0:
384,288,65735,1,0,1:0:0:0:
384,288,65858,1,0,1:0:0:0:
448,96,66104,1,8,0:0:0:0:
384,288,66596,1,0,1:0:0:0:
384,288,66842,1,0,1:0:0:0:
384,288,66965,1,0,1:0:0:0:
384,288,67088,1,8,1:0:0:0:
384,288,67580,1,0,1:0:0:0:
384,288,67826,1,8,1:0:0:0:
384,288,68071,1,0,1:0:0:0:
384,288,68317,1,0,1:0:0:0:
384,288,68563,1,8,1:0:0:0:
384,288,68809,1,8,1:0:0:0:
384,288,68932,1,8,1:0:0:0:
384,288,69055,1,0,1:0:0:0:
384,288,69547,1,8,1:0:0:0:
384,288,69793,1,0,1:0:0:0:
384,288,70039,1,0,1:0:0:0:
384,288,70285,1,8,1:0:0:0:
384,288,70408,1,8,1:0:0:0:
384,288,70530,1,0,1:0:0:0:
384,288,70776,1,0,1:0:0:0:
384,288,71268,1,0,1:0:0:0:
384,288,71514,1,8,1:0:0:0:
384,288,71760,1,8,1:0:0:0:
384,288,72006,1,0,1:0:0:0:
384,288,72252,1,8,1:0:0:0:
384,288,72498,1,0,1:0:0:0:
448,96,72989,1,8,0:0:0:0:
448,96,73235,1,8,0:0:0:0:
384,288,73480,1,0,1:0:0:0:
384,288,73726,1,0,1:0:0:0:
384,288,73850,1,0,1:0:0:0:
448,96,73972,1,8,0:0:0:0:
384,288,74464,1,0,1:0:0:0:
384,288,74710,1,8,1:0:0:0:
384,288,74833,1,8,1:0:0:0:
384,288,74956,1,8,1:0:0:0:
384,288,75448,1,0,1:0:0:0:
384,288,75694,1,8,1:0:0:0:
384,288,75939,1,0,1:0:0:0:
384,288,76185,1,0,1:0:0:0:
384,288,76431,1,8,1:0:0:0:
384,288,76677,1,8,1:0:0:0:
384,288,76800,1,8,1:0:0:0:
384,288,76923,1,0,1:0:0:0:
384,288,77415,1,8,1:0:0:0:
384,288,77661,1,0,1:0:0:0:
384,288,77907,1,0,1:0:0:0:
384,288,78153,1,8,1:0:0:0:
384,288,78276,1,8,1:0:0:0:
384,288,78398,1,0,1:0:0:0:
384,288,78645,1,0,1:0:0:0:
384,288,79136,1,0,1:0:0:0:
384,288,79382,1,8,1:0:0:0:
384,288,79628,1,8,1:0:0:0:
384,288,80120,1,8,1:0:0:0:
384,288,80612,1,8,1:0:0:0:
256,196,80858,1,12,0:0:0:0:
256,196,81349,1,0,0:0:0:0:
256,196,81841,1,0,0:0:0:0:
256,196,82087,1,8,0:0:0:0:
256,196,82333,1,0,0:0:0:0:
256,196,82579,1,0,0:0:0:0:
256,196,82702,1,0,0:0:0:0:
256,196,82826,1,0,0:0:0:0:
256,196,83071,1,8,0:0:0:0:
256,196,83317,1,8,0:0:0:0:
256,196,83562,1,0,0:0:0:0:
256,196,84054,1,0,0:0:0:0:
256,196,84300,1,8,0:0:0:0:
256,196,84546,1,0,0:0:0:0:
256,196,84669,1,0,0:0:0:0:
256,196,84792,1,0,0:0:0:0:
256,196,85284,1,0,0:0:0:0:
256,196,85776,1,0,0:0:0:0:
256,196,86022,1,8,0:0:0:0:
256,196,86514,1,0,0:0:0:0:
256,196,86637,1,0,0:0:0:0:
256,196,86760,1,0,0:0:0:0:
256,196,87006,1,8,0:0:0:0:
256,196,87252,1,8,0:0:0:0:
256,196,87497,1,0,0:0:0:0:
256,196,87989,1,0,0:0:0:0:
256,196,88235,1,8,0:0:0:0:
256,196,88481,1,8,0:0:0:0:
256,196,88604,1,8,0:0:0:0:
256,196,88727,1,8,0:0:0:0:
256,196,89218,1,0,0:0:0:0:
256,196,89710,1,0,0:0:0:0:
256,196,89956,1,8,0:0:0:0:
256,196,90202,1,0,0:0:0:0:
256,196,90448,1,8,0:0:0:0:
256,196,90571,1,8,0:0:0:0:
256,196,90694,1,8,0:0:0:0:
256,196,90940,1,8,0:0:0:0:
256,196,91431,1,0,0:0:0:0:
256,196,91923,1,0,0:0:0:0:
256,196,92169,1,8,0:0:0:0:
256,196,92415,1,0,0:0:0:0:
256,196,92538,1,0,0:0:0:0:
256,196,92662,1,0,0:0:0:0:
256,196,93153,1,0,0:0:0:0:
256,196,93644,1,0,0:0:0:0:
256,196,93890,1,8,0:0:0:0:
256,196,94136,1,0,0:0:0:0:
256,196,94382,1,8,0:0:0:0:
256,196,94505,1,8,0:0:0:0:
256,196,94628,1,8,0:0:0:0:
256,196,94874,1,0,0:0:0:0:
256,196,95367,1,8,0:0:0:0:
256,196,95857,1,8,0:0:0:0:
256,196,96103,1,8,0:0:0:0:
256,196,96349,1,8,0:0:0:0:
256,196,96596,1,4,0:0:0:0:
256,196,97088,1,0,0:0:0:0:
256,196,97580,1,0,0:0:0:0:
256,196,97826,1,0,0:0:0:0:
256,196,97948,1,0,0:0:0:0:
256,196,98071,1,0,0:0:0:0:
256,196,98317,1,8,0:0:0:0:
256,196,98563,1,0,0:0:0:0:
256,196,99055,1,8,0:0:0:0:
256,196,99547,1,0,0:0:0:0:
256,196,100039,1,8,0:0:0:0:
256,196,100531,1,0,0:0:0:0:
256,192,101022,1,8,0:0:0:0:
256,192,101513,1,0,0:0:0:0:
256,192,101760,1,8,0:0:0:0:
256,192,101883,1,8,0:0:0:0:
256,192,102005,1,8,0:0:0:0:
256,192,102497,1,0,0:0:0:0:
256,192,102743,1,8,0:0:0:0:
256,192,102989,1,0,0:0:0:0:
256,192,103480,1,0,0:0:0:0:
256,192,103727,1,0,0:0:0:0:
256,192,103850,1,0,0:0:0:0:
256,192,103972,1,0,0:0:0:0:
256,192,104465,1,8,0:0:0:0:
256,192,104956,1,0,0:0:0:0:
256,192,105448,1,0,0:0:0:0:
256,192,105694,1,8,0:0:0:0:
256,192,105939,1,0,0:0:0:0:
256,192,106431,1,8,0:0:0:0:
256,192,106924,1,0,0:0:0:0:
256,192,107416,1,8,0:0:0:0:
256,192,107907,1,0,0:0:0:0:
256,192,108398,1,0,0:0:0:0:
256,192,108644,1,8,0:0:0:0:
256,192,108890,1,0,0:0:0:0:
256,192,109382,1,8,0:0:0:0:
256,192,109629,1,0,0:0:0:0:
256,192,109874,1,0,0:0:0:0:
256,192,110366,1,8,0:0:0:0:
256,192,110857,1,0,0:0:0:0:
256,192,111349,1,0,0:0:0:0:
256,192,112334,1,8,0:0:0:0:
256,192,112826,1,8,0:0:0:0:
256,192,113317,1,0,0:0:0:0:
256,192,113809,1,0,0:0:0:0:
256,192,114178,1,0,0:0:0:0:
256,192,114301,1,8,0:0:0:0:
256,192,114793,1,8,0:0:0:0:
256,192,115284,1,0,0:0:0:0:
256,192,115776,1,0,0:0:0:0:
256,192,116145,1,0,0:0:0:0:
256,192,116268,1,8,0:0:0:0:
256,192,116760,1,8,0:0:0:0:
256,192,117251,1,0,0:0:0:0:
256,192,117621,1,0,0:0:0:0:
256,192,117743,1,0,0:0:0:0:
256,192,118235,1,8,0:0:0:0:
256,192,118727,1,8,0:0:0:0:
256,192,119218,1,0,0:0:0:0:
256,192,119465,1,0,0:0:0:0:
256,192,119711,1,0,0:0:0:0:
256,192,119956,1,8,0:0:0:0:
256,192,120079,1,8,0:0:0:0:
256,192,120203,1,8,0:0:0:0:
256,192,120694,1,8,0:0:0:0:
256,192,121185,1,0,0:0:0:0:
256,192,121677,1,0,0:0:0:0:
256,192,121923,1,0,0:0:0:0:
256,192,122169,1,8,0:0:0:0:
256,192,122661,1,8,0:0:0:0:
256,192,123152,1,0,0:0:0:0:
256,192,123399,1,0,0:0:0:0:
256,192,123522,1,0,0:0:0:0:
256,192,123645,1,0,0:0:0:0:
256,192,123891,1,8,0:0:0:0:
256,192,124014,1,8,0:0:0:0:
256,192,124137,1,8,0:0:0:0:
256,192,124629,1,8,0:0:0:0:
256,192,125120,1,0,0:0:0:0:
256,192,125612,1,0,0:0:0:0:
256,192,125858,1,0,0:0:0:0:
256,192,126104,1,8,0:0:0:0:
256,192,126596,1,0,0:0:0:0:
256,192,126842,1,8,0:0:0:0:
256,192,127088,1,0,0:0:0:0:
256,192,127334,1,8,0:0:0:0:
256,192,127580,1,8,0:0:0:0:
256,192,128071,1,8,0:0:0:0:
256,192,135694,5,8,0:0:0:0:
256,192,135817,1,8,0:0:0:0:
256,192,135940,1,8,0:0:0:0:
256,192,136432,1,0,0:0:0:0:
256,192,136555,1,0,0:0:0:0:
256,192,136678,1,0,0:0:0:0:
256,192,136924,1,8,0:0:0:0:
256,192,137416,1,8,0:0:0:0:
256,192,137662,1,8,0:0:0:0:
256,192,137785,1,8,0:0:0:0:
256,192,137908,1,0,0:0:0:0:
512,56,138399,1,8,0:0:0:0:
0,205,138645,1,8,0:0:0:0:
512,292,138891,1,0,0:0:0:0:
0,2,139137,1,0,0:0:0:0:
0,205,139383,1,8,0:0:0:0:
0,2,139629,1,8,0:0:0:0:
0,2,139752,1,8,0:0:0:0:
0,205,139875,1,8,0:0:0:0:
0,205,140367,1,0,0:0:0:0:
0,205,140858,1,8,0:0:0:0:
0,205,141104,1,0,0:0:0:0:
0,205,141350,1,8,0:0:0:0:
0,205,141596,1,0,0:0:0:0:
0,205,141719,1,0,0:0:0:0:
0,205,141842,1,0,0:0:0:0:
0,205,142088,1,8,0:0:0:0:
0,205,142334,1,8,0:0:0:0:
0,205,142580,1,8,0:0:0:0:
0,205,142826,1,0,0:0:0:0:
0,205,143071,1,0,0:0:0:0:
0,205,143317,1,8,0:0:0:0:
256,196,143563,5,0,0:0:0:0:
256,196,143686,1,0,0:0:0:0:
256,196,143809,1,0,0:0:0:0:
256,196,144300,1,0,0:0:0:0:
256,196,144792,1,0,0:0:0:0:
256,196,145038,1,8,0:0:0:0:
256,196,145284,1,0,0:0:0:0:
256,196,145530,1,8,0:0:0:0:
256,196,145653,1,8,0:0:0:0:
256,196,145776,1,8,0:0:0:0:
256,196,146022,1,8,0:0:0:0:
256,196,146268,1,8,0:0:0:0:
256,196,146513,1,0,0:0:0:0:
256,196,147005,1,0,0:0:0:0:
256,196,147251,1,8,0:0:0:0:
256,196,147497,1,0,0:0:0:0:
256,196,147620,1,0,0:0:0:0:
256,196,147743,1,0,0:0:0:0:
256,196,148235,1,0,0:0:0:0:
256,196,148727,1,0,0:0:0:0:
256,196,148973,1,8,0:0:0:0:
256,196,149219,1,0,0:0:0:0:
256,196,149465,1,8,0:0:0:0:
256,196,149588,1,8,0:0:0:0:
256,196,149711,1,8,0:0:0:0:
256,196,149957,1,8,0:0:0:0:
256,196,150448,1,0,0:0:0:0:
256,196,150940,1,0,0:0:0:0:
256,196,151186,1,8,0:0:0:0:
256,196,151432,1,0,0:0:0:0:
256,196,151555,1,0,0:0:0:0:
256,196,151678,1,0,0:0:0:0:
256,196,152169,1,0,0:0:0:0:
256,196,152661,1,0,0:0:0:0:
256,196,152907,1,8,0:0:0:0:
256,196,153153,1,0,0:0:0:0:
256,196,153399,1,8,0:0:0:0:
256,196,153522,1,8,0:0:0:0:
256,196,153645,1,8,0:0:0:0:
256,196,153891,1,8,0:0:0:0:
256,196,154382,1,0,0:0:0:0:
256,196,154874,1,0,0:0:0:0:
256,196,155120,1,8,0:0:0:0:
256,196,155366,1,0,0:0:0:0:
256,196,155489,1,0,0:0:0:0:
256,196,155612,1,0,0:0:0:0:
256,196,156104,1,0,0:0:0:0:
256,196,156595,1,0,0:0:0:0:
256,196,156841,1,8,0:0:0:0:
256,196,157087,1,0,0:0:0:0:
256,196,157333,1,8,0:0:0:0:
256,196,157456,1,8,0:0:0:0:
256,196,157579,1,8,0:0:0:0:
256,196,157825,1,0,0:0:0:0:
256,196,158316,1,8,0:0:0:0:
256,196,158808,1,8,0:0:0:0:
256,196,159054,1,8,0:0:0:0:
256,196,159300,1,8,0:0:0:0:
256,196,159547,1,4,0:0:0:0:
