osu file format v14

[General]
AudioFilename: audio.mp3
AudioLeadIn: 0
PreviewTime: 17419
Countdown: 0
SampleSet: Soft
StackLeniency: 0.7
Mode: 0
LetterboxInBreaks: 0
WidescreenStoryboard: 1

[Editor]
Bookmarks: 2382,7146,21439,40496,59553,64317,78610,97667,116724,154838
DistanceSpacing: 1
BeatDivisor: 4
GridSize: 8
TimelineZoom: 1

[Metadata]
Title:Just the Right Song
TitleUnicode:Just the Right Song
Artist:Vansire
ArtistUnicode:Vansire
Creator:jschlatt stan
Version:tumbling
Source:
Tags:The Modern Western World english indie bedroom pop laid back lo-fi lofi slacker chillwave dream spirit goth synth minnesota gibee games jiebi we vibing karxy Ajitani Hifumi
BeatmapID:3465282
BeatmapSetID:1695998

[Difficulty]
HPDrainRate:5
CircleSize:3.5
OverallDifficulty:7
ApproachRate:8
SliderMultiplier:1.4
SliderTickRate:1

[Events]
//Background and Video events
0,0,"ramjambobg.jpg",0,0
//Break Periods
//Storyboard Layer 0 (Background)
//Storyboard Layer 1 (Fail)
//Storyboard Layer 2 (Pass)
//Storyboard Layer 3 (Foreground)
//Storyboard Layer 4 (Overlay)
//Storyboard Sound Samples

[TimingPoints]
88,595.533498759305,4,2,22,35,1,0
683,-100,4,2,22,40,0,0
1279,-100,4,2,22,45,0,0
1874,-100,4,2,22,50,0,0
2470,595.533498759305,4,2,22,40,1,0
2470,-125,4,2,24,40,0,0
6043,-125,4,2,22,40,0,0
7234,-105.263157894737,4,2,22,45,0,0
21527,-95.2380952380954,4,2,22,55,0,1
28078,-100,4,2,22,55,0,1
29269,-105.263157894737,4,2,22,55,0,1
31055,-95.2380952380954,4,2,22,55,0,1
40584,-95.2380952380954,4,2,22,55,0,1
57259,-95.2380952380954,4,2,24,55,0,1
59343,-95.2380952380954,4,2,23,55,0,1
59641,-125,4,2,24,40,0,0
64405,-105.263157894737,4,2,22,45,0,0
78698,-95.2380952380954,4,2,22,55,0,1
85249,-100,4,2,22,55,0,1
86440,-105.263157894737,4,2,22,55,0,1
88226,-95.2380952380954,4,2,22,55,0,1
97755,-105.263157894737,4,2,24,45,0,0
114430,-105.263157894737,4,2,22,50,0,0
116812,-95.2380952380952,4,2,22,55,0,1
150162,-100,4,2,23,40,0,0
162194,750,4,2,22,35,1,0

[Colours]
Combo1 : 255,255,0
Combo2 : 0,128,255

[HitObjects]
15,330,88,5,2,0:2:0:0:
22,335,385,2,0,L|65:333,1,35
117,287,683,5,2,0:2:0:0:
124,282,981,2,0,L|170:285,1,35
225,347,1279,5,2,0:2:0:0:
232,352,1576,2,0,L|275:350,1,35
358,277,1874,5,2,0:2:0:0:
365,272,2172,2,0,L|410:275,1,35
512,362,2470,6,0,L|505:242,1,112,2|10,0:0|0:2,0:0:0:0:
498,236,3661,2,0,L|503:169,2,56,2|0|10,0:2|0:0|0:2,0:0:0:0:
421,315,4554,6,0,P|369:334|316:320,1,112,2|2,0:2|0:2,0:0:0:0:
262,262,5447,1,8,0:2:0:0:
266,249,6043,5,2,0:2:0:0:
238,144,6192,1,8,0:2:0:0:
238,144,6266,1,8,0:2:0:0:
238,144,6341,2,0,L|284:142,1,42,10|0,0:2|0:0,0:0:0:0:
279,142,6638,5,10,0:2:0:0:
133,209,6787,1,8,0:2:0:0:
150,46,6936,1,10,3:3:0:0:
150,46,7234,6,0,L|223:50,1,66.4999982242585,4|2,1:2|0:2,0:0:0:0:
279,142,7829,2,0,L|212:145,1,66.4999982242585,10|0,0:2|0:0,0:0:0:0:
359,202,8425,2,0,P|383:141|358:79,1,132.999996448517,2|8,1:2|0:2,0:0:0:0:
279,142,9318,1,0,0:0:0:0:
311,285,9616,6,0,L|306:363,1,66.4999982242585,0|2,1:2|0:2,0:0:0:0:
175,245,10212,2,0,L|170:178,1,66.4999982242585,10|2,0:2|0:2,0:0:0:0:
212,25,10807,1,2,1:2:0:0:
250,119,11105,1,2,0:2:0:0:
250,119,11254,1,2,0:2:0:0:
250,119,11403,1,8,0:2:0:0:
69,68,11700,1,2,0:2:0:0:
175,245,11998,6,0,P|235:269|298:246,1,132.999996448517,0|8,1:2|0:2,0:0:0:0:
423,141,12891,1,2,1:2:0:0:
451,228,13189,2,0,L|375:224,1,66.4999982242585,2|2,0:2|0:2,0:0:0:0:
248,173,13785,1,10,0:2:0:0:
339,20,14083,6,0,L|331:168,1,132.999996448517,2|0,0:2|0:0,0:0:0:0:
255,266,14976,2,0,L|259:335,1,66.4999982242585,8|2,0:0|0:2,0:0:0:0:
359,343,15571,1,2,1:2:0:0:
255,266,15869,1,2,0:2:0:0:
358,207,16167,1,10,0:2:0:0:
317,21,16465,6,0,L|169:15,1,132.999996448517,2|0,0:2|0:0,0:0:0:0:
99,101,17358,2,0,L|103:177,1,66.4999982242585,8|2,0:0|0:2,0:0:0:0:
173,237,17954,1,2,1:2:0:0:
154,333,18251,1,2,1:2:0:0:
327,268,18549,1,10,0:2:0:0:
450,83,18847,6,0,L|455:3,1,66.4999982242585,2|0,0:2|1:0,0:0:0:0:
462,96,19442,6,0,L|467:16,1,66.4999982242585,2|8,0:2|0:0,0:0:0:0:
305,150,20038,6,0,L|300:70,1,66.4999982242585,2|0,0:2|1:0,0:0:0:0:
293,163,20633,5,8,3:3:0:0:
245,147,20782,1,8,3:3:0:0:
180,181,20931,1,8,3:3:0:0:
196,159,21080,1,8,3:3:0:0:
183,152,21229,1,8,3:3:0:0:
133,325,21527,6,0,L|208:329,1,73.4999977569581,2|2,1:2|0:2,0:0:0:0:
363,288,22122,1,10,0:2:0:0:
267,114,22420,2,0,L|276:278,1,146.999995513916,2|2,0:2|0:2,0:0:0:0:
363,208,23313,2,0,L|365:166,1,36.749998878479,10|0,0:2|0:0,0:0:0:0:
336,43,23611,6,0,P|266:15|197:43,1,146.999995513916,2|2,0:2|0:2,0:0:0:0:
93,178,24504,1,10,0:2:0:0:
48,93,24802,2,0,L|125:90,1,73.4999977569581,2|0,0:2|1:2,0:0:0:0:
269,191,25398,1,2,0:2:0:0:
176,248,25695,1,10,0:2:0:0:
286,350,25993,6,0,L|279:191,1,146.999995513916,2|2,0:2|0:2,0:0:0:0:
227,50,26887,6,0,L|223:130,1,73.4999977569581,10|2,0:2|0:2,0:0:0:0:
139,120,27482,2,0,L|143:40,1,73.4999977569581,0|0,1:2|0:0,0:0:0:0:
303,120,28078,6,0,L|306:189,1,70,10|0,0:2|0:0,0:0:0:0:
226,193,28673,2,0,L|222:123,1,70,0|0,1:2|0:0,0:0:0:0:
381,191,29269,6,0,L|377:271,1,66.4999982242585,8|0,0:2|0:0,0:0:0:0:
303,256,29864,2,0,L|307:176,1,66.4999982242585,0|2,1:2|0:2,0:0:0:0:
399,58,30460,1,8,0:2:0:0:
313,13,30757,1,2,0:2:0:0:
394,178,31055,6,0,L|469:174,1,73.4999977569581,2|2,1:2|0:2,0:0:0:0:
399,58,31651,1,10,0:2:0:0:
291,190,31949,2,0,P|217:217|151:184,1,146.999995513916,2|2,0:2|0:2,0:0:0:0:
221,76,32842,2,0,L|224:125,1,36.749998878479,10|0,0:2|0:0,0:0:0:0:
157,191,33140,6,0,L|152:343,1,146.999995513916,2|2,0:2|0:2,0:0:0:0:
30,227,34033,1,10,0:2:0:0:
143,104,34331,2,0,L|148:189,1,73.4999977569581,2|0,0:2|1:2,0:0:0:0:
46,79,34926,1,2,0:2:0:0:
155,13,35224,1,10,0:2:0:0:
293,173,35522,6,0,L|445:178,1,146.999995513916,2|2,0:2|0:2,0:0:0:0:
368,55,36415,2,0,L|372:131,1,73.4999977569581,10|0,0:2|0:0,0:0:0:0:
211,79,37011,2,0,L|214:5,1,73.4999977569581,2|0,1:2|0:0,0:0:0:0:
325,137,37606,1,8,0:2:0:0:
193,233,37904,6,0,P|122:257|49:217,1,146.999995513916,2|2,0:2|0:2,0:0:0:0:
91,68,38797,1,10,0:2:0:0:
122,157,39095,1,2,0:2:0:0:
86,54,39393,2,0,L|174:50,1,73.4999977569581,2|2,1:2|0:2,0:0:0:0:
261,107,39988,1,10,0:2:0:0:
297,108,40136,1,8,0:2:0:0:
334,110,40285,1,2,3:3:0:0:
462,73,40584,6,0,L|458:-7,1,73.4999977569581,4|2,1:2|0:2,0:0:0:0:
334,110,41179,2,0,L|330:183,1,73.4999977569581,10|2,0:2|0:2,0:0:0:0:
357,335,41775,1,0,1:2:0:0:
357,335,41924,1,0,0:0:0:0:
357,335,42073,1,0,0:0:0:0:
465,246,42370,2,0,L|370:251,1,73.4999977569581,8|2,0:2|0:2,0:0:0:0:
243,346,42966,6,0,L|148:341,1,73.4999977569581,0|2,1:2|0:2,0:0:0:0:
52,178,43561,1,10,0:2:0:0:
138,235,43859,1,2,0:2:0:0:
52,349,44157,2,0,L|47:254,1,73.4999977569581,2|2,1:2|0:2,0:0:0:0:
141,161,44753,2,0,L|137:234,1,73.4999977569581,10|2,0:2|0:2,0:0:0:0:
11,158,45348,6,0,L|7:85,1,73.4999977569581,0|2,1:2|0:2,0:0:0:0:
91,3,45944,2,0,L|164:7,1,73.4999977569581,10|2,0:2|0:2,0:0:0:0:
255,94,46539,1,0,1:2:0:0:
255,94,46688,1,0,0:0:0:0:
255,94,46837,1,0,0:0:0:0:
366,122,47135,2,0,L|362:49,1,73.4999977569581,8|0,0:2|0:0,0:0:0:0:
230,181,47730,6,0,L|226:254,1,73.4999977569581,0|2,1:2|0:2,0:0:0:0:
346,366,48326,1,10,0:2:0:0:
321,229,48623,1,2,0:2:0:0:
110,365,48921,1,2,1:2:0:0:
135,228,49218,1,2,0:2:0:0:
358,371,49517,1,10,0:2:0:0:
333,234,49815,2,0,L|329:293,1,36.749998878479,2|0,0:2|0:0,0:0:0:0:
417,256,50112,6,0,L|412:163,1,73.4999977569581,0|2,1:2|0:2,0:0:0:0:
298,80,50708,2,0,L|293:173,1,73.4999977569581,10|2,0:2|0:2,0:0:0:0:
193,289,51303,1,0,1:2:0:0:
193,289,51601,1,2,0:2:0:0:
59,188,51899,2,0,L|148:184,1,73.4999977569581,10|2,0:2|0:2,0:0:0:0:
237,274,52494,6,0,L|326:278,1,73.4999977569581,0|2,1:2|0:2,0:0:0:0:
411,204,53090,2,0,L|407:115,1,73.4999977569581,8|2,0:2|0:2,0:0:0:0:
279,47,53686,2,0,L|275:120,1,73.4999977569581,0|2,1:2|0:2,0:0:0:0:
268,144,54132,1,0,0:0:0:0:
268,144,54281,1,10,0:2:0:0:
103,244,54579,1,2,0:2:0:0:
151,89,54877,6,0,L|154:162,1,73.4999977569581,0|2,1:2|0:2,0:0:0:0:
271,306,55472,2,0,L|274:232,1,73.4999977569581,8|0,0:2|0:0,0:0:0:0:
339,78,56068,1,2,1:2:0:0:
374,205,56365,1,0,0:0:0:0:
374,205,56514,1,0,0:0:0:0:
374,205,56663,1,8,0:2:0:0:
191,164,56961,1,0,0:0:0:0:
191,164,57110,1,0,0:0:0:0:
191,164,57259,6,0,L|133:161,2,36.749998878479,0|2|2,1:2|0:2|0:2,0:0:0:0:
256,214,57854,1,2,1:2:0:0:
183,245,58152,1,2,0:2:0:0:
202,83,58450,2,0,L|289:78,1,73.4999977569581,2|2,1:2|0:2,0:0:0:0:
368,185,59045,2,0,L|294:180,1,73.4999977569581,2|2,1:2|3:3,0:0:0:0:
277,199,59492,1,0,3:3:0:0:
277,199,59641,6,0,L|284:328,1,112,2|10,1:2|0:2,0:0:0:0:
293,320,60832,2,0,L|361:324,2,56,2|0|10,0:2|0:0|0:2,0:0:0:0:
183,254,61725,6,0,L|62:261,1,112,2|2,0:2|0:2,0:0:0:0:
4,305,62619,1,8,0:2:0:0:
9,320,63214,1,2,0:2:0:0:
42,151,63512,1,2,0:2:0:0:
42,151,63661,1,0,0:0:0:0:
42,151,63810,1,10,0:2:0:0:
133,196,64107,1,2,0:2:0:0:
293,341,64405,6,0,L|378:337,1,66.4999982242585,2|0,1:2|0:0,0:0:0:0:
471,237,65001,2,0,L|404:233,1,66.4999982242585,10|0,0:2|0:0,0:0:0:0:
276,95,65596,1,2,1:2:0:0:
368,125,65894,1,0,0:0:0:0:
274,248,66192,2,0,L|207:251,1,66.4999982242585,10|0,0:2|0:0,0:0:0:0:
59,212,66787,6,0,L|55:278,1,66.4999982242585,2|0,1:2|0:0,0:0:0:0:
163,155,67383,1,10,0:2:0:0:
107,73,67681,1,2,0:2:0:0:
176,167,67978,1,2,1:2:0:0:
260,31,68276,1,2,0:2:0:0:
260,31,68425,1,0,0:0:0:0:
260,31,68574,1,10,0:2:0:0:
364,55,68872,1,2,0:2:0:0:
465,258,69169,6,0,P|403:283|340:262,1,132.999996448517,0|8,1:2|0:2,0:0:0:0:
245,117,70063,2,0,P|183:92|120:113,1,132.999996448517,2|2,0:2|0:2,0:0:0:0:
74,249,70956,1,10,0:2:0:0:
32,169,71254,6,0,L|38:12,1,132.999996448517,2|0,0:2|0:0,0:0:0:0:
125,109,72147,2,0,L|212:106,1,66.4999982242585,8|2,0:2|0:2,0:0:0:0:
359,59,72743,1,2,1:2:0:0:
283,4,73040,1,2,0:2:0:0:
246,178,73338,1,10,0:2:0:0:
438,250,73636,6,0,L|432:117,1,132.999996448517,2|0,0:2|0:0,0:0:0:0:
346,159,74529,2,0,L|342:235,1,66.4999982242585,8|2,0:2|0:2,0:0:0:0:
223,341,75125,1,2,1:2:0:0:
242,242,75422,1,2,0:2:0:0:
342,225,75720,1,10,0:2:0:0:
205,55,76018,6,0,L|118:51,1,66.4999982242585,2|0,0:2|1:2,0:0:0:0:
216,67,76614,6,0,L|129:63,1,66.4999982242585,2|8,0:2|0:2,0:0:0:0:
242,242,77209,6,0,L|329:238,1,66.4999982242585,2|0,0:2|1:2,0:0:0:0:
231,254,77805,5,2,0:2:0:0:
448,222,78102,1,8,0:2:0:0:
372,173,78400,1,2,0:2:0:0:
274,340,78698,6,0,L|190:343,1,73.4999977569581,2|2,1:2|0:2,0:0:0:0:
32,268,79293,1,10,0:2:0:0:
111,384,79591,2,0,L|118:225,1,146.999995513916,2|2,0:2|0:2,0:0:0:0:
167,130,80485,2,0,L|170:201,1,36.749998878479,10|0,0:2|0:0,0:0:0:0:
98,63,80782,6,0,P|168:35|237:63,1,146.999995513916,2|2,0:2|0:2,0:0:0:0:
341,198,81676,1,10,0:2:0:0:
386,113,81973,2,0,L|309:110,1,73.4999977569581,2|0,0:2|1:2,0:0:0:0:
213,232,82569,1,2,0:2:0:0:
112,174,82867,1,10,0:2:0:0:
144,326,83164,6,0,L|298:321,1,146.999995513916,2|2,0:2|0:2,0:0:0:0:
435,272,84058,6,0,L|340:268,1,73.4999977569581,10|2,0:2|0:2,0:0:0:0:
440,189,84653,2,0,L|345:185,1,73.4999977569581,0|0,1:2|0:0,0:0:0:0:
231,129,85249,6,0,L|304:125,1,70,10|0,0:2|0:0,0:0:0:0:
226,49,85844,2,0,L|299:45,1,70,0|0,1:2|0:0,0:0:0:0:
165,188,86440,6,0,L|95:185,1,66.4999982242585,8|0,0:2|0:0,0:0:0:0:
160,262,87036,2,0,L|90:259,1,66.4999982242585,0|2,1:2|0:2,0:0:0:0:
19,73,87631,1,8,0:2:0:0:
113,95,87929,1,2,0:2:0:0:
277,11,88226,6,0,L|377:7,1,73.4999977569581,2|2,1:2|0:2,0:0:0:0:
494,77,88822,1,10,0:2:0:0:
401,227,89120,2,0,L|409:64,1,146.999995513916,2|2,0:2|0:2,0:0:0:0:
510,164,90013,2,0,L|513:219,1,36.749998878479,10|0,0:2|0:0,0:0:0:0:
435,324,90311,6,0,P|366:351|296:321,1,146.999995513916,2|2,0:2|0:2,0:0:0:0:
181,213,91204,1,10,0:2:0:0:
80,342,91502,2,0,L|166:338,1,73.4999977569581,2|0,0:2|1:2,0:0:0:0:
181,197,92097,1,2,0:2:0:0:
81,238,92395,1,10,0:2:0:0:
138,52,92693,6,0,P|202:20|272:39,1,146.999995513916,2|2,0:2|0:2,0:0:0:0:
374,171,93586,2,0,L|380:71,1,73.4999977569581,10|0,0:2|0:0,0:0:0:0:
239,161,94182,2,0,L|243:234,1,73.4999977569581,2|0,1:2|0:0,0:0:0:0:
155,360,94777,1,8,0:2:0:0:
266,317,95075,1,2,0:2:0:0:
155,207,95373,6,0,P|89:180|23:207,1,146.999995513916,0|0,1:2|0:0,0:0:0:0:
95,100,96266,1,2,0:2:0:0:
95,100,96564,2,0,L|100:16,1,73.4999977569581,0|2,0:0|0:2,0:0:0:0:
156,208,97159,2,0,L|160:281,1,73.4999977569581,2|2,0:2|0:2,0:0:0:0:
226,344,97755,6,0,P|287:365|348:340,1,132.999996448517,2|8,0:2|0:2,0:0:0:0:
331,259,98648,2,0,B|335:206|335:206|324:183|324:183|329:122,1,132.999996448517,2|2,0:2|0:2,0:0:0:0:
389,71,99542,1,8,0:2:0:0:
250,97,99839,6,0,L|87:104,1,132.999996448517,2|0,0:2|0:0,0:0:0:0:
78,178,100733,2,0,L|159:182,1,66.4999982242585,8|0,0:2|0:0,0:0:0:0:
282,229,101328,1,2,0:2:0:0:
198,252,101626,1,2,0:2:0:0:
259,111,101924,1,10,0:2:0:0:
194,268,102221,6,0,P|133:291|72:268,1,132.999996448517,2|0,0:2|0:0,0:0:0:0:
153,131,103115,1,10,0:2:0:0:
153,131,103264,2,0,L|147:214,1,66.4999982242585,2|0,0:2|0:0,0:0:0:0:
137,205,103710,2,0,L|132:138,1,66.4999982242585,2|0,0:2|0:0,0:0:0:0:
246,103,104306,2,0,L|241:169,1,66.4999982242585,8|2,0:2|0:2,0:0:0:0:
353,277,104901,6,0,L|469:270,2,99.7499973363877,2|2|2,0:2|0:2|0:2,0:0:0:0:
261,347,106092,1,0,0:0:0:0:
261,347,106241,2,0,L|164:343,1,66.4999982242585,2|0,0:2|0:0,0:0:0:0:
174,333,106688,2,0,L|77:337,1,66.4999982242585,10|0,0:2|0:0,0:0:0:0:
69,356,107135,1,0,0:0:0:0:
69,356,107284,5,2,0:2:0:0:
103,249,107581,2,0,L|108:164,1,66.4999982242585,0|8,0:0|0:2,0:0:0:0:
96,162,108028,2,0,L|91:77,1,66.4999982242585
97,76,108475,1,0,0:0:0:0:
196,121,108772,1,2,0:2:0:0:
196,121,108921,1,0,0:0:0:0:
196,121,109070,1,8,0:2:0:0:
264,49,109368,6,0,P|325:20|398:48,1,132.999996448517,2|2,0:2|0:2,0:0:0:0:
460,137,110261,1,8,0:2:0:0:
460,137,110410,2,0,L|455:221,1,66.4999982242585
446,220,110857,2,0,L|451:304,1,66.4999982242585,0|2,0:0|0:2,0:0:0:0:
461,306,111303,1,0,0:0:0:0:
461,306,111452,1,8,0:2:0:0:
320,352,111750,6,0,P|256:374|186:337,1,132.999996448517,2|0,0:2|0:0,0:0:0:0:
107,263,112643,1,8,0:2:0:0:
107,263,112792,2,0,L|103:331,1,66.4999982242585
102,351,113239,1,2,0:2:0:0:
213,240,113537,1,2,0:2:0:0:
48,162,113834,1,10,0:2:0:0:
107,263,114132,1,2,0:2:0:0:
129,73,114430,5,0,1:2:0:0:
48,162,114728,1,2,0:2:0:0:
48,162,114877,1,0,1:2:0:0:
48,162,115025,1,2,1:2:0:0:
264,125,115323,1,2,0:2:0:0:
264,125,115472,1,0,1:2:0:0:
264,125,115621,5,0,1:2:0:0:
129,73,115770,1,8,0:2:0:0:
129,73,115844,1,8,0:2:0:0:
129,73,115919,2,0,L|133:125,1,49.8749986681939,10|0,0:2|0:0,0:0:0:0:
134,140,116217,5,10,0:2:0:0:
81,321,116365,1,8,0:2:0:0:
265,277,116514,1,10,3:3:0:0:
265,277,116812,6,0,L|357:273,1,73.4999977569581,6|2,1:2|0:2,0:0:0:0:
417,168,117408,1,10,0:2:0:0:
322,60,117705,2,0,P|286:117|302:192,1,146.999995513916,2|2,0:2|0:2,0:0:0:0:
278,357,118599,2,0,L|207:352,1,36.749998878479,10|0,0:2|0:0,0:0:0:0:
152,278,118896,6,0,L|-12:287,1,146.999995513916,2|2,0:2|0:2,0:0:0:0:
110,197,119790,1,10,0:2:0:0:
16,98,120087,2,0,L|10:199,1,73.4999977569581,2|2,0:2|1:2,0:0:0:0:
168,81,120683,1,2,0:2:0:0:
87,22,120981,1,10,0:2:0:0:
110,197,121279,6,0,L|264:205,1,146.999995513916,2|2,0:2|0:2,0:0:0:0:
406,156,122172,1,10,0:2:0:0:
314,110,122470,1,2,0:2:0:0:
425,164,122767,2,0,L|534:157,1,73.4999977569581,0|0,1:2|0:0,0:0:0:0:
449,269,123363,2,0,L|375:264,1,73.4999977569581,10|0,0:2|0:0,0:0:0:0:
171,247,123958,5,0,1:2:0:0:
295,189,124256,1,2,0:2:0:0:
242,321,124554,1,10,0:2:0:0:
289,205,124852,1,2,0:2:0:0:
254,45,125150,1,2,1:2:0:0:
196,169,125448,1,2,0:2:0:0:
270,39,125746,1,10,0:2:0:0:
358,114,126043,2,0,L|355:56,1,36.749998878479,2|0,0:2|0:0,0:0:0:0:
289,203,126341,6,0,L|281:294,1,73.4999977569581,2|2,1:2|0:2,0:0:0:0:
220,339,126936,1,10,0:2:0:0:
53,264,127234,2,0,L|216:254,1,146.999995513916,2|2,0:2|0:2,0:0:0:0:
282,278,128127,2,0,L|340:284,1,36.749998878479,10|0,0:2|0:0,0:0:0:0:
378,179,128425,6,0,P|326:146|245:170,1,146.999995513916,2|2,0:2|0:2,0:0:0:0:
282,278,129318,1,10,0:2:0:0:
446,318,129616,2,0,L|440:234,1,73.4999977569581,2|0,0:2|1:2,0:0:0:0:
406,90,130212,1,2,0:2:0:0:
378,179,130509,1,10,0:2:0:0:
473,30,130807,6,0,P|408:0|342:25,1,146.999995513916,2|2,0:2|0:2,0:0:0:0:
238,146,131700,2,0,L|232:52,1,73.4999977569581,10|0,0:2|0:0,0:0:0:0:
378,179,132296,2,0,L|373:252,1,73.4999977569581,2|0,1:2|0:0,0:0:0:0:
253,348,132891,1,10,0:2:0:0:
149,239,133189,1,2,0:2:0:0:
29,335,133487,6,0,L|126:329,1,73.4999977569581,0|2,1:2|0:2,0:0:0:0:
166,229,134083,2,0,L|92:224,1,73.4999977569581,8|2,0:2|0:2,0:0:0:0:
29,123,134678,2,0,L|102:118,1,73.4999977569581,2|2,1:2|0:2,0:0:0:0:
149,99,135125,1,2,0:2:0:0:
149,99,135274,2,0,L|213:105,1,36.749998878479,10|2,0:2|0:2,0:0:0:0:
230,126,135571,1,2,0:2:0:0:
322,73,135869,6,0,L|326:-19,1,73.4999977569581,2|2,1:2|0:2,0:0:0:0:
230,126,136465,1,10,0:2:0:0:
358,239,136762,2,0,P|425:263|490:231,1,146.999995513916,2|2,0:2|0:2,0:0:0:0:
424,136,137656,2,0,L|419:192,1,36.749998878479,10|0,0:2|0:0,0:0:0:0:
299,307,137954,6,0,B|242:314|242:314|213:302|213:302|152:310,1,146.999995513916,2|2,0:2|0:2,0:0:0:0:
64,354,138847,1,10,0:2:0:0:
8,227,139145,2,0,L|2:137,1,73.4999977569581,2|2,0:2|1:2,0:0:0:0:
155,92,139740,1,2,0:2:0:0:
120,183,140038,1,10,0:2:0:0:
85,29,140336,6,0,P|148:-4|215:19,1,146.999995513916,2|2,0:2|0:2,0:0:0:0:
255,173,141229,1,10,0:2:0:0:
155,92,141527,1,2,0:2:0:0:
345,129,141824,2,0,L|352:219,1,73.4999977569581,0|0,1:2|0:0,0:0:0:0:
249,246,142420,2,0,L|254:172,1,73.4999977569581,10|0,0:2|0:0,0:0:0:0:
333,316,143016,5,0,1:2:0:0:
125,336,143313,1,2,0:2:0:0:
249,246,143611,1,10,0:2:0:0:
235,384,143909,1,2,0:2:0:0:
251,229,144207,1,2,1:2:0:0:
155,83,144504,1,2,0:2:0:0:
124,209,144802,1,10,0:2:0:0:
349,137,145100,2,0,L|353:77,1,36.749998878479,2|0,0:2|0:0,0:0:0:0:
430,59,145398,6,0,L|438:162,1,73.4999977569581,2|2,1:2|0:2,0:0:0:0:
327,250,145993,1,10,0:2:0:0:
195,144,146291,2,0,P|129:114|63:139,1,146.999995513916,2|2,0:2|0:2,0:0:0:0:
133,239,147184,2,0,L|129:174,1,36.749998878479,10|0,0:2|0:0,0:0:0:0:
54,150,147482,6,0,L|44:324,1,146.999995513916,2|2,0:2|0:2,0:0:0:0:
205,384,148375,1,10,0:2:0:0:
315,239,148673,2,0,L|309:142,1,73.4999977569581,2|0,0:2|1:2,0:0:0:0:
246,29,149269,1,2,0:2:0:0:
354,85,149566,1,10,0:2:0:0:
216,184,149864,6,0,P|150:211|80:183,1,146.999995513916,2|2,0:2|0:2,0:0:0:0:
23,119,150757,2,0,L|31:286,2,140,10|2|8,0:2|0:0|0:0,0:0:0:0:
91,53,152246,1,0,3:3:0:0:
91,53,152395,1,0,3:3:0:0:
91,53,152544,6,0,L|178:60,1,70,2|0,0:0|0:0,0:0:0:0:
237,110,153140,2,0,L|324:103,1,70,8|0,0:0|3:3,0:0:0:0:
383,62,153735,2,0,L|470:69,2,70,0|0|8,0:0|0:0|0:0,0:0:0:0:
309,24,154628,1,0,3:3:0:0:
309,24,154777,1,0,3:3:0:0:
309,24,154926,1,0,0:0:0:0:
