osu file format v14

[General]
AudioFilename: audio.mp3
AudioLeadIn: 0
PreviewTime: 35476
Countdown: 0
SampleSet: Soft
StackLeniency: 0.7
Mode: 0
LetterboxInBreaks: 0
EpilepsyWarning: 1
WidescreenStoryboard: 1

[Editor]
DistanceSpacing: 4.2
BeatDivisor: 8
GridSize: 32
TimelineZoom: 3.699998

[Metadata]
Title:Every Time Around
TitleUnicode:Every Time Around
Artist:Vansire
ArtistUnicode:Vansire
Creator:wafer
Version:together
Source:
Tags:english indie bedroom pop laid back lo-fi lofi slacker After Fillmore County chillwave dream spirit goth synth minnesota track 2 #2 goopert kami no kotoba jasontime jasontime12345
BeatmapID:2660217
BeatmapSetID:1280657

[Difficulty]
HPDrainRate:4
CircleSize:4.6
OverallDifficulty:6
ApproachRate:7.6
SliderMultiplier:1.4
SliderTickRate:1

[Events]
//Background and Video events
0,0,"love.jpg",0,0
//Break Periods
//Storyboard Layer 0 (Background)
Sprite,Background,Centre,"love.jpg",320,240 F,0,0,,0
Sprite,Background,Centre,"SB\blur.jpg",320,240 S,0,17773,,0.5846528 F,0,17773,18584,0,1 F,0,34530,35341,1,0 S,0,173989,,0.5846528 F,0,173989,174259,0,0.4 F,0,174259,191557,0.4
Sprite,Background,Centre,"SB\blurbg.jpg",320,240 F,0,35611,,0 S,0,35611,,0.5846528 F,0,35881,53449,1
Sprite,Background,Centre,"SB\bw.jpg",320,240 S,0,53178,,0.5846528 F,0,53178,53449,0,1 F,0,53449,61827,1 F,0,139665,148043,0.6 F,0,171827,173449,0.6,0 S,0,206692,,0.5846528 F,0,206692,208854,1,0
Sprite,Background,Centre,"SB\bwblur.jpg",320,240 F,0,70476,86692,0.8 S,0,72638,,0.5846528
Sprite,Background,Centre,"love.jpg",320,240 S,0,1151,,0.5846528 F,0,1151,7503,0,0.6 F,0,7503,,0 F,0,9800,9935,0,0.7 F,0,17773,,0 F,0,61422,61827,0,1 F,0,61827,70205,1 F,0,70205,72638,1,0 F,0,165341,165611,0,1 S,0,165611,,0.5846528 F,0,165611,171287,1 F,0,171287,171827,1,0
Sprite,Background,Centre,"SB\black.png",320,240 S,0,86692,,1.2 F,0,86692,87368,1 F,0,105070,139665,1 F,0,139665,,1,0
Sprite,Background,Centre,"SB\blur.jpg",320,240 S,0,100476,,0.5846528 F,0,100476,105070,0,0.8
Sprite,Background,Centre,"SB\bw.jpg",320,240 F,0,87368,87773,0,1 S,0,87503,,0.5846528 F,0,87773,100476,1 S,0,100476,,0.5846528 F,0,100476,105070,1,0 F,0,139395,139665,0,0.6 S,0,139665,,0.5846528
Sprite,Background,Centre,"love.jpg",320,240 F,0,105341,,0,1
Sprite,Background,Centre,"SB\lovedesat.jpg",320,240 S,0,147773,,0.5846528 F,0,147773,148043,0,1 F,0,148043,156962,1
Sprite,Background,Centre,"SB\blurbg.jpg",320,240 S,0,191016,,0.5846528 F,0,191287,191557,0,1 F,0,191557,206692,1 F,0,206692,206962,1,0
Sprite,Background,Centre,"SB\bwblur.jpg",320,240 S,0,156692,,0.5846528 F,0,156692,156962,0,1 F,0,156962,165341,1 F,0,165341,165611,1,0
Sprite,Background,Centre,"sb\ring.png",0,0 C,0,105611,,84,152,235 M,0,105611,105678,158,123,158.5691,142.0232 F,2,105611,106416,1,0 V,2,105611,106416,0.5,0.5,0.1,0.1 P,0,105611,106416,A M,0,105678,105746,158.5691,142.0232,166.1436,159.3877 M,0,105746,105813,166.1436,159.3877,179.6098,172.649 M,0,105813,105881,179.6098,172.649,196.946,180.1832 M,0,105881,105948,196.946,180.1832,215.8934,180.0255 M,0,105948,106016,215.8934,180.0255,233.3748,172.8385
Sprite,Background,Centre,"sb\ring.png",0,0 C,0,106151,,84,152,235 M,0,106151,106218,233,173,247.7456,160.7789 F,2,106151,106821,1,0 V,2,106151,106821,0.5,0.5,0.1,0.1 P,0,106151,106821,A M,0,106218,106286,247.7456,160.7789,265.0306,152.6187 M,0,106286,106353,265.0306,152.6187,283.7573,148.7309 M,0,106353,106421,283.7573,148.7309,302.8305,150.2301
Sprite,Background,Centre,"sb\ring.png",364,196 C,0,106557,,84,152,235 F,2,106557,106957,1,0 V,2,106557,106957,0.5,0.5,0.1,0.1 P,0,106557,106957,A
Sprite,Background,Centre,"sb\ring.png",364,196 C,0,106692,,84,152,235 F,2,106692,107092,1,0 V,2,106692,107092,0.5,0.5,0.1,0.1 P,0,106692,107092,A
Sprite,Background,Centre,"sb\ring.png",0,0 C,0,106962,,255,207,64 M,0,106962,107029,485,135,499.5515,147.4607 F,2,106962,107632,1,0 V,2,106962,107632,0.5,0.5,0.1,0.1 P,0,106962,107632,A M,0,107029,107097,499.5515,147.4607,516.8143,155.6834 M,0,107097,107164,516.8143,155.6834,535.5962,159.1175 M,0,107164,107232,535.5962,159.1175,554.605,157.5381
Sprite,Background,Centre,"sb\ring.png",0,0 C,0,107503,,255,207,64 M,0,107503,107570,428,93,425.0177,73.98618 F,2,107503,108038,1,0 V,2,107503,108038,0.5,0.5,0.1,0.1 P,0,107503,108038,A M,0,107570,107638,425.0177,73.98618,420.9853,55.16842
Sprite,Background,Centre,"sb\ring.png",392,157 C,0,107773,,255,207,64 F,2,107773,108173,1,0 V,2,107773,108173,0.5,0.5,0.1,0.1 P,0,107773,108173,A
Sprite,Background,Centre,"sb\ring.png",392,157 C,0,107908,,255,207,64 F,2,107908,108308,1,0 V,2,107908,108308,0.5,0.5,0.1,0.1 P,0,107908,108308,A
Sprite,Background,Centre,"sb\ring.png",392,157 C,0,108043,,255,207,64 F,2,108043,108443,1,0 V,2,108043,108443,0.5,0.5,0.1,0.1 P,0,108043,108443,A
Sprite,Background,Centre,"sb\ring.png",0,0 C,0,108314,,255,207,64 M,0,108314,108381,483,221,468.0143,232.9557 F,2,108314,108984,1,0 V,2,108314,108984,0.5,0.5,0.1,0.1 P,0,108314,108984,A M,0,108381,108449,468.0143,232.9557,450.7552,241.2301 M,0,108449,108516,450.7552,241.2301,432.1303,245.7048 M,0,108516,108584,432.1303,245.7048,412.9418,245.4988
Sprite,Background,Centre,"sb\ring.png",361,294 C,0,108719,,255,207,64 F,2,108719,109119,1,0 V,2,108719,109119,0.5,0.5,0.1,0.1 P,0,108719,109119,A
Sprite,Background,Centre,"sb\ring.png",0,0 C,0,108854,,255,207,64 M,0,108854,108921,361,294,346.0143,282.0443 F,2,108854,109524,1,0 V,2,108854,109524,0.5,0.5,0.1,0.1 P,0,108854,109524,A M,0,108921,108989,346.0143,282.0443,328.7552,273.7699 M,0,108989,109056,328.7552,273.7699,310.1303,269.2952 M,0,109056,109124,310.1303,269.2952,290.9418,269.5012
Sprite,Background,Centre,"sb\ring.png",0,0 C,0,109395,,250,201,249 M,0,109395,109462,150,206,149.7896,225.0325 F,2,109395,110200,1,0 V,2,109395,110200,0.5,0.5,0.1,0.1 P,0,109395,110200,A M,0,109462,109530,149.7896,225.0325,156.7395,242.6575 M,0,109530,109597,156.7395,242.6575,169.7894,256.3173 M,0,109597,109665,169.7894,256.3173,186.8622,264.5732 M,0,109665,109732,186.8622,264.5732,205.8541,264.8369 M,0,109732,109800,205.8541,264.8369,223.4733,257.9437
Sprite,Background,Centre,"sb\ring.png",0,0 C,0,109935,,250,201,249 M,0,109935,110002,223,258,210.218,272.2464 F,2,109935,110605,1,0 V,2,109935,110605,0.5,0.5,0.1,0.1 P,0,109935,110605,A M,0,110002,110070,210.218,272.2464,201.6359,289.3082 M,0,110070,110137,201.6359,289.3082,197.5485,307.9752 M,0,110137,110205,197.5485,307.9752,199.1358,327.026
Sprite,Background,Centre,"sb\ring.png",258,378 C,0,110341,,250,201,249 F,2,110341,110741,1,0 V,2,110341,110741,0.5,0.5,0.1,0.1 P,0,110341,110741,A
Sprite,Background,Centre,"sb\ring.png",0,0 C,0,110476,,250,201,249 M,0,110476,110543,258,378,276.3752,372.3131 F,2,110476,111146,1,0 V,2,110476,111146,0.5,0.5,0.1,0.1 P,0,110476,111146,A M,0,110543,110611,276.3752,372.3131,295.2108,368.4401 M,0,110611,110678,295.2108,368.4401,314.3235,366.3094 M,0,110678,110746,314.3235,366.3094,333.5557,366.2857
Sprite,Background,Centre,"sb\ring.png",0,0 C,0,110881,,250,201,249 M,0,110881,110948,397,402,415.3753,407.6869 F,2,110881,111551,1,0 V,2,110881,111551,0.5,0.5,0.1,0.1 P,0,110881,111551,A M,0,110948,111016,415.3753,407.6869,434.2108,411.5599 M,0,111016,111083,434.2108,411.5599,453.3235,413.6906 M,0,111083,111151,453.3235,413.6906,472.5557,413.7143
Sprite,Background,Centre,"sb\ring.png",0,0 C,0,111287,,250,201,249 M,0,111287,111354,538,377,547.3511,360.564 F,2,111287,111822,1,0 V,2,111287,111822,0.5,0.5,0.1,0.1 P,0,111287,111822,A M,0,111354,111422,547.3511,360.564,547.6727,341.6424
Sprite,Background,Centre,"sb\ring.png",0,0 C,0,111557,,234,176,91 M,0,111557,111624,493,281,488.4955,262.2906 F,2,111557,112227,1,0 V,2,111557,112227,0.5,0.5,0.1,0.1 P,0,111557,112227,A M,0,111624,111692,488.4955,262.2906,485.1743,243.3378 M,0,111692,111759,485.1743,243.3378,482.9468,224.2234 M,0,111759,111827,482.9468,224.2234,482.0596,204.9982
Sprite,Background,Centre,"sb\ring.png",522,150 C,0,111962,,234,176,91 F,2,111962,112362,1,0 V,2,111962,112362,0.5,0.5,0.1,0.1 P,0,111962,112362,A
Sprite,Background,Centre,"sb\ring.png",522,150 C,0,112097,,234,176,91 F,2,112097,112497,1,0 V,2,112097,112497,0.5,0.5,0.1,0.1 P,0,112097,112497,A
Sprite,Background,Centre,"sb\ring.png",414,158 C,0,112368,,234,176,91 F,2,112368,112768,1,0 V,2,112368,112768,0.5,0.5,0.1,0.1 P,0,112368,112768,A
Sprite,Background,Centre,"sb\ring.png",321,117 C,0,112638,,234,176,91 F,2,112638,113038,1,0 V,2,112638,113038,0.5,0.5,0.1,0.1 P,0,112638,113038,A
Sprite,Background,Centre,"sb\ring.png",429,89 C,0,112908,,234,176,91 F,2,112908,113308,1,0 V,2,112908,113308,0.5,0.5,0.1,0.1 P,0,112908,113308,A
Sprite,Background,Centre,"sb\ring.png",346,183 C,0,113178,,234,176,91 F,2,113178,113578,1,0 V,2,113178,113578,0.5,0.5,0.1,0.1 P,0,113178,113578,A
Sprite,Background,Centre,"sb\ring.png",265,78 C,0,113448,,234,176,91 F,2,113448,113848,1,0 V,2,113448,113848,0.5,0.5,0.1,0.1 P,0,113448,113848,A
Sprite,Background,Centre,"sb\ring.png",0,0 C,0,113719,,172,214,116 M,0,113719,113786,291,229,273.7064,220.5725 F,2,113719,114524,1,0 V,2,113719,114524,0.5,0.5,0.1,0.1 P,0,113719,114524,A M,0,113786,113854,273.7064,220.5725,255.7383,213.7128 M,0,113854,113921,255.7383,213.7128,237.2616,208.3641 M,0,113921,113989,237.2616,208.3641,218.3404,204.8999 M,0,113989,114056,218.3404,204.8999,199.1902,203.1269 M,0,114056,114124,199.1902,203.1269,179.9585,202.9883
Sprite,Background,Centre,"sb\ring.png",0,0 C,0,114259,,172,214,116 M,0,114259,114326,179,202,164.4485,214.4607 F,2,114259,114929,1,0 V,2,114259,114929,0.5,0.5,0.1,0.1 P,0,114259,114929,A M,0,114326,114394,164.4485,214.4607,147.1857,222.6834 M,0,114394,114461,147.1857,222.6834,128.4038,226.1175 M,0,114461,114529,128.4038,226.1175,109.395,224.5381
Sprite,Background,Centre,"sb\ring.png",109,299 C,0,114665,,172,214,116 F,2,114665,115065,1,0 V,2,114665,115065,0.5,0.5,0.1,0.1 P,0,114665,115065,A
Sprite,Background,Centre,"sb\ring.png",0,0 C,0,114800,,172,214,116 M,0,114800,114867,118,307,136.3753,301.313 F,2,114800,115470,1,0 V,2,114800,115470,0.5,0.5,0.1,0.1 P,0,114800,115470,A M,0,114867,114935,136.3753,301.313,155.2108,297.4401 M,0,114935,115002,155.2108,297.4401,174.3235,295.3094 M,0,115002,115070,174.3235,295.3094,193.5557,295.2857
Sprite,Background,Centre,"sb\ring.png",0,0 C,0,115205,,172,214,116 M,0,115205,115272,257,331,275.3752,336.687 F,2,115205,115875,1,0 V,2,115205,115875,0.5,0.5,0.1,0.1 P,0,115205,115875,A M,0,115272,115340,275.3752,336.687,294.2108,340.5599 M,0,115340,115407,294.2108,340.5599,313.3235,342.6906 M,0,115407,115475,313.3235,342.6906,332.5557,342.7143
Sprite,Background,Centre,"sb\ring.png",0,0 C,0,115611,,172,214,116 M,0,115611,115678,398,306,407.192,289.4938 F,2,115611,116281,1,0 V,2,115611,116281,0.5,0.5,0.1,0.1 P,0,115611,116281,A M,0,115678,115746,407.192,289.4938,407.2853,270.7463 M,0,115746,115813,407.2853,270.7463,398.3626,254.3677 M,0,115813,115881,398.3626,254.3677,382.9719,243.4831
Sprite,Background,Centre,"sb\ring.png",0,0 C,0,116151,,172,214,116 M,0,116151,116218,453,143,444.6649,160.1937 F,2,116151,116686,1,0 V,2,116151,116686,0.5,0.5,0.1,0.1 P,0,116151,116686,A M,0,116218,116286,444.6649,160.1937,441.8563,179.0384
Sprite,Background,Centre,"sb\ring.png",485,241 C,0,116422,,172,214,116 F,2,116422,116822,1,0 V,2,116422,116822,0.5,0.5,0.1,0.1 P,0,116422,116822,A
Sprite,Background,Centre,"sb\ring.png",570,193 C,0,116692,,228,90,90 F,2,116692,117092,1,0 V,2,116692,117092,0.5,0.5,0.1,0.1 P,0,116692,117092,A
Sprite,Background,Centre,"sb\ring.png",533,112 C,0,116962,,228,90,90 F,2,116962,117362,1,0 V,2,116962,117362,0.5,0.5,0.1,0.1 P,0,116962,117362,A
Sprite,Background,Centre,"sb\ring.png",453,143 C,0,117232,,228,90,90 F,2,117232,117632,1,0 V,2,117232,117632,0.5,0.5,0.1,0.1 P,0,117232,117632,A
Sprite,Background,Centre,"sb\ring.png",389,110 C,0,117503,,228,90,90 F,2,117503,117903,1,0 V,2,117503,117903,0.5,0.5,0.1,0.1 P,0,117503,117903,A
Sprite,Background,Centre,"sb\ring.png",0,0 C,0,118043,,84,152,235 M,0,118043,118110,389,110,370.4515,105.0636 F,2,118043,118983,1,0 V,2,118043,118983,0.5,0.5,0.1,0.1 P,0,118043,118983,A M,0,118110,118178,370.4515,105.0636,351.2669,105.1793 M,0,118178,118245,351.2669,105.1793,333.0711,111.1417 M,0,118245,118313,333.0711,111.1417,318.3062,123.3402 M,0,118313,118380,318.3062,123.3402,304.796,137.0125 M,0,118380,118448,304.796,137.0125,287.8604,145.9354 M,0,118448,118515,287.8604,145.9354,268.9087,148.8757 M,0,118515,118583,268.9087,148.8757,249.8413,146.6395
Sprite,Background,Centre,"sb\ring.png",199,92 C,0,118854,,84,152,235 F,2,118854,119254,1,0 V,2,118854,119254,0.5,0.5,0.1,0.1 P,0,118854,119254,A
Sprite,Background,Centre,"sb\ring.png",107,174 C,0,119124,,255,207,64 F,2,119124,119524,1,0 V,2,119124,119524,0.5,0.5,0.1,0.1 P,0,119124,119524,A
Sprite,Background,Centre,"sb\ring.png",210,357 C,0,119530,,255,207,64 F,2,119530,119930,1,0 V,2,119530,119930,0.5,0.5,0.1,0.1 P,0,119530,119930,A
Sprite,Background,Centre,"sb\ring.png",305,248 C,0,119935,,255,207,64 F,2,119935,120335,1,0 V,2,119935,120335,0.5,0.5,0.1,0.1 P,0,119935,120335,A
Sprite,Background,Centre,"sb\ring.png",0,0 C,0,120205,,250,201,249 M,0,120205,120272,319,322,301.5158,321.256 F,2,120205,121145,1,0 V,2,120205,121145,0.5,0.5,0.1,0.1 P,0,120205,121145,A M,0,120272,120340,301.5158,321.256,284.0316,320.512 M,0,120340,120407,284.0316,320.512,268.0146,316.2717 M,0,120407,120475,268.0146,316.2717,255.2348,304.3164 M,0,120475,120542,255.2348,304.3164,242.4551,292.3612 M,0,120542,120610,242.4551,292.3612,225.5132,290.199 M,0,120610,120677,225.5132,290.199,208.0366,289.295 M,0,120677,120745,208.0366,289.295,190.5599,288.3911
Sprite,Background,Centre,"sb\pixel.png",0,0 C,0,135341,,84,152,235 M,0,135341,135408,139,163,157.3568,168.3635 F,2,135341,135676,1,0 V,2,135341,135676,5,700,1,140 P,0,135341,135676,A M,0,135408,135476,157.3568,168.3635,173.4284,178.7452
Sprite,Background,Centre,"sb\pixel.png",0,0 C,0,135611,,84,152,235 M,0,135611,135678,173,178,154.6432,183.3635 F,2,135611,135946,1,0 V,2,135611,135946,5,700,1,140 P,0,135611,135946,A M,0,135678,135746,154.6432,183.3635,138.5716,193.7452
Sprite,Background,Centre,"sb\pixel.png",0,0 C,0,135881,,255,207,64 M,0,135881,135948,64,263,82.35682,257.6365 F,2,135881,136216,1,0 V,2,135881,136216,5,700,1,140 P,0,135881,136216,A M,0,135948,136016,82.35682,257.6365,98.42839,247.2548
Sprite,Background,Centre,"sb\pixel.png",0,0 C,0,136151,,255,207,64 M,0,136151,136218,98,248,79.64318,242.6365 F,2,136151,136486,1,0 V,2,136151,136486,5,700,1,140 P,0,136151,136486,A M,0,136218,136286,79.64318,242.6365,63.57161,232.2548
Sprite,Background,Centre,"sb\pixel.png",168,258 C,0,136422,,250,201,249 F,2,136422,136622,1,0 V,2,136422,136622,5,700,1,140 P,0,136422,136622,A
Sprite,Background,Centre,"sb\pixel.png",178,266 C,0,136557,,250,201,249 F,2,136557,136757,1,0 V,2,136557,136757,5,700,1,140 P,0,136557,136757,A
Sprite,Background,Centre,"sb\pixel.png",183,248 C,0,136692,,250,201,249 F,2,136692,136892,1,0 V,2,136692,136892,5,700,1,140 P,0,136692,136892,A
Sprite,Background,Centre,"sb\pixel.png",199,256 C,0,136827,,250,201,249 F,2,136827,137027,1,0 V,2,136827,137027,5,700,1,140 P,0,136827,137027,A
Sprite,Background,Centre,"sb\pixel.png",219,276 C,0,136962,,234,176,91 F,2,136962,137162,1,0 V,2,136962,137162,5,700,1,140 P,0,136962,137162,A
Sprite,Background,Centre,"sb\pixel.png",232,266 C,0,137097,,234,176,91 F,2,137097,137297,1,0 V,2,137097,137297,5,700,1,140 P,0,137097,137297,A
Sprite,Background,Centre,"sb\pixel.png",238,289 C,0,137232,,234,176,91 F,2,137232,137432,1,0 V,2,137232,137432,5,700,1,140 P,0,137232,137432,A
Sprite,Background,Centre,"sb\pixel.png",259,279 C,0,137367,,234,176,91 F,2,137367,137567,1,0 V,2,137367,137567,5,700,1,140 P,0,137367,137567,A
Sprite,Background,Centre,"sb\pixel.png",305,246 C,0,137503,,172,214,116 F,2,137503,137703,1,0 V,2,137503,137703,5,700,1,140 P,0,137503,137703,A
Sprite,Background,Centre,"sb\hl.png",0,0 C,0,143989,,255,207,64 M,0,143989,144056,356,216,359.8638,208.1642 F,2,143989,144459,1,0 V,2,143989,144459,0.2,0.2,0.04,0.04 P,0,143989,144459,A M,0,144056,144124,359.8638,208.1642,362.5816,199.8663 M,0,144124,144191,362.5816,199.8663,364.1003,191.2726 M,0,144191,144259,364.1003,191.2726,364.3907,182.5552
Sprite,Background,Centre,"sb\hl.png",0,0 C,0,144530,,255,207,64 M,0,144530,144597,293,249,290.0772,240.7646 F,2,144530,145000,1,0 V,2,144530,145000,0.2,0.2,0.04,0.04 P,0,144530,145000,A M,0,144597,144665,290.0772,240.7646,286.0547,233.011 M,0,144665,144732,286.0547,233.011,281.0093,225.885 M,0,144732,144800,281.0093,225.885,275.037,219.5205
Sprite,Background,Centre,"sb\hl.png",0,0 C,0,145070,,255,207,64 M,0,145070,145137,232,284,224.4343,279.6354 F,2,145070,145810,1,0 V,2,145070,145810,0.2,0.2,0.04,0.04 P,0,145070,145810,A M,0,145137,145205,224.4343,279.6354,216.2557,276.5829 M,0,145205,145272,216.2557,276.5829,207.6896,274.925 M,0,145272,145340,207.6896,274.925,198.9718,274.7058 M,0,145340,145407,198.9718,274.7058,207.6896,274.925 M,0,145407,145475,207.6896,274.925,216.2557,276.5829 M,0,145475,145542,216.2557,276.5829,224.4343,279.6354 M,0,145542,145610,224.4343,279.6354,232,284
Sprite,Background,Centre,"sb\hl.png",0,0 C,0,145881,,250,201,249 M,0,145881,145948,256,351,247.27,351.4827 F,2,145881,146891,1,0 V,2,145881,146891,0.2,0.2,0.04,0.04 P,0,145881,146891,A M,0,145948,146016,247.27,351.4827,238.614,352.6926 M,0,146016,146083,238.614,352.6926,230.0923,354.6207 M,0,146083,146151,230.0923,354.6207,221.764,357.2533 M,0,146151,146218,221.764,357.2533,213.6871,360.5715 M,0,146218,146286,213.6871,360.5715,205.9176,364.552 M,0,146286,146353,205.9176,364.552,198.5095,369.1668 M,0,146353,146421,198.5095,369.1668,191.5142,374.3834 M,0,146421,146489,191.5142,374.3834,184.9803,380.1655 M,0,146489,146556,184.9803,380.1655,178.9532,386.4725 M,0,146556,146624,178.9532,386.4725,173.4747,393.2604 M,0,146624,146691,173.4747,393.2604,168.5829,400.4819
Sprite,Background,Centre,"sb\hl.png",166,401 C,0,146962,,250,201,249 F,2,146962,147162,1,0 V,2,146962,147162,0.2,0.2,0.04,0.04 P,0,146962,147162,A
Sprite,Background,Centre,"sb\hl.png",0,0 C,0,147232,,250,201,249 M,0,147232,147299,103,374,98.63541,381.5657 F,2,147232,147972,1,0 V,2,147232,147972,0.2,0.2,0.04,0.04 P,0,147232,147972,A M,0,147299,147367,98.63541,381.5657,95.58289,389.7443 M,0,147367,147434,95.58289,389.7443,93.92496,398.3104 M,0,147434,147502,93.92496,398.3104,93.70578,407.0283 M,0,147502,147569,93.70578,407.0283,93.92496,398.3104 M,0,147569,147637,93.92496,398.3104,95.58289,389.7443 M,0,147637,147704,95.58289,389.7443,98.63541,381.5657 M,0,147704,147772,98.63541,381.5657,103,374
Sprite,Background,Centre,"sb\pixel.png",0,0 C,0,122368,,234,176,91 M,0,122368,122435,374,161,355.2864,165.5114 F,2,122368,122973,1,0 V,2,122368,122973,1500,5,300,1 P,0,122368,122973,A M,0,122435,122503,355.2864,165.5114,336.5149,169.7753 M,0,122503,122570,336.5149,169.7753,317.6888,173.7908 M,0,122570,122638,317.6888,173.7908,298.8159,177.5812 M,0,122638,122705,298.8159,177.5812,279.8878,181.0854 M,0,122705,122773,279.8878,181.0854,260.9174,184.3527
Sprite,Background,Centre,"sb\pixel.png",0,0 C,0,122908,,234,176,91 M,0,122908,122975,261,185,242.301,181.9819 F,2,122908,123378,1,0 V,2,122908,123378,1500,5,300,1 P,0,122908,123378,A M,0,122975,123043,242.301,181.9819,226.8962,171.1723 M,0,123043,123110,226.8962,171.1723,217.082,154.983 M,0,123110,123178,217.082,154.983,216.5839,136.0651
Sprite,Background,Centre,"sb\pixel.png",283,117 C,0,123314,,234,176,91 F,2,123314,123514,1,0 V,2,123314,123514,1500,5,300,1 P,0,123314,123514,A
Sprite,Background,Centre,"sb\pixel.png",0,0 C,0,123449,,234,176,91 M,0,123449,123516,283,117,293.8001,132.7847 F,2,123449,124054,1,0 V,2,123449,124054,1500,5,300,1 P,0,123449,124054,A M,0,123516,123584,293.8001,132.7847,299.5743,150.9651 M,0,123584,123651,299.5743,150.9651,299.8575,170.0073 M,0,123651,123719,299.8575,170.0073,295.0303,188.4728 M,0,123719,123786,295.0303,188.4728,284.4644,204.3877 M,0,123786,123854,284.4644,204.3877,269.79,216.5515
Sprite,Background,Centre,"sb\pixel.png",0,0 C,0,123989,,234,176,91 M,0,123989,124056,213,257,200.354,271.3029 F,2,123989,124459,1,0 V,2,123989,124459,1500,5,300,1 P,0,123989,124459,A M,0,124056,124124,200.354,271.3029,193.0636,288.8781 M,0,124124,124191,193.0636,288.8781,191.8827,307.8287 M,0,124191,124259,191.8827,307.8287,196.4136,326.3467
Sprite,Background,Centre,"sb\pixel.png",239,381 C,0,124395,,234,176,91 F,2,124395,124595,1,0 V,2,124395,124595,1500,5,300,1 P,0,124395,124595,A
Sprite,Background,Centre,"sb\pixel.png",0,0 C,0,124530,,172,214,116 M,0,124530,124597,239,381,258.0887,378.6318 F,2,124530,125000,1,0 V,2,124530,125000,1500,5,300,1 P,0,124530,125000,A M,0,124597,124665,258.0887,378.6318,276.8491,374.4108 M,0,124665,124732,276.8491,374.4108,295.1453,368.4863 M,0,124732,124800,295.1453,368.4863,312.719,360.6578
Sprite,Background,Centre,"sb\pixel.png",401,418 C,0,125070,,172,214,116 F,2,125070,125270,1,0 V,2,125070,125270,1500,5,300,1 P,0,125070,125270,A
Sprite,Background,Centre,"sb\pixel.png",409,409 C,0,125205,,172,214,116 F,2,125205,125405,1,0 V,2,125205,125405,1500,5,300,1 P,0,125205,125405,A
Sprite,Background,Centre,"sb\pixel.png",0,0 C,0,125341,,172,214,116 M,0,125341,125408,426,406,436.2577,422.0155 F,2,125341,125676,1,0 V,2,125341,125676,1500,5,300,1 P,0,125341,125676,A M,0,125408,125476,436.2577,422.0155,438.9664,440.7511
Sprite,Background,Centre,"sb\pixel.png",383,344 C,0,125611,,228,90,90 F,2,125611,125811,1,0 V,2,125611,125811,1500,5,300,1 P,0,125611,125811,A
Sprite,Background,Centre,"sb\pixel.png",364,278 C,0,125881,,228,90,90 F,2,125881,126081,1,0 V,2,125881,126081,1500,5,300,1 P,0,125881,126081,A
Sprite,Background,Centre,"sb\pixel.png",450,189 C,0,126151,,84,152,235 F,2,126151,126351,1,0 V,2,126151,126351,1500,5,300,1 P,0,126151,126351,A
Sprite,Background,Centre,"sb\pixel.png",532,224 C,0,126422,,84,152,235 F,2,126422,126622,1,0 V,2,126422,126622,1500,5,300,1 P,0,126422,126622,A
Sprite,Background,Centre,"sb\pixel.png",542,253 C,0,126557,,84,152,235 F,2,126557,126757,1,0 V,2,126557,126757,1500,5,300,1 P,0,126557,126757,A
Sprite,Background,Centre,"sb\pixel.png",0,0 C,0,126692,,255,207,64 M,0,126692,126759,533,282,515.4918,289.1019 F,2,126692,127162,1,0 V,2,126692,127162,1500,5,300,1 P,0,126692,127162,A M,0,126759,126827,515.4918,289.1019,496.869,286.9321 M,0,126827,126894,496.869,286.9321,481.6654,276.1238 M,0,126894,126962,481.6654,276.1238,472.7045,259.5585
Sprite,Background,Centre,"sb\pixel.png",0,0 C,0,127232,,255,207,64 M,0,127232,127299,417,133,414.6098,152.097 F,2,127232,127837,1,0 V,2,127232,127837,1500,5,300,1 P,0,127232,127837,A M,0,127299,127367,414.6098,152.097,411.2034,171.0373 M,0,127367,127434,411.2034,171.0373,406.7905,189.7677 M,0,127434,127502,406.7905,189.7677,401.4797,208.266 M,0,127502,127569,401.4797,208.266,395.0443,226.4041 M,0,127569,127637,395.0443,226.4041,387.6978,244.1931
Sprite,Background,Centre,"sb\pixel.png",0,0 C,0,127773,,255,207,64 M,0,127773,127840,388,245,369.5259,240.708 F,2,127773,128243,1,0 V,2,127773,128243,1500,5,300,1 P,0,127773,128243,A M,0,127840,127908,369.5259,240.708,354.6127,229.1693 M,0,127908,127975,354.6127,229.1693,345.3317,212.6792 M,0,127975,128043,345.3317,212.6792,344.8938,193.7561
Sprite,Background,Centre,"sb\pixel.png",288,144 C,0,128178,,255,207,64 F,2,128178,128378,1,0 V,2,128178,128378,1500,5,300,1 P,0,128178,128378,A
Sprite,Background,Centre,"sb\pixel.png",0,0 C,0,128314,,255,207,64 M,0,128314,128381,288,144,276.1042,158.9759 F,2,128314,128784,1,0 V,2,128314,128784,1500,5,300,1 P,0,128314,128784,A M,0,128381,128449,276.1042,158.9759,260.3126,169.6769 M,0,128449,128516,260.3126,169.6769,242.0768,175.1482 M,0,128516,128584,242.0768,175.1482,223.0635,174.9071
Sprite,Background,Centre,"sb\pixel.png",168,220 C,0,128719,,255,207,64 F,2,128719,128919,1,0 V,2,128719,128919,1500,5,300,1 P,0,128719,128919,A
Sprite,Background,Centre,"sb\pixel.png",0,0 C,0,128854,,255,207,64 M,0,128854,128921,168,220,157.8686,203.8703 F,2,128854,129324,1,0 V,2,128854,129324,1500,5,300,1 P,0,128854,129324,A M,0,128921,128989,157.8686,203.8703,142.4589,192.8125 M,0,128989,129056,142.4589,192.8125,124.0705,188.4162 M,0,129056,129124,124.0705,188.4162,105.4236,191.2967
Sprite,Background,Centre,"sb\pixel.png",0,0 C,0,129395,,255,207,64 M,0,129395,129462,214,312,221.15,294.1277 F,2,129395,129730,1,0 V,2,129395,129730,1500,5,300,1 P,0,129395,129730,A M,0,129462,129530,221.15,294.1277,228.6993,276.4203
Sprite,Background,Centre,"sb\pixel.png",287,239 C,0,129665,,255,207,64 F,2,129665,129865,1,0 V,2,129665,129865,1500,5,300,1 P,0,129665,129865,A
Sprite,Background,Centre,"sb\pixel.png",287,239 C,0,129800,,255,207,64 F,2,129800,130000,1,0 V,2,129800,130000,1500,5,300,1 P,0,129800,130000,A
Sprite,Background,Centre,"sb\pixel.png",287,239 C,0,129935,,250,201,249 F,2,129935,130135,1,0 V,2,129935,130135,1500,5,300,1 P,0,129935,130135,A
Sprite,Background,Centre,"sb\pixel.png",374,298 C,0,130205,,250,201,249 F,2,130205,130405,1,0 V,2,130205,130405,1500,5,300,1 P,0,130205,130405,A
Sprite,Background,Centre,"sb\pixel.png",270,357 C,0,130476,,234,176,91 F,2,130476,130676,1,0 V,2,130476,130676,1500,5,300,1 P,0,130476,130676,A
Sprite,Background,Centre,"sb\pixel.png",449,308 C,0,130746,,234,176,91 F,2,130746,130946,1,0 V,2,130746,130946,1500,5,300,1 P,0,130746,130946,A
Sprite,Background,Centre,"sb\pixel.png",449,308 C,0,130881,,234,176,91 F,2,130881,131081,1,0 V,2,130881,131081,1500,5,300,1 P,0,130881,131081,A
Sprite,Background,Centre,"sb\pixel.png",0,0 C,0,131016,,234,176,91 M,0,131016,131083,449,308,459.7625,292.2792 F,2,131016,131756,1,0 V,2,131016,131756,1500,5,300,1 P,0,131016,131756,A M,0,131083,131151,459.7625,292.2792,464.3075,273.8561 M,0,131151,131218,464.3075,273.8561,462.56,254.9201 M,0,131218,131286,462.56,254.9201,453.4536,238.2191 M,0,131286,131353,453.4536,238.2191,439.1124,225.8163 M,0,131353,131421,439.1124,225.8163,421.4344,218.9296 M,0,131421,131488,421.4344,218.9296,402.4444,219.4606 M,0,131488,131556,402.4444,219.4606,384.8927,226.6057
Sprite,Background,Centre,"sb\pixel.png",0,0 C,0,131827,,234,176,91 M,0,131827,131894,383,333,388.1902,351.5262 F,2,131827,132162,1,0 V,2,131827,132162,1500,5,300,1 P,0,131827,132162,A M,0,131894,131962,388.1902,351.5262,391.7853,370.4224
Sprite,Background,Centre,"sb\pixel.png",0,0 C,0,132097,,234,176,91 M,0,132097,132164,479,440,481.4175,420.9066 F,2,132097,132567,1,0 V,2,132097,132567,1500,5,300,1 P,0,132097,132567,A M,0,132164,132232,481.4175,420.9066,484.8711,401.9748 M,0,132232,132299,484.8711,401.9748,489.3505,383.2603 M,0,132299,132367,489.3505,383.2603,494.7506,364.7881
Sprite,Background,Centre,"sb\pixel.png",549,321 C,0,132503,,234,176,91 F,2,132503,132703,1,0 V,2,132503,132703,1500,5,300,1 P,0,132503,132703,A
Sprite,Background,Centre,"sb\pixel.png",0,0 C,0,132638,,234,176,91 M,0,132638,132705,555,314,549.6311,295.5175 F,2,132638,132973,1,0 V,2,132638,132973,1500,5,300,1 P,0,132638,132973,A M,0,132705,132773,549.6311,295.5175,545.2579,276.7758
Sprite,Background,Centre,"sb\pixel.png",0,0 C,0,132908,,172,214,116 M,0,132908,132975,489,229,494.5009,210.5548 F,2,132908,133378,1,0 V,2,132908,133378,1500,5,300,1 P,0,132908,133378,A M,0,132975,133043,494.5009,210.5548,499.3261,191.9222 M,0,133043,133110,499.3261,191.9222,503.4694,173.1267 M,0,133110,133178,503.4694,173.1267,506.9495,154.1971
Sprite,Background,Centre,"sb\pixel.png",456,69 C,0,133449,,172,214,116 F,2,133449,133649,1,0 V,2,133449,133649,1500,5,300,1 P,0,133449,133649,A
Sprite,Background,Centre,"sb\pixel.png",0,0 C,0,133719,,172,214,116 M,0,133719,133786,390,150,397.8394,132.4382 F,2,133719,134054,1,0 V,2,133719,134054,1500,5,300,1 P,0,133719,134054,A M,0,133786,133854,397.8394,132.4382,403,114
Sprite,Background,Centre,"sb\pixel.png",456,69 C,0,133989,,172,214,116 F,2,133989,134189,1,0 V,2,133989,134189,1500,5,300,1 P,0,133989,134189,A
Sprite,Background,Centre,"sb\pixel.png",0,0 C,0,134259,,228,90,90 M,0,134259,134326,349,63,330.1894,66.22241 F,2,134259,134729,1,0 V,2,134259,134729,1500,5,300,1 P,0,134259,134729,A M,0,134326,134394,330.1894,66.22241,313.722,75.73907 M,0,134394,134461,313.722,75.73907,301.6144,90.34193 M,0,134461,134529,301.6144,90.34193,295.3429,108.2077
Sprite,Background,Centre,"sb\pixel.png",256,166 C,0,134665,,228,90,90 F,2,134665,134865,1,0 V,2,134665,134865,1500,5,300,1 P,0,134665,134865,A
Sprite,Background,Centre,"sb\pixel.png",0,0 C,0,134800,,228,90,90 M,0,134800,134867,256,166,257.2133,147.1739 F,2,134800,135270,1,0 V,2,134800,135270,1500,5,300,1 P,0,134800,135270,A M,0,134867,134935,257.2133,147.1739,249.3475,130.1867 M,0,134935,135002,249.3475,130.1867,234.601,118.6 M,0,135002,135070,234.601,118.6,215.9255,116.606
Sprite,Background,Centre,"sb\pixel.png",0,0 C,0,135341,,84,152,235 M,0,135341,135408,139,163,157.3568,168.3635 F,2,135341,135676,1,0 V,2,135341,135676,1500,5,300,1 P,0,135341,135676,A M,0,135408,135476,157.3568,168.3635,173.4284,178.7452
Sprite,Background,Centre,"sb\pixel.png",0,0 C,0,135611,,84,152,235 M,0,135611,135678,173,178,154.6432,183.3635 F,2,135611,135946,1,0 V,2,135611,135946,1500,5,300,1 P,0,135611,135946,A M,0,135678,135746,154.6432,183.3635,138.5716,193.7452
Sprite,Background,Centre,"sb\pixel.png",0,0 C,0,135881,,255,207,64 M,0,135881,135948,64,263,82.35682,257.6365 F,2,135881,136216,1,0 V,2,135881,136216,1500,5,300,1 P,0,135881,136216,A M,0,135948,136016,82.35682,257.6365,98.42839,247.2548
Sprite,Background,Centre,"sb\pixel.png",0,0 C,0,136151,,255,207,64 M,0,136151,136218,98,248,79.64318,242.6365 F,2,136151,136486,1,0 V,2,136151,136486,1500,5,300,1 P,0,136151,136486,A M,0,136218,136286,79.64318,242.6365,63.57161,232.2548
Sprite,Background,Centre,"sb\pixel.png",168,258 C,0,136422,,250,201,249 F,2,136422,136622,1,0 V,2,136422,136622,1500,5,300,1 P,0,136422,136622,A
Sprite,Background,Centre,"sb\pixel.png",178,266 C,0,136557,,250,201,249 F,2,136557,136757,1,0 V,2,136557,136757,1500,5,300,1 P,0,136557,136757,A
Sprite,Background,Centre,"sb\pixel.png",183,248 C,0,136692,,250,201,249 F,2,136692,136892,1,0 V,2,136692,136892,1500,5,300,1 P,0,136692,136892,A
Sprite,Background,Centre,"sb\pixel.png",199,256 C,0,136827,,250,201,249 F,2,136827,137027,1,0 V,2,136827,137027,1500,5,300,1 P,0,136827,137027,A
Sprite,Background,Centre,"sb\pixel.png",219,276 C,0,136962,,234,176,91 F,2,136962,137162,1,0 V,2,136962,137162,1500,5,300,1 P,0,136962,137162,A
Sprite,Background,Centre,"sb\pixel.png",232,266 C,0,137097,,234,176,91 F,2,137097,137297,1,0 V,2,137097,137297,1500,5,300,1 P,0,137097,137297,A
Sprite,Background,Centre,"sb\pixel.png",238,289 C,0,137232,,234,176,91 F,2,137232,137432,1,0 V,2,137232,137432,1500,5,300,1 P,0,137232,137432,A
Sprite,Background,Centre,"sb\pixel.png",259,279 C,0,137367,,234,176,91 F,2,137367,137567,1,0 V,2,137367,137567,1500,5,300,1 P,0,137367,137567,A
Sprite,Background,Centre,"sb\pixel.png",305,246 C,0,137503,,172,214,116 F,2,137503,137703,1,0 V,2,137503,137703,1500,5,300,1 P,0,137503,137703,A
Sprite,Background,Centre,"sb\hl.png",0,0 C,0,208854,,234,176,91 M,0,208854,208921,499,233,482.6816,239.3101 F,2,208854,209224,1,0 V,2,208854,209224,0.2,0.2,0.04,0.04 P,0,208854,209224,A M,0,208921,208989,482.6816,239.3101,465.9596,244.4542 M,0,208989,209056,465.9596,244.4542,448.9171,248.4067 M,0,209056,209124,448.9171,248.4067,431.6404,251.1646
Sprite,Background,Centre,"sb\hl.png",0,0 C,0,209395,,172,214,116 M,0,209395,209462,431,323,417.9394,317.9748 F,2,209395,209765,1,0 V,2,209395,209765,0.2,0.2,0.04,0.04 P,0,209395,209765,A M,0,209462,209530,417.9394,317.9748,404.6776,313.5113 M,0,209530,209597,404.6776,313.5113,391.1465,309.9455 M,0,209597,209665,391.1465,309.9455,377.4631,307.032
Sprite,Background,Centre,"sb\hl.png",0,0 C,0,209935,,228,90,90 M,0,209935,210002,338,251,328.1745,254.6886 F,2,209935,210305,1,0 V,2,209935,210305,0.2,0.2,0.04,0.04 P,0,209935,210305,A M,0,210002,210070,328.1745,254.6886,318.1517,257.7924 M,0,210070,210137,318.1517,257.7924,307.9658,260.3009 M,0,210137,210205,307.9658,260.3009,297.6518,262.2057
Sprite,Background,Centre,"sb\hl.png",0,0 C,0,210476,,84,152,235 M,0,210476,210543,264,322,257.4591,319.5314 F,2,210476,210846,1,0 V,2,210476,210846,0.2,0.2,0.04,0.04 P,0,210476,210846,A M,0,210543,210611,257.4591,319.5314,250.8933,317.1888 M,0,210611,210678,250.8933,317.1888,244.1761,315.3096 M,0,210678,210746,244.1761,315.3096,237.351,313.7765
Sprite,Background,Centre,"sb\hl.png",0,0 C,0,211016,,255,207,64 M,0,211016,211083,190,261,186.6045,261.8489 F,2,211016,211386,1,0 V,2,211016,211386,0.2,0.2,0.04,0.04 P,0,211016,211386,A M,0,211083,211151,186.6045,261.8489,183.209,262.6978 M,0,211151,211218,183.209,262.6978,179.8135,263.5466 M,0,211218,211286,179.8135,263.5466,176.418,264.3955
Sprite,Background,Centre,"sb\hl.png",0,0 C,0,211557,,250,201,249 M,0,211557,211624,132,319,130.3745,318.3904 F,2,211557,215440,1,0 V,2,211557,215440,0.2,0.2,0.04,0.04 P,0,211557,215440,A M,0,211624,211692,130.3745,318.3904,128.7489,317.7809 M,0,211692,211759,128.7489,317.7809,127.1234,317.1713 M,0,211759,211827,127.1234,317.1713,125.4978,316.5617 M,0,211827,211894,125.4978,316.5617,127.1234,317.1713 M,0,211894,211962,127.1234,317.1713,128.7489,317.7809 M,0,211962,212029,128.7489,317.7809,130.3745,318.3904 M,0,212029,212097,130.3745,318.3904,132,319 M,0,212097,212165,132,319,130.3745,318.3904 M,0,212165,212232,130.3745,318.3904,128.7489,317.7809 M,0,212232,212300,128.7489,317.7809,127.1234,317.1713 M,0,212300,212367,127.1234,317.1713,125.4978,316.5617 M,0,212367,212435,125.4978,316.5617,127.1234,317.1713 M,0,212435,212502,127.1234,317.1713,128.7489,317.7809 M,0,212502,212570,128.7489,317.7809,130.3745,318.3904 M,0,212570,212638,130.3745,318.3904,132,319 M,0,212638,212705,132,319,130.3745,318.3904 M,0,212705,212773,130.3745,318.3904,128.7489,317.7809 M,0,212773,212840,128.7489,317.7809,127.1234,317.1713 M,0,212840,212908,127.1234,317.1713,125.4978,316.5617 M,0,212908,212975,125.4978,316.5617,127.1234,317.1713 M,0,212975,213043,127.1234,317.1713,128.7489,317.7809 M,0,213043,213111,128.7489,317.7809,130.3745,318.3904 M,0,213111,213178,130.3745,318.3904,132,319 M,0,213178,213246,132,319,130.3745,318.3904 M,0,213246,213313,130.3745,318.3904,128.7489,317.7809 M,0,213313,213381,128.7489,317.7809,127.1234,317.1713 M,0,213381,213448,127.1234,317.1713,125.4978,316.5617 M,0,213448,213516,125.4978,316.5617,127.1234,317.1713 M,0,213516,213584,127.1234,317.1713,128.7489,317.7809 M,0,213584,213651,128.7489,317.7809,130.3745,318.3904 M,0,213651,213719,130.3745,318.3904,132,319 M,0,213719,213786,132,319,130.3745,318.3904 M,0,213786,213854,130.3745,318.3904,128.7489,317.7809 M,0,213854,213921,128.7489,317.7809,127.1234,317.1713 M,0,213921,213989,127.1234,317.1713,125.4978,316.5617 M,0,213989,214057,125.4978,316.5617,127.1234,317.1713 M,0,214057,214124,127.1234,317.1713,128.7489,317.7809 M,0,214124,214192,128.7489,317.7809,130.3745,318.3904 M,0,214192,214259,130.3745,318.3904,132,319 M,0,214259,214327,132,319,130.3745,318.3904 M,0,214327,214394,130.3745,318.3904,128.7489,317.7809 M,0,214394,214462,128.7489,317.7809,127.1234,317.1713 M,0,214462,214529,127.1234,317.1713,125.4978,316.5617 M,0,214529,214597,125.4978,316.5617,127.1234,317.1713 M,0,214597,214665,127.1234,317.1713,128.7489,317.7809 M,0,214665,214732,128.7489,317.7809,130.3745,318.3904 M,0,214732,214800,130.3745,318.3904,132,319 M,0,214800,214867,132,319,130.3745,318.3904 M,0,214867,214935,130.3745,318.3904,128.7489,317.7809 M,0,214935,215002,128.7489,317.7809,127.1234,317.1713 M,0,215002,215070,127.1234,317.1713,125.4978,316.5617 M,0,215070,215138,125.4978,316.5617,127.1234,317.1713 M,0,215138,215205,127.1234,317.1713,128.7489,317.7809 M,0,215205,215273,128.7489,317.7809,130.3745,318.3904 M,0,215273,215340,130.3745,318.3904,132,319
Sprite,Background,Centre,"sb\hl.png",0,0 C,0,53178,,84,152,235 M,0,53178,53245,540,222,534.9637,209.8909 F,2,53178,53648,1,0 V,2,53178,53648,0.4,0.4,0.08000001,0.08000001 P,0,53178,53648,A M,0,53245,53313,534.9637,209.8909,530.5837,197.5284 M,0,53313,53380,530.5837,197.5284,527.3794,184.8123 M,0,53380,53448,527.3794,184.8123,524.9121,171.9347
Sprite,Background,Centre,"sb\hl.png",464,129 C,0,53719,,84,152,235 F,2,53719,53919,1,0 V,2,53719,53919,0.4,0.4,0.08000001,0.08000001 P,0,53719,53919,A
Sprite,Background,Centre,"sb\hl.png",0,0 C,0,54259,,84,152,235 M,0,54259,54326,464,129,451.891,134.0363 F,2,54259,54729,1,0 V,2,54259,54729,0.4,0.4,0.08000001,0.08000001 P,0,54259,54729,A M,0,54326,54394,451.891,134.0363,439.5284,138.4163 M,0,54394,54461,439.5284,138.4163,426.8123,141.6206 M,0,54461,54529,426.8123,141.6206,413.9348,144.0879
Sprite,Background,Centre,"sb\hl.png",371,205 C,0,54800,,84,152,235 F,2,54800,55000,1,0 V,2,54800,55000,0.4,0.4,0.08000001,0.08000001 P,0,54800,55000,A
Sprite,Background,Centre,"sb\hl.png",0,0 C,0,55341,,84,152,235 M,0,55341,55408,371,205,358.8909,199.9637 F,2,55341,55811,1,0 V,2,55341,55811,0.4,0.4,0.08000001,0.08000001 P,0,55341,55811,A M,0,55408,55476,358.8909,199.9637,346.5284,195.5837 M,0,55476,55543,346.5284,195.5837,333.8123,192.3794 M,0,55543,55611,333.8123,192.3794,320.9347,189.9122
Sprite,Background,Centre,"sb\hl.png",252,214 C,0,55882,,84,152,235 F,2,55882,56082,1,0 V,2,55882,56082,0.4,0.4,0.08000001,0.08000001 P,0,55882,56082,A
Sprite,Background,Centre,"sb\hl.png",0,0 C,0,56422,,84,152,235 M,0,56422,56489,252,214,239.8909,219.0363 F,2,56422,56892,1,0 V,2,56422,56892,0.4,0.4,0.08000001,0.08000001 P,0,56422,56892,A M,0,56489,56557,239.8909,219.0363,227.5284,223.4163 M,0,56557,56624,227.5284,223.4163,214.8123,226.6206 M,0,56624,56692,214.8123,226.6206,201.9347,229.0879
Sprite,Background,Centre,"sb\hl.png",133,205 C,0,56963,,84,152,235 F,2,56963,57163,1,0 V,2,56963,57163,0.4,0.4,0.08000001,0.08000001 P,0,56963,57163,A
Sprite,Background,Centre,"sb\hl.png",0,0 C,0,57232,,255,207,64 M,0,57232,57299,75,331,88.00362,331.877 F,2,57232,57972,1,0 V,2,57232,57972,0.4,0.4,0.08000001,0.08000001 P,0,57232,57972,A M,0,57299,57367,88.00362,331.877,100.9917,330.6823 M,0,57367,57434,100.9917,330.6823,113.1287,325.9569 M,0,57434,57502,113.1287,325.9569,124.2803,319.2534 M,0,57502,57569,124.2803,319.2534,133.2566,309.826 M,0,57569,57637,133.2566,309.826,140.3727,298.9631 M,0,57637,57704,140.3727,298.9631,144.4935,286.621 M,0,57704,57772,144.4935,286.621,146.1777,273.7635
Sprite,Background,Centre,"sb\hl.png",202,230 C,0,58043,,255,207,64 F,2,58043,58243,1,0 V,2,58043,58243,0.4,0.4,0.08000001,0.08000001 P,0,58043,58243,A
Sprite,Background,Centre,"sb\hl.png",202,230 C,0,58584,,255,207,64 F,2,58584,58784,1,0 V,2,58584,58784,0.4,0.4,0.08000001,0.08000001 P,0,58584,58784,A
Sprite,Background,Centre,"sb\hl.png",0,0 C,0,58854,,255,207,64 M,0,58854,58921,255,280,268.1035,280.5275 F,2,58854,59324,1,0 V,2,58854,59324,0.4,0.4,0.08000001,0.08000001 P,0,58854,59324,A M,0,58921,58989,268.1035,280.5275,281.169,281.7134 M,0,58989,59056,281.169,281.7134,294.046,284.1954 M,0,59056,59124,294.046,284.1954,306.7871,287.3226
Sprite,Background,Centre,"sb\hl.png",0,0 C,0,59395,,250,201,249 M,0,59395,59462,426,178,426.877,191.0036 F,2,59395,60135,1,0 V,2,59395,60135,0.4,0.4,0.08000001,0.08000001 P,0,59395,60135,A M,0,59462,59530,426.877,191.0036,425.6823,203.9917 M,0,59530,59597,425.6823,203.9917,420.9569,216.1287 M,0,59597,59665,420.9569,216.1287,414.2534,227.2803 M,0,59665,59732,414.2534,227.2803,404.826,236.2566 M,0,59732,59800,404.826,236.2566,393.9631,243.3727 M,0,59800,59867,393.9631,243.3727,381.621,247.4934 M,0,59867,59935,381.621,247.4934,368.7635,249.1777
Sprite,Background,Centre,"sb\hl.png",306,287 C,0,60206,,250,201,249 F,2,60206,60406,1,0 V,2,60206,60406,0.4,0.4,0.08000001,0.08000001 P,0,60206,60406,A
Sprite,Background,Centre,"sb\hl.png",306,287 C,0,60747,,250,201,249 F,2,60747,60947,1,0 V,2,60747,60947,0.4,0.4,0.08000001,0.08000001 P,0,60747,60947,A
Sprite,Background,Centre,"sb\hl.png",0,0 C,0,61016,,250,201,249 M,0,61016,61083,356,340,356.5275,353.1034 F,2,61016,61486,1,0 V,2,61016,61486,0.4,0.4,0.08000001,0.08000001 P,0,61016,61486,A M,0,61083,61151,356.5275,353.1034,357.7134,366.169 M,0,61151,61218,357.7134,366.169,360.1954,379.046 M,0,61218,61286,360.1954,379.046,363.3226,391.7871
Sprite,Background,Centre,"sb\hl.png",422,311 C,0,61557,,250,201,249 F,2,61557,61757,1,0 V,2,61557,61757,0.4,0.4,0.08000001,0.08000001 P,0,61557,61757,A
Sprite,Background,Centre,"sb\hl.png",428,317 C,0,61692,,250,201,249 F,2,61692,61892,1,0 V,2,61692,61892,0.4,0.4,0.08000001,0.08000001 P,0,61692,61892,A
Sprite,Background,Centre,"sb\hl.png",0,0 C,0,61827,,234,176,91 M,0,61827,61894,435,322,450.3982,319.842 F,2,61827,62297,1,0 V,2,61827,62297,0.4,0.4,0.08000001,0.08000001 P,0,61827,62297,A M,0,61894,61962,450.3982,319.842,464.4839,313.5676 M,0,61962,62029,464.4839,313.5676,475.8016,303.0255 M,0,62029,62097,475.8016,303.0255,483.3018,289.3474
Sprite,Background,Centre,"sb\hl.png",542,247 C,0,62232,,234,176,91 F,2,62232,62432,1,0 V,2,62232,62432,0.4,0.4,0.08000001,0.08000001 P,0,62232,62432,A
Sprite,Background,Centre,"sb\hl.png",0,0 C,0,62368,,234,176,91 M,0,62368,62435,537,240,540.115,224.5613 F,2,62368,62838,1,0 V,2,62368,62838,0.4,0.4,0.08000001,0.08000001 P,0,62368,62838,A M,0,62435,62503,540.115,224.5613,543.0947,209.0961 M,0,62503,62570,543.0947,209.0961,545.9141,193.6007 M,0,62570,62638,545.9141,193.6007,548.5728,178.077
Sprite,Background,Centre,"sb\hl.png",509,93 C,0,62908,,234,176,91 F,2,62908,63108,1,0 V,2,62908,63108,0.4,0.4,0.08000001,0.08000001 P,0,62908,63108,A
Sprite,Background,Centre,"sb\hl.png",465,151 C,0,63178,,234,176,91 F,2,63178,63378,1,0 V,2,63178,63378,0.4,0.4,0.08000001,0.08000001 P,0,63178,63378,A
Sprite,Background,Centre,"sb\hl.png",0,0 C,0,63449,,234,176,91 M,0,63449,63516,400,131,394.2994,116.4561 F,2,63449,63919,1,0 V,2,63449,63919,0.4,0.4,0.08000001,0.08000001 P,0,63449,63919,A M,0,63516,63584,394.2994,116.4561,392.3615,101.0501 M,0,63584,63651,392.3615,101.0501,394.8437,85.72095 M,0,63651,63719,394.8437,85.72095,401.5457,71.7106
Sprite,Background,Centre,"sb\hl.png",401,71 C,0,63854,,234,176,91 F,2,63854,64054,1,0 V,2,63854,64054,0.4,0.4,0.08000001,0.08000001 P,0,63854,64054,A
Sprite,Background,Centre,"sb\hl.png",0,0 C,0,63989,,172,214,116 M,0,63989,64056,401,71,385.3148,72.42382 F,2,63989,64459,1,0 V,2,63989,64459,0.4,0.4,0.08000001,0.08000001 P,0,63989,64459,A M,0,64056,64124,385.3148,72.42382,369.6467,74.0235 M,0,64124,64191,369.6467,74.0235,354.0009,75.82764 M,0,64191,64259,354.0009,75.82764,338.3799,77.83592
Sprite,Background,Centre,"sb\hl.png",0,0 C,0,64530,,172,214,116 M,0,64530,64597,266,132,250.3148,130.5762 F,2,64530,65000,1,0 V,2,64530,65000,0.4,0.4,0.08000001,0.08000001 P,0,64530,65000,A M,0,64597,64665,250.3148,130.5762,234.6467,128.9765 M,0,64665,64732,234.6467,128.9765,219.0009,127.1724 M,0,64732,64800,219.0009,127.1724,203.3799,125.1641
Sprite,Background,Centre,"sb\hl.png",155,79 C,0,64935,,172,214,116 F,2,64935,65135,1,0 V,2,64935,65135,0.4,0.4,0.08000001,0.08000001 P,0,64935,65135,A
Sprite,Background,Centre,"sb\hl.png",155,79 C,0,65070,,172,214,116 F,2,65070,65270,1,0 V,2,65070,65270,0.4,0.4,0.08000001,0.08000001 P,0,65070,65270,A
Sprite,Background,Centre,"sb\hl.png",103,131 C,0,65340,,172,214,116 F,2,65340,65540,1,0 V,2,65340,65540,0.4,0.4,0.08000001,0.08000001 P,0,65340,65540,A
Sprite,Background,Centre,"sb\hl.png",0,0 C,0,65611,,172,214,116 M,0,65611,65678,165,185,170.984,199.406 F,2,65611,66081,1,0 V,2,65611,66081,0.4,0.4,0.08000001,0.08000001 P,0,65611,66081,A M,0,65678,65746,170.984,199.406,173.4496,214.7202 M,0,65746,65813,173.4496,214.7202,171.5889,230.1736 M,0,65813,65881,171.5889,230.1736,166,244
Sprite,Background,Centre,"sb\hl.png",166,244 C,0,66016,,172,214,116 F,2,66016,66216,1,0 V,2,66016,66216,0.4,0.4,0.08000001,0.08000001 P,0,66016,66216,A
Sprite,Background,Centre,"sb\hl.png",0,0 C,0,66151,,228,90,90 M,0,66151,66218,166,244,181.6852,245.4238 F,2,66151,66621,1,0 V,2,66151,66621,0.4,0.4,0.08000001,0.08000001 P,0,66151,66621,A M,0,66218,66286,181.6852,245.4238,197.3533,247.0235 M,0,66286,66353,197.3533,247.0235,212.9991,248.8276 M,0,66353,66421,212.9991,248.8276,228.6201,250.8359
Sprite,Background,Centre,"sb\hl.png",0,0 C,0,66692,,228,90,90 M,0,66692,66759,291,325,306.6895,323.6222 F,2,66692,67432,1,0 V,2,66692,67432,0.4,0.4,0.08000001,0.08000001 P,0,66692,67432,A M,0,66759,66827,306.6895,323.6222,322.3688,322.1335 M,0,66827,66894,322.3688,322.1335,338.0354,320.5165 M,0,66894,66962,338.0354,320.5165,353.6882,318.7715 M,0,66962,67029,353.6882,318.7715,369.3263,316.8984 M,0,67029,67097,369.3263,316.8984,384.9485,314.8976 M,0,67097,67164,384.9485,314.8976,400.5539,312.769 M,0,67164,67232,400.5539,312.769,416.1413,310.5129
Sprite,Background,Centre,"sb\hl.png",500,346 C,0,67503,,228,90,90 F,2,67503,67703,1,0 V,2,67503,67703,0.4,0.4,0.08000001,0.08000001 P,0,67503,67703,A
Sprite,Background,Centre,"sb\hl.png",507,355 C,0,67638,,228,90,90 F,2,67638,67838,1,0 V,2,67638,67838,0.4,0.4,0.08000001,0.08000001 P,0,67638,67838,A
Sprite,Background,Centre,"sb\hl.png",515,363 C,0,67773,,228,90,90 F,2,67773,67973,1,0 V,2,67773,67973,0.4,0.4,0.08000001,0.08000001 P,0,67773,67973,A
Sprite,Background,Centre,"sb\hl.png",0,0 C,0,68043,,228,90,90 M,0,68043,68110,520,271,521.3282,255.307 F,2,68043,68783,1,0 V,2,68043,68783,0.4,0.4,0.08000001,0.08000001 P,0,68043,68783,A M,0,68110,68178,521.3282,255.307,522.9821,239.6457 M,0,68178,68245,522.9821,239.6457,525.0109,224.0285 M,0,68245,68313,525.0109,224.0285,527.4135,208.4644 M,0,68313,68380,527.4135,208.4644,530.1885,192.9624 M,0,68380,68448,530.1885,192.9624,533.3345,177.5312 M,0,68448,68515,533.3345,177.5312,536.8494,162.1799 M,0,68515,68583,536.8494,162.1799,540.7314,146.9171
Sprite,Background,Centre,"sb\hl.png",493,92 C,0,68719,,228,90,90 F,2,68719,68919,1,0 V,2,68719,68919,0.4,0.4,0.08000001,0.08000001 P,0,68719,68919,A
Sprite,Background,Centre,"sb\hl.png",493,92 C,0,68854,,228,90,90 F,2,68854,69054,1,0 V,2,68854,69054,0.4,0.4,0.08000001,0.08000001 P,0,68854,69054,A
Sprite,Background,Centre,"sb\hl.png",414,130 C,0,69124,,228,90,90 F,2,69124,69324,1,0 V,2,69124,69324,0.4,0.4,0.08000001,0.08000001 P,0,69124,69324,A
Sprite,Background,Centre,"sb\hl.png",355,83 C,0,69395,,84,152,235 F,2,69395,69595,1,0 V,2,69395,69595,0.4,0.4,0.08000001,0.08000001 P,0,69395,69595,A
Sprite,Background,Centre,"sb\hl.png",394,147 C,0,69665,,84,152,235 F,2,69665,69865,1,0 V,2,69665,69865,0.4,0.4,0.08000001,0.08000001 P,0,69665,69865,A
Sprite,Background,Centre,"sb\hl.png",357,204 C,0,69935,,84,152,235 F,2,69935,70135,1,0 V,2,69935,70135,0.4,0.4,0.08000001,0.08000001 P,0,69935,70135,A
Sprite,Background,Centre,"sb\hl.png",357,204 C,0,70205,,84,152,235 F,2,70205,70405,1,0 V,2,70205,70405,0.4,0.4,0.08000001,0.08000001 P,0,70205,70405,A
Sprite,Background,Centre,"sb\ring.png",0,0 C,0,122368,,234,176,91 M,0,122368,122435,374,161,355.2864,165.5114 F,2,122368,123173,1,0 V,2,122368,123173,0.5,0.5,0.1,0.1 P,0,122368,123173,A M,0,122435,122503,355.2864,165.5114,336.5149,169.7753 M,0,122503,122570,336.5149,169.7753,317.6888,173.7908 M,0,122570,122638,317.6888,173.7908,298.8159,177.5812 M,0,122638,122705,298.8159,177.5812,279.8878,181.0854 M,0,122705,122773,279.8878,181.0854,260.9174,184.3527
Sprite,Background,Centre,"sb\ring.png",0,0 C,0,122908,,234,176,91 M,0,122908,122975,261,185,242.301,181.9819 F,2,122908,123578,1,0 V,2,122908,123578,0.5,0.5,0.1,0.1 P,0,122908,123578,A M,0,122975,123043,242.301,181.9819,226.8962,171.1723 M,0,123043,123110,226.8962,171.1723,217.082,154.983 M,0,123110,123178,217.082,154.983,216.5839,136.0651
Sprite,Background,Centre,"sb\ring.png",283,117 C,0,123314,,234,176,91 F,2,123314,123714,1,0 V,2,123314,123714,0.5,0.5,0.1,0.1 P,0,123314,123714,A
Sprite,Background,Centre,"sb\ring.png",0,0 C,0,123449,,234,176,91 M,0,123449,123516,283,117,293.8001,132.7847 F,2,123449,124254,1,0 V,2,123449,124254,0.5,0.5,0.1,0.1 P,0,123449,124254,A M,0,123516,123584,293.8001,132.7847,299.5743,150.9651 M,0,123584,123651,299.5743,150.9651,299.8575,170.0073 M,0,123651,123719,299.8575,170.0073,295.0303,188.4728 M,0,123719,123786,295.0303,188.4728,284.4644,204.3877 M,0,123786,123854,284.4644,204.3877,269.79,216.5515
Sprite,Background,Centre,"sb\ring.png",0,0 C,0,123989,,234,176,91 M,0,123989,124056,213,257,200.354,271.3029 F,2,123989,124659,1,0 V,2,123989,124659,0.5,0.5,0.1,0.1 P,0,123989,124659,A M,0,124056,124124,200.354,271.3029,193.0636,288.8781 M,0,124124,124191,193.0636,288.8781,191.8827,307.8287 M,0,124191,124259,191.8827,307.8287,196.4136,326.3467
Sprite,Background,Centre,"sb\ring.png",239,381 C,0,124395,,234,176,91 F,2,124395,124795,1,0 V,2,124395,124795,0.5,0.5,0.1,0.1 P,0,124395,124795,A
Sprite,Background,Centre,"sb\ring.png",0,0 C,0,124530,,172,214,116 M,0,124530,124597,239,381,258.0887,378.6318 F,2,124530,125200,1,0 V,2,124530,125200,0.5,0.5,0.1,0.1 P,0,124530,125200,A M,0,124597,124665,258.0887,378.6318,276.8491,374.4108 M,0,124665,124732,276.8491,374.4108,295.1453,368.4863 M,0,124732,124800,295.1453,368.4863,312.719,360.6578
Sprite,Background,Centre,"sb\ring.png",401,418 C,0,125070,,172,214,116 F,2,125070,125470,1,0 V,2,125070,125470,0.5,0.5,0.1,0.1 P,0,125070,125470,A
Sprite,Background,Centre,"sb\ring.png",409,409 C,0,125205,,172,214,116 F,2,125205,125605,1,0 V,2,125205,125605,0.5,0.5,0.1,0.1 P,0,125205,125605,A
Sprite,Background,Centre,"sb\ring.png",0,0 C,0,125341,,172,214,116 M,0,125341,125408,426,406,436.2577,422.0155 F,2,125341,125876,1,0 V,2,125341,125876,0.5,0.5,0.1,0.1 P,0,125341,125876,A M,0,125408,125476,436.2577,422.0155,438.9664,440.7511
Sprite,Background,Centre,"sb\ring.png",383,344 C,0,125611,,228,90,90 F,2,125611,126011,1,0 V,2,125611,126011,0.5,0.5,0.1,0.1 P,0,125611,126011,A
Sprite,Background,Centre,"sb\ring.png",364,278 C,0,125881,,228,90,90 F,2,125881,126281,1,0 V,2,125881,126281,0.5,0.5,0.1,0.1 P,0,125881,126281,A
Sprite,Background,Centre,"sb\ring.png",450,189 C,0,126151,,84,152,235 F,2,126151,126551,1,0 V,2,126151,126551,0.5,0.5,0.1,0.1 P,0,126151,126551,A
Sprite,Background,Centre,"sb\ring.png",532,224 C,0,126422,,84,152,235 F,2,126422,126822,1,0 V,2,126422,126822,0.5,0.5,0.1,0.1 P,0,126422,126822,A
Sprite,Background,Centre,"sb\ring.png",542,253 C,0,126557,,84,152,235 F,2,126557,126957,1,0 V,2,126557,126957,0.5,0.5,0.1,0.1 P,0,126557,126957,A
Sprite,Background,Centre,"sb\ring.png",0,0 C,0,126692,,255,207,64 M,0,126692,126759,533,282,515.4918,289.1019 F,2,126692,127362,1,0 V,2,126692,127362,0.5,0.5,0.1,0.1 P,0,126692,127362,A M,0,126759,126827,515.4918,289.1019,496.869,286.9321 M,0,126827,126894,496.869,286.9321,481.6654,276.1238 M,0,126894,126962,481.6654,276.1238,472.7045,259.5585
Sprite,Background,Centre,"sb\ring.png",0,0 C,0,127232,,255,207,64 M,0,127232,127299,417,133,414.6098,152.097 F,2,127232,128037,1,0 V,2,127232,128037,0.5,0.5,0.1,0.1 P,0,127232,128037,A M,0,127299,127367,414.6098,152.097,411.2034,171.0373 M,0,127367,127434,411.2034,171.0373,406.7905,189.7677 M,0,127434,127502,406.7905,189.7677,401.4797,208.266 M,0,127502,127569,401.4797,208.266,395.0443,226.4041 M,0,127569,127637,395.0443,226.4041,387.6978,244.1931
Sprite,Background,Centre,"sb\ring.png",0,0 C,0,127773,,255,207,64 M,0,127773,127840,388,245,369.5259,240.708 F,2,127773,128443,1,0 V,2,127773,128443,0.5,0.5,0.1,0.1 P,0,127773,128443,A M,0,127840,127908,369.5259,240.708,354.6127,229.1693 M,0,127908,127975,354.6127,229.1693,345.3317,212.6792 M,0,127975,128043,345.3317,212.6792,344.8938,193.7561
Sprite,Background,Centre,"sb\ring.png",288,144 C,0,128178,,255,207,64 F,2,128178,128578,1,0 V,2,128178,128578,0.5,0.5,0.1,0.1 P,0,128178,128578,A
Sprite,Background,Centre,"sb\ring.png",0,0 C,0,128314,,255,207,64 M,0,128314,128381,288,144,276.1042,158.9759 F,2,128314,128984,1,0 V,2,128314,128984,0.5,0.5,0.1,0.1 P,0,128314,128984,A M,0,128381,128449,276.1042,158.9759,260.3126,169.6769 M,0,128449,128516,260.3126,169.6769,242.0768,175.1482 M,0,128516,128584,242.0768,175.1482,223.0635,174.9071
Sprite,Background,Centre,"sb\ring.png",168,220 C,0,128719,,255,207,64 F,2,128719,129119,1,0 V,2,128719,129119,0.5,0.5,0.1,0.1 P,0,128719,129119,A
Sprite,Background,Centre,"sb\ring.png",0,0 C,0,128854,,255,207,64 M,0,128854,128921,168,220,157.8686,203.8703 F,2,128854,129524,1,0 V,2,128854,129524,0.5,0.5,0.1,0.1 P,0,128854,129524,A M,0,128921,128989,157.8686,203.8703,142.4589,192.8125 M,0,128989,129056,142.4589,192.8125,124.0705,188.4162 M,0,129056,129124,124.0705,188.4162,105.4236,191.2967
Sprite,Background,Centre,"sb\ring.png",0,0 C,0,129395,,255,207,64 M,0,129395,129462,214,312,221.15,294.1277 F,2,129395,129930,1,0 V,2,129395,129930,0.5,0.5,0.1,0.1 P,0,129395,129930,A M,0,129462,129530,221.15,294.1277,228.6993,276.4203
Sprite,Background,Centre,"sb\ring.png",287,239 C,0,129665,,255,207,64 F,2,129665,130065,1,0 V,2,129665,130065,0.5,0.5,0.1,0.1 P,0,129665,130065,A
Sprite,Background,Centre,"sb\ring.png",287,239 C,0,129800,,255,207,64 F,2,129800,130200,1,0 V,2,129800,130200,0.5,0.5,0.1,0.1 P,0,129800,130200,A
Sprite,Background,Centre,"sb\ring.png",287,239 C,0,129935,,250,201,249 F,2,129935,130335,1,0 V,2,129935,130335,0.5,0.5,0.1,0.1 P,0,129935,130335,A
Sprite,Background,Centre,"sb\ring.png",374,298 C,0,130205,,250,201,249 F,2,130205,130605,1,0 V,2,130205,130605,0.5,0.5,0.1,0.1 P,0,130205,130605,A
Sprite,Background,Centre,"sb\ring.png",270,357 C,0,130476,,234,176,91 F,2,130476,130876,1,0 V,2,130476,130876,0.5,0.5,0.1,0.1 P,0,130476,130876,A
Sprite,Background,Centre,"sb\ring.png",449,308 C,0,130746,,234,176,91 F,2,130746,131146,1,0 V,2,130746,131146,0.5,0.5,0.1,0.1 P,0,130746,131146,A
Sprite,Background,Centre,"sb\ring.png",449,308 C,0,130881,,234,176,91 F,2,130881,131281,1,0 V,2,130881,131281,0.5,0.5,0.1,0.1 P,0,130881,131281,A
Sprite,Background,Centre,"sb\ring.png",0,0 C,0,131016,,234,176,91 M,0,131016,131083,449,308,459.7625,292.2792 F,2,131016,131956,1,0 V,2,131016,131956,0.5,0.5,0.1,0.1 P,0,131016,131956,A M,0,131083,131151,459.7625,292.2792,464.3075,273.8561 M,0,131151,131218,464.3075,273.8561,462.56,254.9201 M,0,131218,131286,462.56,254.9201,453.4536,238.2191 M,0,131286,131353,453.4536,238.2191,439.1124,225.8163 M,0,131353,131421,439.1124,225.8163,421.4344,218.9296 M,0,131421,131488,421.4344,218.9296,402.4444,219.4606 M,0,131488,131556,402.4444,219.4606,384.8927,226.6057
Sprite,Background,Centre,"sb\ring.png",0,0 C,0,131827,,234,176,91 M,0,131827,131894,383,333,388.1902,351.5262 F,2,131827,132362,1,0 V,2,131827,132362,0.5,0.5,0.1,0.1 P,0,131827,132362,A M,0,131894,131962,388.1902,351.5262,391.7853,370.4224
Sprite,Background,Centre,"sb\ring.png",0,0 C,0,132097,,234,176,91 M,0,132097,132164,479,440,481.4175,420.9066 F,2,132097,132767,1,0 V,2,132097,132767,0.5,0.5,0.1,0.1 P,0,132097,132767,A M,0,132164,132232,481.4175,420.9066,484.8711,401.9748 M,0,132232,132299,484.8711,401.9748,489.3505,383.2603 M,0,132299,132367,489.3505,383.2603,494.7506,364.7881
Sprite,Background,Centre,"sb\ring.png",549,321 C,0,132503,,234,176,91 F,2,132503,132903,1,0 V,2,132503,132903,0.5,0.5,0.1,0.1 P,0,132503,132903,A
Sprite,Background,Centre,"sb\ring.png",0,0 C,0,132638,,234,176,91 M,0,132638,132705,555,314,549.6311,295.5175 F,2,132638,133173,1,0 V,2,132638,133173,0.5,0.5,0.1,0.1 P,0,132638,133173,A M,0,132705,132773,549.6311,295.5175,545.2579,276.7758
Sprite,Background,Centre,"sb\ring.png",0,0 C,0,132908,,172,214,116 M,0,132908,132975,489,229,494.5009,210.5548 F,2,132908,133578,1,0 V,2,132908,133578,0.5,0.5,0.1,0.1 P,0,132908,133578,A M,0,132975,133043,494.5009,210.5548,499.3261,191.9222 M,0,133043,133110,499.3261,191.9222,503.4694,173.1267 M,0,133110,133178,503.4694,173.1267,506.9495,154.1971
Sprite,Background,Centre,"sb\ring.png",456,69 C,0,133449,,172,214,116 F,2,133449,133849,1,0 V,2,133449,133849,0.5,0.5,0.1,0.1 P,0,133449,133849,A
Sprite,Background,Centre,"sb\ring.png",0,0 C,0,133719,,172,214,116 M,0,133719,133786,390,150,397.8394,132.4382 F,2,133719,134254,1,0 V,2,133719,134254,0.5,0.5,0.1,0.1 P,0,133719,134254,A M,0,133786,133854,397.8394,132.4382,403,114
Sprite,Background,Centre,"sb\ring.png",456,69 C,0,133989,,172,214,116 F,2,133989,134389,1,0 V,2,133989,134389,0.5,0.5,0.1,0.1 P,0,133989,134389,A
Sprite,Background,Centre,"sb\ring.png",0,0 C,0,134259,,228,90,90 M,0,134259,134326,349,63,330.1894,66.22241 F,2,134259,134929,1,0 V,2,134259,134929,0.5,0.5,0.1,0.1 P,0,134259,134929,A M,0,134326,134394,330.1894,66.22241,313.722,75.73907 M,0,134394,134461,313.722,75.73907,301.6144,90.34193 M,0,134461,134529,301.6144,90.34193,295.3429,108.2077
Sprite,Background,Centre,"sb\ring.png",256,166 C,0,134665,,228,90,90 F,2,134665,135065,1,0 V,2,134665,135065,0.5,0.5,0.1,0.1 P,0,134665,135065,A
Sprite,Background,Centre,"sb\ring.png",0,0 C,0,134800,,228,90,90 M,0,134800,134867,256,166,257.2133,147.1739 F,2,134800,135470,1,0 V,2,134800,135470,0.5,0.5,0.1,0.1 P,0,134800,135470,A M,0,134867,134935,257.2133,147.1739,249.3475,130.1867 M,0,134935,135002,249.3475,130.1867,234.601,118.6 M,0,135002,135070,234.601,118.6,215.9255,116.606
Sprite,Background,Centre,"sb\ring.png",0,0 C,0,135341,,84,152,235 M,0,135341,135408,139,163,157.3568,168.3635 F,2,135341,135876,1,0 V,2,135341,135876,0.5,0.5,0.1,0.1 P,0,135341,135876,A M,0,135408,135476,157.3568,168.3635,173.4284,178.7452
Sprite,Background,Centre,"sb\ring.png",0,0 C,0,135611,,84,152,235 M,0,135611,135678,173,178,154.6432,183.3635 F,2,135611,136146,1,0 V,2,135611,136146,0.5,0.5,0.1,0.1 P,0,135611,136146,A M,0,135678,135746,154.6432,183.3635,138.5716,193.7452
Sprite,Background,Centre,"sb\ring.png",0,0 C,0,135881,,255,207,64 M,0,135881,135948,64,263,82.35682,257.6365 F,2,135881,136416,1,0 V,2,135881,136416,0.5,0.5,0.1,0.1 P,0,135881,136416,A M,0,135948,136016,82.35682,257.6365,98.42839,247.2548
Sprite,Background,Centre,"sb\ring.png",0,0 C,0,136151,,255,207,64 M,0,136151,136218,98,248,79.64318,242.6365 F,2,136151,136686,1,0 V,2,136151,136686,0.5,0.5,0.1,0.1 P,0,136151,136686,A M,0,136218,136286,79.64318,242.6365,63.57161,232.2548
Sprite,Background,Centre,"sb\ring.png",168,258 C,0,136422,,250,201,249 F,2,136422,136822,1,0 V,2,136422,136822,0.5,0.5,0.1,0.1 P,0,136422,136822,A
Sprite,Background,Centre,"sb\ring.png",178,266 C,0,136557,,250,201,249 F,2,136557,136957,1,0 V,2,136557,136957,0.5,0.5,0.1,0.1 P,0,136557,136957,A
Sprite,Background,Centre,"sb\ring.png",183,248 C,0,136692,,250,201,249 F,2,136692,137092,1,0 V,2,136692,137092,0.5,0.5,0.1,0.1 P,0,136692,137092,A
Sprite,Background,Centre,"sb\ring.png",199,256 C,0,136827,,250,201,249 F,2,136827,137227,1,0 V,2,136827,137227,0.5,0.5,0.1,0.1 P,0,136827,137227,A
Sprite,Background,Centre,"sb\ring.png",219,276 C,0,136962,,234,176,91 F,2,136962,137362,1,0 V,2,136962,137362,0.5,0.5,0.1,0.1 P,0,136962,137362,A
Sprite,Background,Centre,"sb\ring.png",232,266 C,0,137097,,234,176,91 F,2,137097,137497,1,0 V,2,137097,137497,0.5,0.5,0.1,0.1 P,0,137097,137497,A
Sprite,Background,Centre,"sb\ring.png",238,289 C,0,137232,,234,176,91 F,2,137232,137632,1,0 V,2,137232,137632,0.5,0.5,0.1,0.1 P,0,137232,137632,A
Sprite,Background,Centre,"sb\ring.png",259,279 C,0,137367,,234,176,91 F,2,137367,137767,1,0 V,2,137367,137767,0.5,0.5,0.1,0.1 P,0,137367,137767,A
Sprite,Background,Centre,"sb\ring.png",305,246 C,0,137503,,172,214,116 F,2,137503,137903,1,0 V,2,137503,137903,0.5,0.5,0.1,0.1 P,0,137503,137903,A
//Storyboard Layer 1 (Fail)
//Storyboard Layer 2 (Pass)
//Storyboard Layer 3 (Foreground)
//Storyboard Layer 4 (Overlay)
//Storyboard Sound Samples

[TimingPoints]
1287,540.540540540541,4,2,1,45,1,0
7503,-133.333333333333,4,2,1,45,0,0
9259,-133.333333333333,4,2,1,40,0,0
9935,-90.9090909090909,4,2,1,45,0,0
18584,-90.9090909090909,4,2,1,50,0,0
35881,-76.9230769230769,4,2,1,60,0,0
52368,-76.9230769230769,4,2,1,60,0,0
53178,-133.333333333333,4,2,1,40,0,0
53719,-133.333333333333,4,2,2,40,0,0
61827,-111.111111111111,4,2,1,45,0,0
70476,-133.333333333333,4,2,1,40,0,0
87773,-90.9090909090908,4,2,1,50,0,0
104800,-90.9090909090908,4,2,1,35,0,0
105611,-90.9090909090908,4,2,1,55,0,0
120205,-100,4,2,1,55,0,0
120746,-100,4,2,1,30,0,0
122368,-90.9090909090909,4,2,1,55,0,0
125341,-90.9090909090909,4,2,1,60,0,0
126692,-90.9090909090909,4,2,1,55,0,0
135341,-90.9090909090909,4,2,1,50,0,0
135881,-90.9090909090909,4,2,1,55,0,0
136422,-90.9090909090909,4,2,1,60,0,0
136962,-90.9090909090909,4,2,1,65,0,0
139665,-200,4,2,1,35,0,0
148043,-133.333333333333,4,2,1,40,0,0
156962,-200,4,2,1,30,0,0
164935,-200,4,2,1,40,0,0
165611,-100,4,2,1,45,0,0
171827,-200,4,2,1,45,0,0
172368,-200,4,2,1,30,0,0
174259,-200,4,2,1,35,0,0
191016,-200,4,2,1,40,0,0
191557,-90.9090909090909,4,2,1,60,0,0
206692,-90.9090909090909,4,2,1,40,0,0
208854,-100,4,2,1,30,0,0
209395,-125,4,2,1,25,0,0
209935,-166.666666666667,4,2,1,20,0,0
210476,-250,4,2,1,15,0,0
211016,-500,4,2,1,10,0,0
211557,-1000,4,2,1,9,0,0
212368,-1000,4,2,1,8,0,0
213449,-1000,4,2,1,7,0,0
214530,-1000,4,2,1,6,0,0
215341,-1000,4,2,1,5,0,0

[Colours]
Combo1 : 234,176,91
Combo2 : 172,214,116
Combo3 : 228,90,90
Combo4 : 84,152,235
Combo5 : 255,207,64
Combo6 : 250,201,249

[HitObjects]
46,98,1287,6,0,P|76:72|127:75,1,70,0|0,3:0|0:0,0:0:0:0:
216,146,1827,2,0,P|182:140|157:117,1,70,0|0,1:1|0:0,0:0:0:0:
278,46,2368,1,0,3:0:0:0:
282,122,2638,2,0,P|285:68|296:27,1,70,2|0,0:0|1:1,0:0:0:0:
272,193,3178,6,0,P|326:195|360:273,1,140,2|2,0:0|0:0,0:0:0:0:
410,350,3989,2,0,P|416:316|439:291,1,70,0|2,1:1|0:0,0:0:0:0:
500,206,4530,5,0,3:0:0:0:
428,220,4800,1,2,0:0:0:0:
361,265,5070,5,0,1:1:0:0:
296,256,5340,1,0,0:0:0:0:
198,309,5611,6,0,P|204:275|227:250,1,70,0|0,3:0|0:0,0:0:0:0:
238,133,6151,2,0,P|244:167|267:192,1,70,0|2,1:1|0:0,0:0:0:0:
180,194,6692,1,0,3:0:0:0:
90,236,6962,1,4,0:3:0:0:
30,201,7232,1,4,3:3:0:0:
126,298,7503,5,2,3:2:0:0:
126,298,8314,6,0,P|136:336|140:367,1,52.5000020027161
20,319,8854,2,0,P|30:281|34:250,1,52.5000020027161,0|2,0:0|0:0,0:0:0:0:
66,197,9259,1,0,3:1:0:0:
63,171,9395,1,0,3:1:0:0:
46,179,9530,1,0,3:0:0:0:
46,201,9665,5,4,3:3:0:0:
0,136,9935,2,0,P|36:117|49:57,1,77.0000023498536,10|0,0:0|0:0,0:0:0:0:
167,168,10476,2,0,P|131:149|118:89,1,77.0000023498536,8|0,1:2|0:0,0:0:0:0:
159,0,11016,2,0,P|123:19|110:79,2,77.0000023498536,8|2|8,0:0|0:0|1:2,0:0:0:0:
174,76,11827,6,0,P|236:98|340:148,1,154.000004699707,2|2,0:0|0:0,0:0:0:0:
390,96,12638,1,8,1:2:0:0:
359,31,12908,1,0,0:0:0:0:
460,99,13178,1,8,0:0:0:0:
429,164,13448,1,2,0:0:0:0:
512,227,13719,1,8,1:2:0:0:
499,159,13989,1,2,0:0:0:0:
356,192,14259,6,0,P|288:206|207:250,1,154.000004699707,8|8,0:0|1:2,0:0:0:0:
143,208,15070,1,0,0:0:0:0:
179,95,15341,2,0,P|192:137|205:186,2,77.0000023498536,8|2|8,0:0|0:0|1:2,0:0:0:0:
213,245,16151,6,0,P|147:235|57:305,1,154.000004699707,2|0,0:0|0:0,0:0:0:0:
14,155,16962,1,8,1:2:0:0:
81,185,17232,1,2,0:0:0:0:
30,334,17503,5,8,0:0:0:0:
0,269,17773,1,8,0:1:0:0:
91,375,18043,1,8,0:1:0:0:
243,353,18584,6,0,P|207:340|175:319,1,77.0000023498536,14|0,3:2|0:0,0:0:0:0:
378,299,19124,2,0,P|342:312|310:333,1,77.0000023498536,10|0,1:2|0:0,0:0:0:0:
507,371,19665,1,8,0:0:0:0:
458,314,19935,2,0,P|450:297|445:273,2,38.5000011749268,2|2|8,0:3|0:3|1:2,0:2:0:0:
492,229,20476,6,0,P|499:163|513:72,1,154.000004699707,2|2,0:0|0:0,0:0:0:0:
440,24,21287,2,0,P|412:55|434:99,1,77.0000023498536,8|0,1:2|0:0,0:0:0:0:
478,152,21827,1,8,0:0:0:0:
426,207,22097,1,2,0:3:0:0:
426,207,22232,1,2,0:3:0:0:
426,207,22368,2,0,P|376:192|349:187,1,77.0000023498536,8|2,1:2|0:0,0:0:0:0:
242,196,22908,6,0,P|293:202|310:101,1,154.000004699707,10|10,0:0|1:2,0:0:0:0:
258,61,23719,1,2,0:0:0:0:
183,8,23990,2,0,P|168:58|163:85,1,77.0000023498536,10|2,0:0|0:3,0:0:0:0:
84,90,24395,2,0,P|92:107|97:131,1,38.5000011749268,2|8,0:3|1:2,0:2:0:0:
180,238,24800,6,0,P|165:188|160:161,2,77.0000023498536,2|8|2,0:0|0:0|0:0,0:0:0:0:
88,313,25611,2,0,P|102:269|104:235,1,77.0000023498536,8|2,1:2|0:0,0:0:0:0:
268,295,26151,2,0,P|255:258|251:220,1,77.0000023498536,8|2,0:2|0:3,0:0:0:0:
309,175,26557,1,2,0:3:0:0:
309,175,26692,2,0,P|347:216|327:252,1,77.0000023498536,8|0,1:2|0:0,0:0:0:0:
336,329,27232,6,0,P|300:316|268:295,1,77.0000023498536,10|0,3:2|0:0,0:0:0:0:
479,330,27772,2,0,P|443:343|411:364,1,77.0000023498536,10|0,1:2|0:0,0:0:0:0:
492,254,28314,2,0,P|482:214|482:179,1,77.0000023498536,8|2,0:0|0:3,0:0:0:0:
512,112,28719,2,0,P|504:95|499:71,1,38.5000011749268,2|8,0:3|1:2,0:2:0:0:
432,24,29124,6,0,P|425:100|404:174,1,154.000004699707,2|2,0:0|0:0,0:0:0:0:
265,175,29935,2,0,P|308:153|339:157,1,77.0000023498536,8|0,1:2|0:0,0:0:0:0:
377,242,30476,1,8,0:0:0:0:
315,281,30746,1,2,0:3:0:0:
315,281,30881,1,2,0:3:0:0:
315,281,31017,2,0,P|265:266|238:261,1,77.0000023498536,8|2,1:2|0:0,0:0:0:0:
116,121,31557,6,0,P|167:115|184:216,1,154.000004699707,10|10,0:0|1:2,0:0:0:0:
177,286,32368,1,2,0:0:0:0:
106,276,32639,2,0,P|91:226|86:199,1,77.0000023498536,10|2,0:0|0:3,0:0:0:0:
24,170,33043,2,0,P|32:153|37:129,1,38.5000011749268,2|8,0:3|1:2,0:2:0:0:
135,46,33449,6,0,P|120:96|115:123,2,77.0000023498536,2|8|2,0:0|0:0|0:0,0:0:0:0:
227,5,34259,1,8,1:2:0:0:
280,60,34530,1,2,0:0:0:0:
330,14,34800,1,8,1:2:0:0:
213,71,35070,1,8,0:1:0:0:
348,86,35341,1,4,3:3:0:0:
389,140,35612,1,0,3:3:0:0:
509,63,35881,6,0,P|462:70|408:78,1,90.9999958343508,6|0,3:2|0:0,0:0:0:0:
338,189,36422,2,0,P|291:182|237:174,1,90.9999958343508,0|2,1:1|0:0,0:0:0:0:
168,36,36962,2,0,B|121:36|169:116|220:125|232:107|203:70,1,136.499993751526,0|0,3:0|0:0,0:0:0:0:
213,85,37503,2,0,B|191:107|197:137,1,45.4999979171754,0|0,1:0|0:0,0:0:0:0:
259,186,37773,6,0,P|305:195|346:209,1,90.9999958343508,2|0,0:0|3:3,0:3:0:0:
415,128,38314,6,0,P|378:157|347:193,1,90.9999958343508,2|0,0:0|1:3,0:3:0:0:
310,86,38854,6,0,P|324:123|334:174,1,90.9999958343508,2|0,0:0|3:3,0:3:0:0:
385,70,39395,6,0,P|362:109|348:152,1,90.9999958343508,2|0,0:0|1:3,0:3:0:0:
462,183,39935,2,0,P|479:197|490:217,1,45.4999979171754,2|0,0:0|0:0,0:0:0:0:
453,282,40205,6,0,P|423:291|419:366,1,90.9999958343508,2|2,3:2|0:0,0:0:0:0:
274,258,40746,2,0,P|282:301|322:319,1,90.9999958343508,2|2,1:2|0:0,0:0:0:0:
411,214,41287,5,0,3:0:0:0:
338,189,41557,1,2,0:0:0:0:
266,169,41827,1,0,1:0:0:0:
242,81,42097,6,0,P|251:127|265:168,1,90.9999958343508,2|8,0:0|0:3,0:3:0:0:
184,237,42638,6,0,P|213:200|249:169,1,90.9999958343508,2|0,0:0|1:3,0:3:0:0:
142,132,43178,6,0,P|179:146|230:156,1,90.9999958343508,2|8,0:0|0:3,0:3:0:0:
126,207,43719,6,0,P|165:184|208:170,1,90.9999958343508,2|8,0:0|0:1,0:3:0:0:
138,60,44259,1,4,3:0:0:0:
77,128,44530,6,0,B|73:217|21:171|24:288,1,136.499993751526,14|0,0:0|0:0,0:0:0:0:
31,255,45070,2,0,P|40:319|31:364,1,90.9999958343508,2|0,1:2|0:0,0:0:0:0:
191,282,45611,2,0,P|144:274|104:251,1,90.9999958343508,8|0,0:3|0:0,0:0:0:0:
207,190,46151,1,0,1:0:0:0:
301,270,46422,6,0,P|292:224|278:183,1,90.9999958343508,2|8,0:0|0:3,0:3:0:0:
359,114,46962,6,0,P|330:151|294:182,1,90.9999958343508,2|0,0:0|1:3,0:3:0:0:
401,219,47503,6,0,P|364:205|313:195,1,90.9999958343508,2|8,0:0|0:3,0:3:0:0:
417,144,48044,6,0,P|378:167|335:181,1,90.9999958343508,2|0,0:0|1:1,0:3:0:0:
386,65,48584,6,0,B|276:58|326:131|204:120,1,181.999991668702,2|2,0:0|0:0,0:0:0:0:
152,36,49395,2,0,P|163:75|151:97,1,45.4999979171754,2|0,1:2|0:0,0:0:0:0:
220,122,49665,2,0,P|200:157|176:164,1,45.4999979171754,2|0,0:0|0:0,0:0:0:0:
182,234,49935,2,0,P|139:222|49:212,1,90.9999958343508,8|2,0:3|0:0,0:0:0:0:
68,114,50476,6,0,P|57:153|69:175,1,45.4999979171754,2|0,1:2|0:0,0:0:0:0:
0,200,50746,2,0,P|20:235|44:242,1,45.4999979171754,2|0,0:0|0:0,0:0:0:0:
38,312,51016,2,0,P|81:300|171:290,1,90.9999958343508,8|2,0:3|0:0,0:0:0:0:
226,303,51557,1,2,1:2:0:0:
274,231,51827,2,0,P|324:244|369:371,1,181.999991668702,2|10,0:0|0:1,0:0:0:0:
390,281,52638,1,10,0:1:0:0:
413,209,52908,1,2,3:0:0:0:
476,166,53178,6,0,P|462:123|459:93,1,52.5000020027161,6|0,0:0|0:0,0:0:0:0:
400,73,53719,1,8,0:2:0:0:
400,73,54259,2,0,P|357:87|327:90,1,52.5000020027161,2|0,0:0|0:0,0:0:0:0:
307,149,54800,1,8,0:0:0:0:
307,149,55341,2,0,P|264:135|234:132,1,52.5000020027161,2|0,0:0|0:0,0:0:0:0:
188,158,55882,1,8,0:0:0:0:
188,158,56422,2,0,P|145:172|115:175,1,52.5000020027161,2|0,0:0|0:0,0:0:0:0:
69,149,56963,1,8,0:0:0:0:
11,275,57232,6,0,P|57:266|79:197,1,105.000004005432,2|0,0:0|0:0,0:0:0:0:
138,174,58043,1,8,0:0:0:0:
138,174,58584,1,2,0:3:0:0:
191,224,58854,2,0,P|225:227|251:234,1,52.5000020027161,2|8,0:0|0:0,0:0:0:0:
362,122,59395,6,0,P|353:168|284:190,1,105.000004005432,2|0,0:0|0:0,0:0:0:0:
242,231,60206,1,10,0:0:0:0:
242,231,60747,1,2,0:3:0:0:
292,284,61016,2,0,P|295:318|302:344,1,52.5000020027161,2|8,0:0|0:0,0:0:0:0:
358,255,61557,1,2,0:3:0:0:
364,261,61692,1,2,0:3:0:0:
371,266,61827,6,0,P|396:261|421:227,1,62.9999980773926,8|0,0:0|0:0,0:0:0:0:
478,191,62232,1,2,0:3:0:0:
473,184,62368,2,0,P|478:159|487:107,1,62.9999980773926,10|0,1:2|0:0,0:0:0:0:
445,37,62908,1,8,0:0:0:0:
401,95,63178,1,2,0:0:0:0:
336,75,63449,2,0,P|328:41|343:8,1,62.9999980773926,2|2,1:2|0:0,0:0:0:0:
337,15,63854,1,2,0:0:0:0:
337,15,63989,6,0,P|273:22|246:26,1,62.9999980773926,8|0,0:0|0:0,0:0:0:0:
202,76,64530,2,0,P|138:69|111:65,1,62.9999980773926,8|0,1:2|0:0,0:0:0:0:
91,23,64935,1,2,0:3:0:0:
91,23,65070,1,8,0:2:0:0:
39,75,65340,1,2,0:0:0:0:
101,129,65611,2,0,P|110:158|102:188,1,62.9999980773926,2|2,1:2|0:0,0:0:0:0:
102,188,66016,1,2,0:0:0:0:
102,188,66151,6,0,P|166:195|193:199,1,62.9999980773926,8|0,0:0|0:0,0:0:0:0:
227,269,66692,2,0,P|335:257|381:250,1,125.999996154785,10|8,1:2|0:0,0:0:0:0:
436,290,67503,1,2,0:0:0:0:
443,299,67638,1,0,0:0:0:0:
451,307,67773,1,2,1:2:0:0:
456,215,68043,2,0,P|462:161|480:79,1,125.999996154785,2|2,0:0|0:3,0:0:0:0:
429,36,68719,1,2,0:3:0:0:
429,36,68854,1,0,1:0:0:0:
350,74,69124,1,2,0:0:0:0:
291,27,69395,5,0,3:0:0:0:
330,91,69665,1,8,0:1:0:0:
293,148,69935,1,8,0:1:0:0:
293,148,70205,1,4,0:3:0:0:
210,113,70476,6,0,P|166:117|141:157,2,78.7500030040742,2|2|2,3:2|0:0|0:0,0:0:0:0:
229,181,71557,1,0,3:0:0:0:
247,253,72097,1,0,1:0:0:0:
247,253,72368,1,2,0:0:0:0:
196,304,72638,6,0,P|161:313|123:324,1,52.5000020027161,0|0,3:0|0:0,0:0:0:0:
260,333,73178,2,0,P|295:342|333:353,1,52.5000020027161,2|2,1:2|0:0,0:0:0:0:
372,299,73719,1,0,3:0:0:0:
372,299,73989,1,2,0:0:0:0:
437,347,74259,2,0,P|446:312|457:274,1,52.5000020027161,0|2,1:0|0:0,0:0:0:0:
503,248,74665,1,2,0:0:0:0:
503,248,74800,6,0,P|467:221|472:155,1,105.000004005432,2|0,3:2|0:0,0:0:0:0:
502,99,75611,1,0,0:0:0:0:
447,50,75881,2,0,P|398:61|330:68,1,105.000004005432,0|0,3:0|1:0,0:0:0:0:
275,36,76692,1,0,0:0:0:0:
193,77,76962,6,0,P|157:65|134:62,1,52.5000020027161,0|2,3:0|0:3,0:0:0:0:
75,85,77368,1,2,0:3:0:0:
75,85,77503,2,0,P|39:97|16:100,1,52.5000020027161,0|2,1:1|0:0,0:0:0:0:
128,134,78043,2,0,P|164:146|187:149,1,52.5000020027161,2|2,3:2|0:0,0:0:0:0:
73,184,78584,2,0,P|37:196|14:199,1,52.5000020027161,0|0,1:0|0:0,0:0:0:0:
97,293,79124,6,0,P|142:262|131:203,1,105.000004005432,2|0,3:2|0:0,0:0:0:0:
206,175,79935,1,2,0:0:0:0:
267,217,80205,2,0,P|305:178|357:183,1,105.000004005432,0|0,3:0|1:1,0:0:0:0:
412,143,80881,1,2,0:3:0:0:
412,143,81016,1,2,0:0:0:0:
431,260,81287,2,0,P|418:223|415:192,2,52.5000020027161,0|0|0,3:0|0:0|1:0,0:0:0:0:
486,307,82097,5,2,0:0:0:0:
512,243,82368,1,0,3:0:0:0:
481,182,82638,1,2,0:0:0:0:
507,118,82908,1,0,1:0:0:0:
412,143,83178,2,0,P|358:132|296:126,1,105.000004005432,2|0,0:0|0:0,0:0:0:0:
264,64,83989,2,0,P|210:75|154:81,2,105.000004005432,0|0|0,1:0|3:0|1:0,0:0:0:0:
306,8,85341,1,2,0:0:0:0:
370,36,85611,1,0,3:0:0:0:
322,99,85949,6,0,L|333:168,1,65.6250025033952,2|0,0:0|0:0,0:0:0:0:
340,177,86354,6,0,L|348:231,1,52.5000020027161,2|0,0:3|0:0,0:0:0:0:
358,243,86692,2,0,L|362:273,1,26.2500010013581,2|0,3:0|0:0,0:0:0:0:
361,269,87773,6,0,P|421:276|478:363,1,154.000004699707,14|8,0:0|1:2,0:0:0:0:
480,350,88449,2,0,P|452:360|436:369,1,38.5000011749268,2|2,0:0|0:0,0:0:0:0:
300,314,88854,2,0,P|235:284|190:270,1,115.50000352478,8|2,0:0|0:0,0:0:0:0:
186,275,89395,1,0,1:0:0:0:
122,337,89665,1,2,0:0:0:0:
65,299,89935,6,0,P|74:253|77:218,1,77.0000023498536,8|2,0:0|0:0,0:0:0:0:
34,168,90341,1,2,0:0:0:0:
34,168,90476,2,0,P|25:122|22:87,1,77.0000023498536,8|0,1:2|0:0,0:0:0:0:
116,23,91016,2,0,P|107:69|104:104,1,77.0000023498536,10|0,0:0|0:0,0:0:0:0:
196,156,91557,2,0,P|187:110|184:75,1,77.0000023498536,10|0,1:2|0:0,0:0:0:0:
269,12,92097,6,0,P|315:23|336:99,1,115.50000352478,10|0,0:0|0:0,0:0:0:0:
338,89,92638,1,0,1:0:0:0:
410,137,92908,1,2,0:3:0:0:
410,137,93043,1,2,0:3:0:0:
410,137,93178,2,0,P|450:121|489:120,1,77.0000023498536,10|0,0:0|0:0,0:0:0:0:
483,231,93719,2,0,P|447:216|409:213,1,77.0000023498536,8|0,1:2|0:0,0:0:0:0:
348,243,94124,1,2,0:0:0:0:
348,243,94259,1,8,0:0:0:0:
362,319,94530,5,2,0:0:0:0:
290,352,94800,1,10,1:2:0:0:
230,306,95070,1,2,0:0:0:0:
117,366,95341,1,10,0:2:0:0:
78,308,95611,1,2,0:0:0:0:
47,238,95881,1,10,1:2:0:0:
108,190,96151,1,2,0:0:0:0:
108,190,96287,1,2,0:0:0:0:
108,190,96422,6,0,P|112:151|132:112,1,77.0000023498536,8|0,0:0|0:0,0:0:0:0:
204,68,96962,1,0,1:0:0:0:
277,161,97232,2,0,P|238:157|199:137,2,77.0000023498536,2|8|2,0:0|0:0|0:0,0:0:0:0:
284,158,97908,2,0,P|302:149|320:148,1,38.5000011749268,2|0,0:0|1:0,0:0:0:0:
425,91,98314,6,0,P|443:99|461:100,1,38.5000011749268,2|0,0:0|0:0,0:0:0:0:
473,108,98584,2,0,P|509:85|502:41,1,77.0000023498536,8|2,0:0|0:0,0:0:0:0:
504,44,98989,1,2,0:0:0:0:
494,37,99124,1,8,1:2:0:0:
464,119,99395,2,0,P|480:168|489:209,1,77.0000023498536,2|8,0:0|0:0,0:0:0:0:
451,263,99935,1,2,0:3:0:0:
451,263,100070,1,2,0:3:0:0:
451,263,100205,1,8,1:2:0:0:
382,300,100476,6,0,P|325:304|216:368,1,154.000004699707,2|0,0:0|0:0,0:0:0:0:
302,282,101287,2,0,P|245:278|136:214,1,154.000004699707,0|8,1:0|0:0,0:0:0:0:
146,164,102097,1,2,0:3:0:0:
146,164,102232,1,2,0:3:0:0:
146,164,102368,2,0,P|163:219|158:236,1,77.0000023498536,8|0,0:0|0:0,0:0:0:0:
88,305,102908,5,8,0:0:0:0:
83,315,103449,1,0,1:0:0:0:
78,325,103989,1,8,0:0:0:0:
9,289,104395,1,0,3:0:0:0:
9,289,104530,5,4,3:0:0:0:
41,223,104800,2,0,P|44:179|44:142,2,77.0000023498536,0|2|4,3:0|0:3|0:2,0:0:0:0:
94,67,105611,6,0,P|122:121|182:106,1,115.50000352478,6|0,3:2|0:0,0:0:0:0:
169,117,106151,2,0,P|205:95|250:97,1,77.0000023498536,8|0,0:0|0:0,0:0:0:0:
300,140,106557,1,2,0:0:0:0:
300,140,106692,1,8,1:2:0:0:
421,79,106962,6,0,P|456:101|501:99,1,77.0000023498536,2|8,0:0|0:0,0:0:0:0:
364,37,107503,2,0,P|357:-1|353:-16,1,38.5000011749268,2|0,0:0|0:0,0:0:0:0:
328,101,107773,1,8,1:2:0:0:
328,101,107908,1,2,0:3:0:0:
328,101,108043,1,2,0:0:0:0:
419,165,108314,2,0,P|366:190|345:189,1,77.0000023498536,10|2,0:0|0:0,0:0:0:0:
297,238,108719,1,2,0:0:0:0:
297,238,108854,2,0,P|244:213|223:214,1,77.0000023498536,8|2,1:2|0:0,0:0:0:0:
86,150,109395,6,0,P|117:207|174:189,1,115.50000352478,10|0,0:0|0:0,0:0:0:0:
159,202,109935,2,0,P|136:237|138:282,1,77.0000023498536,8|0,1:2|0:0,0:0:0:0:
194,322,110341,1,2,0:0:0:0:
194,322,110476,2,0,P|241:311|281:311,1,77.0000023498536,8|0,0:0|0:0,0:0:0:0:
333,346,110881,2,0,P|380:357|420:357,1,77.0000023498536,2|0,0:0|0:0,0:0:0:0:
474,321,111287,2,0,P|485:293|482:280,1,38.5000011749268,2|0,0:0|0:0,0:0:0:0:
429,225,111557,6,0,P|419:169|418:144,1,77.0000023498536,8|0,0:0|0:0,0:0:0:0:
458,94,111962,1,2,0:0:0:0:
458,94,112097,1,8,1:2:0:0:
350,102,112368,1,2,0:0:0:0:
257,61,112638,1,10,0:0:0:0:
365,33,112908,1,2,0:0:0:0:
282,127,113178,1,8,1:2:0:0:
201,22,113448,1,2,0:0:0:0:
227,173,113719,6,0,P|162:150|94:149,1,115.50000352478,10|0,0:0|0:0,0:0:0:0:
115,146,114259,2,0,P|80:168|35:166,1,77.0000023498536,8|0,1:2|0:0,0:0:0:0:
45,243,114665,1,2,0:0:0:0:
54,251,114800,2,0,P|101:240|141:240,1,77.0000023498536,8|0,0:0|0:0,0:0:0:0:
193,275,115205,2,0,P|240:286|280:286,1,77.0000023498536,2|0,0:0|0:0,0:0:0:0:
334,250,115611,2,0,P|345:222|294:188,1,77.0000023498536,2|8,0:0|0:0,0:0:0:0:
389,87,116151,2,0,P|378:132|380:141,1,38.5000011749268,0|2,0:0|0:0,0:0:0:0:
421,185,116422,1,8,1:2:0:0:
506,137,116692,5,2,0:0:0:0:
469,56,116962,1,10,0:0:0:0:
389,87,117232,1,2,0:0:0:0:
325,54,117503,1,8,1:2:0:0:
325,54,118043,6,0,B|274:33|235:72|270:67|225:116|164:82,1,154.000004699707,8|0,0:0|1:0,0:0:0:0:
135,36,118854,1,2,0:0:0:0:
43,118,119124,5,8,0:0:0:0:
146,301,119530,1,2,0:0:0:0:
241,192,119935,1,2,0:0:0:0:
255,266,120205,6,0,B|208:264|208:264|177:235|177:235|119:232,1,140,8|8,0:0|0:0,0:0:0:0:
55,304,121016,1,2,0:0:0:0:
55,304,121151,1,2,0:0:0:0:
11,207,121422,1,2,0:0:0:0:
33,197,121557,1,2,0:0:0:0:
54,203,121692,1,0,3:0:0:0:
92,224,121827,2,0,P|127:233|138:232,1,35,0|2,3:0|0:0,0:0:0:0:
225,193,122097,1,8,0:0:0:0:
310,105,122368,6,0,P|267:115|193:129,1,115.50000352478,10|0,0:0|0:0,0:0:0:0:
197,129,122908,2,0,P|158:110|167:55,1,77.0000023498536,0|0,1:2|0:0,0:0:0:0:
219,61,123314,1,2,0:0:0:0:
219,61,123449,2,0,P|234:125|196:166,1,115.50000352478,8|2,0:0|0:0,0:0:0:0:
149,201,123989,2,0,P|127:247|136:277,1,77.0000023498536,0|2,0:0|0:0,0:0:0:0:
175,325,124395,1,0,0:0:0:0:
175,325,124530,6,0,P|235:311|252:303,1,77.0000023498536,8|0,0:0|0:0,0:0:0:0:
337,362,125070,1,0,1:2:0:0:
345,353,125205,1,0,0:0:0:0:
362,350,125341,2,0,P|375:389|368:407,1,38.5000011749268,2|0,0:0|0:0,0:0:0:0:
319,288,125611,5,10,0:0:0:0:
300,222,125881,1,2,0:0:0:0:
386,133,126151,5,0,1:2:0:0:
468,168,126422,1,2,0:0:0:0:
478,197,126557,1,0,0:0:0:0:
469,226,126692,6,0,P|427:229|409:187,1,77.0000023498536,8|0,0:0|0:0,0:0:0:0:
353,77,127232,2,0,P|346:121|322:192,1,115.50000352478,2|0,1:2|0:0,0:0:0:0:
324,189,127773,2,0,P|281:156|294:113,1,77.0000023498536,10|0,0:0|0:0,0:0:0:0:
224,88,128178,1,2,0:0:0:0:
224,88,128314,2,0,P|186:118|149:117,1,77.0000023498536,0|0,1:0|0:0,0:0:0:0:
104,164,128719,1,2,0:0:0:0:
104,164,128854,2,0,P|80:137|32:139,1,77.0000023498536,8|0,0:0|0:0,0:0:0:0:
150,256,129395,2,0,P|164:222|168:213,1,38.5000011749268,0|0,1:0|0:0,0:0:0:0:
223,183,129665,1,2,0:0:0:0:
223,183,129800,1,2,0:0:0:0:
223,183,129935,5,8,0:0:0:0:
310,242,130205,1,2,0:0:0:0:
206,301,130476,5,0,1:0:0:0:
385,252,130746,1,2,0:0:0:0:
385,252,130881,1,2,0:0:0:0:
385,252,131016,2,0,P|401:213|314:175,1,154.000004699707,10|0,0:0|1:0,0:0:0:0:
319,277,131827,2,0,P|328:315|330:335,1,38.5000011749268,2|0,0:0|0:0,0:0:0:0:
415,384,132097,2,0,P|421:345|431:308,1,77.0000023498536,8|0,0:0|0:0,0:0:0:0:
485,265,132503,1,2,0:0:0:0:
491,258,132638,2,0,P|483:229|476:188,1,38.5000011749268,0|0,1:0|0:0,0:0:0:0:
425,173,132908,6,0,P|437:129|447:68,1,77.0000023498536,2|8,0:1|0:0,0:0:0:0:
392,13,133449,1,0,0:0:0:0:
326,94,133719,2,0,P|334:76|339:58,1,38.5000011749268,0|0,1:0|0:0,0:0:0:0:
392,13,133989,1,2,0:0:0:0:
285,7,134259,6,0,P|239:31|230:63,1,77.0000023498536,8|2,0:0|0:0,0:0:0:0:
192,110,134665,1,0,0:0:0:0:
192,110,134800,2,0,P|187:75|141:63,1,77.0000023498536,0|0,1:0|0:0,0:0:0:0:
75,107,135341,6,0,P|99:115|113:126,1,38.5000011749268,10|2,0:0|0:0,0:0:0:0:
109,122,135611,2,0,P|85:130|71:141,1,38.5000011749268,2|2,0:0|0:0,0:0:0:0:
0,207,135881,6,0,P|24:199|38:188,1,38.5000011749268,2|2,1:2|0:0,0:0:0:0:
34,192,136151,2,0,P|10:184|-4:173,1,38.5000011749268,2|2,0:0|0:0,0:0:0:0:
104,202,136422,5,10,0:2:0:0:
114,210,136557,1,2,0:2:0:0:
119,192,136692,1,2,0:2:0:0:
135,200,136827,1,2,0:2:0:0:
155,220,136962,5,10,1:2:0:0:
168,210,137097,1,2,0:2:0:0:
174,233,137232,1,2,0:2:0:0:
195,223,137367,1,2,0:2:0:0:
241,190,137503,5,4,3:2:0:0:
438,281,139665,6,0,B|413:293|415:349|550:239|519:175|461:145|442:199|472:229,1,210,2|0,0:0|0:0,0:0:0:0:
470,226,141557,6,0,B|421:181|356:181|328:207|277:238|315:323|350:236,1,245,2|0,0:0|0:0,0:0:0:0:
292,160,143719,1,0,0:0:0:0:
292,160,143989,6,0,P|300:137|298:111,1,35,2|2,0:0|0:3,0:0:0:0:
229,193,144530,2,0,P|218:171|198:154,1,35,2|0,0:3|0:0,0:0:0:0:
168,228,145070,2,0,P|145:219|119:222,2,35,2|2|2,0:3|0:0|0:3,0:0:0:0:
192,295,145881,6,0,P|168:298|100:352,1,105,2|2,0:0|0:3,0:0:0:0:
102,345,146962,1,2,0:0:0:0:
39,318,147232,2,0,P|30:341|33:367,2,35,2|0|2,0:3|0:0|0:3,0:0:0:0:
78,214,148043,6,0,P|88:241|85:272,2,52.5000020027161,2|0|0,0:0|3:0|0:0,0:0:0:0:
41,150,148854,2,0,P|40:123|50:99,1,52.5000020027161,0|0,1:0|0:0,0:0:0:0:
109,52,149395,2,0,P|119:24|116:-6,2,52.5000020027161,0|2|0,3:0|0:0|1:0,0:0:0:0:
112,152,150205,6,0,P|150:126|226:146,1,105.000004005432,2|0,0:0|0:0,0:0:0:0:
283,217,151016,2,0,P|260:196|265:162,1,52.5000020027161,0|0,1:0|0:0,0:0:0:0:
295,65,151557,2,0,P|288:95|256:108,2,52.5000020027161,0|2|0,3:0|0:0|1:0,0:0:0:0:
329,161,152368,6,0,P|367:187|443:167,1,105.000004005432,2|0,0:0|0:0,0:0:0:0:
492,88,153179,2,0,P|469:109|474:143,1,52.5000020027161,0|0,1:0|0:0,0:0:0:0:
511,242,153719,2,0,P|504:211|472:198,1,52.5000020027161,0|2,3:0|0:0,0:0:0:0:
472,305,154259,1,0,1:0:0:0:
411,269,154530,2,0,P|326:260|291:257,1,105.000004005432,2|0,0:0|0:0,0:0:0:0:
231,313,155341,5,0,1:0:0:0:
161,287,155611,1,2,0:0:0:0:
91,223,155881,1,0,3:0:0:0:
14,248,156151,1,2,0:0:0:0:
3,321,156422,1,0,1:0:0:0:
3,321,156692,1,2,0:0:0:0:
67,346,156962,6,0,P|89:335|106:315,1,35,2|0,0:3|0:0,0:0:0:0:
81,256,157502,2,0,P|90:233|87:207,1,35,2|0,0:3|0:0,0:0:0:0:
33,172,158043,1,2,0:3:0:0:
33,172,158314,2,0,P|23:149|2:133,1,35,2|2,0:0|0:3,0:0:0:0:
153,115,158854,6,0,P|119:123|102:152,1,70,2|0,0:0|0:0,0:0:0:0:
156,202,159665,2,0,P|182:207|201:214,1,35,2|0,0:3|0:0,0:0:0:0:
255,166,160205,2,0,P|281:161|300:154,1,35,2|0,0:3|0:0,0:0:0:0:
343,206,160746,2,0,P|369:211|388:218,1,35,2|2,0:3|0:0,0:0:0:0:
444,184,161287,2,0,P|453:133|459:102,1,70,2|2,0:3|0:3,0:0:0:0:
413,59,162097,1,2,0:0:0:0:
413,59,162368,2,0,P|396:76|392:95,2,35,2|0|2,0:3|0:0|0:3,0:0:0:0:
332,127,163178,6,0,P|308:103|264:101,1,70,2|0,0:0|0:0,0:0:0:0:
186,43,163989,2,0,P|203:60|207:79,1,35,2|0,0:3|0:0,0:0:0:0:
162,128,164530,2,0,P|146:122|129:124,1,35,2|0,0:3|0:0,0:0:0:0:
72,167,164935,1,4,0:3:0:0:
60,159,165070,1,0,3:0:0:0:
108,233,165341,1,0,3:0:0:0:
46,286,165611,6,0,P|76:312|127:309,1,70,0|0,3:0|0:0,0:0:0:0:
226,247,166151,2,0,P|192:253|167:276,1,70,0|0,1:1|0:0,0:0:0:0:
278,338,166692,1,0,3:0:0:0:
299,269,166962,2,0,P|302:323|313:364,1,70,2|0,0:0|1:1,0:0:0:0:
280,195,167502,6,0,P|334:193|368:115,1,140,2|2,0:0|0:0,0:0:0:0:
410,34,168313,2,0,P|416:68|439:93,1,70,0|2,1:1|0:0,0:0:0:0:
500,178,168854,5,0,3:0:0:0:
428,164,169124,1,2,0:0:0:0:
361,119,169394,5,0,1:1:0:0:
296,128,169664,1,0,0:0:0:0:
198,75,169935,6,0,P|204:109|227:134,1,70,0|0,3:0|0:0,0:0:0:0:
238,251,170475,2,0,P|244:217|267:192,1,70,0|2,1:1|0:0,0:0:0:0:
180,190,171016,1,0,3:0:0:0:
90,148,171286,5,4,0:3:0:0:
30,183,171556,1,4,3:3:0:0:
17,288,171827,6,0,P|21:249|24:238,1,35,0|0,3:2|0:0,0:0:0:0:
87,281,172368,6,0,P|91:242|94:231,1,35,2|0,0:0|0:0,0:0:0:0:
156,281,172908,6,0,P|160:242|163:231,1,35,2|0,0:0|0:0,0:0:0:0:
220,198,173449,1,8,0:1:0:0:
220,198,173719,1,8,0:1:0:0:
367,334,174259,6,0,P|391:359|388:277,1,210,2|0,0:0|0:0,0:0:0:0:
352,210,176151,2,0,P|290:134|388:139,1,245,2|0,0:0|0:0,0:0:0:0:
462,117,178314,6,0,P|475:93|486:82,1,35,2|2,0:0|0:3,0:0:0:0:
388,138,178854,1,0,0:0:0:0:
388,138,179124,2,0,P|380:111|380:96,1,35,2|0,0:3|0:0,0:0:0:0:
334,188,179666,2,0,P|310:175|299:163,1,35,2|0,0:3|0:0,0:0:0:0:
354,262,180205,1,2,0:3:0:0:
354,262,180476,2,0,P|297:278|288:293,1,70,2|0,0:0|0:0,0:0:0:0:
207,229,181287,6,0,P|233:236|248:236,1,35,2|0,0:3|0:0,0:0:0:0:
157,283,181827,2,0,P|170:307|181:318,1,35,2|0,0:3|0:0,0:0:0:0:
83,263,182368,2,0,P|75:289|75:304,1,35,2|0,0:3|0:0,0:0:0:0:
134,211,182908,6,0,P|130:174|133:133,1,70,2|8,3:2|0:1,0:0:0:0:
32,39,183989,2,0,P|55:67|86:94,1,70,0|8,3:0|0:0,0:0:0:0:
157,74,184800,1,2,0:0:0:0:
157,74,185070,2,0,L|193:85,1,35,2|0,0:3|0:0,0:0:0:0:
243,137,185611,1,8,0:1:0:0:
243,137,185881,2,0,L|279:126,1,35,0|2,0:0|0:3,0:0:0:0:
416,96,186692,1,8,0:1:0:0:
401,29,186962,6,0,P|364:42|350:80,1,70,2|0,0:0|0:0,0:0:0:0:
380,154,187773,2,0,P|386:183|387:196,1,35,8|0,0:1|0:0,0:0:0:0:
447,242,188314,2,0,P|453:213|454:200,1,35,2|0,0:3|0:0,0:0:0:0:
510,168,188854,2,0,P|506:151|504:134,1,35,8|0,0:1|0:0,0:0:0:0:
416,96,189395,5,0,3:0:0:0:
350,67,189935,1,0,1:0:0:0:
282,47,190476,1,0,3:0:0:0:
206,93,190881,1,0,1:1:0:0:
206,93,191016,5,0,1:1:0:0:
123,53,191287,1,0,3:0:0:0:
113,47,191422,1,0,3:0:0:0:
99,44,191557,6,0,P|58:86|75:153,1,115.50000352478,6|0,3:2|0:0,0:0:0:0:
79,147,192097,2,0,B|120:151|122:218|109:265|70:232|73:220,1,115.50000352478,0|0,1:1|0:0,0:0:0:0:
80,242,192638,2,0,P|70:286|67:333,1,77.0000023498536,8|0,3:0|0:0,0:0:0:0:
159,367,193178,1,0,1:0:0:0:
247,327,193449,2,0,P|257:296|248:264,1,38.5000011749268,2|2,0:0|0:0,0:0:0:0:
230,227,193719,1,8,0:3:0:0:
322,204,193989,6,0,P|333:164|358:111,1,77.0000023498536,2|0,0:0|1:0,0:0:0:0:
267,67,194530,6,0,P|308:101|349:122,1,77.0000023498536,2|8,0:0|3:0,0:0:0:0:
243,159,195070,6,0,P|298:149|348:147,1,77.0000023498536,2|0,0:0|1:0,0:0:0:0:
446,146,195611,6,0,P|426:133|402:108,1,38.5000011749268,2|0,0:0|0:0,0:0:0:0:
363,77,195881,6,0,P|386:49|369:11,1,77.0000023498536,10|2,3:2|0:0,0:0:0:0:
258,90,196422,2,0,P|250:73|252:50,1,38.5000011749268,2|0,1:2|0:0,0:0:0:0:
185,30,196692,2,0,P|191:12|209:-2,1,38.5000011749268,2|0,0:0|0:0,0:0:0:0:
185,97,196962,2,0,P|146:106|99:130,1,77.0000023498536,8|2,3:0|0:0,0:0:0:0:
30,72,197503,1,0,1:0:0:0:
86,196,197773,1,2,0:0:0:0:
35,276,198043,6,0,P|75:287|128:312,1,77.0000023498536,2|2,0:0|0:0,0:0:0:0:
172,221,198584,6,0,P|138:262|117:303,1,77.0000023498536,2|2,0:0|0:0,0:0:0:0:
80,197,199124,6,0,P|90:252|92:302,1,77.0000023498536,2|0,0:0|1:0,0:0:0:0:
178,349,199665,5,8,0:1:0:0:
251,300,199935,1,4,0:3:0:0:
327,366,200205,6,0,B|345:321|427:323|433:373|410:367,1,115.50000352478,14|0,0:0|0:0,0:0:0:0:
426,369,200746,2,0,P|437:298|459:256,1,115.50000352478,2|0,1:2|0:0,0:0:0:0:
465,263,201287,2,0,P|496:241|462:191,1,77.0000023498536,8|0,0:3|0:0,0:0:0:0:
428,123,201827,1,0,1:0:0:0:
343,55,202097,6,0,P|297:46|256:32,1,77.0000023498536,2|8,0:0|0:3,0:3:0:0:
187,113,202638,6,0,P|224:84|255:48,1,77.0000023498536,2|0,0:0|1:3,0:3:0:0:
292,155,203178,6,0,P|278:118|268:67,1,77.0000023498536,2|8,0:0|0:3,0:3:0:0:
217,171,203719,6,0,P|240:132|254:89,1,77.0000023498536,2|0,0:0|1:1,0:3:0:0:
176,40,204260,6,0,B|125:25|90:67|120:47|81:97|28:77,1,154.000004699707,2|2,0:0|0:0,0:0:0:0:
6,178,205070,2,0,P|15:215|28:229,1,38.5000011749268,2|0,1:2|0:0,0:0:0:0:
81,257,205341,2,0,P|82:238|89:221,1,38.5000011749268,2|0,0:0|0:0,0:0:0:0:
149,179,205611,2,0,P|190:208|230:203,1,77.0000023498536,8|2,0:3|0:0,0:0:0:0:
346,137,206151,2,0,P|298:162|278:182,1,77.0000023498536,2|2,1:2|0:0,0:0:0:0:
330,300,206692,5,2,0:0:0:0:
406,272,207232,5,0,0:0:0:0:
478,308,207773,5,0,0:0:0:0:
494,233,208043,1,2,0:0:0:0:
494,233,208314,1,2,0:0:0:0:
494,233,208584,1,2,0:0:0:0:
435,177,208854,6,0,P|396:190|360:196,1,70,2|0,0:0|0:0,0:0:0:0:
367,267,209395,6,0,P|328:254|292:248,1,56,2|0,0:0|0:0,0:0:0:0:
274,195,209935,6,0,P|246:204|220:208,1,41.9999987182618,2|0,0:0|0:0,0:0:0:0:
200,266,210476,6,0,P|184:260|168:257,1,28,2|0,0:0|0:0,0:0:0:0:
126,205,211016,6,0,P|118:207|110:209,1,14,2|0,0:0|0:0,0:0:0:0:
68,263,211557,6,0,P|64:261|60:260,14,7,2|0|0|0|0|0|0|0|0|0|0|0|0|0|0,0:0|0:0|0:0|0:0|0:0|0:0|0:0|0:0|0:0|0:0|0:0|0:0|0:0|0:0|0:0,0:0:0:0:
