osu file format v14

[General]
AudioFilename: audio.mp3
AudioLeadIn: 0
PreviewTime: -1
Countdown: 1
SampleSet: Normal
StackLeniency: 0.7
Mode: 1
LetterboxInBreaks: 0
WidescreenStoryboard: 1

[Editor]
Bookmarks: 45634
DistanceSpacing: 0.8
BeatDivisor: 4
GridSize: 32
TimelineZoom: 2.1

[Metadata]
Title:Samurai (Spirix remix)
TitleUnicode:Samurai (Spirix remix)
Artist:Vanix
ArtistUnicode:Vanix
Creator:Holmes45
Version:Kantan
Source:
Tags:
BeatmapID:1391060
BeatmapSetID:628128

[Difficulty]
HPDrainRate:3
CircleSize:5
OverallDifficulty:2
ApproachRate:2
SliderMultiplier:1.2
SliderTickRate:1

[Events]
//Background and Video events
//Break Periods
//Storyboard Layer 0 (Background)
//Storyboard Layer 1 (Fail)
//Storyboard Layer 2 (Pass)
//Storyboard Layer 3 (Foreground)
//Storyboard Sound Samples

[TimingPoints]
34,400,4,1,0,100,1,0

[HitObjects]
256,192,34,5,0,0:0:0:0:
256,192,834,1,0,0:0:0:0:
256,192,1634,1,8,0:0:0:0:
256,192,2434,1,8,0:0:0:0:
256,192,3234,1,0,0:0:0:0:
256,192,4034,1,8,0:0:0:0:
256,192,4834,1,0,0:0:0:0:
256,192,5634,1,8,0:0:0:0:
256,192,6434,1,0,0:0:0:0:
256,192,6834,1,0,0:0:0:0:
256,192,7234,1,8,0:0:0:0:
256,192,8034,1,0,0:0:0:0:
256,192,8834,1,8,0:0:0:0:
256,192,9234,1,8,0:0:0:0:
256,192,9634,1,0,0:0:0:0:
256,192,10434,1,8,0:0:0:0:
256,192,11234,1,8,0:0:0:0:
256,192,12034,1,8,0:0:0:0:
256,192,12434,1,8,0:0:0:0:
256,192,12834,1,4,0:0:0:0:
256,192,13634,1,8,0:0:0:0:
256,192,14434,1,0,0:0:0:0:
256,192,15234,1,8,0:0:0:0:
256,192,15634,1,8,0:0:0:0:
256,192,16034,1,0,0:0:0:0:
256,192,16834,1,8,0:0:0:0:
256,192,17634,1,0,0:0:0:0:
256,192,18434,1,8,0:0:0:0:
256,192,18834,1,8,0:0:0:0:
256,192,19234,1,0,0:0:0:0:
256,192,20034,1,8,0:0:0:0:
256,192,20834,1,8,0:0:0:0:
256,192,21634,1,8,0:0:0:0:
256,192,22034,12,0,24034,0:0:0:0:
256,192,25634,5,12,0:0:0:0:
256,192,27234,1,4,0:0:0:0:
256,192,28834,1,12,0:0:0:0:
256,192,30434,1,4,0:0:0:0:
256,192,32034,1,12,0:0:0:0:
256,192,33634,1,4,0:0:0:0:
256,192,35234,1,12,0:0:0:0:
256,192,36834,1,12,0:0:0:0:
256,192,38434,1,0,0:0:0:0:
256,192,38834,1,0,0:0:0:0:
256,192,39234,1,8,0:0:0:0:
256,192,40034,1,0,0:0:0:0:
256,192,40834,1,8,0:0:0:0:
256,192,41634,1,0,0:0:0:0:
256,192,42434,1,8,0:0:0:0:
256,192,42834,1,8,0:0:0:0:
256,192,43234,1,0,0:0:0:0:
256,192,44034,1,8,0:0:0:0:
256,192,44834,1,4,0:0:0:0:
256,192,45634,1,8,0:0:0:0:
256,192,46434,1,4,0:0:0:0:
256,192,47234,1,8,0:0:0:0:
256,192,48034,1,0,0:0:0:0:
256,192,48434,1,0,0:0:0:0:
256,192,48834,1,0,0:0:0:0:
256,192,49634,1,0,0:0:0:0:
256,192,50034,1,8,0:0:0:0:
256,192,50434,1,0,0:0:0:0:
256,192,51234,1,8,0:0:0:0:
256,192,51634,1,8,0:0:0:0:
256,192,52034,1,8,0:0:0:0:
256,192,52834,1,8,0:0:0:0:
256,192,53234,1,8,0:0:0:0:
256,192,53634,1,0,0:0:0:0:
256,192,54434,1,0,0:0:0:0:
256,192,54834,1,8,0:0:0:0:
256,192,55234,1,0,0:0:0:0:
256,192,56034,1,0,0:0:0:0:
256,192,56834,1,0,0:0:0:0:
256,192,57634,1,0,0:0:0:0:
256,192,58034,1,8,0:0:0:0:
256,192,58434,1,0,0:0:0:0:
256,192,59234,1,0,0:0:0:0:
256,192,59634,1,0,0:0:0:0:
256,192,60034,1,8,0:0:0:0:
256,192,60834,1,4,0:0:0:0:
256,192,61634,1,4,0:0:0:0:
256,192,62434,1,12,0:0:0:0:
256,192,63634,1,8,0:0:0:0:
256,192,64034,1,8,0:0:0:0:
256,192,64834,1,0,0:0:0:0:
256,192,65634,1,8,0:0:0:0:
256,192,66034,1,8,0:0:0:0:
256,192,66834,1,0,0:0:0:0:
256,192,67234,1,8,0:0:0:0:
256,192,67634,1,8,0:0:0:0:
256,192,68034,1,0,0:0:0:0:
256,192,68834,1,8,0:0:0:0:
256,192,69634,1,0,0:0:0:0:
256,192,70034,1,0,0:0:0:0:
256,192,70434,1,8,0:0:0:0:
256,192,71234,1,0,0:0:0:0:
256,192,72034,1,8,0:0:0:0:
256,192,72434,1,8,0:0:0:0:
256,192,72834,1,0,0:0:0:0:
256,192,73634,1,12,0:0:0:0:
256,192,74434,1,12,0:0:0:0:
256,192,75234,1,0,0:0:0:0:
256,192,75634,1,0,0:0:0:0:
256,192,76034,1,0,0:0:0:0:
256,192,76434,1,0,0:0:0:0:
256,192,76834,1,4,0:0:0:0:
256,192,77234,12,0,80034,0:0:0:0:
