osu file format v14

[General]
AudioFilename: audio.mp3
AudioLeadIn: 0
PreviewTime: -1
Countdown: 1
SampleSet: Normal
StackLeniency: 0.7
Mode: 3
LetterboxInBreaks: 0
SpecialStyle: 0
WidescreenStoryboard: 1

[Editor]
Bookmarks: 45634
DistanceSpacing: 0.8
BeatDivisor: 4
GridSize: 32
TimelineZoom: 1.1

[Metadata]
Title:Samurai (Spirix remix)
TitleUnicode:Samurai (Spirix remix)
Artist:Vanix
ArtistUnicode:Vanix
Creator:Holmes45
Version:Fading
Source:
Tags:
BeatmapID:1353534
BeatmapSetID:628128

[Difficulty]
HPDrainRate:7
CircleSize:4
OverallDifficulty:5
ApproachRate:9
SliderMultiplier:1.2
SliderTickRate:1

[Events]
//Background and Video events
//Break Periods
//Storyboard Layer 0 (Background)
//Storyboard Layer 1 (Fail)
//Storyboard Layer 2 (Pass)
//Storyboard Layer 3 (Foreground)
//Storyboard Sound Samples

[TimingPoints]
34,400,4,1,0,100,1,0

[HitObjects]
64,192,34,128,0,134:0:0:0:0:
192,192,34,128,0,134:0:0:0:0:
320,192,134,1,0,0:0:0:0:
192,192,234,1,0,0:0:0:0:
64,192,634,128,0,1234:0:0:0:0:
320,192,634,128,0,1234:0:0:0:0:
192,192,1234,128,0,1534:0:0:0:0:
448,192,1234,128,0,1534:0:0:0:0:
320,192,1434,1,0,0:0:0:0:
320,192,1634,128,0,2234:0:0:0:0:
448,192,1634,128,0,2234:0:0:0:0:
64,192,2234,128,0,2834:0:0:0:0:
320,192,2834,1,0,0:0:0:0:
448,192,3234,1,0,0:0:0:0:
192,192,3234,1,0,0:0:0:0:
192,192,3834,1,0,0:0:0:0:
448,192,3834,1,0,0:0:0:0:
192,192,4434,1,0,0:0:0:0:
64,192,4834,1,0,0:0:0:0:
320,192,4834,1,0,0:0:0:0:
64,192,5434,1,0,0:0:0:0:
320,192,5434,1,0,0:0:0:0:
448,192,6434,128,0,6534:0:0:0:0:
192,192,6434,128,0,6534:0:0:0:0:
320,192,6534,1,0,0:0:0:0:
64,192,6634,1,0,0:0:0:0:
192,192,7034,128,0,7634:0:0:0:0:
320,192,7034,128,0,7634:0:0:0:0:
64,192,7634,128,0,7934:0:0:0:0:
448,192,7634,128,0,7934:0:0:0:0:
192,192,7834,1,0,0:0:0:0:
192,192,8034,128,0,8634:0:0:0:0:
448,192,8034,128,0,8634:0:0:0:0:
64,192,8634,128,0,9234:0:0:0:0:
448,192,9234,1,0,0:0:0:0:
192,192,9434,1,0,0:0:0:0:
320,192,9634,1,0,0:0:0:0:
448,192,9634,1,0,0:0:0:0:
64,192,9634,128,0,10834:0:0:0:0:
320,192,10234,1,0,0:0:0:0:
192,192,10834,1,0,0:0:0:0:
64,192,11234,1,0,0:0:0:0:
64,192,11834,1,0,0:0:0:0:
320,192,12034,1,0,0:0:0:0:
192,192,12034,1,0,0:0:0:0:
448,192,12234,1,0,0:0:0:0:
64,192,12434,1,0,0:0:0:0:
192,192,12434,1,0,0:0:0:0:
448,192,12634,1,0,0:0:0:0:
64,192,12834,128,0,12934:0:0:0:0:
320,192,12834,128,0,12934:0:0:0:0:
192,192,12934,1,0,0:0:0:0:
448,192,13034,1,0,0:0:0:0:
64,192,13234,1,0,0:0:0:0:
320,192,13434,1,0,0:0:0:0:
448,192,13434,1,0,0:0:0:0:
64,192,13634,128,0,14034:0:0:0:0:
192,192,13634,128,0,14034:0:0:0:0:
448,192,14034,1,0,0:0:0:0:
320,192,14234,1,0,0:0:0:0:
192,192,14434,1,0,0:0:0:0:
64,192,14434,128,0,15234:0:0:0:0:
320,192,15234,1,0,0:0:0:0:
192,192,15634,1,0,0:0:0:0:
64,192,15634,1,0,0:0:0:0:
448,192,15634,1,0,0:0:0:0:
320,192,15834,1,0,0:0:0:0:
448,192,16034,1,0,0:0:0:0:
192,192,16034,128,0,16834:0:0:0:0:
448,192,16834,128,0,17634:0:0:0:0:
320,192,16834,1,0,0:0:0:0:
320,192,17634,128,0,18434:0:0:0:0:
64,192,17634,1,0,0:0:0:0:
192,192,18434,128,0,19234:0:0:0:0:
448,192,18434,1,0,0:0:0:0:
64,192,19234,128,0,19434:0:0:0:0:
448,192,19234,1,0,0:0:0:0:
64,192,20034,1,0,0:0:0:0:
448,192,20234,1,0,0:0:0:0:
192,192,20434,1,0,0:0:0:0:
320,192,20434,1,0,0:0:0:0:
64,192,20634,1,0,0:0:0:0:
448,192,20834,1,0,0:0:0:0:
192,192,21034,1,0,0:0:0:0:
448,192,21234,1,0,0:0:0:0:
64,192,21434,1,0,0:0:0:0:
320,192,21634,1,0,0:0:0:0:
64,192,22034,128,0,22834:0:0:0:0:
192,192,22034,128,0,23134:0:0:0:0:
320,192,22034,128,0,23634:0:0:0:0:
