osu file format v14

[General]
AudioFilename: Vanilla Kiss - Just For Tonight (Nightcore Mix).mp3
AudioLeadIn: 0
PreviewTime: 73877
Countdown: 0
SampleSet: Soft
StackLeniency: 0.3
Mode: 0
LetterboxInBreaks: 0
SkinPreference:Default
EpilepsyWarning: 1
WidescreenStoryboard: 1

[Editor]
Bookmarks: 1605,49492,60759,108647,121323,191745
DistanceSpacing: 1.1
BeatDivisor: 4
GridSize: 4
TimelineZoom: 1

[Metadata]
Title:Just for Tonight (Arctic Stars Remix Edit) (Nightcore Mix)
TitleUnicode:Just for Tonight (Arctic Stars Remix Edit) (Nightcore Mix)
Artist:Vanilla Kiss
ArtistUnicode:Vanilla Kiss
Creator:Gero
Version:Hard
Source:
Tags:Electronic English Techno Trance Happy Hardcore MkGuh [Te][Amo] Kryptogram osuplayer111 Andrea GhostFY
BeatmapID:3638555
BeatmapSetID:155496

[Difficulty]
HPDrainRate:8
CircleSize:4
OverallDifficulty:8
ApproachRate:9
SliderMultiplier:1.6
SliderTickRate:1

[Events]
//Background and Video events
0,0,"BG.jpg",0,0
//Break Periods
2,49692,60159
2,110255,120723
//Storyboard Layer 0 (Background)
//Storyboard Layer 1 (Fail)
//Storyboard Layer 2 (Pass)
//Storyboard Layer 3 (Foreground)
//Storyboard Layer 4 (Overlay)
//Storyboard Sound Samples

[TimingPoints]
1605,352.112676056338,4,2,0,60,1,0
1605,-166.666666666667,4,2,0,60,0,0
7238,-142.857142857143,4,2,0,60,0,0
12872,-125,4,2,0,60,0,0
18506,-111.111111111111,4,2,0,60,0,0
24141,-100,4,2,0,20,0,0
24493,-100,4,2,0,30,0,0
24845,-100,4,2,0,40,0,0
25549,-100,4,1,0,60,0,1
25637,-100,4,1,0,60,0,0
73965,-100,4,2,0,60,0,0
74317,-100,4,2,0,5,0,0
74405,-100,4,2,0,60,0,0
74669,-100,4,2,0,5,0,0
74757,-100,4,2,0,60,0,0
74845,-100,4,1,0,60,0,1
97292,-100,4,1,0,60,0,0
97380,-100,4,1,0,60,0,1
108648,-100,4,1,0,60,0,0
110056,-100,4,2,0,60,0,1
110144,-142.857142857143,4,2,0,60,0,0
133999,-100,4,2,0,60,0,0
145267,-100,4,2,0,60,0,0
159352,-100,4,1,0,60,0,1
180391,-100,4,1,0,60,0,0
180479,-100,4,1,0,60,0,1
191746,-100,4,2,0,60,0,0

[Colours]
Combo1 : 255,159,64
Combo2 : 180,112,197
Combo3 : 28,141,255
Combo4 : 255,72,72
SliderBorder : 100,240,244
SliderTrackOverride : 200,200,200

[HitObjects]
172,272,1605,6,0,P|256:312|340:272,1,191.999994140625
256,192,2661,1,0,0:0:0:0:
340,112,3013,2,0,P|256:72|172:112,1,191.999994140625
256,192,4069,5,0,0:0:0:0:
256,192,4245,1,0,0:0:0:0:
256,192,4421,2,0,L|400:192,2,143.999995605469
172,272,5830,6,0,B|172:292|172:292|160:317,2,47.9999985351563
256,272,6358,1,0,0:0:0:0:
340,272,6534,2,0,B|340:292|340:292|351:317,2,47.9999985351563
256,272,7062,1,0,0:0:0:0:
172,272,7238,6,0,P|155:220|172:168,1,111.999996582031
340,272,7943,2,0,P|357:220|340:168,1,111.999996582031
256,56,8647,6,0,L|256:168,1,111.999996582031
172,168,9175,1,0,0:0:0:0:
88,168,9351,2,0,L|88:56,1,111.999996582031
256,56,10055,6,0,B|296:28|336:52|336:56|336:60|376:84|416:56,2,167.999994873047
256,192,11464,2,0,B|212:192|212:192|204:183|204:183|196:192|196:192|152:192,2,111.999996582031
256,328,12520,1,0,0:0:0:0:
392,328,12872,6,0,B|388:292|416:264|452:264|452:264|480:264,1,128
440,192,13400,1,0,0:0:0:0:
480,120,13576,2,0,B|452:120|452:120|416:120|388:92|392:56,1,128
256,128,14281,6,0,B|224:128|224:128|201:150,1,64
256,256,14633,2,0,B|224:256|224:256|201:233,1,64
128,192,14985,2,0,L|0:192,1,128
128,109,15689,6,0,B|148:84|136:44|136:44|195:44,1,128
256,109,16217,1,0,0:0:0:0:
316,44,16393,2,0,B|376:44|376:44|364:84|384:109,1,128
512,192,17097,6,0,L|384:192,1,128
296,192,17626,2,0,P|306:222|296:252,1,64
216,192,17978,2,0,P|206:222|216:252,1,64
0,192,18506,6,0,P|64:164|128:192,1,143.999995605469
172,116,19034,1,0,0:0:0:0:
216,192,19210,2,0,L|303:306,1,143.999995605469
512,192,19914,6,0,P|448:164|384:192,1,143.999995605469
340,116,20442,1,0,0:0:0:0:
296,192,20619,2,0,L|208:306,1,143.999995605469
0,192,21323,5,0,0:0:0:0:
0,192,21499,2,0,P|64:164|128:192,1,143.999995605469
192,252,22027,2,0,P|128:280|64:252,1,143.999995605469
192,132,22731,6,0,P|256:104|320:132,1,143.999995605469
384,192,23259,2,0,P|320:220|256:192,1,143.999995605469
256,192,24140,5,0,0:0:0:0:
256,192,24492,6,0,L|136:192,1,120
92,192,24844,1,0,0:0:0:0:
48,268,25020,1,0,0:0:0:0:
48,268,25108,1,0,0:0:0:0:
48,268,25196,1,0,0:0:0:0:
4,192,25372,1,0,0:0:0:0:
48,116,25548,6,0,B|76:60|132:60|132:60|184:60,1,160
256,112,26076,1,0,0:0:0:0:
327,60,26252,2,0,B|327:99|327:99|355:127,1,80
416,192,26605,1,0,0:0:0:0:
355,256,26781,6,0,L|257:382,1,160
195,319,27309,2,0,B|156:310|156:310|117:319,1,80
0,236,27661,2,0,B|39:245|39:245|78:236,1,80
117,153,28013,1,0,0:0:0:0:
156,236,28189,6,0,B|212:180|212:180|212:99,1,160
256,24,28717,1,0,0:0:0:0:
300,99,28893,2,0,B|300:180|300:180|356:236,1,160
395,153,29421,1,0,0:0:0:0:
434,236,29597,6,0,B|440:304|368:320|396:320|325:319,1,160
256,264,30126,1,0,0:0:0:0:
256,264,30302,1,0,0:0:0:0:
186,319,30478,2,0,L|138:384,1,80
325,319,30830,2,0,L|373:384,1,80
256,264,31182,6,0,B|256:200|256:200|250:192|250:192|262:192|262:192|256:184|256:184|256:120,1,160
325,64,31710,1,0,0:0:0:0:
256,8,31886,1,0,0:0:0:0:
187,64,32062,2,0,P|151:79|115:64,1,80
46,120,32414,6,0,P|16:192|46:264,1,160
114,320,32943,2,0,P|150:305|186:320,1,80
256,376,33295,1,0,0:0:0:0:
326,320,33471,2,0,L|326:240,1,80
186,320,33823,6,0,B|256:281|256:281|326:320,1,160
256,376,34351,1,0,0:0:0:0:
186,320,34527,2,0,P|156:248|186:176,1,160
256,40,35055,2,0,L|256:120,1,80
326,176,35407,5,0,0:0:0:0:
326,176,35583,1,0,0:0:0:0:
326,176,35759,2,0,B|280:176|256:208|256:208|232:176|186:176,1,160
256,120,36288,1,0,0:0:0:0:
256,120,36376,1,0,0:0:0:0:
256,120,36464,1,0,0:0:0:0:
326,176,36640,1,0,0:0:0:0:
256,36,36816,5,0,0:0:0:0:
256,36,36992,2,0,B|229:36|229:36|221:26|221:26|213:36|213:36|186:36,1,80
70,106,37344,2,0,B|97:106|97:106|105:96|105:96|113:106|113:106|140:106,1,80
256,176,37696,2,0,B|229:176|229:176|221:166|221:166|213:176|213:176|186:176,1,80
70,246,38048,6,0,B|105:318|105:318|140:246,1,160
186,316,38576,1,0,0:0:0:0:
186,316,38752,2,0,B|216:342|216:342|216:382,1,80
326,316,39105,2,0,B|296:342|296:342|296:382,1,80
372,246,39457,6,0,B|407:318|407:318|442:246,1,160
487,176,39985,1,0,0:0:0:0:
442,106,40161,2,0,B|407:34|407:34|372:106,1,160
327,176,40689,1,0,0:0:0:0:
327,176,40865,1,0,0:0:0:0:
185,176,41041,6,0,P|256:145|327:176,1,160
256,228,41569,1,0,0:0:0:0:
327,280,41745,2,0,P|340:317|327:354,1,80
185,280,42097,2,0,P|172:317|185:354,1,80
256,228,42450,6,0,B|280:192|260:152|256:152|252:152|232:112|256:76,1,160
194,13,42978,1,0,0:0:0:0:
131,75,43154,2,0,P|94:62|57:75,1,80
94,155,43507,1,0,0:0:0:0:
57,235,43682,6,0,P|94:292|131:235,1,160
208,196,44211,2,0,B|217:235|217:235|208:274,1,80
304,196,44562,2,0,B|295:235|295:235|304:274,1,80
256,348,44915,1,0,0:0:0:0:
208,274,45091,6,0,B|208:208|208:208|212:188|212:188|212:114,1,160
256,40,45619,1,0,0:0:0:0:
300,114,45795,2,0,B|300:188|300:188|304:208|304:208|304:274,1,160
256,348,46323,1,0,0:0:0:0:
208,274,46499,6,0,B|214:206|140:192|168:192|97:192,1,160
9,192,47027,1,0,0:0:0:0:
9,192,47203,2,0,B|3:124|77:110|49:110|119:110,1,160
207,110,47731,1,0,0:0:0:0:
256,36,47907,1,0,0:0:0:0:
305,110,48083,6,0,B|325:130|325:130|325:194|325:194|305:214,2,120
202,192,48788,2,0,B|182:212|182:212|182:276|182:276|202:296,2,120
99,110,49492,5,0,0:0:0:0:
99,110,60759,6,0,B|168:110|168:110|148:66|168:22,1,160
256,66,61288,2,0,B|276:110|256:154|256:154|325:154,1,160
413,154,61816,1,0,0:0:0:0:
478,214,61992,1,0,0:0:0:0:
413,274,62167,6,0,B|344:274|344:274|364:318|344:362,1,160
256,318,62696,2,0,B|236:274|256:230|256:230|187:230,1,160
99,230,63224,1,0,0:0:0:0:
34,170,63400,1,0,0:0:0:0:
99,110,63576,6,0,B|136:36|136:36|213:36,1,160
298,36,64104,2,0,B|376:36|376:36|412:110,1,160
347,170,64633,1,0,0:0:0:0:
347,170,64809,1,0,0:0:0:0:
412,230,64985,6,0,B|375:304|375:304|297:304,1,160
213,304,65513,2,0,B|135:304|135:304|98:229,1,160
165,170,66042,1,0,0:0:0:0:
99,110,66218,5,0,0:0:0:0:
99,110,66305,1,0,0:0:0:0:
99,110,66393,2,0,B|99:78|99:78|107:66|107:66|107:32,3,80
231,110,67097,2,0,B|231:78|231:78|223:66|223:66|223:32,3,80
165,170,67802,6,0,B|165:202|165:202|173:214|173:214|173:247,3,80
297,170,68506,2,0,B|297:202|297:202|289:214|289:214|289:247,3,80
363,110,69210,6,0,B|363:78|363:78|355:66|355:66|355:32,2,80
429,170,69738,1,0,0:0:0:0:
429,170,69826,1,0,0:0:0:0:
429,170,69914,2,0,B|429:202|429:202|421:214|421:214|421:247,1,80
495,110,70266,1,0,0:0:0:0:
495,110,70355,1,0,0:0:0:0:
495,110,70443,2,0,L|495:70,1,40
495,26,70619,6,0,P|439:7|383:26,1,120
200,110,71147,2,0,P|256:129|312:110,2,120
129,26,71851,1,0,0:0:0:0:
129,26,72027,6,0,P|73:7|17:26,2,120
200,110,72731,2,0,P|256:91|312:110,2,120
200,110,74844,6,0,B|240:130|276:106|276:106|312:130|352:110,1,160
428,64,75372,2,0,B|452:110|428:156|428:156|491:156,1,160
448,232,75900,1,0,0:0:0:0:
491,308,76076,1,0,0:0:0:0:
405,308,76252,6,0,P|368:321|331:308,1,80
220,224,76605,2,0,B|256:207|256:207|292:224,1,80
181,308,76957,2,0,P|144:321|107:308,1,80
21,308,77309,1,0,0:0:0:0:
64,232,77485,1,0,0:0:0:0:
20,156,77661,6,0,B|84:156|84:156|60:110|84:64,1,160
160,110,78189,2,0,B|200:130|236:106|236:106|272:130|312:110,1,160
280,30,78717,1,0,0:0:0:0:
192,30,78893,1,0,0:0:0:0:
160,110,79069,6,0,B|184:140|184:140|184:181,1,80
312,110,79421,2,0,B|288:140|288:140|288:181,1,80
236,252,79774,2,0,L|349:365,1,160
400,292,80302,1,0,0:0:0:0:
451,366,80478,6,0,B|492:360|512:320|512:280|512:280|512:235,1,160
512,148,81006,2,0,B|512:104|512:104|512:64|492:24|451:18,1,160
400,92,81534,1,0,0:0:0:0:
451,18,81710,1,0,0:0:0:0:
400,92,81886,6,0,P|381:126|348:149,1,80
512,192,82238,2,0,L|432:192,1,80
348,234,82590,2,0,P|381:257|400:292,1,80
451,366,82943,1,0,0:0:0:0:
400,292,83119,1,0,0:0:0:0:
348,366,83295,6,0,P|270:362|212:309,1,160
299,309,83823,2,0,P|241:362|163:366,1,160
61,366,84351,1,0,0:0:0:0:
112,292,84527,1,0,0:0:0:0:
61,218,84703,6,0,L|61:138,2,80
112,292,85231,1,0,0:0:0:0:
163,218,85407,2,0,B|199:194|239:214|239:218|239:222|279:242|315:218,1,160
367,144,85935,1,0,0:0:0:0:
418,70,86112,6,0,B|407:26|367:14|367:14|327:26|316:70,1,160
367,144,86640,2,0,B|378:188|418:200|418:200|458:188|469:144,1,160
418,70,87168,1,0,0:0:0:0:
367,144,87344,1,0,0:0:0:0:
316,71,87520,6,0,P|280:56|244:71,1,80
121,144,87872,2,0,P|157:159|193:144,1,80
316,217,88224,2,0,P|280:202|244:217,1,80
193,289,88576,1,0,0:0:0:0:
193,289,88752,1,0,0:0:0:0:
244,361,88928,6,0,B|308:361|308:361|316:369|316:369|324:377|324:377|397:377,1,160
512,311,89457,2,0,B|448:311|448:311|440:303|440:303|432:295|432:295|358:295,1,160
316,217,89985,2,0,L|396:217,1,80
396,129,90337,6,0,L|316:129,1,80
256,64,90689,1,0,0:0:0:0:
256,64,90865,1,0,0:0:0:0:
196,129,91041,2,0,P|154:192|196:255,1,160
256,192,91569,1,0,0:0:0:0:
316,255,91745,6,0,P|358:192|316:129,1,160
256,192,92274,2,0,L|416:192,1,160
492,236,92802,1,0,0:0:0:0:
492,148,92978,1,0,0:0:0:0:
492,236,93154,6,0,L|435:292,1,80
416,192,93506,2,0,L|336:192,1,80
492,148,93858,2,0,L|435:91,1,80
347,91,94210,1,0,0:0:0:0:
300,16,94386,1,0,0:0:0:0:
212,16,94562,6,0,B|148:16|148:16|140:24|140:24|132:32|132:32|58:32,1,160
174,98,95090,2,0,B|256:98|256:98|242:137|256:176,1,160
296,252,95619,2,0,B|256:256|256:256|216:252,1,80
216,340,95971,6,0,B|256:344|256:344|296:340,2,80
140,296,96499,1,0,0:0:0:0:
216,252,96675,2,0,P|256:196|296:252,1,160
372,296,97203,1,0,0:0:0:0:
216,252,97379,6,0,B|216:176|216:176|184:98,1,160
296,252,97907,2,0,B|296:176|296:176|327:98,1,160
256,44,98435,1,0,0:0:0:0:
185,98,98612,1,0,0:0:0:0:
327,97,98788,6,0,P|342:61|377:44,1,80
256,152,99140,2,0,L|256:232,1,80
185,98,99492,2,0,P|170:62|135:45,1,80
65,98,99844,1,0,0:0:0:0:
20,24,100020,1,0,0:0:0:0:
65,98,100196,6,0,B|89:134|69:174|65:174|61:174|41:214|65:250,1,160
185,98,100724,2,0,B|161:134|181:174|185:174|189:174|209:214|185:250,1,160
256,296,101252,1,0,0:0:0:0:
256,296,101428,1,0,0:0:0:0:
327,250,101604,6,0,L|351:326,1,80
185,250,101957,2,0,L|161:326,1,80
256,204,102309,2,0,L|256:44,1,160
168,44,102837,1,0,0:0:0:0:
344,44,103013,6,0,B|396:44|396:44|456:44|480:100,1,160
436,176,103541,2,0,B|384:176|384:176|324:176|300:120,1,160
256,44,104069,1,0,0:0:0:0:
256,44,104245,1,0,0:0:0:0:
212,120,104421,6,0,B|188:176|128:176|128:176,1,80
300,120,104774,2,0,B|324:176|384:176|384:176,1,80
208,252,105126,2,0,B|216:212|256:192|256:192|296:212|304:252,1,160
256,324,105654,1,0,0:0:0:0:
208,252,105830,6,0,P|178:180|208:108,1,160
304,252,106358,2,0,P|334:180|304:108,1,160
256,36,106886,1,0,0:0:0:0:
208,108,107062,1,0,0:0:0:0:
304,108,107238,6,0,L|338:36,1,80
208,108,107590,2,0,L|174:36,1,80
256,36,107943,1,0,0:0:0:0:
336,192,108295,1,0,0:0:0:0:
256,192,108647,12,0,110055,0:0:0:0:
335,192,121323,6,0,P|291:292|195:347,1,223.999993164063
256,224,122379,1,0,0:0:0:0:
316,347,122731,2,0,P|220:292|176:192,1,223.999993164063
256,96,123788,1,0,0:0:0:0:
335,191,124140,6,0,L|447:191,2,111.999996582031
256,96,125196,1,0,0:0:0:0:
176,191,125548,2,0,L|64:191,1,111.999996582031
16,248,126076,2,0,L|15:136,1,111.999996582031
64,79,126604,1,0,0:0:0:0:
187,79,126957,6,0,B|187:115|187:115|199:131|199:131|187:147|187:147|187:183,1,111.999996582031
325,79,127661,2,0,B|325:115|325:115|313:131|313:131|325:147|325:147|325:183,1,111.999996582031
256,232,128189,2,0,L|256:344,2,111.999996582031
187,183,129069,1,0,0:0:0:0:
256,344,129421,1,0,0:0:0:0:
325,183,129774,6,0,P|373:207|421:183,1,111.999996582031
489,135,130302,1,0,0:0:0:0:
421,87,130478,2,0,P|373:63|325:87,1,111.999996582031
187,183,131182,6,0,P|139:207|91:183,1,111.999996582031
23,135,131710,2,0,P|47:183|23:231,1,111.999996582031
22,314,132238,1,0,0:0:0:0:
144,313,132590,6,0,P|181:333|204:368,2,83.9999974365235
256,280,133295,2,0,L|256:196,2,83.9999974365235
367,313,133999,6,0,B|446:314|446:314|503:256,1,160
444,192,134527,1,0,0:0:0:0:
503,127,134703,2,0,L|446:70,1,80
387,135,135055,2,0,B|347:135|347:135|319:162,1,80
256,100,135407,6,0,P|184:70|112:100,1,160
50,163,135935,1,0,0:0:0:0:
112,226,136112,2,0,P|125:263|112:300,1,80
199,374,136464,2,0,P|186:337|199:300,1,80
279,337,136816,6,0,B|315:313|355:333|355:337|355:341|395:361|431:337,1,160
493,274,137344,1,0,0:0:0:0:
432,212,137520,2,0,B|428:172|428:172|432:132,1,80
343,52,137872,2,0,B|347:92|347:92|343:132,1,80
264,92,138224,6,0,B|216:92|216:92|152:92|128:150,1,160
52,192,138752,1,0,0:0:0:0:
128,233,138928,2,0,B|152:292|216:292|216:292,1,80
128,150,139281,2,0,B|152:92|216:92|216:92,1,80
307,192,139633,6,0,B|294:232|294:232|218:232|218:232|205:192,1,160
256,120,140161,1,0,0:0:0:0:
307,192,140337,2,0,L|348:260,1,80
205,192,140689,2,0,L|163:260,1,80
307,192,141041,6,0,B|364:192|364:192|372:188|372:188|372:196|372:196|380:188|380:188|380:196|380:196|388:192|388:192|445:192,2,160
256,120,141921,1,0,0:0:0:0:
205,192,142097,1,0,0:0:0:0:
256,264,142274,1,0,0:0:0:0:
307,192,142450,6,0,B|342:120|342:120|307:48,1,160
256,120,142978,1,0,0:0:0:0:
205,48,143154,2,0,L|170:120,1,80
307,48,143506,2,0,L|342:120,1,80
205,192,143858,5,0,0:0:0:0:
256,120,144034,1,0,0:0:0:0:
307,192,144210,2,0,P|256:243|205:192,1,160
256,120,144738,1,0,0:0:0:0:
307,48,144914,2,0,L|387:48,1,80
205,48,145266,6,0,L|125:48,1,80
37,48,145619,2,0,L|37:128,1,80
37,215,145971,2,0,L|117:215,1,80
204,215,146323,2,0,L|204:295,1,80
308,295,146675,6,0,L|308:215,1,80
395,215,147027,2,0,L|475:215,1,80
475,128,147379,2,0,L|475:48,1,80
387,48,147732,2,0,L|307:48,1,80
205,48,148083,6,0,P|198:87|205:126,1,80
244,212,148435,2,0,P|205:205|166:212,1,80
80,251,148788,2,0,P|87:212|80:173,1,80
41,87,149140,2,0,P|80:94|119:87,1,80
205,48,149492,6,0,P|198:87|205:126,1,80
244,212,149844,2,0,P|205:205|166:212,1,80
80,251,150197,2,0,P|87:212|80:173,1,80
1,212,150548,1,0,0:0:0:0:
1,299,150724,5,0,0:0:0:0:
1,299,150812,1,0,0:0:0:0:
1,299,150900,2,0,L|139:379,1,160
212,332,151428,1,0,0:0:0:0:
256,256,151604,2,0,B|284:228|284:228|324:228,1,80
480,164,151957,2,0,B|452:192|452:192|412:192,1,80
511,299,152309,6,0,L|372:379,1,160
300,332,152837,1,0,0:0:0:0:
256,256,153013,2,0,B|227:228|227:228|187:228,1,80
31,164,153366,2,0,B|60:192|60:192|100:192,1,80
1,298,153717,6,0,P|78:315|134:370,1,160
212,332,154245,1,0,0:0:0:0:
212,332,154333,1,0,0:0:0:0:
212,332,154421,2,0,B|203:293|203:293|212:254,1,80
300,332,154774,6,0,L|300:292,3,40
300,248,155126,2,0,L|300:208,3,40
300,164,155478,6,0,L|300:124,3,40
300,80,155830,2,0,L|300:40,3,40
256,40,156182,5,0,0:0:0:0:
168,40,156358,1,0,0:0:0:0:
168,40,157943,6,0,B|128:40|128:40|99:68,2,80
255,40,158471,1,0,0:0:0:0:
255,40,158823,1,0,0:0:0:0:
344,40,158999,2,0,B|384:40|384:40|412:68,1,80
474,130,159351,6,0,B|454:138|437:166|446:198|446:198|414:189|386:206|377:226,1,160
317,287,159879,1,0,0:0:0:0:
256,226,160055,2,0,B|185:226|185:226|177:230|177:230|169:234|169:234|97:234,1,160
35,171,160583,1,0,0:0:0:0:
97,108,160759,6,0,B|164:108|164:108|164:76|176:44|211:37,1,160
300,37,161288,2,0,B|336:44|348:76|348:108|348:108|415:108,1,160
477,171,161816,1,0,0:0:0:0:
415,234,161992,1,0,0:0:0:0:
477,297,162168,6,0,L|420:353,1,80
353,297,162520,2,0,L|296:353,1,80
229,297,162872,2,0,B|205:261|225:221|229:221|233:221|253:181|229:145,1,160
166,82,163400,1,0,0:0:0:0:
228,19,163576,6,0,B|308:19|308:19|364:75,1,160
424,8,164104,2,0,P|460:76|424:144,1,160
496,192,164633,1,0,0:0:0:0:
424,241,164809,1,0,0:0:0:0:
352,192,164985,6,0,B|328:164|328:164|328:120,1,80
256,192,165337,2,0,L|256:272,1,80
160,192,165689,2,0,B|184:164|184:164|184:120,1,80
256,68,166041,1,0,0:0:0:0:
328,120,166217,1,0,0:0:0:0:
256,68,166393,6,0,B|184:33|184:33|112:68,1,160
40,120,166921,2,0,B|112:155|112:155|184:120,1,160
256,172,167450,1,0,0:0:0:0:
328,120,167626,1,0,0:0:0:0:
256,68,167802,6,0,L|300:1,2,80
184,120,168330,1,0,0:0:0:0:
256,172,168506,2,0,B|256:239|256:239|260:247|260:247|252:247|252:247|256:255|256:255|256:322,1,160
176,360,169034,5,0,0:0:0:0:
176,360,169122,1,0,0:0:0:0:
176,360,169210,2,0,L|336:360,1,160
336,272,169738,2,0,L|176:272,1,160
88,272,170266,1,0,0:0:0:0:
132,196,170442,1,0,0:0:0:0:
175,272,170619,6,0,P|175:311|200:341,1,80
336,272,170971,2,0,P|336:311|311:341,1,80
256,276,171323,2,0,B|232:240|252:200|256:200|260:200|280:160|256:124,1,160
212,48,171851,1,0,0:0:0:0:
300,48,172027,6,0,L|161:127,1,160
73,127,172555,2,0,L|211:206,1,160
164,280,173083,1,0,0:0:0:0:
211,354,173259,1,0,0:0:0:0:
258,280,173435,6,0,P|294:265|330:280,1,80
432,192,173788,2,0,P|396:207|360:192,1,80
258,104,174140,2,0,B|290:80|294:52|294:36|294:36|294:52|298:80|330:104,1,160
396,44,174668,1,0,0:0:0:0:
462,105,174844,6,0,L|512:256,1,160
447,315,175372,2,0,B|436:359|396:371|396:371|356:359|345:315,1,160
256,314,175900,1,0,0:0:0:0:
168,314,176076,1,0,0:0:0:0:
212,235,176252,6,0,L|155:178,1,80
256,156,176604,2,0,L|256:76,1,80
300,235,176957,2,0,L|356:178,1,80
212,235,177309,1,0,0:0:0:0:
256,156,177485,1,0,0:0:0:0:
300,235,177661,6,0,P|330:307|300:379,1,160
212,378,178189,2,0,P|182:306|212:234,1,160
256,156,178717,1,0,0:0:0:0:
256,156,178893,1,0,0:0:0:0:
300,76,179069,6,0,B|320:43|320:43|320:3,1,80
211,76,179421,2,0,B|191:43|191:43|191:3,1,80
256,156,179774,2,0,L|256:316,1,160
256,316,180478,6,0,B|328:316|328:316|371:239,1,160
256,68,181006,2,0,B|328:68|328:68|371:144,1,160
448,192,181534,1,0,0:0:0:0:
371,239,181710,1,0,0:0:0:0:
294,192,181886,6,0,B|256:179|256:179|218:192,1,80
65,239,182238,2,0,B|103:226|103:226|141:239,1,80
294,286,182590,2,0,B|256:273|256:273|218:286,1,80
139,331,182943,1,0,0:0:0:0:
216,378,183119,1,0,0:0:0:0:
139,331,183295,6,0,L|218:192,1,160
372,331,183823,2,0,L|294:192,1,160
256,272,184351,2,0,L|256:352,1,80
218,192,184703,5,0,0:0:0:0:
188,101,184879,1,0,0:0:0:0:
92,101,185055,1,0,0:0:0:0:
62,192,185231,1,0,0:0:0:0:
140,249,185407,1,0,0:0:0:0:
256,68,185759,1,0,0:0:0:0:
256,68,186112,6,0,B|328:68|328:68|371:145,1,160
256,316,186640,2,0,B|328:316|328:316|371:240,1,160
448,192,187168,1,0,0:0:0:0:
371,145,187344,1,0,0:0:0:0:
294,192,187520,6,0,B|256:205|256:205|218:192,1,80
65,145,187872,2,0,B|103:158|103:158|141:145,1,80
294,98,188224,2,0,B|256:111|256:111|218:98,1,80
139,53,188577,1,0,0:0:0:0:
216,6,188753,1,0,0:0:0:0:
139,53,188929,6,0,L|218:192,1,160
372,53,189457,2,0,L|294:192,1,160
256,112,189985,2,0,L|256:32,1,80
218,192,190337,5,0,0:0:0:0:
188,283,190513,1,0,0:0:0:0:
92,283,190689,1,0,0:0:0:0:
62,192,190865,1,0,0:0:0:0:
140,135,191041,1,0,0:0:0:0:
256,316,191393,1,0,0:0:0:0:
372,135,191745,5,0,0:0:0:0:
