osu file format v14

[General]
AudioFilename: audio.mp3
AudioLeadIn: 0
PreviewTime: -1
Countdown: 0
SampleSet: Normal
StackLeniency: 0.4
Mode: 0
LetterboxInBreaks: 0
WidescreenStoryboard: 1

[Editor]
DistanceSpacing: 0.7
BeatDivisor: 4
GridSize: 16
TimelineZoom: 1

[Metadata]
Title:Make Me Fade
TitleUnicode:Make Me Fade
Artist:Vanic x K.Flay
ArtistUnicode:Vanic x K.Flay
Creator:Vel0ciTy
Version:Faded
Source:
Tags:
BeatmapID:2015821
BeatmapSetID:962167

[Difficulty]
HPDrainRate:6
CircleSize:4
OverallDifficulty:8
ApproachRate:9
SliderMultiplier:2
SliderTickRate:1

[Events]
//Background and Video events
0,0,"bg.png",0,0
//Break Periods
2,48194,59395
//Storyboard Layer 0 (Background)
//Storyboard Layer 1 (Fail)
//Storyboard Layer 2 (Pass)
//Storyboard Layer 3 (Foreground)
//Storyboard Sound Samples

[TimingPoints]
11995,375,4,1,0,40,1,0
11995,-166.666666666667,4,1,0,40,0,0
35995,-142.857142857143,4,1,0,40,0,0
47995,-166.666666666667,4,1,0,40,0,0
59995,-153.846153846154,4,1,0,40,0,0
71995,-125,4,1,0,40,0,0
74995,-117.647058823529,4,1,0,40,0,0
77995,-111.111111111111,4,1,0,40,0,0
80995,-105.263157894737,4,1,0,40,0,0
83995,-100,4,1,0,40,0,0
86995,-95.2380952380952,4,1,0,40,0,0
89995,-90.9090909090909,4,1,0,40,0,0
92995,-1000,4,1,0,40,0,0
93745,-200,4,1,0,40,0,0
95245,-133.333333333333,4,1,0,40,0,0
95620,-100,4,1,0,40,0,0
95995,-66.6666666666667,4,1,0,40,0,0
107995,-62.5,4,1,0,40,0,0
119151,-83.3333333333333,4,1,0,40,0,0
119620,-90.9090909090909,4,1,0,40,0,0

[Colours]
Combo1 : 0,233,124
Combo2 : 198,98,255
Combo3 : 1,196,244

[HitObjects]
31,31,11995,6,0,P|59:42|81:63,1,59.9999981689454
120,150,12370,1,0,0:0:0:0:
18,109,12557,1,0,0:0:0:0:
176,64,12745,2,0,L|262:87,1,89.9999972534181
190,8,13120,2,0,P|176:33|175:63,1,59.9999981689454
256,192,13495,5,0,0:0:0:0:
262,87,13682,1,0,0:0:0:0:
166,170,13870,2,0,L|153:216,3,29.9999990844727
151,228,14245,1,0,0:0:0:0:
258,259,14432,2,0,P|287:251|310:231,2,59.9999981689454
80,304,14995,6,0,P|109:305|135:319,1,59.9999981689454
256,352,15370,2,0,P|226:353|200:367,1,59.9999981689454
416,352,15745,2,0,L|439:265,1,89.9999972534181
472,366,16120,2,0,P|442:365|415:351,1,59.9999981689454
340,241,16495,5,0,0:0:0:0:
439,265,16682,1,0,0:0:0:0:
352,160,16870,2,0,P|322:160|295:173,1,59.9999981689454
496,80,17245,2,0,L|472:166,1,89.9999972534181
463,199,17620,5,0,0:0:0:0:
352,160,17807,1,0,0:0:0:0:
496,260,17995,2,0,P|468:269|439:265,1,59.9999981689454
352,160,18370,1,0,0:0:0:0:
488,109,18557,1,0,0:0:0:0:
320,48,18745,2,0,L|227:72,1,89.9999972534181
148,91,19120,6,0,P|161:119|181:140,1,59.9999981689454
304,176,19495,1,0,0:0:0:0:
233,71,19682,1,0,0:0:0:0:
378,99,19870,2,0,L|369:129,3,29.9999990844727
464,192,20245,2,0,L|487:105,1,89.9999972534181
497,76,20620,5,0,0:0:0:0:
370,127,20807,1,0,0:0:0:0:
495,263,20995,2,0,P|465:269|436:264,1,59.9999981689454
292,212,21370,2,0,P|321:206|350:211,1,59.9999981689454
224,368,21745,6,0,L|199:275,1,89.9999972534181
180,196,22120,2,0,P|152:208|131:228,1,59.9999981689454
80,336,22495,2,0,P|82:306|75:277,1,59.9999981689454
0,159,22870,2,0,P|24:176|52:184,1,59.9999981689454
180,196,23245,1,0,0:0:0:0:
64,92,23432,2,0,P|92:100|116:117,2,59.9999981689454
233,0,23995,6,0,P|260:12|281:32,1,59.9999981689454
320,176,24370,1,0,0:0:0:0:
209,91,24557,1,0,0:0:0:0:
384,64,24745,2,0,L|492:92,1,89.9999972534181
335,116,25120,2,0,P|318:92|312:63,1,59.9999981689454
470,87,25495,5,0,0:0:0:0:
416,224,25682,1,0,0:0:0:0:
384,64,25870,2,0,L|396:17,3,29.9999990844727
402,3,26245,1,0,0:0:0:0:
315,133,26432,2,0,P|338:150|367:160,2,59.9999981689454
160,16,26995,6,0,P|188:25|212:43,1,59.9999981689454
89,140,27370,2,0,P|113:122|142:113,1,59.9999981689454
339,151,27745,2,0,L|315:237,1,89.9999972534181
388,99,28120,2,0,P|405:123|411:152,1,59.9999981689454
307,270,28495,5,0,0:0:0:0:
339,151,28682,1,0,0:0:0:0:
379,271,28870,1,0,0:0:0:0:
411,152,29057,1,0,0:0:0:0:
464,352,29245,2,0,L|371:376,1,89.9999972534181
344,384,29620,1,0,0:0:0:0:
298,227,29807,1,0,0:0:0:0:
506,311,29995,2,0,P|489:335|463:351,1,59.9999981689454
272,352,30370,5,0,0:0:0:0:
433,273,30557,1,0,0:0:0:0:
274,140,30745,2,0,L|302:248,1,89.9999972534181
363,70,31120,2,0,P|342:48|315:34,1,59.9999981689454
128,64,31495,5,0,0:0:0:0:
274,140,31682,1,0,0:0:0:0:
96,208,31870,2,0,L|67:200,3,29.9999990844727
41,40,32245,2,0,L|133:64,1,89.9999972534181
159,74,32620,1,0,0:0:0:0:
67,200,32807,1,0,0:0:0:0:
256,224,32995,6,0,P|273:248|280:277,1,59.9999981689454
184,158,33370,2,0,P|166:182|159:211,1,59.9999981689454
16,368,33745,2,0,L|40:275,1,89.9999972534181
48,250,34120,1,0,0:0:0:0:
184,158,34307,1,0,0:0:0:0:
224,319,34495,6,0,P|207:344|183:363,1,59.9999981689454
288,192,34870,2,0,P|304:216|328:235,1,59.9999981689454
512,288,35245,1,0,0:0:0:0:
430,138,35432,2,0,P|400:140|373:152,2,59.9999981689454
512,288,35995,5,0,0:0:0:0:
359,245,36182,1,0,0:0:0:0:
499,159,36370,1,0,0:0:0:0:
409,307,36557,1,0,0:0:0:0:
270,124,36745,2,0,L|372:152,1,104.999996795654
403,160,37120,1,0,0:0:0:0:
261,249,37307,1,0,0:0:0:0:
229,61,37495,2,0,P|205:87|195:120,1,69.9999978637696
160,320,37870,2,0,L|150:286,3,34.9999989318848
142,257,38245,5,0,0:0:0:0:
326,308,38432,2,0,P|302:334|271:349,2,69.9999978637696
368,80,38995,6,0,P|336:94|313:120,1,69.9999978637696
173,26,39370,2,0,P|204:40|227:66,1,69.9999978637696
48,224,39745,2,0,L|20:122,1,104.999996795654
12,93,40120,1,0,0:0:0:0:
176,160,40307,1,0,0:0:0:0:
25,292,40495,2,0,P|60:296|92:283,1,69.9999978637696
300,283,40870,2,0,P|265:279|233:292,1,69.9999978637696
480,352,41245,2,0,L|446:228,1,104.999996795654
420,143,41620,2,0,P|388:157|363:182,1,69.9999978637696
299,348,41995,5,0,0:0:0:0:
452,250,42182,1,0,0:0:0:0:
272,223,42370,1,0,0:0:0:0:
404,353,42557,1,0,0:0:0:0:
210,303,42745,2,0,L|101:331,1,104.999996795654
299,348,43120,2,0,P|309:314|307:279,1,69.9999978637696
177,142,43495,2,0,P|167:175|169:210,1,69.9999978637696
32,96,43870,2,0,L|41:62,3,34.9999989318848
169,210,44245,6,0,L|197:319,1,104.999996795654
214,120,44620,2,0,P|180:110|145:112,1,69.9999978637696
352,272,44995,2,0,P|361:238|359:203,1,69.9999978637696
302,75,45370,2,0,P|292:108|294:143,1,69.9999978637696
512,16,45745,2,0,L|403:44,1,104.999996795654
379,54,46120,1,0,0:0:0:0:
444,227,46307,2,0,P|439:327|350:373,1,209.999993591309
150,302,47057,2,0,P|232:171|351:271,1,349.999989318848
16,16,59995,6,0,P|7:78|16:160,1,129.999994049073
16,368,60745,2,0,P|25:303|19:239,1,129.999994049073
256,240,61495,5,0,0:0:0:0:
256,32,61870,1,0,0:0:0:0:
256,202,62245,5,0,0:0:0:0:
256,69,62620,1,0,0:0:0:0:
16,192,62995,5,0,0:0:0:0:
256,192,63370,1,0,0:0:0:0:
106,192,63745,5,0,0:0:0:0:
166,192,64120,1,0,0:0:0:0:
496,192,64495,5,0,0:0:0:0:
256,192,64870,1,0,0:0:0:0:
459,192,65245,5,0,0:0:0:0:
292,192,65620,1,0,0:0:0:0:
496,16,65995,6,0,P|505:78|496:160,1,129.999994049073
496,368,66745,2,0,P|487:303|493:239,1,129.999994049073
256,352,67495,5,0,0:0:0:0:
256,106,67870,1,0,0:0:0:0:
256,321,68245,5,0,0:0:0:0:
256,139,68620,1,0,0:0:0:0:
480,352,68995,5,0,0:0:0:0:
256,352,69370,1,0,0:0:0:0:
480,32,69745,6,0,L|447:157,1,129.999994049073
406,292,70307,1,0,0:0:0:0:
341,103,70495,1,0,0:0:0:0:
256,352,70870,1,0,0:0:0:0:
32,32,71245,2,0,L|65:157,1,129.999994049073
256,351,71995,6,0,P|271:315|276:275,1,80
176,128,72370,2,0,P|160:164|155:204,1,80
290,32,72745,2,0,P|305:68|309:108,1,80
311,145,73026,1,0,0:0:0:0:
311,145,73120,1,0,0:0:0:0:
141,38,73307,1,0,0:0:0:0:
117,270,73495,6,0,P|143:241|154:203,1,80
272,368,73870,2,0,P|245:338|234:300,1,80
368,144,74245,2,0,P|394:173|405:211,1,80
406,246,74526,1,0,0:0:0:0:
406,246,74620,1,0,0:0:0:0:
496,80,74807,1,0,0:0:0:0:
287,31,74995,6,0,P|245:26|204:39,1,85.0000016212464
128,192,75370,2,0,P|169:196|210:183,1,85.0000016212464
410,248,75745,2,0,P|367:242|326:255,1,85.0000016212464
306,280,76026,1,0,0:0:0:0:
306,280,76119,1,0,0:0:0:0:
496,352,76307,1,0,0:0:0:0:
279,355,76495,6,0,P|244:331|227:292,1,85.0000016212464
80,176,76870,2,0,P|114:199|131:238,1,85.0000016212464
305,79,77245,2,0,P|270:102|253:141,1,85.0000016212464
249,176,77526,1,0,0:0:0:0:
249,176,77620,1,0,0:0:0:0:
279,355,77807,1,0,0:0:0:0:
95,304,77995,6,0,P|133:281|178:276,1,89.9999972534181
323,151,78370,2,0,P|285:173|240:178,1,89.9999972534181
24,65,78745,2,0,P|61:42|106:37,1,89.9999972534181
143,47,79026,1,0,0:0:0:0:
143,47,79120,1,0,0:0:0:0:
16,208,79307,1,0,0:0:0:0:
248,175,79495,6,0,P|263:217|265:261,1,89.9999972534181
368,64,79870,2,0,P|350:106|349:150,1,89.9999972534181
482,346,80245,2,0,P|497:304|499:259,1,89.9999972534181
492,228,80526,1,0,0:0:0:0:
492,228,80620,1,0,0:0:0:0:
368,64,80807,1,0,0:0:0:0:
265,261,80995,6,0,P|263:308|276:353,1,94.9999974632264
64,368,81370,2,0,P|66:322|52:274,1,94.9999974632264
120,47,81745,2,0,P|117:92|131:140,1,94.9999974632264
153,171,82026,1,0,0:0:0:0:
153,171,82120,1,0,0:0:0:0:
296,17,82307,1,0,0:0:0:0:
447,176,82495,6,0,P|401:187|355:180,1,94.9999974632264
224,320,82870,2,0,P|269:331|315:324,1,94.9999974632264
60,171,83245,2,0,P|105:157|151:165,1,94.9999974632264
182,185,83526,1,0,0:0:0:0:
182,185,83620,1,0,0:0:0:0:
43,346,83807,1,0,0:0:0:0:
273,286,83995,6,0,P|286:335|286:385,1,100
182,185,84370,2,0,P|169:136|169:86,1,100
43,346,84745,2,0,P|54:302|54:257,1,89.9999972534181
47,227,85026,1,0,0:0:0:0:
28,201,85120,1,0,0:0:0:0:
160,368,85307,1,0,0:0:0:0:
312,168,85495,6,0,P|347:133|394:119,1,100
480,319,85870,2,0,P|443:353|395:367,1,100
151,249,86245,2,0,P|187:282|234:296,1,100
266,297,86526,1,0,0:0:0:0:
294,283,86620,1,0,0:0:0:0:
387,124,86807,1,0,0:0:0:0:
160,48,86995,6,0,P|107:46|59:65,1,104.999996795654
256,208,87370,2,0,P|203:208|155:189,1,104.999996795654
369,9,87745,2,0,P|421:7|470:25,1,104.999996795654
494,48,88026,1,0,0:0:0:0:
511,74,88120,1,0,0:0:0:0:
384,224,88307,1,0,0:0:0:0:
223,16,88495,6,0,P|198:62|190:114,1,104.999996795654
112,319,88870,2,0,P|136:273|143:222,1,104.999996795654
378,368,89245,2,0,P|352:322|345:270,1,104.999996795654
347,239,89526,1,0,0:0:0:0:
357,209,89620,1,0,0:0:0:0:
512,352,89807,1,0,0:0:0:0:
448,48,89995,6,0,L|479:163,1,119.999996337891
63,335,90370,2,0,L|32:220,1,110.000003356934
434,120,90745,6,0,L|434:230,1,110.000003356934
78,264,91120,2,0,L|78:154,1,110.000003356934
400,336,91495,6,0,L|293:363,1,110.000003356934
111,47,91870,2,0,L|217:19,1,110.000003356934
337,333,92245,6,0,L|227:333,1,110.000003356934
175,51,92620,2,0,L|285:51,1,110.000003356934
112,320,92995,6,0,B|98:327|98:327|98:310,1,30
176,159,93745,6,0,P|185:229|230:176,1,175
230,176,94495,2,0,P|284:145|285:207,1,150
272,230,95151,1,0,0:0:0:0:
272,230,95245,6,0,P|220:245|173:217,1,112.500004291535
230,176,95620,6,0,P|299:154|363:189,1,150
464,256,95995,6,0,P|408:326|498:324,1,225.000008583069
456,102,96370,2,0,P|369:39|267:77,1,225.000008583069
294,372,96745,2,0,L|353:155,1,225.000008583069
144,80,97120,2,0,P|91:148|175:130,1,225.000008583069
26,28,97495,6,0,P|-7:132|40:230,1,225.000008583069
234,217,97870,2,0,P|268:112|220:14,1,225.000008583069
91,287,98245,2,0,L|308:228,1,225.000008583069
145,363,98620,2,0,P|40:364|0:266,1,225.000008583069
123,71,98995,2,0,P|169:142|89:113,1,225.000008583069
304,32,99370,6,0,L|376:51,1,75.0000028610231
448,192,99557,2,0,L|428:264,1,75.0000028610231
193,332,99745,2,0,L|134:114,1,225.000008583069
371,137,100120,2,0,P|334:206|332:115,1,225.000008583069
467,246,100495,6,0,L|442:338,1,75.0000028610231
279,366,100682,2,0,L|259:293,1,75.0000028610231
175,94,100870,2,0,P|90:108|167:147,1,225.000008583069
229,11,101245,5,0,0:0:0:0:
16,48,101432,1,0,0:0:0:0:
176,255,101620,2,0,P|264:191|282:82,1,225.000008583069
0,8,101995,6,0,P|-6:91|46:15,1,225.000008583069
175,81,102370,2,0,P|118:175|14:211,1,225.000008583069
192,0,102745,2,0,L|423:62,1,225.000008583069
512,240,103120,2,0,P|429:247|498:200,1,225.000008583069
399,383,103495,6,0,P|319:307|305:198,1,225.000008583069
376,48,103870,2,0,P|456:124|470:233,1,225.000008583069
92,262,104245,2,0,L|309:203,1,225.000008583069
47,176,104620,2,0,P|-3:268|61:352,1,225.000008583069
309,203,104995,2,0,P|319:133|255:199,1,225.000008583069
432,352,105370,6,0,L|452:274,1,75.0000028610231
480,96,105557,2,0,L|459:18,1,75.0000028610231
150,44,105745,2,0,L|91:261,1,225.000008583069
333,252,106120,2,0,P|392:190|307:202,1,225.000008583069
208,304,106495,6,0,L|187:226,1,75.0000028610231
380,62,106682,2,0,L|360:134,1,75.0000028610231
315,293,106870,2,0,P|230:273|307:233,1,225.000008583069
464,352,107245,1,0,0:0:0:0:
167,377,107432,1,0,0:0:0:0:
272,144,107620,2,0,P|371:187|400:292,1,225.000008583069
112,336,107995,6,0,P|54:272|147:301,1,240
192,146,108370,2,0,P|77:123|-25:179,1,240
209,375,108745,2,0,L|275:127,1,240
483,18,109120,2,0,P|492:103|429:27,1,240
511,240,109495,6,0,P|394:233|303:157,1,240
483,18,109870,2,0,P|476:135|400:226,1,240
160,272,110245,5,0,0:0:0:0:
48,48,110432,1,0,0:0:0:0:
368,2,110620,2,0,P|384:111|281:153,1,240
48,48,110995,2,0,P|134:37|63:118,1,240
0,304,111370,6,0,L|77:283,1,80
310,234,111557,2,0,L|387:254,1,80
84,384,111745,2,0,L|146:152,1,240
352,32,112120,2,0,P|413:96|324:65,1,240
512,64,112495,6,0,L|487:156,1,80
400,336,112682,2,0,L|379:258,1,80
323,78,112870,2,0,P|242:45|312:127,1,240
491,141,113245,1,0,0:0:0:0:
255,7,113432,1,0,0:0:0:0:
144,224,113620,2,0,P|250:274|366:253,1,240
165,170,113995,6,0,P|87:232|180:269,1,240
306,157,114370,2,0,P|420:153|479:251,1,240
142,346,114745,2,0,L|204:114,1,240
431,25,115120,2,0,P|500:92|404:106,1,240
209,15,115495,6,0,P|115:77|140:186,1,240
335,277,115870,2,0,P|429:215|404:106,1,240
128,304,116245,2,0,L|359:366,1,240
95,192,116620,2,0,P|15:274|45:384,1,240
267,227,116995,2,0,P|231:137|182:220,1,240
359,366,117370,6,0,L|383:273,1,80
416,80,117557,2,0,L|391:-12,1,80
65,72,117745,2,0,L|127:303,1,240
361,218,118120,2,0,P|343:125|323:224,1,240
480,336,118495,6,0,L|500:258,1,80
429,64,118682,2,0,L|408:141,1,80
351,320,118870,2,0,P|281:353|208:325,1,160
216,163,119151,1,0,0:0:0:0:
216,163,119245,6,0,P|265:196|276:254,1,119.999996337891
153,327,119620,6,0,P|157:273|198:239,1,110.000003356934
80,384,119995,1,0,0:0:0:0:
