osu file format v14

[General]
AudioFilename: audio.mp3
AudioLeadIn: 0
PreviewTime: -1
Countdown: 0
SampleSet: None
StackLeniency: 0.4
Mode: 0
LetterboxInBreaks: 0
WidescreenStoryboard: 1

[Editor]
DistanceSpacing: 0.7
BeatDivisor: 4
GridSize: 16
TimelineZoom: 1

[Metadata]
Title:Make Me Fade
TitleUnicode:Make Me Fade
Artist:Vanic x K.Flay
ArtistUnicode:Vanic x K.Flay
Creator:Vel0ciTy
Version:Faded (Pre-Buff)
Source:Trap City
Tags:
BeatmapID:2016887
BeatmapSetID:962167

[Difficulty]
HPDrainRate:6
CircleSize:4
OverallDifficulty:8
ApproachRate:9
SliderMultiplier:2
SliderTickRate:1

[Events]
//Background and Video events
0,0,"bg.png",0,0
//Break Periods
2,48194,59395
//Storyboard Layer 0 (Background)
//Storyboard Layer 1 (Fail)
//Storyboard Layer 2 (Pass)
//Storyboard Layer 3 (Foreground)
//Storyboard Sound Samples

[TimingPoints]
11995,375,4,1,0,40,1,0
11995,-166.666666666667,4,1,0,40,0,0
35995,-142.857142857143,4,1,0,40,0,0
47995,-166.666666666667,4,1,0,40,0,0
59995,-153.846153846154,4,1,0,40,0,0
71995,-125,4,1,0,40,0,0
83995,-111.111111111111,4,1,0,40,0,0
95995,-86.9565217391304,4,1,0,40,0,0
107995,-80,4,1,0,40,0,0

[Colours]
Combo1 : 0,233,124
Combo2 : 198,98,255
Combo3 : 1,196,244

[HitObjects]
31,31,11995,6,0,P|59:42|81:63,1,59.9999981689454
120,150,12370,1,0,0:0:0:0:
18,109,12557,1,0,0:0:0:0:
176,64,12745,2,0,L|262:87,1,89.9999972534181
214,45,13120,2,0,P|200:70|199:100,1,59.9999981689454
256,192,13495,5,0,0:0:0:0:
262,87,13682,1,0,0:0:0:0:
166,170,13870,2,0,L|153:216,3,29.9999990844727
151,228,14245,1,0,0:0:0:0:
258,259,14432,2,0,P|287:251|310:231,2,59.9999981689454
80,304,14995,6,0,P|109:305|135:319,1,59.9999981689454
256,352,15370,2,0,P|226:353|200:367,1,59.9999981689454
416,352,15745,2,0,L|439:265,1,89.9999972534181
453,327,16120,2,0,P|423:326|396:312,1,59.9999981689454
340,241,16495,5,0,0:0:0:0:
439,265,16682,1,0,0:0:0:0:
352,160,16870,2,0,P|322:160|295:173,1,59.9999981689454
496,80,17245,2,0,L|472:166,1,89.9999972534181
463,199,17620,5,0,0:0:0:0:
352,160,17807,1,0,0:0:0:0:
496,260,17995,2,0,P|468:269|439:265,1,59.9999981689454
352,160,18370,1,0,0:0:0:0:
496,80,18557,1,0,0:0:0:0:
320,48,18745,2,0,L|227:72,1,89.9999972534181
148,91,19120,6,0,P|161:119|181:140,1,59.9999981689454
304,176,19495,1,0,0:0:0:0:
233,71,19682,1,0,0:0:0:0:
378,99,19870,2,0,L|369:129,3,29.9999990844727
464,192,20245,2,0,L|487:105,1,89.9999972534181
497,76,20620,5,0,0:0:0:0:
370,127,20807,1,0,0:0:0:0:
495,263,20995,2,0,P|465:269|436:264,1,59.9999981689454
292,212,21370,2,0,P|321:206|350:211,1,59.9999981689454
224,368,21745,6,0,L|199:275,1,89.9999972534181
180,196,22120,2,0,P|152:208|131:228,1,59.9999981689454
80,336,22495,2,0,P|82:306|75:277,1,59.9999981689454
0,159,22870,2,0,P|24:176|52:184,1,59.9999981689454
180,196,23245,1,0,0:0:0:0:
64,92,23432,2,0,P|92:100|116:117,2,59.9999981689454
233,0,23995,6,0,P|260:12|281:32,1,59.9999981689454
320,176,24370,1,0,0:0:0:0:
209,91,24557,1,0,0:0:0:0:
384,64,24745,2,0,L|492:92,1,89.9999972534181
335,116,25120,2,0,P|318:92|312:63,1,59.9999981689454
470,87,25495,5,0,0:0:0:0:
416,224,25682,1,0,0:0:0:0:
384,64,25870,2,0,L|396:17,3,29.9999990844727
402,3,26245,1,0,0:0:0:0:
315,133,26432,2,0,P|338:150|367:160,2,59.9999981689454
160,16,26995,6,0,P|188:25|212:43,1,59.9999981689454
89,140,27370,2,0,P|113:122|142:113,1,59.9999981689454
339,151,27745,2,0,L|315:237,1,89.9999972534181
388,99,28120,2,0,P|405:123|411:152,1,59.9999981689454
307,270,28495,5,0,0:0:0:0:
339,151,28682,1,0,0:0:0:0:
379,271,28870,1,0,0:0:0:0:
411,152,29057,1,0,0:0:0:0:
464,352,29245,2,0,L|371:376,1,89.9999972534181
344,384,29620,1,0,0:0:0:0:
298,227,29807,1,0,0:0:0:0:
506,311,29995,2,0,P|489:335|463:351,1,59.9999981689454
272,352,30370,5,0,0:0:0:0:
433,273,30557,1,0,0:0:0:0:
274,140,30745,2,0,L|302:248,1,89.9999972534181
363,70,31120,2,0,P|342:48|315:34,1,59.9999981689454
128,64,31495,5,0,0:0:0:0:
274,140,31682,1,0,0:0:0:0:
96,208,31870,2,0,L|67:200,3,29.9999990844727
41,40,32245,2,0,L|133:64,1,89.9999972534181
159,74,32620,1,0,0:0:0:0:
67,200,32807,1,0,0:0:0:0:
256,224,32995,6,0,P|273:248|280:277,1,59.9999981689454
184,158,33370,2,0,P|166:182|159:211,1,59.9999981689454
16,368,33745,2,0,L|40:275,1,89.9999972534181
48,250,34120,1,0,0:0:0:0:
184,158,34307,1,0,0:0:0:0:
224,319,34495,6,0,P|207:344|183:363,1,59.9999981689454
288,192,34870,2,0,P|304:216|328:235,1,59.9999981689454
512,288,35245,1,0,0:0:0:0:
430,138,35432,2,0,P|400:140|373:152,2,59.9999981689454
512,288,35995,5,0,0:0:0:0:
359,245,36182,1,0,0:0:0:0:
499,159,36370,1,0,0:0:0:0:
409,307,36557,1,0,0:0:0:0:
270,124,36745,2,0,L|372:152,1,104.999996795654
403,160,37120,1,0,0:0:0:0:
261,249,37307,1,0,0:0:0:0:
229,61,37495,2,0,P|205:87|195:120,1,69.9999978637696
160,320,37870,2,0,L|150:286,3,34.9999989318848
142,257,38245,5,0,0:0:0:0:
326,308,38432,2,0,P|302:334|271:349,2,69.9999978637696
368,80,38995,6,0,P|336:94|313:120,1,69.9999978637696
173,26,39370,2,0,P|204:40|227:66,1,69.9999978637696
48,224,39745,2,0,L|20:122,1,104.999996795654
12,93,40120,1,0,0:0:0:0:
176,160,40307,1,0,0:0:0:0:
25,292,40495,2,0,P|60:296|92:283,1,69.9999978637696
300,283,40870,2,0,P|265:279|233:292,1,69.9999978637696
480,352,41245,2,0,L|446:228,1,104.999996795654
420,143,41620,2,0,P|388:157|363:182,1,69.9999978637696
299,348,41995,5,0,0:0:0:0:
452,250,42182,1,0,0:0:0:0:
267,232,42370,1,0,0:0:0:0:
404,353,42557,1,0,0:0:0:0:
192,320,42745,2,0,L|83:348,1,104.999996795654
281,365,43120,2,0,P|291:331|289:296,1,69.9999978637696
177,142,43495,2,0,P|167:175|169:210,1,69.9999978637696
32,96,43870,2,0,L|41:62,3,34.9999989318848
169,210,44245,6,0,L|197:319,1,104.999996795654
214,120,44620,2,0,P|180:110|145:112,1,69.9999978637696
352,272,44995,2,0,P|361:238|359:203,1,69.9999978637696
302,75,45370,2,0,P|292:108|294:143,1,69.9999978637696
512,16,45745,2,0,L|403:44,1,104.999996795654
379,54,46120,1,0,0:0:0:0:
444,227,46307,2,0,P|439:327|350:373,1,209.999993591309
150,302,47057,2,0,P|232:171|351:271,1,349.999989318848
16,16,59995,6,0,P|7:78|16:160,1,129.999994049073
16,368,60745,2,0,P|25:303|19:239,1,129.999994049073
256,240,61495,5,0,0:0:0:0:
256,32,61870,1,0,0:0:0:0:
256,202,62245,5,0,0:0:0:0:
256,69,62620,1,0,0:0:0:0:
16,192,62995,5,0,0:0:0:0:
256,192,63370,1,0,0:0:0:0:
106,192,63745,5,0,0:0:0:0:
166,192,64120,1,0,0:0:0:0:
496,192,64495,5,0,0:0:0:0:
256,192,64870,1,0,0:0:0:0:
459,192,65245,5,0,0:0:0:0:
292,192,65620,1,0,0:0:0:0:
496,16,65995,6,0,P|505:78|496:160,1,129.999994049073
496,368,66745,2,0,P|487:303|493:239,1,129.999994049073
256,352,67495,5,0,0:0:0:0:
256,106,67870,1,0,0:0:0:0:
256,321,68245,5,0,0:0:0:0:
256,139,68620,1,0,0:0:0:0:
480,352,68995,5,0,0:0:0:0:
256,352,69370,1,0,0:0:0:0:
480,32,69745,6,0,L|447:157,1,129.999994049073
406,292,70307,1,0,0:0:0:0:
341,103,70495,1,0,0:0:0:0:
256,352,70870,1,0,0:0:0:0:
32,32,71245,2,0,L|65:157,1,129.999994049073
256,351,71995,6,0,P|271:315|276:275,1,80
176,128,72370,2,0,P|160:164|155:204,1,80
289,34,72745,2,0,P|304:70|309:110,1,80
311,145,73026,1,0,0:0:0:0:
311,145,73120,1,0,0:0:0:0:
141,38,73307,1,0,0:0:0:0:
117,270,73495,6,0,P|143:241|154:203,1,80
272,368,73870,2,0,P|245:338|234:300,1,80
368,144,74245,2,0,P|394:173|405:211,1,80
406,246,74526,1,0,0:0:0:0:
406,246,74620,1,0,0:0:0:0:
496,80,74807,1,0,0:0:0:0:
287,31,74995,6,0,P|248:27|210:39,1,80
128,192,75370,2,0,P|167:196|205:184,1,80
406,246,75745,2,0,P|366:241|328:253,1,80
306,280,76026,1,0,0:0:0:0:
306,280,76119,1,0,0:0:0:0:
496,352,76307,1,0,0:0:0:0:
279,355,76495,6,0,P|247:334|228:299,1,80
80,176,76870,2,0,P|112:197|131:232,1,80
304,80,77245,2,0,P|271:101|252:136,1,80
249,176,77526,1,0,0:0:0:0:
249,176,77620,1,0,0:0:0:0:
279,355,77807,1,0,0:0:0:0:
96,304,77995,6,0,P|130:284|170:279,1,80
323,151,78370,2,0,P|288:170|248:175,1,80
32,64,78745,2,0,P|66:44|106:39,1,80
143,47,79026,1,0,0:0:0:0:
143,47,79120,1,0,0:0:0:0:
16,208,79307,1,0,0:0:0:0:
248,175,79495,6,0,P|262:212|263:251,1,80
368,64,79870,2,0,P|353:101|352:140,1,80
480,336,80245,2,0,P|494:298|495:259,1,80
492,228,80526,1,0,0:0:0:0:
492,228,80620,1,0,0:0:0:0:
368,64,80807,1,0,0:0:0:0:
257,250,80995,6,0,P|255:293|268:339,1,80
64,368,81370,2,0,P|66:325|53:279,1,80
128,64,81745,2,0,P|126:107|139:153,1,80
153,171,82026,1,0,0:0:0:0:
153,171,82120,1,0,0:0:0:0:
296,17,82307,1,0,0:0:0:0:
447,176,82495,6,0,P|409:186|370:180,1,80
224,320,82870,2,0,P|262:330|301:324,1,80
75,175,83245,2,0,P|113:164|152:170,1,80
182,185,83526,1,0,0:0:0:0:
182,185,83620,1,0,0:0:0:0:
43,346,83807,1,0,0:0:0:0:
274,287,83995,6,0,P|285:330|285:375,1,89.9999972534181
182,185,84370,2,0,P|170:141|170:96,1,89.9999972534181
43,346,84745,2,0,P|54:302|54:257,1,89.9999972534181
47,227,85026,1,0,0:0:0:0:
28,201,85120,1,0,0:0:0:0:
160,368,85307,1,0,0:0:0:0:
312,168,85495,6,0,P|344:137|387:124,1,89.9999972534181
480,320,85870,2,0,P|447:350|404:363,1,89.9999972534181
160,256,86245,2,0,P|192:286|235:299,1,89.9999972534181
266,297,86526,1,0,0:0:0:0:
294,283,86620,1,0,0:0:0:0:
387,124,86807,1,0,0:0:0:0:
160,48,86995,6,0,P|115:47|73:63,1,89.9999972534181
256,208,87370,2,0,P|211:208|169:192,1,89.9999972534181
387,9,87745,2,0,P|431:8|473:24,1,89.9999972534181
494,48,88026,1,0,0:0:0:0:
511,74,88120,1,0,0:0:0:0:
384,224,88307,1,0,0:0:0:0:
223,16,88495,6,0,P|202:55|196:99,1,89.9999972534181
112,320,88870,2,0,P|133:280|139:236,1,89.9999972534181
368,384,89245,2,0,P|346:344|340:300,1,89.9999972534181
343,268,89526,1,0,0:0:0:0:
353,238,89620,1,0,0:0:0:0:
512,352,89807,1,0,0:0:0:0:
448,48,89995,6,0,L|471:134,1,89.9999972534181
64,336,90370,2,0,L|40:249,1,89.9999972534181
434,120,90745,6,0,L|434:210,1,89.9999972534181
77,263,91120,2,0,L|77:173,1,89.9999972534181
400,336,91495,6,0,L|313:359,1,89.9999972534181
112,48,91870,2,0,L|198:24,1,89.9999972534181
337,333,92245,6,0,L|247:333,1,89.9999972534181
174,50,92620,2,0,L|264:50,1,89.9999972534181
144,304,92995,2,0,B|99:378|99:378|51:298,1,179.999994506836
197,74,93745,2,0,P|313:36|254:143,1,314.999990386963
255,144,94495,2,0,P|295:240|203:193,1,269.999991760254
215,152,95151,1,0,0:0:0:0:
214,151,95245,2,0,P|151:132|126:72,1,134.999995880127
204,74,95620,2,0,P|266:93|291:153,1,134.999995880127
160,352,95995,6,0,P|99:293|86:209,1,172.500003290176
215,145,96370,2,0,P|276:203|289:287,1,172.500003290176
32,80,96745,2,0,L|202:34,1,172.500003290176
416,48,97120,2,0,P|395:105|401:40,1,172.500003290176
507,206,97495,6,0,P|493:268|405:339,1,172.500003290176
272,301,97870,2,0,P|286:239|374:168,1,172.500003290176
256,384,98245,2,0,L|89:339,1,172.500003290176,0|0,3:0|3:0,3:0:0:0:
32,96,98620,2,0,P|78:167|157:196,1,172.500003290176
352,80,98995,2,0,P|314:19|312:80,1,172.500003290176
384,224,99370,6,0,L|328:209,1,57.5000010967255
157,196,99557,2,0,L|101:210,1,57.5000010967255
336,368,99745,2,0,L|506:322,1,172.500003290176
240,272,100120,2,0,P|204:331|259:301,1,172.500003290176
368,144,100495,6,0,L|312:158,1,57.5000010967255
128,112,100682,2,0,L|183:97,1,57.5000010967255
377,64,100870,2,0,P|442:115|427:196,1,172.500003290176
258,309,101245,1,0,0:0:0:0:
64,176,101432,1,0,0:0:0:0:
263,30,101620,2,0,P|285:112|256:192,1,172.500003290176
16,64,101995,6,0,P|65:16|67:85,1,172.500003290176
256,192,102370,2,0,P|174:171|100:212,1,172.500003290176
384,352,102745,2,0,L|429:181,1,172.500003290176
336,32,103120,2,0,P|272:17|316:77,1,172.500003290176
495,261,103495,6,0,P|423:214|338:217,1,172.500003290176
224,320,103870,2,0,P|295:366|380:363,1,172.500003290176
112,176,104245,2,0,L|66:346,1,172.500003290176
16,121,104620,2,0,P|81:69|165:77,1,172.500003290176
240,298,104995,2,0,P|183:327|217:265,1,172.500003290176
482,234,105370,6,0,L|467:289,1,57.5000010967255
298,371,105557,2,0,L|242:356,1,57.5000010967255
103,145,105745,2,0,L|273:99,1,172.500003290176
432,64,106120,2,0,P|472:76|411:83,1,172.500003290176
482,234,106495,6,0,L|465:295,1,57.5000010967255
339,377,106682,2,0,L|324:321,1,57.5000010967255
269,99,106870,2,0,P|206:77|244:131,1,172.500003290176
497,191,107245,1,0,0:0:0:0:
441,36,107432,2,0,P|408:145|346:49,1,287.500005483627
207,0,107995,6,0,P|117:13|57:83,1,187.5
250,166,108370,2,0,P|340:152|400:82,1,187.5
159,190,108745,2,0,L|110:375,1,187.5
352,352,109120,2,0,P|417:313|346:285,1,187.5
111,372,109495,2,0,P|138:284|213:231,1,187.5
453,210,109870,2,0,P|426:298|351:351,1,187.5
80,192,110245,5,0,0:0:0:0:
321,106,110432,1,0,0:0:0:0:
430,369,110620,2,0,P|356:316|353:225,1,187.5
429,90,110995,2,0,P|362:57|383:128,1,187.5
512,240,111370,6,0,L|450:256,1,62.5
288,336,111557,2,0,L|227:319,1,62.5
55,97,111745,2,0,L|236:145,1,187.5
112,335,112120,2,0,P|36:330|84:272,1,187.5
288,256,112495,6,0,L|365:276,1,62.5
512,192,112682,2,0,L|451:175,1,62.5
223,208,112870,2,0,P|218:296|298:335,1,187.5
451,175,113245,5,0,0:0:0:0:
220,86,113432,1,0,0:0:0:0:
51,283,113620,2,0,P|132:324|220:299,1,187.5
464,336,113995,6,0,P|383:295|295:320,1,187.5
192,160,114370,2,0,P|273:201|361:176,1,187.5
31,32,114745,2,0,L|-17:217,1,187.5
166,356,115120,2,0,P|204:291|129:301,1,187.5
380,344,115495,2,0,P|404:255|360:174,1,187.5
181,117,115870,2,0,P|157:205|201:286,1,187.5
448,64,116245,2,0,L|262:113,1,187.5
435,289,116620,2,0,P|483:218|417:164,1,187.5
201,286,116995,2,0,P|249:338|242:267,1,187.5
17,172,117370,6,0,L|77:155,1,62.5
304,144,117557,2,0,L|364:160,1,62.5
107,357,117745,2,0,L|155:175,1,187.5
336,16,118120,2,0,P|400:32|328:59,1,187.5
192,16,118495,6,0,L|130:32,1,62.5
17,172,118682,2,0,L|78:188,1,62.5
288,160,118870,2,0,L|167:127,1,125
256,240,119151,1,0,0:0:0:0:
255,239,119245,2,0,P|316:243|363:203,1,125
369,24,119620,2,0,P|308:20|261:60,1,125
