osu file format v14

[General]
AudioFilename: audio.mp3
AudioLeadIn: 0
PreviewTime: -1
Countdown: 1
SampleSet: Normal
StackLeniency: 0.7
Mode: 0
LetterboxInBreaks: 0
WidescreenStoryboard: 0

[Editor]
Bookmarks: 45634
DistanceSpacing: 1
BeatDivisor: 4
GridSize: 32
TimelineZoom: 3.399999

[Metadata]
Title:Samurai (Spirix remix)
TitleUnicode:Samurai (Spirix remix)
Artist:Vanic
ArtistUnicode:Vanic
Creator:Holmes45
Version:So Hazy
Source:
Tags:
BeatmapID:1324349
BeatmapSetID:628128

[Difficulty]
HPDrainRate:7
CircleSize:3
OverallDifficulty:7
ApproachRate:9
SliderMultiplier:1.2
SliderTickRate:1

[Events]
//Background and Video events
//Break Periods
//Storyboard Layer 0 (Background)
//Storyboard Layer 1 (Fail)
//Storyboard Layer 2 (Pass)
//Storyboard Layer 3 (Foreground)
Sprite,Foreground,Centre,"whatareyoudoing.png",320,240 M,0,34,168,206.0387,245.7807 M,0,168,268,206.0387,245.7807 M,0,268,334,206.0387,245.7807,182.9161,235.871 M,0,334,368,182.9161,235.871,206.0387,245.7807 R,0,334,434,-0.5615483,0.1321291 M,0,368,468,206.0387,245.7807 R,0,434,534,0.1321291,0.03303248 M,0,468,568,206.0387,245.7807 R,0,534,634,0.03303248,0.478968 M,0,568,668,206.0387,245.7807 R,0,634,734,0.478968,0.9414195 M,0,668,768,206.0387,245.7807 R,0,734,834,0.9414195,1.304774 M,0,768,868,206.0387,245.7807 R,0,834,934,1.304774,1.717678 M,0,868,968,206.0387,245.7807 R,0,934,1034,1.717678,2.064516 M,0,968,1068,206.0387,245.7807 R,0,1034,1134,2.064516,2.394839 M,0,1068,1168,206.0387,245.7807 R,0,1134,1234,2.394839,2.791225 M,0,1168,1268,206.0387,245.7807 R,0,1234,1334,2.791225,3.319742 M,0,1268,1368,206.0387,245.7807 R,0,1334,1434,3.319742,3.848258 M,0,1368,1468,206.0387,245.7807 R,0,1434,1534,3.848258,4.029935 M,0,1468,1568,206.0387,245.7807 R,0,1534,1634,4.029935,4.376774 M,0,1568,1668,206.0387,245.7807 R,0,1634,1734,4.376774,5.053935 M,0,1668,1768,206.0387,245.7807 R,0,1734,1834,5.053935,5.71458 M,0,1768,1868,206.0387,245.7807 R,0,1834,1934,5.71458,6.309161 M,0,1868,1968,206.0387,245.7807 S,0,1934,2034,0.8843871,1.181677 R,0,1934,2134,6.309161,6.903741 M,0,1968,2068,206.0387,245.7807 S,0,2034,2134,1.181677,1.148645 M,0,2068,2168,206.0387,245.7807 S,0,2134,2234,1.148645,0.6572903 R,0,2134,2234,6.903741,7.46529 M,0,2168,2268,206.0387,245.7807 S,0,2234,2334,0.6572903,1.256 R,0,2234,3434,7.46529,7.184516 M,0,2268,2368,206.0387,245.7807 S,0,2334,2434,1.256,1.693678 M,0,2368,2468,206.0387,245.7807 S,0,2434,2534,1.693678,2.081807 M,0,2468,2568,206.0387,245.7807 S,0,2534,2634,2.081807,2.593807 M,0,2568,2668,206.0387,245.7807 S,0,2634,2734,2.593807,2.858065 M,0,2668,2768,206.0387,245.7807 S,0,2734,2834,2.858065,2.304775 M,0,2768,2868,206.0387,245.7807 S,0,2834,2934,2.304775,1.825807 M,0,2868,2968,206.0387,245.7807 S,0,2934,3034,1.825807,1.421162 M,0,2968,3068,206.0387,245.7807 S,0,3034,3134,1.421162,1.206452 M,0,3068,3168,206.0387,245.7807 S,0,3134,3234,1.206452,0.925678 M,0,3168,3268,206.0387,245.7807 S,0,3234,3334,0.925678,0.7027101 M,0,3268,3368,206.0387,245.7807 S,0,3334,3434,0.7027101,0.5127748 M,0,3368,3468,206.0387,245.7807 R,0,3434,3534,7.184516,6.804645 S,0,3434,34381,0.5127748,1.536775 M,0,3468,3568,206.0387,245.7807 R,0,3534,3634,6.804645,6.375225 M,0,3568,3668,206.0387,245.7807 R,0,3634,3734,6.375225,6.061419 M,0,3668,3768,206.0387,245.7807 R,0,3734,3834,6.061419,5.731096 M,0,3768,3868,206.0387,245.7807 R,0,3834,3934,5.731096,5.41729 M,0,3868,3968,206.0387,245.7807 R,0,3934,4034,5.41729,5.219096 M,0,3968,4068,206.0387,245.7807 R,0,4034,4134,5.219096,4.921805 M,0,4068,4168,206.0387,245.7807 R,0,4134,4234,4.921805,4.442838 M,0,4168,4234,206.0387,245.7807,225.8581,246.6064 M,0,4234,4268,225.8581,246.6064,206.0387,245.7807 R,0,4234,4334,4.442838,4.079483 M,0,4268,4334,206.0387,245.7807,225.8581,246.6064 M,0,4334,4368,225.8581,246.6064,247.329,231.7419 R,0,4334,4434,4.079483,3.600515 M,0,4368,4434,247.329,231.7419,225.8581,246.6064 M,0,4434,4534,225.8581,246.6064 R,0,4434,4534,3.600515,3.138063 M,0,4534,4634,225.8581,246.6064 R,0,4534,4634,3.138063,2.64258 M,0,4634,4734,225.8581,246.6064 R,0,4634,4734,2.64258,2.081032 M,0,4734,4834,225.8581,246.6064 R,0,4734,4834,2.081032,1.61858 M,0,4834,4934,225.8581,246.6064 R,0,4834,4934,1.61858,1.007483 M,0,4934,5034,225.8581,246.6064 R,0,4934,5034,1.007483,0.7267092 M,0,5034,5134,225.8581,246.6064 R,0,5034,5134,0.7267092,0.3633541 M,0,5134,5234,225.8581,246.6064 R,0,5134,5234,0.3633541,0.1321285 M,0,5234,5334,225.8581,246.6064 R,0,5234,5334,0.1321285,-0.4459361 M,0,5334,5434,225.8581,246.6064 R,0,5334,5434,-0.4459361,-1.073549 M,0,5434,5534,225.8581,246.6064 R,0,5434,5534,-1.073549,-1.45342 M,0,5534,5634,225.8581,246.6064 R,0,5534,5634,-1.45342,-2.246194 M,0,5634,5734,225.8581,246.6064 R,0,5634,5734,-2.246194,-2.741678 M,0,5734,5834,225.8581,246.6064 R,0,5734,5834,-2.741678,-3.121549 M,0,5834,5934,225.8581,246.6064 R,0,5834,5934,-3.121549,-3.484903 M,0,5934,6034,225.8581,246.6064 R,0,5934,6034,-3.484903,-3.947355 M,0,6034,6134,225.8581,246.6064 R,0,6034,6134,-3.947355,-4.376773 M,0,6134,6234,225.8581,246.6064 R,0,6134,6234,-4.376773,-4.806193 M,0,6234,6334,225.8581,246.6064 R,0,6234,6334,-4.806193,-5.169548 M,0,6334,6434,225.8581,246.6064 R,0,6334,17834,-5.169548,-6.689032 M,0,6434,6534,225.8581,246.6064 M,0,6534,6634,225.8581,246.6064 P,0,6534,6634,H M,0,6634,6734,225.8581,246.6064 P,0,6634,6734,H M,0,6734,6834,225.8581,246.6064 P,0,6734,6834,H M,0,6834,6934,225.8581,246.6064 P,0,6834,6934,H M,0,6934,7034,225.8581,246.6064 P,0,6934,7034,H M,0,7034,7134,225.8581,246.6064 P,0,7034,7234,H M,0,7134,7234,225.8581,246.6064 M,0,7234,7334,225.8581,246.6064 P,0,7234,7334,H M,0,7334,7434,225.8581,246.6064 P,0,7334,7534,H M,0,7434,7534,225.8581,246.6064 P,0,7434,7534,V M,0,7534,7634,225.8581,246.6064 P,0,7534,7634,H P,0,7534,7734,V M,0,7634,7734,225.8581,246.6064 P,0,7634,7734,H M,0,7734,7834,225.8581,246.6064,328.2581,199.5354 P,0,7734,7834,V P,0,7734,8434,H M,0,7834,7934,328.2581,199.5354,135.8452,196.2322 P,0,7834,8334,V M,0,7934,8034,135.8452,196.2322,323.3033,329.1871 M,0,8034,8134,323.3033,329.1871,127.5871,349.8322 M,0,8134,8234,127.5871,349.8322,225.8581,246.6064 M,0,8234,8334,225.8581,246.6064 M,0,8334,8434,225.8581,246.6064 P,0,8334,8534,V M,0,8434,8534,225.8581,246.6064 P,0,8434,8634,H M,0,8534,8634,225.8581,246.6064 P,0,8534,13647,V M,0,8634,8734,225.8581,246.6064 P,0,8634,9734,H M,0,8734,8834,225.8581,246.6064 M,0,8834,8934,225.8581,246.6064 M,0,8934,9034,225.8581,246.6064 M,0,9034,9134,225.8581,246.6064 M,0,9134,9234,225.8581,246.6064 M,0,9234,9334,225.8581,246.6064 M,0,9334,9434,225.8581,246.6064 M,0,9434,9534,225.8581,246.6064 M,0,9534,9634,225.8581,246.6064 M,0,9634,9734,225.8581,246.6064 M,0,9734,9834,225.8581,246.6064 P,0,9734,10408,H M,0,9834,9934,225.8581,246.6064 M,0,9934,10034,225.8581,246.6064 M,0,10034,10134,225.8581,246.6064 M,0,10134,10234,225.8581,246.6064 M,0,10234,10334,225.8581,246.6064 M,0,10334,10434,225.8581,246.6064 P,0,10408,11017,H M,0,10434,10534,225.8581,246.6064 M,0,10534,10634,225.8581,246.6064 M,0,10634,10734,225.8581,246.6064 M,0,10734,10834,225.8581,246.6064 M,0,10834,10934,225.8581,246.6064 M,0,10934,11034,225.8581,246.6064 P,0,11017,11521,H M,0,11034,11134,225.8581,246.6064 M,0,11134,11234,225.8581,246.6064 M,0,11234,11334,225.8581,246.6064 M,0,11334,11434,225.8581,246.6064 M,0,11434,11534,225.8581,246.6064 P,0,11521,11981,H M,0,11534,11634,225.8581,246.6064 M,0,11634,11734,225.8581,246.6064 M,0,11734,11834,225.8581,246.6064 M,0,11834,11934,225.8581,246.6064 M,0,11934,12034,225.8581,246.6064 P,0,11981,12437,H M,0,12034,12134,225.8581,246.6064 M,0,12134,12234,225.8581,246.6064 M,0,12234,12334,225.8581,246.6064 M,0,12334,12434,225.8581,246.6064 M,0,12434,12534,225.8581,246.6064 P,0,12437,12887,H M,0,12534,12634,225.8581,246.6064 M,0,12634,12734,225.8581,246.6064 M,0,12734,12834,225.8581,246.6064 M,0,12834,12934,225.8581,246.6064 P,0,12887,16534,H M,0,12934,13034,225.8581,246.6064 M,0,13034,13134,225.8581,246.6064 M,0,13134,13234,225.8581,246.6064 M,0,13234,13334,225.8581,246.6064 M,0,13334,13434,225.8581,246.6064 M,0,13434,13534,225.8581,246.6064 M,0,13534,13634,225.8581,246.6064 M,0,13634,13734,225.8581,246.6064 P,0,13647,13914,V M,0,13734,13834,225.8581,246.6064 M,0,13834,13934,225.8581,246.6064 P,0,13914,14123,V M,0,13934,14034,225.8581,246.6064 M,0,14034,14134,225.8581,246.6064 P,0,14123,14314,V M,0,14134,14234,225.8581,246.6064 M,0,14234,14334,225.8581,246.6064 P,0,14314,14523,V M,0,14334,14434,225.8581,246.6064 M,0,14434,14534,225.8581,246.6064 P,0,14523,14723,V M,0,14534,14634,225.8581,246.6064 M,0,14634,14734,225.8581,246.6064 P,0,14723,14914,V M,0,14734,14834,225.8581,246.6064 M,0,14834,14934,225.8581,246.6064 P,0,14914,15141,V M,0,14934,15034,225.8581,246.6064 M,0,15034,15134,225.8581,246.6064 M,0,15134,15234,225.8581,246.6064 P,0,15141,15372,V M,0,15234,15334,225.8581,246.6064 M,0,15334,15434,225.8581,246.6064 P,0,15372,15692,V M,0,15434,15534,225.8581,246.6064 M,0,15534,15634,225.8581,246.6064 M,0,15634,15734,225.8581,246.6064 P,0,15692,15834,V M,0,15734,15834,225.8581,246.6064 M,0,15834,15934,225.8581,246.6064 P,0,15834,16134,V M,0,15934,16034,225.8581,246.6064,201.9097,224.3097 M,0,16034,16134,201.9097,224.3097 M,0,16134,16234,201.9097,224.3097 M,0,16234,16334,201.9097,224.3097 M,0,16334,16434,201.9097,224.3097 M,0,16434,16534,201.9097,224.3097 M,0,16534,16634,201.9097,224.3097 P,0,16534,16934,H M,0,16634,16734,201.9097,224.3097 M,0,16734,16834,201.9097,224.3097 M,0,16834,16934,201.9097,224.3097 M,0,16934,17034,201.9097,224.3097 P,0,16934,17734,H M,0,17034,17134,201.9097,224.3097 F,0,17034,17134,0.8554839,1 M,0,17134,17234,201.9097,224.3097 F,0,17134,17234,1,0.1411614 M,0,17234,17334,201.9097,224.3097 F,0,17234,17334,0.1411614,1 M,0,17334,17434,201.9097,224.3097 F,0,17334,17434,1,0.2485162 M,0,17434,17534,201.9097,224.3097 F,0,17434,17534,0.2485162,1 M,0,17534,17634,201.9097,224.3097 F,0,17534,27312,1 M,0,17634,17734,201.9097,224.3097 M,0,17734,17834,201.9097,224.3097 M,0,17834,17934,201.9097,224.3097,629.6774,147.5097 R,0,17834,22034,-6.689032,-9.642116 M,0,17934,18034,629.6774,147.5097,401.7549,443.1484 M,0,18034,18134,401.7549,443.1484,46.6581,-67.19998 M,0,18134,18234,46.6581,-67.19998,-54.91609,334.9677 M,0,18234,18334,-54.91609,334.9677,676.7484,406.8129 M,0,18334,18434,676.7484,406.8129,538.0129,180.5419 M,0,18434,18534,538.0129,180.5419,228.3355,373.7806 M,0,18534,18634,228.3355,373.7806,315.0452,140.0774 M,0,18634,18734,315.0452,140.0774,201.9097,224.3097 M,0,18734,18834,201.9097,224.3097 M,0,18834,18934,201.9097,224.3097 M,0,18934,19034,201.9097,224.3097 M,0,19034,19134,201.9097,224.3097 M,0,19134,19234,201.9097,224.3097 M,0,19234,19334,201.9097,224.3097 M,0,19334,19434,201.9097,224.3097 M,0,19434,19534,201.9097,224.3097 M,0,19534,19634,201.9097,224.3097 M,0,19634,19734,201.9097,224.3097 M,0,19734,19834,201.9097,224.3097 M,0,19834,19865,201.9097,224.3097,248.1549,225.9613 M,0,19865,19934,248.1549,225.9613,336.5162,216.8774 M,0,19934,20034,336.5162,216.8774,468.6452,250.7355 M,0,20034,20134,468.6452,250.7355,554.5291,200.3613 M,0,20134,20234,554.5291,200.3613,419.9226,252.3871 M,0,20234,20334,419.9226,252.3871,84.64518,202.8387 M,0,20334,20434,84.64518,202.8387,325.7807,130.1678 M,0,20434,20534,325.7807,130.1678,315.871,247.4323 M,0,20534,20634,315.871,247.4323,213.471,227.6129 M,0,20634,20734,213.471,227.6129,201.9097,224.3097 M,0,20734,20834,201.9097,224.3097,229.1613,230.0903 M,0,20834,20934,229.1613,230.0903,217.6,223.4839 M,0,20934,21034,217.6,223.4839,201.9097,224.3097 M,0,21034,21134,201.9097,224.3097,226.6839,223.4839 M,0,21134,21234,226.6839,223.4839,201.9097,224.3097 M,0,21234,21334,201.9097,224.3097,228.3355,222.6581 M,0,21334,21434,228.3355,222.6581,201.9097,224.3097 M,0,21434,21534,201.9097,224.3097,220.9032,226.7871 M,0,21534,21634,220.9032,226.7871,201.9097,224.3097 M,0,21634,21734,201.9097,224.3097,224.2065,222.6581 M,0,21734,21834,224.2065,222.6581,201.9097,224.3097 M,0,21834,21934,201.9097,224.3097 M,0,21934,22034,201.9097,224.3097,203.5613,210.271 M,0,22034,22134,203.5613,210.271,201.9097,224.3097 R,0,22034,22134,-9.642116,-12.63814 M,0,22134,22234,201.9097,224.3097,209.342,239.1742 R,0,22134,22234,-12.63814,-12.52088 M,0,22234,22334,209.342,239.1742,201.9097,213.5742 R,0,22234,22334,-12.52088,-9.414194 M,0,22334,22434,201.9097,213.5742,201.9097,224.3097 R,0,22334,22434,-9.414194,-9.761032 M,0,22434,22534,201.9097,224.3097,201.9097,214.4 R,0,22434,22534,-9.761032,-10.43819 M,0,22534,22634,201.9097,214.4,201.9097,224.3097 R,0,22534,22634,-10.43819,-9.381162 M,0,22634,22734,201.9097,224.3097,203.5613,215.2258 R,0,22634,22734,-9.381162,-7.035872 M,0,22734,22834,203.5613,215.2258,201.9097,224.3097 R,0,22734,22834,-7.035872,-8.885678 M,0,22834,22934,201.9097,224.3097,253.1097,221.0065 R,0,22834,22934,-8.885678,-16.26839 M,0,22934,23034,253.1097,221.0065,310.9161,237.5226 R,0,22934,23034,-16.26839,-10.1409 M,0,23034,23134,310.9161,237.5226,201.9097,224.3097 R,0,23034,23134,-10.1409,-21.48748 M,0,23134,23234,201.9097,224.3097 R,0,23134,23234,-21.48748,-23.79974 M,0,23234,23334,201.9097,224.3097 R,0,23234,23334,-23.79974,-19.34039 M,0,23334,23434,201.9097,224.3097,201.9097,246.6064 R,0,23334,23434,-19.34039,-21.57006 R,0,23434,23534,-21.57006,-23.51897 M,0,23434,23834,201.9097,246.6064 R,0,23534,23634,-23.51897,-27.11949 R,0,23634,23734,-27.11949,-31.82658 R,0,23734,23834,-31.82658,-34.13884 R,0,23834,23934,-34.13884,-35.41058 M,0,23834,24234,201.9097,246.6064 R,0,23934,24034,-35.41058,-37.64026 R,0,24034,32125,-37.64026,-42.21523 M,0,24234,24634,201.9097,246.6064,201.9097,224.3097 M,0,24634,24734,201.9097,224.3097 M,0,24734,24834,201.9097,224.3097 M,0,24834,24934,201.9097,224.3097,201.9097,246.6064 M,0,24934,25334,201.9097,246.6064 M,0,25334,25734,201.9097,246.6064 M,0,25734,26134,201.9097,246.6064 M,0,26134,26534,201.9097,246.6064 M,0,26534,26545,201.9097,246.6064,210.9936,234.2193 M,0,26545,26634,210.9936,234.2193,208.9153,246.1372 M,0,26634,26834,208.9153,246.1372,219.1094,253.8823 M,0,26834,26934,219.1094,253.8823,237.4194,243.3032 M,0,26934,27034,237.4194,243.3032,244.2323,192.929 M,0,27034,27134,244.2323,192.929,272.2409,228.9892 M,0,27134,27234,272.2409,228.9892,206.5205,236.1462 M,0,27234,27334,206.5205,236.1462,248.9807,212.7483 F,0,27312,38763,1 M,0,27334,27434,248.9807,212.7483,257.0323,230.2967 M,0,27434,27534,257.0323,230.2967,244.4388,190.3139 M,0,27534,27634,244.4388,190.3139,254.5549,253.9698 M,0,27634,27734,254.5549,253.9698,255.5871,171.458 M,0,27734,27834,255.5871,171.458,305.7548,183.6386 M,0,27834,27934,305.7548,183.6386,489.7033,152.3268 M,0,27934,28134,489.7033,152.3268,201.9097,246.6064 M,0,28134,28534,201.9097,246.6064 M,0,28534,28634,201.9097,246.6064,386.0645,184.6709 M,0,28634,28934,386.0645,184.6709,201.9097,246.6064 M,0,28934,29334,201.9097,246.6064 M,0,29334,29434,201.9097,246.6064,40.87744,90.529 M,0,29434,29734,40.87744,90.529,201.9097,246.6064 M,0,29734,30134,201.9097,246.6064 M,0,30134,30534,201.9097,246.6064 M,0,30534,30934,201.9097,246.6064 M,0,30934,31134,201.9097,246.6064,586.7355,145.858 M,0,31134,31334,586.7355,145.858,201.9097,246.6064 M,0,31334,31734,201.9097,246.6064 M,0,31734,32134,201.9097,246.6064 R,0,32125,32234,-42.21523,-39.35794 M,0,32134,32534,201.9097,246.6064 R,0,32234,32334,-39.35794,-36.91355 R,0,32334,32434,-36.91355,-37.70633 R,0,32434,38334,-37.70633,-39.73781 M,0,32534,32934,201.9097,246.6064 M,0,32934,33334,201.9097,246.6064 M,0,33334,33734,201.9097,246.6064 M,0,33734,34134,201.9097,246.6064 M,0,34134,34534,201.9097,246.6064,288.6194,275.5096 S,0,34381,34434,1.536775,0.4136783 S,0,34434,34734,0.4136783,0.7522589 M,0,34534,34634,288.6194,275.5096,119.9484,246.8129 M,0,34634,34834,119.9484,246.8129,319.9312,214.4688 S,0,34734,46011,0.7522589,0.4628415 M,0,34834,34934,319.9312,214.4688,334.0387,251.5612 M,0,34934,35034,334.0387,251.5612,119.329,253.6258 M,0,35034,35134,119.329,253.6258,361.5656,304.9634 M,0,35134,35234,361.5656,304.9634,198.3312,217.1526 M,0,35234,35334,198.3312,217.1526,390.1935,263.1225 M,0,35334,35434,390.1935,263.1225,136.671,261.4709 M,0,35434,35534,136.671,261.4709,533.3334,197.058 M,0,35534,35634,533.3334,197.058,110.7957,315.9742 M,0,35634,35734,110.7957,315.9742,491.7678,217.7032 M,0,35734,36134,491.7678,217.7032,201.9097,246.6064 M,0,36134,36534,201.9097,246.6064 M,0,36534,36934,201.9097,246.6064 M,0,36934,37334,201.9097,246.6064,439.742,275.5096 M,0,37334,37434,439.742,275.5096,-45.83221,62.65804 M,0,37434,37534,-45.83221,62.65804,97.0323,208.2064 M,0,37534,37634,97.0323,208.2064,269.213,262.9161 M,0,37634,37734,269.213,262.9161,330.7355,296.9806 M,0,37734,37834,330.7355,296.9806,555.3549,296.7741 M,0,37834,37934,555.3549,296.7741,616.7399,342.8129 M,0,37934,38034,616.7399,342.8129,530.7183,145.2387 M,0,38034,38134,530.7183,145.2387,82.99356,293.6774 M,0,38134,38534,82.99356,293.6774,201.9097,246.6064 R,0,38334,38434,-39.73781,-40.29936 R,0,38434,38534,-40.29936,-37.27691 R,0,38534,38634,-37.27691,-35.2289 M,0,38534,38934,201.9097,246.6064 R,0,38634,38734,-35.2289,-32.53678 R,0,38734,38834,-32.53678,-34.93161 F,0,38763,46326,1 R,0,38834,38934,-34.93161,-32.47071 M,0,38934,39334,201.9097,246.6064 R,0,38934,39955,-32.47071,-35.27845 M,0,39334,39734,201.9097,246.6064 M,0,39734,40134,201.9097,246.6064 R,0,39955,40034,-35.27845,-33.34607 R,0,40034,40134,-33.34607,-35.95561 R,0,40134,40434,-35.95561,-38.16877 M,0,40134,40534,201.9097,246.6064 R,0,40434,40534,-38.16877,-41.27381 R,0,40534,40634,-41.27381,-44.41187 M,0,40534,40934,201.9097,246.6064 R,0,40634,40734,-44.41187,-43.05755 R,0,40734,40834,-43.05755,-46.26168 R,0,40834,40934,-46.26168,-42.06658 R,0,40934,41034,-42.06658,-44.70916 M,0,40934,41334,201.9097,246.6064 R,0,41034,41134,-44.70916,-47.84723 R,0,41134,41234,-47.84723,-50 R,0,41234,41334,-50 R,0,41334,41434,-50,-46.89497 M,0,41334,41734,201.9097,246.6064 R,0,41434,41534,-46.89497,-50 R,0,41534,41634,-50,-49.20723 R,0,41634,41734,-49.20723,-49.83484 R,0,41734,41834,-49.83484,-49.02555 M,0,41734,42134,201.9097,246.6064 R,0,41834,41934,-49.02555,-50 R,0,41934,42034,-50,-48.74477 R,0,42034,42134,-48.74477,-50 R,0,42134,42234,-50,-49.04206 M,0,42134,42534,201.9097,246.6064 R,0,42234,42334,-49.04206,-49.98349 R,0,42334,42434,-49.98349,-48.89342 R,0,42434,42534,-48.89342,-49.50452 R,0,42534,42595,-49.50452,-48.99252 M,0,42534,42934,201.9097,246.6064 R,0,42595,42734,-48.99252,-47.98503 R,0,42734,42834,-47.98503,-49.27329 R,0,42834,42934,-49.27329,-48.84387 R,0,42934,43034,-48.84387,-49.8018 M,0,42934,43334,201.9097,246.6064 R,0,43034,43134,-49.8018,-48.62916 R,0,43134,43234,-48.62916,-48.90993 R,0,43234,43334,-48.90993,-45.68929 R,0,43334,43434,-45.68929,-48.2658 M,0,43334,43734,201.9097,246.6064 R,0,43434,43534,-48.2658,-43.47612 R,0,43534,43734,-43.47612,-45.93703 R,0,43734,43834,-45.93703,-42.71638 M,0,43734,44134,201.9097,246.6064 R,0,43834,43934,-42.71638,-43.34399 R,0,43934,44034,-43.34399,-42.89806 R,0,44034,44134,-42.89806,-48.79432 R,0,44134,44234,-48.79432,-46.97754 M,0,44134,44534,201.9097,246.6064 R,0,44234,44334,-46.97754,-44.74786 R,0,44334,44534,-44.74786,-48.2658 R,0,44534,44634,-48.2658,-50 M,0,44534,44834,201.9097,246.6064,264.671,244.9548 R,0,44634,44734,-50 R,0,44734,44834,-50 M,0,44834,44934,264.671,244.9548,221.7291,241.6516 R,0,44834,53395,-50,-48.64568 M,0,44934,45034,221.7291,241.6516,244.0258,244.5419 M,0,45034,45134,244.0258,244.5419,260.542,241.101 M,0,45134,45334,260.542,241.101,233.2903,242.4774 M,0,45334,45534,233.2903,242.4774,308.4387,229.6774 M,0,45534,45634,308.4387,229.6774,299.7678,224.929 M,0,45634,45734,299.7678,224.929,166.4,235.8709 M,0,45734,45834,166.4,235.8709,155.4581,207.9999 M,0,45834,45934,155.4581,207.9999,239.4839,206.0042 M,0,45934,46034,239.4839,206.0042,344.5677,200.7053 S,0,46011,83304,0.4628415,2.280001 M,0,46034,46134,344.5677,200.7053,180.4387,200.3612 M,0,46134,46234,180.4387,200.3612,229.5742,229.2645 M,0,46234,46334,229.5742,229.2645,262.4688,239.1741 F,0,46326,51579,1 M,0,46334,46434,262.4688,239.1741,337.8925,238.7612 M,0,46434,46534,337.8925,238.7612,229.9871,251.5612 M,0,46534,46634,229.9871,251.5612,288.2065,199.9483 M,0,46634,46934,288.2065,199.9483,241.5484,244.129 M,0,46934,47034,241.5484,244.129,348.0774,196.0258 M,0,47034,47134,348.0774,196.0258,137.4968,273.1698 M,0,47134,47234,137.4968,273.1698,338.9936,230.1591 M,0,47234,47334,338.9936,230.1591,113.5484,205.3161 M,0,47334,47434,113.5484,205.3161,380.9033,193.3419 M,0,47434,47534,380.9033,193.3419,204.8,293.6774 M,0,47534,47634,204.8,293.6774,106.7355,204.9032 M,0,47634,47734,106.7355,204.9032,483.5097,221.0064 M,0,47734,47834,483.5097,221.0064,223.1742,258.787 M,0,47834,47934,223.1742,258.787,139.286,204.3526 M,0,47934,48034,139.286,204.3526,389.4366,194.9247 M,0,48034,48134,389.4366,194.9247,293.5742,326.7096 M,0,48134,48234,293.5742,326.7096,281.3936,185.2903 M,0,48234,48334,281.3936,185.2903,325.0925,327.1225 M,0,48334,48434,325.0925,327.1225,502.1592,219.1483 M,0,48434,48534,502.1592,219.1483,44.18066,258.9935 M,0,48534,48734,44.18066,258.9935,348.4903,306.4774 M,0,48734,48834,348.4903,306.4774,448.6194,146.8903 M,0,48834,48934,448.6194,146.8903,43.35486,196.2322 M,0,48934,49034,43.35486,196.2322,408.3613,378.1161 M,0,49034,49134,408.3613,378.1161,472.499,168.2924 M,0,49134,49234,472.499,168.2924,76.2495,213.2301 M,0,49234,49334,76.2495,213.2301,201.9097,246.6064 M,0,49334,49434,201.9097,246.6064,380.2839,374.6064 M,0,49434,49534,380.2839,374.6064,530.5807,161.8236 M,0,49534,49734,530.5807,161.8236,376.1548,268.0774 M,0,49734,49834,376.1548,268.0774,396.8,367.1741 M,0,49834,49934,396.8,367.1741,65.10109,151.0881 M,0,49934,50034,65.10109,151.0881,408.499,329.3247 M,0,50034,50134,408.499,329.3247,463.6904,254.8645 M,0,50134,50234,463.6904,254.8645,5.161333,197.4709 M,0,50234,50534,5.161333,197.4709,356.3355,519.1226 M,0,50534,50634,356.3355,519.1226,300.3871,394.8387 M,0,50634,50734,300.3871,394.8387,279.9484,252.1118 M,0,50734,50834,279.9484,252.1118,534.0903,216.3268 M,0,50834,50934,534.0903,216.3268,133.3678,412.5935 M,0,50934,51034,133.3678,412.5935,92.69681,81.23866 M,0,51034,51134,92.69681,81.23866,403.2689,213.987 M,0,51134,51334,403.2689,213.987,201.9097,246.6064 M,0,51334,51734,201.9097,246.6064 F,0,51579,83304,1,0 M,0,51734,52134,201.9097,246.6064 M,0,52134,52534,201.9097,246.6064 M,0,52534,52934,201.9097,246.6064 M,0,52934,53334,201.9097,246.6064 M,0,53334,53734,201.9097,246.6064 R,0,53395,82988,-48.64568,-40.13987 M,0,53734,54134,201.9097,246.6064 M,0,54134,54534,201.9097,246.6064 M,0,54534,54934,201.9097,246.6064 M,0,54934,55334,201.9097,246.6064 M,0,55334,55734,201.9097,246.6064 M,0,55734,56134,201.9097,246.6064 M,0,56134,56534,201.9097,246.6064 M,0,56534,56934,201.9097,246.6064 M,0,56934,57334,201.9097,246.6064 M,0,57334,57734,201.9097,246.6064 M,0,57734,58134,201.9097,246.6064 M,0,58134,58534,201.9097,246.6064 M,0,58534,58934,201.9097,246.6064 M,0,58934,59334,201.9097,246.6064 M,0,59334,59734,201.9097,246.6064 M,0,59734,60134,201.9097,246.6064 M,0,60134,60534,201.9097,246.6064 M,0,60534,60934,201.9097,246.6064 M,0,60934,61334,201.9097,246.6064 M,0,61334,61734,201.9097,246.6064 M,0,61734,62134,201.9097,246.6064 M,0,62134,62534,201.9097,246.6064 M,0,62534,62934,201.9097,246.6064 M,0,62934,63334,201.9097,246.6064 M,0,63334,63734,201.9097,246.6064 M,0,63734,64134,201.9097,246.6064 M,0,64134,64534,201.9097,246.6064 M,0,64534,64934,201.9097,246.6064 M,0,64934,65334,201.9097,246.6064 M,0,65334,65734,201.9097,246.6064 M,0,65734,66134,201.9097,246.6064 M,0,66134,66534,201.9097,246.6064 M,0,66534,66934,201.9097,246.6064 M,0,66934,67334,201.9097,246.6064 M,0,67334,67734,201.9097,246.6064 M,0,67734,68134,201.9097,246.6064 M,0,68134,68534,201.9097,246.6064 M,0,68534,68934,201.9097,246.6064 M,0,68934,69334,201.9097,246.6064 M,0,69334,69734,201.9097,246.6064 M,0,69734,70134,201.9097,246.6064 M,0,70134,70534,201.9097,246.6064 M,0,70534,70934,201.9097,246.6064 M,0,70934,71334,201.9097,246.6064 M,0,71334,71734,201.9097,246.6064 M,0,71734,72134,201.9097,246.6064 M,0,72134,72534,201.9097,246.6064 M,0,72534,72934,201.9097,246.6064 M,0,72934,73334,201.9097,246.6064 M,0,73334,73734,201.9097,246.6064 M,0,73734,74134,201.9097,246.6064 M,0,74134,74534,201.9097,246.6064 M,0,74534,74934,201.9097,246.6064 M,0,74934,75334,201.9097,246.6064 M,0,75334,75734,201.9097,246.6064 M,0,75734,76134,201.9097,246.6064 M,0,76134,76534,201.9097,246.6064 M,0,76534,76934,201.9097,246.6064 M,0,76934,77334,201.9097,246.6064 M,0,77334,77734,201.9097,246.6064 M,0,77734,78134,201.9097,246.6064 M,0,78134,78534,201.9097,246.6064 M,0,78534,78934,201.9097,246.6064 M,0,78934,79334,201.9097,246.6064 M,0,79334,79734,201.9097,246.6064 M,0,79734,80134,201.9097,246.6064 M,0,80134,80534,201.9097,246.6064 M,0,80534,80934,201.9097,246.6064 M,0,80934,81334,201.9097,246.6064 M,0,81334,81734,201.9097,246.6064 M,0,81734,82134,201.9097,246.6064 M,0,82134,82534,201.9097,246.6064 M,0,82534,82934,201.9097,246.6064 M,0,82934,83334,201.9097,246.6064 M,0,83334,83734,201.9097,246.6064 M,0,83734,84134,201.9097,246.6064 M,0,84134,84534,201.9097,246.6064 M,0,84534,84934,201.9097,246.6064 M,0,84934,85334,201.9097,246.6064 M,0,85334,85734,201.9097,246.6064 M,0,85734,86134,201.9097,246.6064,201.9097,223.4839
//Storyboard Sound Samples

[TimingPoints]
34,400,4,1,0,100,1,0
51234,-50,4,1,0,100,0,0

[HitObjects]
412,115,34,6,0,B|382:55|382:55|324:27,1,120
313,129,634,1,0,0:0:0:0:
434,213,834,2,0,B|493:186|493:186|501:169,2,60
296,277,1434,1,0,0:0:0:0:
296,277,1634,6,0,B|253:249|253:249|213:173,2,120
321,186,2834,1,0,0:0:0:0:
321,186,3234,6,0,L|338:257,1,60
252,176,3634,2,0,L|269:105,1,60
192,193,4034,2,0,L|209:264,1,60
127,176,4434,2,0,L|144:105,1,60
79,207,4834,5,0,0:0:0:0:
79,207,5034,1,0,0:0:0:0:
79,207,5234,2,0,B|54:164|54:164|32:146,1,60
46,157,5634,2,0,B|43:114|43:114|63:82,1,60
51,98,6034,2,0,B|73:62|73:62|114:51,1,60
135,129,6434,6,0,B|186:186|186:186|236:212,1,120
224,206,7034,1,0,0:0:0:0:
331,189,7234,1,0,0:0:0:0:
346,79,7434,1,0,0:0:0:0:
241,107,7634,1,0,0:0:0:0:
150,142,7834,6,0,B|135:182|135:182|138:201,1,60
370,278,8434,1,0,0:0:0:0:
370,278,8634,1,0,0:0:0:0:
370,278,8834,2,0,B|401:224|401:224|374:193|374:193|415:182|415:182|405:163|405:163|376:148|376:148|423:128|423:128|357:82|310:73|243:64|179:89|96:158,1,600
224,187,11834,6,0,B|259:204|259:204|298:196,2,60
280,103,12634,2,0,B|245:86|245:86|206:94,2,60
476,199,13534,6,0,B|445:178|445:178|426:189|426:189|413:169|413:169|375:178|356:147,1,150
355,146,14234,1,0,0:0:0:0:
272,193,14434,2,0,B|254:225|254:225|232:232|232:232|240:266|240:266|218:278|218:278|214:295|302:342|355:301|355:301,1,270
204,115,16034,6,0,B|183:151|183:151|173:178|173:178|153:218|153:218|131:230|131:230|127:247|157:297|229:271|229:271,1,240
250,207,17234,2,0,L|279:219,3,30,0|0|0|0,0:3|0:3|0:3|0:3,0:3:0:0:
322,225,17634,2,0,B|366:215|366:215|372:230|372:230|388:201|388:201|473:196|492:97,1,240
329,99,18834,5,0,0:0:0:0:
329,99,19034,1,0,0:0:0:0:
329,99,19234,2,0,B|285:100|285:100|260:81|254:137|194:108,1,120
111,153,20034,5,0,0:0:0:0:
290,204,20234,1,0,0:0:0:0:
144,273,20434,1,0,0:0:0:0:
219,81,20634,1,0,0:0:0:0:
219,81,20834,2,0,B|248:124|248:123|246:144|246:144|276:166|275:166|298:162|298:162|305:170,1,120
289,163,21634,2,0,B|295:206|295:206|304:226,2,60
256,192,22434,12,0,24034,0:0:0:0:
373,227,25634,6,0,B|392:262|392:262|377:302,3,60
286,252,26434,6,0,B|267:217|267:217|282:177,3,60
180,163,27234,6,0,B|177:142|177:142|203:113,3,60
373,128,28034,6,0,B|392:93|392:93|377:53,3,60
280,195,28834,6,0,B|261:160|261:160|276:120,3,60
393,202,29634,6,0,B|412:237|412:237|397:277,3,60
294,224,30434,6,0,B|255:214|255:214|236:175,3,60,0|0|0|0,0:3|0:0|0:0|0:0,0:0:0:0:
348,132,31234,6,0,B|386:141|386:141|405:180,3,60,0|0|0|0,0:3|0:0|0:0|0:0,0:0:0:0:
390,304,32034,5,0,0:0:0:0:
390,304,32234,1,0,0:0:0:0:
390,304,32434,2,0,B|347:266|347:266|330:271,1,60
273,217,32834,5,0,0:0:0:0:
273,217,33034,1,0,0:0:0:0:
273,217,33234,2,0,B|316:179|316:179|333:184,1,60
394,127,33634,5,0,0:0:0:0:
394,127,33834,1,0,0:0:0:0:
394,127,34034,2,0,B|351:89|351:89|334:94,1,60
235,171,34434,5,0,0:0:0:0:
235,171,34634,1,0,0:0:0:0:
235,171,34834,2,0,B|273:214|273:214|268:231,1,60
171,266,35234,5,0,0:0:0:0:
171,266,35434,1,0,0:0:0:0:
171,266,35634,2,0,B|133:223|133:223|138:206,1,60
189,116,36034,5,0,0:0:0:0:
189,116,36234,1,0,0:0:0:0:
189,116,36434,2,0,B|135:98|135:98|132:100,1,60
294,205,36834,5,0,0:0:0:0:
294,205,37034,1,0,0:0:0:0:
294,205,37234,2,0,B|240:187|240:187|226:199,1,60
422,104,37634,5,0,0:0:0:0:
422,104,37834,1,0,0:0:0:0:
422,104,38034,2,0,B|368:122|368:122|365:119,1,60
286,136,38434,5,0,0:0:0:0:
286,136,38534,1,0,0:0:0:0:
286,136,38634,2,0,B|293:166|293:166|322:188,1,60
414,206,38934,1,0,0:0:0:0:
414,206,39034,2,0,B|407:236|407:236|378:258,1,60
211,190,39434,1,0,0:0:0:0:
300,315,39634,1,0,0:0:0:0:
168,322,39834,5,0,0:0:0:0:
168,322,39934,1,0,0:0:0:0:
168,322,40034,2,0,B|171:290|171:290|152:260,1,60
70,274,40334,1,0,0:0:0:0:
70,274,40434,2,0,B|60:234|60:234|68:213,1,60
163,94,40834,5,0,0:0:0:0:
230,229,41034,1,0,0:0:0:0:
325,148,41234,1,0,0:0:0:0:
325,148,41334,1,0,0:0:0:0:
325,148,41434,1,0,0:0:0:0:
325,148,41534,2,0,B|331:192|331:192|339:191,1,30
194,307,41834,5,0,0:0:0:0:
194,307,41934,1,0,0:0:0:0:
194,307,42034,2,0,P|173:284|160:249,1,60
234,132,42434,2,0,P|255:155|268:190,1,60
337,287,42834,5,0,1:0:0:0:
337,287,42934,1,0,1:0:0:0:
337,287,43034,1,0,1:0:0:0:
337,287,43134,1,0,1:0:0:0:
337,287,43234,2,0,P|372:269|382:245,1,60,0|0,1:0|1:0,1:0:0:0:
310,196,43534,1,0,0:0:0:0:
310,196,43634,2,0,B|272:132,1,60
190,181,44034,5,0,0:0:0:0:
177,179,44134,1,0,0:0:0:0:
167,175,44234,1,0,0:0:0:0:
158,169,44334,1,0,0:0:0:0:
152,162,44434,2,0,P|169:127|167:95,1,60
79,56,44834,5,0,0:0:0:0:
79,56,44934,1,0,0:0:0:0:
79,56,45034,2,0,B|64:73|64:73|69:100,1,30
90,203,45234,5,0,0:0:0:0:
90,203,45334,1,0,0:0:0:0:
90,203,45434,2,0,B|106:180|106:180|101:158,1,30
225,53,45634,5,0,0:0:0:0:
225,53,45734,1,0,0:0:0:0:
225,53,45834,2,0,B|214:78|214:78|218:107,1,30
238,245,46034,5,0,0:0:0:0:
238,245,46134,1,0,0:0:0:0:
238,245,46234,2,0,B|254:222|254:222|249:200,1,30
382,62,46434,5,0,0:0:0:0:
382,62,46534,1,0,0:0:0:0:
382,62,46634,2,0,B|366:85|366:85|371:107,1,30
411,297,46834,5,0,0:0:0:0:
411,297,46934,1,0,0:0:0:0:
411,297,47034,2,0,B|422:271|422:271|414:250,1,30
390,65,47234,5,0,0:0:0:0:
390,65,47334,1,0,0:0:0:0:
390,65,47434,2,0,B|381:91|381:91|361:101,1,30
268,275,47634,5,0,0:0:0:0:
268,275,47734,1,0,0:0:0:0:
268,275,47834,2,0,B|256:249|256:249|264:228,1,30
200,46,48034,5,0,0:0:0:0:
176,64,48134,1,0,0:0:0:0:
155,85,48234,1,0,0:0:0:0:
141,111,48334,1,0,0:0:0:0:
137,141,48434,1,0,0:0:0:0:
143,170,48534,1,0,0:0:0:0:
158,196,48634,1,0,0:0:0:0:
181,215,48734,1,0,0:0:0:0:
202,235,48834,5,0,0:0:0:0:
240,243,48934,1,0,0:0:0:0:
278,246,49034,1,0,0:0:0:0:
317,243,49134,1,0,0:0:0:0:
353,232,49234,1,0,0:0:0:0:
382,230,49334,1,0,0:0:0:0:
417,237,49434,1,0,0:0:0:0:
450,245,49534,1,0,0:0:0:0:
484,255,49634,1,0,0:0:0:0:
385,297,51234,6,0,P|393:234|377:197,1,60
303,281,51434,2,0,P|311:218|295:181,1,60
220,258,51634,2,0,P|228:195|212:158,1,60
140,225,51834,2,0,P|148:162|121:108,1,120
124,112,52434,5,0,0:0:0:0:
274,139,52634,1,0,0:0:0:0:
411,156,52834,2,0,P|423:219|413:245,1,60
333,214,53034,2,0,P|270:226|244:216,1,60
326,120,53234,2,0,P|314:57|324:31,1,60
411,156,53434,2,0,P|423:219|400:276,1,120
306,308,54034,5,0,0:0:0:0:
202,242,54234,1,0,0:0:0:0:
202,242,54434,2,0,B|161:229|161:229|108:257,2,60
336,209,54834,6,0,P|399:197|425:207,1,60
451,209,55034,2,0,P|388:197|362:207,1,60
342,213,55234,1,0,0:0:0:0:
401,314,55634,5,0,0:0:0:0:
342,213,55834,1,0,0:0:0:0:
301,107,56034,2,0,P|238:95|212:105,1,60
199,187,56234,2,0,P|262:175|288:185,1,60
306,270,56434,2,0,P|243:258|217:268,1,60
146,297,56634,2,0,P|208:333|259:337,1,120
358,286,57034,5,0,0:0:0:0:
408,180,57234,1,0,0:0:0:0:
341,93,57434,1,0,0:0:0:0:
234,75,57634,6,0,P|222:138|232:164,1,60
163,145,57834,2,0,P|226:133|252:143,1,60
233,189,58034,2,0,P|221:126|231:100,1,60
331,102,58234,2,0,P|276:132|220:131,1,120
105,60,58834,5,0,0:0:0:0:
142,191,59034,1,0,0:0:0:0:
257,292,59234,2,0,P|320:304|346:294,1,60
331,199,59434,2,0,P|268:187|242:197,1,60
257,292,59634,2,0,P|320:304|346:294,1,60
330,200,59834,2,0,P|260:188|200:202,1,120
144,261,60234,5,0,0:0:0:0:
244,306,60434,1,0,0:0:0:0:
289,214,60634,1,0,0:0:0:0:
196,138,60834,2,0,B|159:138|159:138|118:175,2,60
357,151,61234,5,0,0:0:0:0:
388,263,61434,1,0,0:0:0:0:
283,296,61634,1,0,0:0:0:0:
164,259,61834,2,0,B|93:237|93:237|81:179,2,120
164,259,62434,5,0,0:0:0:0:
164,259,62534,1,0,0:0:0:0:
164,259,62634,1,0,0:0:0:0:
164,259,62734,1,0,0:0:0:0:
164,259,62834,1,0,0:0:0:0:
164,259,62934,1,0,0:0:0:0:
164,259,63034,1,0,0:0:0:0:
164,259,63134,1,0,0:0:0:0:
204,297,63234,6,0,B|243:300|243:300|296:266,3,60
260,288,63634,2,0,B|279:256|279:256|328:228,3,60
347,310,64234,6,0,P|391:263|397:236,1,60,0|0,1:0|1:0,1:0:0:0:
315,237,64434,2,0,P|324:173|313:147,1,60,0|0,1:0|1:0,1:0:0:0:
245,194,64634,2,0,P|232:131|213:110,1,60,0|0,1:0|1:0,1:0:0:0:
167,187,64834,2,0,P|142:120|100:75,1,120,0|0,1:0|1:0,1:0:0:0:
28,198,65234,5,0,0:0:0:0:
140,307,65434,1,0,0:0:0:0:
295,312,65634,2,0,P|339:265|345:238,1,60,0|0,1:0|1:0,1:0:0:0:
413,240,65834,2,0,P|366:195|339:189,1,60,0|0,1:0|1:0,1:0:0:0:
345,118,66034,2,0,P|300:164|294:191,1,60,0|0,1:0|1:0,1:0:0:0:
231,191,66234,2,0,P|277:235|304:241,1,60,0|0,1:0|1:0,1:0:0:0:
312,239,66434,5,0,0:0:0:0:
199,318,66634,1,0,0:0:0:0:
90,231,66834,1,0,0:0:0:0:
150,100,67034,1,0,0:0:0:0:
292,98,67234,2,0,P|354:110|375:129,1,60,0|0,1:0|1:0,1:0:0:0:
292,98,67434,2,0,P|354:110|375:129,1,60,0|0,1:0|1:0,1:0:0:0:
275,179,67634,2,0,P|337:191|358:210,1,60,0|0,1:0|1:0,1:0:0:0:
275,179,67834,2,0,P|337:191|393:232,1,120,0|0,1:0|1:0,1:0:0:0:
304,278,68434,5,0,0:0:0:0:
400,95,68634,1,0,0:0:0:0:
220,175,68834,1,0,1:0:0:0:
406,222,69034,1,0,1:0:0:0:
276,69,69234,2,0,P|208:60|167:47,1,60,0|0,1:0|1:0,1:0:0:0:
146,21,69434,2,0,P|137:89|156:132,1,60,0|0,1:0|1:0,1:0:0:0:
86,149,69634,2,0,P|154:158|216:131,1,120,0|0,1:0|1:0,1:0:0:0:
201,141,70234,5,0,0:0:0:0:
201,141,70434,2,0,P|262:195|267:222,1,60
279,92,70634,2,0,P|363:91|378:70,1,60
330,211,70834,2,0,P|383:275|376:300,1,60
406,148,71034,2,0,P|470:151|532:122,1,120
450,64,71634,5,0,0:0:0:0:
278,105,71834,1,0,0:0:0:0:
153,156,72034,2,0,P|120:211|121:238,1,60
205,217,72234,2,0,P|176:282|177:309,1,60
266,270,72434,2,0,P|242:344|245:369,1,60
329,329,72634,2,0,P|360:260|351:206,1,120
370,139,73234,5,0,0:0:0:0:
370,139,73634,1,0,0:0:0:0:
255,84,73834,1,0,0:0:0:0:
152,151,74034,1,0,0:0:0:0:
156,275,74234,1,0,0:0:0:0:
281,324,74434,1,0,0:0:0:0:
374,251,74634,1,0,0:0:0:0:
281,324,74834,1,0,0:0:0:0:
183,302,75034,1,0,0:0:0:0:
183,302,75234,5,0,0:0:0:0:
183,302,75434,1,0,0:0:0:0:
183,302,75534,1,0,0:0:0:0:
183,302,75634,1,0,0:0:0:0:
183,302,75734,1,0,0:0:0:0:
183,302,75834,1,0,0:0:0:0:
183,302,75934,1,0,0:0:0:0:
183,302,76034,6,0,B|222:305|222:305|275:271,3,60
239,293,76434,2,0,B|258:261|258:261|307:233,3,60
256,192,76834,12,0,79934,0:0:0:0:
