osu file format v14

[General]
AudioFilename: audio.mp3
AudioLeadIn: 0
PreviewTime: 24234
Countdown: 0
SampleSet: Soft
StackLeniency: 0.5
Mode: 0
LetterboxInBreaks: 0
WidescreenStoryboard: 0

[Editor]
DistanceSpacing: 1
BeatDivisor: 8
GridSize: 4
TimelineZoom: 1.9

[Metadata]
Title:Samurai (Spirix Remix)
TitleUnicode:Samurai (Spirix Remix)
Artist:Vanic
ArtistUnicode:Vanic
Creator:Monstrata
Version:Fading
Source:
Tags:katy tiz mr suicide sheep
BeatmapID:1253622
BeatmapSetID:592509

[Difficulty]
HPDrainRate:5
CircleSize:4
OverallDifficulty:8
ApproachRate:9
SliderMultiplier:1.8
SliderTickRate:1

[Events]
//Background and Video events
0,0,"70d5fb35-ff71-4629-c6f5-b6bf79681785.png",0,0
//Break Periods
//Storyboard Layer 0 (Background)
//Storyboard Layer 1 (Fail)
//Storyboard Layer 2 (Pass)
//Storyboard Layer 3 (Foreground)
//Storyboard Sound Samples

[TimingPoints]
34,400,4,2,1,40,1,0
34,-166.666666666667,4,2,1,40,0,0
25634,-125,4,2,1,60,0,0
38434,-125,4,2,1,60,0,0
43234,-125,4,2,1,70,0,0
44834,-100,4,2,1,80,0,0
51234,-62.5,4,2,1,85,0,1
62434,-100,4,2,1,85,0,0
64034,-62.5,4,2,1,85,0,1
69634,-80,4,2,1,85,0,1
70434,-62.5,4,2,1,85,0,1
75234,-100,4,2,1,65,0,0
76434,-133.333333333333,4,2,1,45,0,0

[Colours]
Combo1 : 89,255,89
Combo2 : 255,155,55
Combo3 : 138,255,255
Combo4 : 202,153,255

[HitObjects]
98,168,34,6,0,P|138:133|191:135,1,107.999996704102,2|0,0:0|0:0,0:0:0:0:
243,197,634,1,0,0:0:0:0:
243,197,834,2,0,L|237:276,1,53.9999983520508,2|0,0:0|0:0,0:0:0:0:
164,263,1234,2,0,L|168:209,1,53.9999983520508
270,127,1634,6,0,P|306:157|315:220,1,107.999996704102,2|0,0:0|0:0,0:0:0:0:
312,290,2234,1,0,0:0:0:0:
312,290,2434,2,0,L|444:279,1,107.999996704102,2|0,0:0|0:0,0:0:0:0:
270,127,3234,6,0,L|162:135,1,107.999996704102,2|0,0:0|0:0,0:0:0:0:
144,37,3834,2,0,P|171:83|162:135,1,107.999996704102,2|0,0:0|0:0,0:0:0:0:
42,102,4434,2,0,L|95:97,1,53.9999983520508,2|0,0:0|0:0,0:0:0:0:
101,226,4834,6,0,L|97:173,2,53.9999983520508,2|0|0,0:0|0:0|0:0,0:0:0:0:
109,301,5434,1,0,0:0:0:0:
220,264,5634,2,0,P|195:254|169:255,1,53.9999983520508,2|0,0:0|0:0,0:0:0:0:
180,330,6034,2,0,P|205:339|231:339,1,53.9999983520508,2|0,0:0|0:0,0:0:0:0:
320,226,6434,6,0,P|296:273|307:325,1,107.999996704102,2|0,0:0|0:0,0:0:0:0:
373,361,7034,1,0,0:0:0:0:
424,289,7234,2,0,L|371:283,1,53.9999983520508,2|0,0:0|0:0,0:0:0:0:
449,360,7634,2,0,L|502:353,1,53.9999983520508
446,201,8034,6,0,L|318:215,1,107.999996704102,2|0,0:0|0:0,0:0:0:0:
273,126,8634,1,0,0:0:0:0:
339,85,8834,2,0,P|349:110|349:137,1,53.9999983520508,2|0,0:0|0:0,0:0:0:0:
271,253,9234,2,0,P|261:227|261:201,1,53.9999983520508
338,213,9634,6,0,P|348:268|305:324,1,107.999996704102,2|0,0:0|0:0,0:0:0:0:
179,290,10234,2,0,P|221:253|291:263,1,107.999996704102,2|0,0:0|0:0,0:0:0:0:
252,377,10834,2,0,L|247:324,1,53.9999983520508,2|0,0:0|0:0,0:0:0:0:
326,384,11234,6,0,L|459:373,1,107.999996704102,2|0,0:0|0:0,0:0:0:0:
484,319,11834,1,0,0:0:0:0:
404,248,12034,2,0,L|410:302,1,53.9999983520508,2|0,0:0|0:0,0:0:0:0:
480,243,12434,2,0,L|485:189,1,53.9999983520508,2|0,0:0|0:0,0:0:0:0:
348,81,12834,6,0,P|372:167|432:101,1,215.999993408203,2|0,0:0|0:0,0:0:0:0:
256,32,14034,1,0,0:0:0:0:
79,101,14434,6,0,P|139:167|163:81,1,215.999993408203,2|0,0:0|0:0,0:0:0:0:
0,192,15634,1,0,0:0:0:0:
149,302,16034,6,0,B|256:340|256:266|373:302,1,215.999993408203,2|0,0:0|0:0,0:0:0:0:
512,192,17234,1,0,0:0:0:0:
347,113,17634,6,0,P|353:198|419:134,1,215.999993408203,2|0,0:0|0:0,0:0:0:0:
314,17,18834,1,0,0:0:0:0:
81,53,19234,6,0,L|91:175,1,107.999996704102,2|0,0:0|0:0,0:0:0:0:
66,232,19834,1,0,0:0:0:0:
165,166,20034,2,0,L|233:170,1,53.9999983520508,2|0,0:0|0:0,0:0:0:0:
198,242,20434,2,0,L|144:238,1,53.9999983520508
229,313,20834,6,0,P|267:275|271:223,1,107.999996704102,2|0,0:0|0:0,0:0:0:0:
218,169,21434,1,0,0:0:0:0:
244,98,21634,2,0,P|266:82|292:77,1,53.9999983520508,2|0,0:0|0:0,0:0:0:0:
342,133,22034,2,0,P|319:148|293:153,1,53.9999983520508
366,62,22434,6,0,L|418:182,1,107.999996704102,2|0,0:0|0:0,0:0:0:0:
508,163,23034,2,0,P|458:144|408:161,1,107.999996704102,2|0,0:0|0:0,0:0:0:0:
446,273,23634,2,0,L|457:221,1,53.9999983520508,2|0,0:0|0:0,0:0:0:0:
356,226,24034,6,0,L|377:331,1,107.999996704102
233,198,24834,2,0,L|219:270,1,53.9999983520508,10|0,0:0|0:0,0:0:0:0:
216,284,25134,1,8,0:3:0:0:
216,284,25234,1,2,0:2:0:0:
157,159,25434,1,0,3:3:0:0:
75,309,25634,6,0,L|217:285,1,144,6|0,0:0|0:0,0:0:0:0:
270,215,26234,1,0,0:0:0:0:
346,254,26434,2,0,L|338:331,1,72
398,183,26834,2,0,L|405:111,1,72
255,71,27234,6,0,L|270:223,1,144,2|0,0:0|0:0,0:0:0:0:
190,180,27834,1,0,0:0:0:0:
334,105,28034,2,0,L|343:193,1,72,2|0,0:1|0:0,0:0:0:0:
262,285,28434,2,0,L|269:213,1,72,2|0,0:0|0:0,0:0:0:0:
334,331,28834,6,0,P|291:366|201:348,1,144,2|0,0:0|0:0,0:0:0:0:
176,273,29434,1,0,0:0:0:0:
35,325,29634,1,0,0:0:0:0:
121,340,29834,1,0,0:0:0:0:
100,186,30034,2,0,L|90:258,1,72,2|0,0:0|0:0,0:0:0:0:
262,285,30434,6,0,L|239:138,1,144,2|0,0:0|0:0,0:0:0:0:
176,273,31034,1,0,0:0:0:0:
294,365,31234,1,0,0:0:0:0:
348,297,31434,1,0,0:0:0:0:
207,353,31634,2,0,L|102:341,1,72,2|0,0:0|0:0,0:0:0:0:
145,193,32034,6,0,P|205:192|260:275,1,144,2|0,0:0|0:0,0:0:0:0:
176,273,32634,1,0,0:0:0:0:
60,179,32834,2,0,L|76:87,1,72
216,122,33234,2,0,L|148:146,1,72
249,43,33634,6,0,P|287:72|291:164,1,144,2|0,0:0|0:0,0:0:0:0:
233,228,34234,1,0,0:0:0:0:
353,221,34434,2,0,L|429:216,1,72,2|0,0:1|0:0,0:0:0:0:
301,356,34834,2,0,L|296:284,1,72,2|0,0:0|0:0,0:0:0:0:
168,171,35234,6,0,P|150:201|146:237,1,72,2|0,0:0|0:0,0:0:0:0:
289,163,35634,1,0,0:0:0:0:
224,107,35834,1,0,0:0:0:0:
233,228,36034,1,0,0:0:0:0:
304,78,36234,1,0,0:0:0:0:
138,91,36434,2,0,L|57:105,1,72,2|0,0:0|0:0,0:0:0:0:
321,247,36834,6,0,L|391:234,1,72,2|0,0:0|0:0,0:0:0:0:
224,107,37234,1,0,0:0:0:0:
233,228,37434,1,0,0:0:0:0:
304,78,37634,1,2,0:0:0:0:
168,171,37834,1,0,0:0:0:0:
321,247,38034,2,0,L|391:234,1,72,2|0,0:0|0:0,0:0:0:0:
150,254,38434,5,4,3:2:0:0:
259,311,38634,1,0,3:0:0:0:
259,311,38734,1,0,3:0:0:0:
259,311,38834,1,8,0:0:0:0:
168,171,39034,1,0,0:0:0:0:
176,337,39234,1,2,0:1:0:0:
233,228,39434,1,8,3:0:0:0:
342,285,39634,1,8,0:0:0:0:
342,285,39734,2,0,L|396:289,1,36,8|0,0:0|0:0,0:0:0:0:
316,202,39934,5,8,0:0:0:0:
316,202,40034,1,8,3:3:0:0:
176,337,40234,1,0,3:0:0:0:
176,337,40334,1,0,3:0:0:0:
176,337,40434,1,8,0:0:0:0:
168,171,40634,1,0,0:0:0:0:
259,311,40834,1,2,0:1:0:0:
251,145,41034,1,8,3:0:0:0:
150,254,41234,1,8,0:0:0:0:
150,254,41334,2,0,L|92:249,1,36,8|0,0:0|0:0,0:0:0:0:
85,145,41534,5,8,0:0:0:0:
85,145,41634,2,0,L|90:203,1,36,8|0,3:3|0:0,0:0:0:0:
233,228,41834,1,0,3:0:0:0:
233,228,41934,1,0,3:0:0:0:
233,228,42034,1,8,0:0:0:0:
269,62,42234,1,0,0:0:0:0:
296,286,42434,1,2,0:1:0:0:
251,145,42634,1,8,3:3:0:0:
215,311,42834,1,8,0:0:0:0:
215,311,42934,2,0,L|223:364,1,36,8|0,0:0|0:0,0:0:0:0:
377,261,43134,5,8,0:0:0:0:
377,261,43234,2,0,L|382:225,1,36,8|0,3:0|0:0,0:0:0:0:
251,145,43434,1,0,3:0:0:0:
251,145,43534,1,0,3:0:0:0:
251,145,43634,1,8,0:0:0:0:
296,286,43834,1,0,0:0:0:0:
269,62,44034,1,2,0:1:0:0:
151,254,44234,1,8,3:0:0:0:
316,202,44434,1,8,0:0:0:0:
316,202,44534,2,0,L|331:168,1,36,8|0,0:0|0:0,0:0:0:0:
189,88,44734,5,8,0:0:0:0:
189,88,44834,2,0,L|199:185,1,90,8|0,3:0|0:0,0:0:0:0:
151,254,45134,1,0,3:0:0:0:
151,254,45234,2,0,L|248:244,1,90,8|0,0:0|0:0,0:0:0:0:
317,292,45534,1,0,3:0:0:0:
317,292,45634,2,0,L|307:195,1,90,8|0,0:0|0:0,0:0:0:0:
355,126,45934,1,0,3:0:0:0:
355,126,46034,2,0,L|258:136,1,90,8|0,0:0|0:0,0:0:0:0:
189,88,46334,1,0,3:0:0:0:
189,88,46434,6,0,L|196:160,1,45,10|0,0:0|0:0,0:0:0:0:
132,237,46634,2,0,L|136:192,1,45,10|0,0:0|0:0,0:0:0:0:
250,296,46834,2,0,L|242:223,1,45,8|0,0:0|0:0,0:0:0:0:
76,332,47034,1,8,0:0:0:0:
76,332,47134,1,8,0:0:0:0:
76,332,47234,2,0,L|173:322,1,90,2|0,3:1|0:0,0:0:0:0:
245,251,47534,1,0,3:0:0:0:
245,251,47634,2,0,L|342:261,1,90,8|0,0:0|0:0,0:0:0:0:
255,384,47934,1,0,3:0:0:0:
255,384,48034,6,0,L|247:311,1,45,8|0,3:0|0:0,0:0:0:0:
164,189,48234,2,0,L|156:261,1,45,0|0,3:0|0:0,0:0:0:0:
76,332,48434,2,0,L|147:335,1,45,0|0,3:0|0:0,0:0:0:0:
289,248,48634,2,0,L|217:251,1,45,0|0,3:0|0:0,0:0:0:0:
34,174,48834,2,0,L|105:170,1,45,8|0,3:0|0:0,0:0:0:0:
177,54,49034,2,0,L|173:99,1,45,0|0,3:0|0:0,0:0:0:0:
159,233,49234,2,0,L|164:189,1,45,0|0,3:0|0:0,0:0:0:0:
48,69,49434,2,0,L|119:72,1,45,0|0,3:0|0:0,0:0:0:0:
302,84,49634,6,0,L|230:80,1,45,2|0,0:0|0:0,0:0:0:0:
347,174,50034,5,0,0:0:0:0:
434,152,50234,1,0,0:0:0:0:
481,227,50434,1,0,0:0:0:0:
423,295,50634,1,0,0:0:0:0:
341,262,50834,1,0,0:0:0:0:
60,332,51234,5,4,3:0:0:0:
81,205,51434,2,0,P|115:197|151:202,1,72,2|0,0:0|0:0,0:0:0:0:
192,270,51634,2,0,P|157:278|121:273,1,72,2|0,0:0|0:0,0:0:0:0:
198,138,51834,2,0,P|222:165|230:200,1,72,2|0,0:0|0:0,0:0:0:0:
268,342,52034,6,0,P|274:272|326:225,1,144,8|0,0:0|0:0,0:0:0:0:
456,285,52434,2,0,L|385:284,1,72,2|0,0:0|0:0,0:0:0:0:
398,206,52634,2,0,L|469:207,1,72,2|0,0:0|0:0,0:0:0:0:
500,354,52834,5,4,0:3:0:0:
374,355,53034,2,0,L|386:263,1,72,2|0,0:0|0:0,0:0:0:0:
304,332,53234,2,0,L|313:260,1,72,2|0,0:0|0:0,0:0:0:0:
233,310,53434,2,0,L|245:218,1,72,2|0,0:0|0:0,0:0:0:0:
100,258,53634,6,0,L|271:235,1,144,8|0,0:0|0:0,0:0:0:0:
125,108,54034,2,0,L|137:200,1,72,2|0,0:1|0:0,0:0:0:0:
242,238,54234,2,0,L|254:146,1,72
158,32,54434,5,4,0:3:0:0:
158,32,54534,1,0,0:0:0:0:
158,32,54634,2,0,P|126:26|87:37,1,72,2|0,0:0|0:0,0:0:0:0:
55,112,54834,2,0,P|87:118|126:107,1,72,2|0,0:0|0:0,0:0:0:0:
227,29,55034,2,0,P|194:22|155:33,1,72,2|0,0:0|0:0,0:0:0:0:
224,167,55234,6,0,B|244:119|244:119|227:29,1,144,8|0,0:0|0:0,0:0:0:0:
298,191,55634,2,0,B|331:107,1,72,2|0,0:0|0:0,0:0:0:0:
311,53,55834,2,0,B|327:142,1,72,2|0,0:0|0:0,0:0:0:0:
344,261,56034,5,4,0:3:0:0:
223,166,56234,2,0,P|190:159|151:170,1,72,2|0,0:0|0:0,0:0:0:0:
193,236,56434,2,0,P|186:268|197:307,1,72,2|0,0:0|0:0,0:0:0:0:
267,338,56634,2,0,P|273:303|264:269,1,72,2|0,0:0|0:0,0:0:0:0:
202,381,56834,6,0,L|35:377,1,144,8|0,0:0|0:0,0:0:0:0:
49,232,57234,2,0,L|192:235,1,144,2|0,0:1|0:0,0:0:0:0:
343,292,57634,5,4,0:3:0:0:
343,292,57734,1,0,0:0:0:0:
343,292,57834,2,0,P|349:257|340:223,1,72,2|0,0:0|0:0,0:0:0:0:
271,146,58034,2,0,P|306:151|340:142,1,72,2|0,0:0|0:0,0:0:0:0:
262,231,58234,2,0,P|226:225|192:234,1,72,2|0,0:0|0:0,0:0:0:0:
189,127,58434,6,0,P|202:196|262:231,1,144,8|0,0:0|0:0,0:0:0:0:
281,74,58834,2,0,L|271:144,1,72,2|0,0:0|0:0,0:0:0:0:
356,52,59034,2,0,L|365:122,1,72,2|0,0:0|0:0,0:0:0:0:
220,20,59234,5,4,0:3:0:0:
106,107,59434,2,0,P|100:142|109:176,1,72,2|0,0:0|0:0,0:0:0:0:
35,206,59634,2,0,P|55:234|85:252,1,72,2|0,0:0|0:0,0:0:0:0:
54,326,59834,2,0,P|88:331|123:323,1,72,2|0,0:0|0:0,0:0:0:0:
222,264,60034,6,0,B|186:240|186:240|87:252,1,144,8|0,0:0|0:0,0:0:0:0:
284,313,60434,2,0,B|320:337|320:337|419:325,1,144,2|0,0:0|0:0,0:0:0:0:
249,188,60834,5,4,0:3:0:0:
339,255,61034,2,0,L|432:243,1,72,2|0,0:0|0:0,0:0:0:0:
371,176,61234,2,0,L|445:118,1,72,2|0,0:0|0:0,0:0:0:0:
358,90,61434,2,0,L|393:2,1,72,2|0,0:0|0:0,0:0:0:0:
240,107,61634,5,8,0:0:0:0:
258,269,61834,1,0,0:0:0:0:
320,178,62034,2,0,L|248:187,1,72,2|0,0:0|0:0,0:0:0:0:
184,233,62234,2,0,L|127:188,1,72
51,209,62434,6,0,P|75:127|160:115,1,180,4|0,0:3|0:0,0:0:0:0:
248,187,63034,1,0,0:0:0:0:
250,17,63234,2,0,L|239:114,1,90,8|0,0:0|0:0,0:0:0:0:
326,167,63634,2,0,L|334:87,2,67.5,2|0|0,3:1|3:0|3:0,0:0:0:0:
317,252,64034,5,4,0:3:0:0:
317,252,64134,1,0,0:0:0:0:
317,252,64234,2,0,P|352:248|382:229,1,72,2|0,0:0|0:0,0:0:0:0:
428,293,64434,2,0,P|413:325|415:361,1,72,2|0,0:0|0:0,0:0:0:0:
492,340,64634,2,0,P|506:307|504:271,1,72,2|0,0:0|0:0,0:0:0:0:
463,203,64834,6,0,P|462:274|491:339,1,144,8|0,0:0|0:0,0:0:0:0:
325,323,65234,2,0,L|316:250,1,72,2|0,0:0|0:0,0:0:0:0:
236,255,65434,2,0,L|264:187,1,72,2|0,0:0|0:0,0:0:0:0:
381,208,65634,5,4,0:3:0:0:
413,134,65834,2,0,P|375:129|343:137,1,72,2|0,0:0|0:0,0:0:0:0:
381,208,66034,2,0,P|416:213|450:204,1,72,2|0,0:0|0:0,0:0:0:0:
495,133,66234,2,0,P|485:98|462:71,1,72,2|0,0:0|0:0,0:0:0:0:
361,8,66434,6,0,P|393:68|462:70,1,144,8|0,0:0|0:0,0:0:0:0:
361,8,66834,2,0,L|251:18,1,72,2|0,0:1|0:0,0:0:0:0:
239,76,67034,2,0,L|175:-14,1,72,2|0,0:0|0:0,0:0:0:0:
134,169,67234,5,4,0:3:0:0:
134,169,67334,1,0,0:0:0:0:
134,169,67434,2,0,L|164:103,1,72,2|0,0:0|0:0,0:0:0:0:
206,200,67634,2,0,L|305:247,1,72,2|0,0:0|0:0,0:0:0:0:
336,200,67834,2,0,L|236:247,1,72,2|0,0:0|0:0,0:0:0:0:
171,271,68034,6,0,L|326:346,1,144,8|0,0:0|0:0,0:0:0:0:
429,278,68434,2,0,P|394:271|360:279,1,72,2|0,0:0|0:0,0:0:0:0:
398,350,68634,2,0,P|432:357|467:348,1,72,2|0,0:0|0:0,0:0:0:0:
466,207,68834,5,4,0:3:0:0:
342,128,69034,2,0,L|335:199,1,72,2|0,0:0|0:0,0:0:0:0:
241,130,69234,2,0,L|253:200,1,72,2|0,0:0|0:0,0:0:0:0:
144,158,69434,2,0,L|174:223,1,72,2|0,0:0|0:0,0:0:0:0:
133,291,69634,6,0,P|187:301|235:273,1,112.5,2|0,0:0|0:0,0:0:0:0:
337,256,70034,2,0,P|282:246|234:273,1,112.5,2|0,0:1|0:0,0:0:0:0:
297,327,70434,5,4,0:3:0:0:
418,255,70634,2,0,P|411:221|388:193,1,72,2|0,0:0|0:0,0:0:0:0:
313,168,70834,2,0,P|329:136|358:115,1,72,2|0,0:0|0:0,0:0:0:0:
436,128,71034,2,0,P|434:93|416:62,1,72,2|0,0:0|0:0,0:0:0:0:
299,24,71234,6,0,L|312:167,1,144,8|0,0:0|0:0,0:0:0:0:
134,102,71634,2,0,L|205:95,1,72,2|0,0:0|0:0,0:0:0:0:
213,24,71834,2,0,L|206:95,1,72,2|0,0:0|0:0,0:0:0:0:
55,110,72034,5,4,0:3:0:0:
213,260,72234,2,0,L|206:188,1,72,2|0,0:0|0:0,0:0:0:0:
134,182,72434,2,0,L|205:188,1,72,2|0,0:0|0:0,0:0:0:0:
146,329,72634,2,0,L|139:257,1,72,2|0,0:0|0:0,0:0:0:0:
226,116,72834,6,0,L|208:301,1,144,8|0,0:0|0:0,0:0:0:0:
363,330,73234,2,0,L|376:186,1,144,2|2,0:1|0:0,0:0:0:0:
225,34,73634,5,4,0:3:0:0:
294,223,73834,2,0,L|301:151,1,72,2|0,0:0|0:0,0:0:0:0:
226,116,74034,2,0,L|219:187,1,72,2|0,0:0|0:0,0:0:0:0:
223,266,74234,2,0,P|246:292|279:305,1,72,2|0,0:0|0:0,0:0:0:0:
296,72,74434,5,8,0:0:0:0:
152,229,74634,1,0,0:0:0:0:
367,110,74834,2,0,P|376:72|354:16,1,72,2|0,0:0|0:0,0:0:0:0:
225,34,75034,2,0,P|216:72|238:128,1,72,2|0,0:0|0:0,0:0:0:0:
294,223,75234,5,4,0:3:0:0:
298,237,75634,5,0,0:0:0:0:
386,216,75834,1,0,0:0:0:0:
432,292,76034,1,8,0:0:0:0:
373,360,76234,1,0,0:0:0:0:
292,325,76434,2,0,P|271:325|236:337,2,50.6250019311906,2|2|2,0:0|0:0|0:0,0:0:0:0:
