osu file format v14

[General]
AudioFilename: audio.mp3
AudioLeadIn: 0
PreviewTime: 24234
Countdown: 0
SampleSet: Soft
StackLeniency: 0.5
Mode: 0
LetterboxInBreaks: 0
WidescreenStoryboard: 0

[Editor]
DistanceSpacing: 1.2
BeatDivisor: 4
GridSize: 32
TimelineZoom: 1.9

[Metadata]
Title:Samurai (Spirix Remix)
TitleUnicode:Samurai (Spirix Remix)
Artist:Vanic
ArtistUnicode:Vanic
Creator:Monstrata
Version:Easy
Source:
Tags:katy tiz mr suicide sheep
BeatmapID:1253831
BeatmapSetID:592509

[Difficulty]
HPDrainRate:2
CircleSize:3
OverallDifficulty:2
ApproachRate:2.5
SliderMultiplier:0.7
SliderTickRate:1

[Events]
//Background and Video events
0,0,"70d5fb35-ff71-4629-c6f5-b6bf79681785.png",0,0
//Break Periods
//Storyboard Layer 0 (Background)
//Storyboard Layer 1 (Fail)
//Storyboard Layer 2 (Pass)
//Storyboard Layer 3 (Foreground)
//Storyboard Sound Samples

[TimingPoints]
34,400,4,2,1,40,1,0
25634,-100,4,2,1,60,0,0
43234,-100,4,2,1,70,0,0
44834,-100,4,2,1,80,0,0
49634,-100,4,2,1,45,0,0
51234,-100,4,2,1,85,0,1
62434,-100,4,2,1,85,0,0
64034,-100,4,2,1,85,0,1
75234,-100,4,2,1,65,0,0
76434,-100,4,2,1,45,0,0

[Colours]
Combo1 : 89,255,89
Combo2 : 255,155,55
Combo3 : 138,255,255
Combo4 : 202,153,255

[HitObjects]
137,172,34,6,0,P|199:149|253:260,1,210,2|0,0:0|0:0,0:0:0:0:
192,310,1634,2,0,P|242:337|325:303,1,140,2|2,0:0|0:0,0:0:0:0:
390,161,3234,6,0,P|367:67|271:77,1,210,2|2,0:0|0:0,0:0:0:0:
226,148,4834,2,0,L|241:295,1,140,2|2,0:0|0:0,0:0:0:0:
407,306,6434,6,0,L|384:86,1,210,2|0,0:0|0:0,0:0:0:0:
411,16,8034,2,0,P|342:23|301:76,1,140,2|2,0:0|0:0,0:0:0:0:
214,220,9634,6,0,P|151:231|94:116,1,210,2|2,0:0|0:0,0:0:0:0:
169,149,11234,2,0,L|302:204,1,140,2|2,0:0|0:0,0:0:0:0:
423,314,12834,6,0,P|481:191|419:71,1,280,2|0,0:0|0:0,0:0:0:0:
256,32,15234,1,0,0:0:0:0:
92,71,16034,6,0,P|30:191|89:314,1,280,2|0,0:0|0:0,0:0:0:0:
256,352,18434,1,0,0:0:0:0:
423,314,19234,6,0,B|459:214|380:215|421:104,1,210,2|0,0:0|0:0,0:0:0:0:
494,71,20834,2,0,P|449:32|364:46,1,140,2|2,0:0|0:0,0:0:0:0:
334,114,22034,1,0,0:0:0:0:
294,187,22434,6,0,P|257:145|255:94,2,105,2|2|2,0:0|0:0|0:0,0:0:0:0:
378,184,24034,2,0,P|409:210|424:248,1,70,0|0,0:0|0:0,0:0:0:0:
341,261,24834,2,0,L|268:283,1,70,2|0,0:0|0:0,0:0:0:0:
214,340,25634,6,0,P|244:275|214:203,1,140,6|0,0:0|0:0,0:0:0:0:
156,164,26834,1,0,0:0:0:0:
80,201,27234,2,0,P|48:261|68:327,1,140,2|2,0:0|0:1,0:0:0:0:
138,373,28434,1,2,0:0:0:0:
214,340,28834,6,0,L|293:346,2,70,2|0|0,0:0|0:0|0:0,0:0:0:0:
178,263,30034,1,2,0:0:0:0:
142,186,30434,2,0,B|211:160|212:211|278:185,1,140,2|0,0:0|0:0,0:0:0:0:
245,107,31634,1,2,0:0:0:0:
211,29,32034,6,0,P|261:24|329:93,1,140,2|0,0:0|0:0,0:0:0:0:
310,162,33234,1,0,0:0:0:0:
253,224,33634,2,0,P|310:246|384:200,1,140,2|2,0:0|0:1,0:0:0:0:
394,129,34834,1,2,0:0:0:0:
411,45,35234,6,0,L|487:25,2,70,2|0|0,0:0|0:0|0:0,0:0:0:0:
330,73,36434,1,2,0:0:0:0:
282,142,36834,2,0,L|133:102,1,140,2|2,0:0|0:0,0:0:0:0:
78,155,38034,1,2,0:0:0:0:
127,223,38434,6,0,L|127:298,1,70,4|8,3:2|0:0,0:0:0:0:
177,358,39234,2,0,P|211:366|246:360,1,70,2|8,0:1|0:0,0:0:0:0:
303,299,40034,2,0,P|337:292|371:300,1,70,8|8,3:3|0:0,0:0:0:0:
438,249,40834,2,0,L|438:179,1,70,2|8,0:1|0:0,0:0:0:0:
473,102,41634,6,0,P|439:94|404:100,1,70,8|8,3:3|0:0,0:0:0:0:
359,170,42434,2,0,P|325:177|290:171,1,70,2|8,0:1|0:0,0:0:0:0:
245,102,43234,2,0,P|211:94|176:100,1,70,8|8,3:0|0:0,0:0:0:0:
131,170,44034,2,0,P|97:177|62:171,1,70,2|8,0:1|0:0,0:0:0:0:
17,102,44834,5,8,3:0:0:0:
256,192,45034,12,2,49634,0:0:0:0:
231,155,51234,5,4,3:0:0:0:
313,134,51634,1,2,0:0:0:0:
378,186,52034,2,0,P|382:234|366:265,1,70,8|2,0:0|0:0,0:0:0:0:
301,217,52834,2,0,L|228:245,1,70,4|2,0:3|0:0,0:0:0:0:
240,325,53634,2,0,L|305:299,1,70,8|2,0:0|0:1,0:0:0:0:
374,253,54434,5,4,0:3:0:0:
368,171,54834,1,2,0:0:0:0:
292,135,55234,2,0,P|259:145|234:169,1,70,8|2,0:0|0:0,0:0:0:0:
158,134,56034,2,0,P|150:168|158:202,1,70,4|2,0:3|0:0,0:0:0:0:
225,252,56834,2,0,P|232:286|224:320,1,70,8|2,0:0|0:1,0:0:0:0:
147,284,57634,5,4,0:3:0:0:
69,316,58034,1,2,0:0:0:0:
2,264,58434,2,0,P|-5:230|3:196,1,70,8|2,0:0|0:0,0:0:0:0:
52,127,59234,2,0,P|86:120|120:128,1,70,4|2,0:3|0:0,0:0:0:0:
181,184,60034,1,8,0:0:0:0:
250,136,60434,1,2,0:1:0:0:
311,192,60834,6,0,L|305:267,1,70,4|2,0:3|0:0,0:0:0:0:
387,282,61634,2,0,L|392:212,1,70,8|2,0:0|0:0,0:0:0:0:
473,188,62434,2,0,L|467:118,1,70,4|0,0:3|0:0,0:0:0:0:
400,67,63234,1,8,0:0:0:0:
330,114,63634,1,2,3:1:0:0:
261,65,64034,6,0,L|252:27,2,35,4|2|2,0:3|0:0|0:0,0:0:0:0:
191,112,64834,2,0,L|180:193,1,70,8|2,0:0|0:0,0:0:0:0:
252,226,65634,2,0,L|260:260,2,35,4|2|2,0:3|0:0|0:0,0:0:0:0:
310,166,66434,2,0,P|345:159|378:168,1,70,8|2,0:0|0:1,0:0:0:0:
438,225,67234,6,0,L|430:259,2,35,4|2|2,0:3|0:0|0:0,0:0:0:0:
457,142,68034,2,0,P|441:112|413:91,1,70,8|2,0:0|0:0,0:0:0:0:
351,35,68834,2,0,L|359:1,2,35,4|2|2,0:3|0:0|0:0,0:0:0:0:
287,90,69634,2,0,P|252:100|206:95,1,70,0|2,0:0|0:1,0:0:0:0:
145,57,70434,6,0,L|105:35,2,35,4|2|2,0:3|0:0|0:0,0:0:0:0:
145,141,71234,2,0,L|142:212,1,70,8|2,0:0|0:0,0:0:0:0:
135,294,72034,2,0,L|93:312,2,35,4|2|2,0:3|0:0|0:0,0:0:0:0:
212,260,72834,2,0,L|283:263,1,70,8|2,0:0|0:1,0:0:0:0:
349,313,73634,5,4,0:3:0:0:
421,270,74034,1,2,0:0:0:0:
355,217,74434,2,0,P|345:183|351:148,1,70,8|2,0:0|0:0,0:0:0:0:
426,111,75234,2,0,P|436:145|429:179,2,70,4|0|8,0:3|0:0|0:0,0:0:0:0:
354,67,76434,1,4,0:3:0:0:
