osu file format v14

[General]
AudioFilename: audio.mp3
AudioLeadIn: 0
PreviewTime: 24231
Countdown: 0
SampleSet: Soft
StackLeniency: 0.7
Mode: 2
LetterboxInBreaks: 0
WidescreenStoryboard: 0

[Editor]
DistanceSpacing: 1
BeatDivisor: 4
GridSize: 8
TimelineZoom: 1

[Metadata]
Title:Samurai (Spirix Remix)
TitleUnicode:Samurai (Spirix Remix)
Artist:Vanic
ArtistUnicode:Vanic
Creator:Ascendance
Version:Salad
Source:
Tags:katy tiz mr suicide sheep californian darknessofblue
BeatmapID:1257157
BeatmapSetID:594326

[Difficulty]
HPDrainRate:4
CircleSize:3
OverallDifficulty:7
ApproachRate:7
SliderMultiplier:1.52
SliderTickRate:2

[Events]
//Background and Video events
0,0,"50358626_p0.png",0,0
//Break Periods
//Storyboard Layer 0 (Background)
//Storyboard Layer 1 (Fail)
//Storyboard Layer 2 (Pass)
//Storyboard Layer 3 (Foreground)
//Storyboard Sound Samples

[TimingPoints]
34,400,4,2,1,40,1,0
25634,-100,4,2,1,60,0,0
43234,-100,4,2,1,70,0,0
44834,-100,4,2,1,80,0,0
49634,-100,4,2,1,50,0,0
51234,-100,4,2,1,85,0,1
62434,-100,4,2,1,85,0,0
64034,-100,4,2,1,85,0,1
69634,-100,4,2,1,65,0,1
70434,-100,4,2,1,85,0,1
75234,-100,4,2,1,65,0,0
76434,-100,4,2,1,45,0,0

[Colours]
Combo1 : 89,255,89
Combo2 : 255,155,55
Combo3 : 138,255,255
Combo4 : 202,153,255

[HitObjects]
104,320,34,5,2,0:0:0:0:
256,240,434,2,0,L|264:160,1,76,0|0,0:0|0:0,0:0:0:0:
112,112,1034,2,0,L|104:32,2,76,0|0|0,0:0|0:0|0:0,0:0:0:0:
208,184,1634,5,2,0:0:0:0:
360,296,2034,2,0,L|440:296,1,76,0|0,0:0|0:0,0:0:0:0:
224,344,2634,2,0,L|144:344,2,76,0|0|0,0:0|0:0|0:0,0:0:0:0:
360,344,3234,5,2,0:0:0:0:
200,232,3634,2,0,L|120:232,1,76,0|2,0:0|0:0,0:0:0:0:
304,168,4234,2,0,L|384:168,2,76,0|2|0,0:0|0:0|0:0,0:0:0:0:
144,168,4834,5,2,0:0:0:0:
288,88,5234,2,0,L|192:88,1,76,0|0,0:0|0:0,0:0:0:0:
352,152,5634,2,0,L|440:152,2,76,2|0|2,0:0|0:0|0:0,0:0:0:0:
80,152,6434,5,2,0:0:0:0:
200,232,6834,2,0,L|280:232,1,76,0|0,0:0|0:0,0:0:0:0:
120,336,7434,2,0,L|104:248,1,76,0|0,0:0|0:0,0:0:0:0:
168,200,7834,1,0,0:0:0:0:
248,152,8034,5,2,0:0:0:0:
64,32,8434,2,0,L|88:128,1,76,0|0,0:0|0:0,0:0:0:0:
256,192,9034,2,0,L|248:280,1,76,0|0,0:0|0:0,0:0:0:0:
168,320,9434,1,0,0:0:0:0:
72,352,9634,5,2,0:0:0:0:
256,288,10034,2,0,L|344:304,1,76,0|2,0:0|0:0,0:0:0:0:
464,160,10634,2,0,L|384:168,2,76,0|2|0,0:0|0:0|0:0,0:0:0:0:
344,112,11234,6,0,L|168:104,1,152,2|0,0:0|0:0,0:0:0:0:
104,184,11834,1,0,0:0:0:0:
288,272,12034,2,0,L|304:168,1,76,2|0,0:0|0:0,0:0:0:0:
160,280,12434,2,0,L|176:384,1,76,2|0,0:0|0:0,0:0:0:0:
384,288,12834,6,0,P|416:224|368:144,1,152,2|0,0:0|0:0,0:0:0:0:
272,112,13434,1,0,0:0:0:0:
440,32,13834,2,0,L|344:32,1,76,0|0,0:0|0:0,0:0:0:0:
96,240,14434,6,0,L|264:224,1,152,2|0,0:0|0:0,0:0:0:0:
344,208,15034,1,0,0:0:0:0:
152,168,15434,2,0,L|136:88,1,76,0|0,0:0|0:0,0:0:0:0:
392,320,16034,6,0,L|208:312,1,152,2|0,0:0|0:0,0:0:0:0:
320,320,16634,1,0,0:0:0:0:
112,248,17034,2,0,L|96:160,1,76,0|0,0:0|0:0,0:0:0:0:
320,48,17634,6,0,L|488:56,1,152,2|0,0:0|0:0,0:0:0:0:
392,96,18234,1,0,0:0:0:0:
192,232,18634,2,0,L|112:240,2,76,0|0|0,0:0|0:0|0:0,0:0:0:0:
384,304,19234,6,0,P|408:248|360:152,1,152,2|0,0:0|0:0,0:0:0:0:
248,120,19834,1,0,0:0:0:0:
424,64,20234,2,0,L|328:64,1,76,0|0,0:0|0:0,0:0:0:0:
208,192,20834,2,0,L|368:192,2,152,2|0|2,0:0|0:0|0:0,0:0:0:0:
64,192,22034,1,0,0:0:0:0:
256,192,22434,12,0,24034,0:0:0:0:
88,344,24434,6,0,P|56:288|120:200,1,152,0|10,0:0|0:0,0:0:0:0:
288,176,25234,2,0,L|368:152,1,76,2|0,0:2|3:3,0:0:0:0:
144,24,25634,6,0,P|48:88|152:216,1,304,6|0,0:0|0:0,0:0:0:0:
344,264,26834,1,0,0:0:0:0:
184,336,27234,2,0,L|504:336,1,304,2|2,0:0|0:1,0:0:0:0:
336,264,28434,1,2,0:0:0:0:
112,216,28834,6,0,L|104:56,1,152,2|0,0:0|0:0,0:0:0:0:
200,128,29434,2,0,L|288:120,1,76,0|0,0:0|0:0,0:0:0:0:
88,216,30034,1,2,0:0:0:0:
256,328,30434,6,0,L|408:328,1,152,2|0,0:0|0:0,0:0:0:0:
312,288,31034,2,0,L|304:200,1,76,0|0,0:0|0:0,0:0:0:0:
424,160,31434,2,0,L|440:72,1,76,0|2,0:0|0:0,0:0:0:0:
200,64,32034,6,0,P|152:96|232:280,1,304,2|0,0:0|0:0,0:0:0:0:
376,288,33234,1,0,0:0:0:0:
208,128,33634,2,0,P|336:192|480:112,1,304,2|2,0:0|0:1,0:0:0:0:
312,88,34834,1,2,0:0:0:0:
24,288,35234,6,0,L|176:272,1,152,2|0,0:0|0:0,0:0:0:0:
360,312,36034,2,0,L|440:328,1,76,0|0,0:0|0:0,0:0:0:0:
248,344,36434,1,2,0:0:0:0:
384,256,36834,6,0,L|384:88,1,152,2|0,0:0|0:0,0:0:0:0:
256,96,37434,2,0,L|272:184,1,76,0|2,0:0|0:0,0:0:0:0:
400,224,37834,2,0,L|384:304,1,76,0|2,0:0|0:0,0:0:0:0:
272,344,38234,1,0,0:0:0:0:
64,272,38434,6,0,P|24:208|88:136,1,152,4|8,3:2|0:0,0:0:0:0:
192,72,39234,2,0,L|296:88,2,76,2|8|8,0:1|3:0|0:0,0:0:0:0:
296,184,40034,2,0,L|464:176,1,152,8|8,3:3|0:0,0:0:0:0:
336,352,40834,1,2,0:1:0:0:
343,276,41034,1,8,3:0:0:0:
351,200,41234,1,8,0:0:0:0:
168,176,41634,6,0,L|144:16,1,152,8|8,3:3|0:0,0:0:0:0:
280,248,42434,1,2,0:1:0:0:
204,248,42634,1,8,3:3:0:0:
128,248,42834,1,8,0:0:0:0:
328,320,43234,6,0,L|424:320,2,76,8|0|8,3:0|3:0|0:0,0:0:0:0:
112,328,44034,1,2,0:1:0:0:
256,248,44434,2,0,L|336:224,1,76,8|0,0:0|0:0,0:0:0:0:
112,192,44834,6,0,P|80:128|136:64,1,152,8|8,3:0|0:0,0:0:0:0:
264,192,45634,2,0,P|296:256|248:352,1,152,8|8,0:0|0:0,0:0:0:0:
104,64,46434,2,0,L|264:64,1,152,10|8,0:0|0:0,0:0:0:0:
464,168,47234,2,0,L|312:168,1,152,2|8,3:1|0:0,0:0:0:0:
56,336,48034,6,0,L|56:256,1,76,8|0,3:0|3:0,0:0:0:0:
248,200,48434,1,0,3:0:0:0:
368,144,48834,2,0,L|376:56,1,76,8|0,3:0|3:0,0:0:0:0:
176,16,49234,1,0,3:0:0:0:
392,64,49634,6,0,P|440:112|360:304,1,304,2|0,0:0|0:0,0:0:0:0:
176,352,50834,2,0,L|80:352,1,76,0|0,0:0|0:0,0:0:0:0:
304,288,51234,6,0,P|328:232|280:136,1,152,4|2,3:0|0:0,0:0:0:0:
184,112,51834,1,2,0:0:0:0:
0,112,52034,1,8,0:0:0:0:
184,112,52434,2,0,L|280:104,1,76,2|2,0:0|0:0,0:0:0:0:
368,152,52834,6,0,P|400:184|376:288,1,152,4|2,0:3|0:0,0:0:0:0:
280,336,53434,1,2,0:0:0:0:
72,344,53634,1,8,0:0:0:0:
224,248,54034,2,0,L|304:256,1,76,2|0,0:1|0:0,0:0:0:0:
232,168,54434,6,0,L|80:168,1,152,4|2,0:3|0:0,0:0:0:0:
192,168,55034,1,2,0:0:0:0:
376,176,55234,1,8,0:0:0:0:
488,200,55634,2,0,L|472:112,1,76,2|2,0:0|0:0,0:0:0:0:
344,64,56034,6,0,L|184:72,2,152,4|2|8,0:3|0:0|0:0,0:0:0:0:
216,128,57034,2,0,L|224:208,1,76,0|2,0:0|0:1,0:0:0:0:
336,256,57434,1,0,0:0:0:0:
112,352,57634,6,0,P|80:296|128:208,1,152,4|2,0:3|0:0,0:0:0:0:
224,176,58234,1,2,0:0:0:0:
56,176,58434,1,8,0:0:0:0:
232,176,58834,2,0,L|320:176,1,76,2|2,0:0|0:0,0:0:0:0:
416,232,59234,6,0,L|256:232,1,152,4|2,0:3|0:0,0:0:0:0:
152,232,59834,1,2,0:0:0:0:
344,232,60034,1,8,0:0:0:0:
184,328,60434,2,0,L|96:328,1,76,2|0,0:0|0:0,0:0:0:0:
240,328,60834,6,0,L|408:328,1,152,4|2,0:3|0:0,0:0:0:0:
216,208,61634,2,0,L|104:208,1,76,8|0,0:0|0:0,0:0:0:0:
280,168,62034,2,0,L|368:168,1,76,2|0,0:0|0:0,0:0:0:0:
144,96,62434,5,4,0:3:0:0:
312,144,63234,2,0,L|304:304,1,152,8|2,0:0|3:1,0:0:0:0:
184,352,63834,1,0,0:0:0:0:
400,312,64034,6,0,P|432:256|376:168,1,152,4|2,0:3|0:0,0:0:0:0:
304,144,64634,1,2,0:0:0:0:
128,144,64834,1,8,0:0:0:0:
280,64,65234,2,0,L|200:64,1,76,2|2,0:0|0:0,0:0:0:0:
328,144,65634,6,0,L|488:144,1,152,4|2,0:3|0:0,0:0:0:0:
408,144,66234,1,2,0:0:0:0:
240,144,66434,1,8,0:0:0:0:
104,224,66834,2,0,L|112:320,1,76,2|2,0:1|0:0,0:0:0:0:
256,368,67234,6,0,P|280:312|240:216,1,152,4|2,0:3|0:0,0:0:0:0:
152,176,67834,1,2,0:0:0:0:
336,176,68034,1,8,0:0:0:0:
224,96,68434,2,0,L|136:96,1,76,2|2,0:0|0:0,0:0:0:0:
288,40,68834,6,0,L|368:40,1,76,4|2,0:3|0:0,0:0:0:0:
272,112,69234,2,0,L|184:112,1,76,2|2,0:0|0:0,0:0:0:0:
392,304,69634,2,0,P|456:240|376:152,1,228,2|0,0:0|0:0,0:0:0:0:
184,72,70434,6,0,P|152:112|192:208,1,152,4|2,0:3|0:0,0:0:0:0:
256,216,71034,1,2,0:0:0:0:
456,224,71234,1,8,0:0:0:0:
320,144,71634,2,0,L|240:144,1,76,2|2,0:0|0:0,0:0:0:0:
144,64,72034,6,0,L|296:64,1,152,4|2,0:3|0:0,0:0:0:0:
416,128,72634,1,2,0:0:0:0:
224,128,72834,1,8,0:0:0:0:
88,240,73234,2,0,L|176:240,1,76,2|2,0:1|0:0,0:0:0:0:
264,312,73634,6,0,L|416:312,1,152,4|2,0:3|0:0,0:0:0:0:
224,240,74434,2,0,L|216:160,1,76,8|0,0:0|0:0,0:0:0:0:
328,32,74834,2,0,L|320:128,1,76,2|2,0:0|0:0,0:0:0:0:
128,336,75234,6,0,P|80:264|208:128,1,304,4|8,0:3|0:0,0:0:0:0:
320,144,76234,1,0,0:0:0:0:
184,144,76434,1,2,0:0:0:0:
416,144,76834,5,0,0:0:0:0:
