osu file format v14

[General]
AudioFilename: audio.mp3
AudioLeadIn: 0
PreviewTime: 24231
Countdown: 0
SampleSet: Soft
StackLeniency: 0.7
Mode: 2
LetterboxInBreaks: 0
WidescreenStoryboard: 0

[Editor]
Bookmarks: 38430
DistanceSpacing: 1.35
BeatDivisor: 4
GridSize: 4
TimelineZoom: 1.6

[Metadata]
Title:Samurai (Spirix Remix)
TitleUnicode:Samurai (Spirix Remix)
Artist:Vanic
ArtistUnicode:Vanic
Creator:Ascendance
Version:Caliscendance's Light Rain
Source:
Tags:katy tiz mr suicide sheep californian darknessofblue
BeatmapID:1263122
BeatmapSetID:594326

[Difficulty]
HPDrainRate:6
CircleSize:3.7
OverallDifficulty:8.6
ApproachRate:8.6
SliderMultiplier:1.82
SliderTickRate:2

[Events]
//Background and Video events
0,0,"50358626_p0.png",0,0
//Break Periods
//Storyboard Layer 0 (Background)
//Storyboard Layer 1 (Fail)
//Storyboard Layer 2 (Pass)
//Storyboard Layer 3 (Foreground)
//Storyboard Sound Samples

[TimingPoints]
34,400,4,2,1,40,1,0
25634,-100,4,2,1,60,0,0
43234,-100,4,2,1,70,0,0
44834,-100,4,2,1,80,0,0
49634,-100,4,2,1,50,0,0
51234,-100,4,2,1,85,0,1
62434,-100,4,2,1,85,0,0
64034,-100,4,2,1,85,0,1
69634,-100,4,2,1,65,0,1
70434,-100,4,2,1,85,0,1
75234,-100,4,2,1,65,0,0
76434,-100,4,2,1,45,0,0

[Colours]
Combo1 : 89,255,89
Combo2 : 255,155,55
Combo3 : 138,255,255
Combo4 : 202,153,255

[HitObjects]
240,244,34,6,0,P|200:224|60:244,1,182,2|0,0:0|0:0,0:0:0:0:
177,80,634,1,0,0:0:0:0:
332,136,1034,2,0,L|242:144,2,91
156,168,1634,6,0,P|164:100|272:72,1,182,2|0,0:0|0:0,0:0:0:0:
132,72,2234,2,0,L|123:171,1,91,0|2,0:0|0:0,0:0:0:0:
180,196,2834,2,0,L|89:203,1,91
304,348,3234,6,0,P|338:305|286:193,1,182,2|0,0:0|0:0,0:0:0:0:
180,196,3834,2,0,P|159:143|202:29,1,182,2|0,0:0|0:0,0:0:0:0:
68,212,4434,2,0,L|60:302,1,91,2|0,0:0|0:0,0:0:0:0:
258,289,4834,6,0,P|318:273|438:301,1,182,2|0,0:0|0:0,0:0:0:0:
361,244,5434,1,0,0:0:0:0:
344,157,5634,1,2,0:0:0:0:
388,80,5834,1,0,0:0:0:0:
473,52,6034,2,0,L|465:147,1,91,2|0,0:0|0:0,0:0:0:0:
154,281,6434,6,0,L|137:91,1,182,2|0,0:0|0:0,0:0:0:0:
232,152,7034,2,0,L|141:144,2,91,0|2|0,0:0|0:0|0:0,0:0:0:0:
141,144,7634,2,0,L|131:40,1,91
356,240,8034,5,2,0:0:0:0:
208,80,8434,2,0,P|120:64|34:90,2,182,0|2|0,0:0|0:0|0:0,0:0:0:0:
92,144,9434,1,0,0:0:0:0:
305,303,9634,6,0,P|365:319|485:291,1,182,2|0,0:0|0:0,0:0:0:0:
373,241,10234,2,0,P|328:205|388:105,1,182,2|0,0:0|0:0,0:0:0:0:
258,63,10834,2,0,L|167:54,2,91,2|0|2,0:0|0:0|0:0,0:0:0:0:
384,344,11834,5,0,0:0:0:0:
331,271,12034,1,2,0:0:0:0:
319,182,12234,1,0,0:0:0:0:
350,97,12434,1,2,0:0:0:0:
417,37,12634,1,0,0:0:0:0:
64,207,12834,5,0,0:0:0:0:
269,288,13234,1,0,0:0:0:0:
152,224,13434,2,0,L|144:36,1,182,0|0,0:0|0:0,0:0:0:0:
273,128,14034,2,0,L|368:136,1,91,0|0,0:0|0:0,0:0:0:0:
172,332,14434,6,0,P|140:288|176:168,1,182,0|0,0:0|0:0,0:0:0:0:
273,128,15034,1,0,0:0:0:0:
368,244,15234,2,0,L|385:52,1,182,0|0,0:0|0:0,0:0:0:0:
105,173,16034,6,0,P|147:143|287:131,1,182,0|0,0:0|0:0,0:0:0:0:
384,184,16634,1,0,0:0:0:0:
274,127,16834,2,0,L|174:127,1,91,0|0,0:0|0:0,0:0:0:0:
296,270,17234,2,0,L|401:271,1,91,0|0,0:0|0:0,0:0:0:0:
184,208,17634,6,0,L|168:20,1,182,0|0,0:0|0:0,0:0:0:0:
277,25,18234,2,0,L|186:17,2,91,0|0|0,0:0|0:0|0:0,0:0:0:0:
153,277,18834,2,0,L|146:186,1,91,0|0,0:0|0:0,0:0:0:0:
461,296,19234,5,2,0:0:0:0:
244,344,19834,1,0,0:0:0:0:
307,283,20034,1,2,0:0:0:0:
296,196,20234,1,0,0:0:0:0:
220,152,20434,2,0,L|109:143,1,91,0|0,0:0|0:0,0:0:0:0:
332,268,20834,6,0,P|375:238|307:146,1,182,2|0,0:0|0:0,0:0:0:0:
408,48,21434,1,0,0:0:0:0:
283,39,21634,2,0,L|192:32,1,91,2|0,0:0|0:0,0:0:0:0:
399,138,22034,2,0,L|407:48,1,91,0|0,0:0|0:0,0:0:0:0:
99,281,22434,1,2,0:0:0:0:
256,192,22834,12,0,24034,0:0:0:0:
420,216,24834,6,0,P|360:204|276:212,2,136.5,10|8|0,0:0|0:3|3:3,0:0:0:0:
100,332,25634,5,6,0:0:0:0:
44,262,25834,1,0,0:0:0:0:
47,173,26034,1,0,0:0:0:0:
107,108,26234,1,0,0:0:0:0:
212,160,26434,2,0,L|303:151,1,91,0|0,0:0|0:0,0:0:0:0:
180,264,26834,2,0,L|88:255,1,91
368,324,27234,5,2,0:0:0:0:
411,244,27434,1,0,0:0:0:0:
405,155,27634,1,0,0:0:0:0:
352,82,27834,1,0,0:0:0:0:
192,76,28034,1,2,0:1:0:0:
96,246,28434,2,0,L|86:156,1,91,2|0,0:0|0:0,0:0:0:0:
365,249,28834,6,0,L|455:239,1,91,2|0,0:0|0:0,0:0:0:0:
253,340,29234,2,0,L|163:330,2,91,0|0|0,0:0|0:0|0:0,0:0:0:0:
162,329,29834,1,0,0:0:0:0:
361,168,30034,2,0,P|373:108|365:64,1,91,2|0,0:0|0:0,0:0:0:0:
92,208,30434,6,0,P|64:168|96:32,1,182,2|0,0:0|0:0,0:0:0:0:
180,72,31034,1,0,0:0:0:0:
247,129,31234,1,0,0:0:0:0:
268,216,31434,1,0,0:0:0:0:
235,299,31634,1,2,0:0:0:0:
160,348,31834,1,0,0:0:0:0:
428,320,32034,6,0,L|436:230,1,91,2|0,0:0|0:0,0:0:0:0:
279,237,32434,2,0,L|189:229,1,91,0|0,0:0|0:0,0:0:0:0:
367,133,32834,2,0,L|375:42,1,91,0|0,0:0|0:0,0:0:0:0:
207,101,33234,2,0,L|117:93,1,91
396,112,33634,5,2,0:0:0:0:
449,184,33834,1,0,0:0:0:0:
450,274,34034,1,0,0:0:0:0:
400,348,34234,1,0,0:0:0:0:
224,264,34434,1,2,0:1:0:0:
136,192,34834,2,0,L|128:96,1,91,2|0,0:0|0:0,0:0:0:0:
408,296,35234,6,0,L|424:104,1,182,2|0,0:0|0:0,0:0:0:0:
275,150,35834,1,0,0:0:0:0:
80,180,36034,2,0,L|170:188,2,91,0|0|2,0:0|0:0|0:0,0:0:0:0:
384,228,36834,6,0,P|408:184|364:48,1,182,2|0,0:0|0:0,0:0:0:0:
275,125,37434,1,0,0:0:0:0:
170,188,37634,2,0,L|71:179,1,91,0|2,0:0|0:0,0:0:0:0:
280,64,38034,2,0,L|370:56,1,91,0|2,0:0|0:0,0:0:0:0:
72,56,38434,6,0,L|80:168,1,91,4|0,3:2|3:0,0:0:0:0:
120,168,38734,1,0,3:0:0:0:
160,184,38834,1,8,0:0:0:0:
32,264,39034,1,0,0:0:0:0:
184,320,39234,2,0,L|88:328,1,91,2|8,0:1|3:0,0:0:0:0:
272,256,39634,1,8,0:0:0:0:
300,221,39734,1,8,0:0:0:0:
302,176,39834,1,0,0:0:0:0:
277,139,39934,1,8,0:0:0:0:
232,128,40034,5,8,3:3:0:0:
360,112,40234,2,0,L|408:112,2,45.5,0|0|8,3:0|3:0|0:0,0:0:0:0:
240,112,40634,1,0,0:0:0:0:
352,48,40834,2,0,L|248:48,1,91,2|8,0:1|3:0,0:0:0:0:
424,112,41234,1,8,0:0:0:0:
451,147,41334,1,8,0:0:0:0:
454,192,41434,1,0,0:0:0:0:
433,231,41534,1,8,0:0:0:0:
264,304,41634,6,0,L|160:304,1,91,8|0,3:3|3:0,0:0:0:0:
216,304,41934,1,0,3:0:0:0:
264,304,42034,1,8,0:0:0:0:
112,224,42234,1,0,0:0:0:0:
104,179,42334,1,0,0:0:0:0:
97,134,42434,1,2,0:1:0:0:
208,64,42634,1,8,3:3:0:0:
328,160,42834,2,0,L|264:160,1,45.5,8|8,0:0|0:0,0:0:0:0:
136,232,43134,1,8,0:0:0:0:
184,232,43234,5,8,3:0:0:0:
352,336,43434,1,0,3:0:0:0:
306,336,43534,1,0,3:0:0:0:
261,336,43634,1,8,0:0:0:0:
416,272,43834,1,0,0:0:0:0:
304,200,44034,2,0,L|296:96,1,91,2|8,0:1|3:0,0:0:0:0:
416,32,44434,1,8,0:0:0:0:
444,66,44534,1,8,0:0:0:0:
444,110,44634,1,0,0:0:0:0:
416,145,44734,1,8,0:0:0:0:
224,344,44834,5,8,3:0:0:0:
196,308,44934,1,0,0:0:0:0:
193,263,45034,1,0,0:0:0:0:
214,223,45134,1,0,3:0:0:0:
253,201,45234,1,8,0:0:0:0:
392,200,45434,1,0,0:0:0:0:
64,64,45634,5,8,0:0:0:0:
27,90,45734,1,0,0:0:0:0:
15,133,45834,1,0,0:0:0:0:
31,175,45934,1,0,3:0:0:0:
69,198,46034,1,8,0:0:0:0:
192,200,46234,1,0,0:0:0:0:
465,319,46434,5,10,0:0:0:0:
499,289,46534,1,0,0:0:0:0:
512,246,46634,1,10,0:0:0:0:
500,203,46734,1,0,0:0:0:0:
467,173,46834,1,8,0:0:0:0:
328,160,47034,1,8,0:0:0:0:
56,312,47234,5,2,3:1:0:0:
27,277,47334,1,0,0:0:0:0:
26,232,47434,1,0,0:0:0:0:
53,197,47534,1,0,3:0:0:0:
96,184,47634,1,8,0:0:0:0:
224,184,47834,1,0,0:0:0:0:
32,80,48034,6,0,L|136:80,1,91,8|0,3:0|3:0,0:0:0:0:
256,160,48434,2,0,L|160:160,1,91,0|0,3:0|3:0,0:0:0:0:
328,352,48834,1,8,3:0:0:0:
356,317,48934,1,0,0:0:0:0:
356,272,49034,1,0,3:0:0:0:
329,237,49134,1,0,0:0:0:0:
128,216,49234,1,0,3:0:0:0:
99,181,49334,1,0,0:0:0:0:
99,136,49434,1,0,3:0:0:0:
126,101,49534,1,0,0:0:0:0:
368,48,49634,5,2,0:0:0:0:
208,120,50034,2,0,L|224:224,1,91,0|0,0:0|0:0,0:0:0:0:
352,232,50434,2,0,L|368:336,1,91,0|0,0:0|0:0,0:0:0:0:
224,352,50834,2,0,L|112:360,1,91,0|0,0:0|0:0,0:0:0:0:
448,256,51234,5,4,3:0:0:0:
288,184,51434,2,0,L|272:72,1,91,2|2,0:0|0:0,0:0:0:0:
400,32,51834,1,2,0:0:0:0:
128,288,52034,2,0,L|344:296,1,182,8|2,0:0|0:0,0:0:0:0:
208,288,52634,1,2,0:0:0:0:
352,208,52834,6,0,L|368:112,1,91,4|2,0:3|0:0,0:0:0:0:
224,56,53234,2,0,L|120:64,1,91,2|2,0:0|0:0,0:0:0:0:
424,328,53634,2,0,P|464:264|376:176,1,182,8|2,0:0|0:1,0:0:0:0:
304,168,54234,1,0,0:0:0:0:
160,80,54434,6,0,L|272:80,1,91,4|2,0:3|0:0,0:0:0:0:
104,232,54834,2,0,L|88:128,1,91,2|2,0:0|0:0,0:0:0:0:
408,312,55234,1,8,0:0:0:0:
439,280,55334,1,0,0:0:0:0:
448,236,55434,1,0,0:0:0:0:
430,195,55534,1,0,0:0:0:0:
393,170,55634,1,2,0:0:0:0:
256,160,55834,2,0,L|200:160,1,45.5,2|0,0:0|0:0,0:0:0:0:
376,80,56034,6,0,L|480:80,1,91,4|2,0:3|0:0,0:0:0:0:
280,144,56434,1,2,0:0:0:0:
424,144,56634,1,2,0:0:0:0:
48,200,56834,2,0,L|168:200,1,91,8|0,0:0|0:0,0:0:0:0:
17,122,57234,1,2,0:1:0:0:
62,122,57334,1,0,0:0:0:0:
108,122,57434,1,0,0:0:0:0:
408,128,57634,5,4,0:3:0:0:
272,48,57834,2,0,L|400:48,1,91,2|2,0:0|0:0,0:0:0:0:
480,48,58234,1,2,0:0:0:0:
128,112,58434,2,0,P|88:152|128:256,1,182,8|2,0:0|0:0,0:0:0:0:
264,264,59034,1,2,0:0:0:0:
88,256,59234,5,4,0:3:0:0:
184,192,59434,2,0,L|288:192,1,91,2|2,0:0|0:0,0:0:0:0:
104,192,59834,1,2,0:0:0:0:
416,352,60034,1,8,0:0:0:0:
471,283,60234,1,0,0:0:0:0:
455,196,60434,1,2,0:0:0:0:
379,152,60634,1,0,0:0:0:0:
96,80,60834,6,0,L|192:80,1,91,4|2,0:3|0:0,0:0:0:0:
64,248,61234,2,0,L|48:152,1,91,2|2,0:0|0:0,0:0:0:0:
320,348,61634,1,2,0:0:0:0:
358,325,61734,1,0,0:0:0:0:
372,283,61834,1,0,0:0:0:0:
354,242,61934,1,0,0:0:0:0:
313,223,62034,1,2,0:0:0:0:
448,220,62234,1,0,0:0:0:0:
328,144,62434,6,0,L|136:160,1,182,4|0,0:3|0:0,0:0:0:0:
240,152,63034,1,0,0:0:0:0:
112,120,63234,2,0,L|96:8,1,91,8|0,0:0|0:0,0:0:0:0:
216,64,63634,1,2,3:1:0:0:
288,72,63767,1,0,0:0:0:0:
368,80,63900,1,0,0:0:0:0:
160,312,64034,5,4,0:3:0:0:
124,284,64134,1,0,0:0:0:0:
110,242,64234,1,2,0:0:0:0:
123,199,64334,1,0,0:0:0:0:
158,171,64434,1,2,0:0:0:0:
336,160,64634,1,2,0:0:0:0:
40,88,64834,2,0,L|240:88,1,182,8|2,0:0|0:0,0:0:0:0:
120,88,65434,1,2,0:0:0:0:
264,184,65634,6,0,L|376:192,1,91,4|2,0:3|0:0,0:0:0:0:
264,272,66034,2,0,L|368:280,1,91,2|2,0:0|0:0,0:0:0:0:
64,336,66434,2,0,P|40:280|96:144,1,182,8|2,0:0|0:1,0:0:0:0:
184,120,67034,1,2,0:0:0:0:
312,48,67234,6,0,L|216:48,1,91,4|2,0:3|0:0,0:0:0:0:
384,136,67634,2,0,L|488:136,1,91,2|2,0:0|0:0,0:0:0:0:
184,336,68034,1,8,0:0:0:0:
149,306,68134,1,0,0:0:0:0:
138,263,68234,1,0,0:0:0:0:
153,221,68334,1,0,0:0:0:0:
189,195,68434,1,2,0:0:0:0:
320,176,68634,2,0,L|376:176,1,45.5,2|0,0:0|0:0,0:0:0:0:
176,96,68834,6,0,L|80:96,2,91,4|2|2,0:3|0:0|0:0,0:0:0:0:
312,96,69434,1,2,0:0:0:0:
176,168,69634,2,0,L|184:272,1,91,2|0,0:0|0:0,0:0:0:0:
328,256,70034,2,0,L|336:360,1,91,2|0,0:1|0:0,0:0:0:0:
40,224,70434,5,4,0:3:0:0:
144,160,70634,2,0,L|240:168,2,91,2|2|2,0:0|0:0|0:0,0:0:0:0:
432,112,71234,2,0,L|240:96,1,182,8|2,0:0|0:0,0:0:0:0:
384,32,71834,1,2,0:0:0:0:
248,136,72034,6,0,L|256:240,1,91,4|2,0:3|0:0,0:0:0:0:
392,248,72434,2,0,L|400:360,1,91,2|2,0:0|0:0,0:0:0:0:
136,104,72834,2,0,L|264:120,1,91,8|0,0:0|0:0,0:0:0:0:
64,224,73234,2,0,L|56:128,1,91,2|2,0:1|0:0,0:0:0:0:
360,288,73634,6,0,P|304:264|176:296,1,182,4|2,0:3|0:0,0:0:0:0:
96,344,74234,1,2,0:0:0:0:
456,272,74434,1,8,0:0:0:0:
487,239,74534,1,0,0:0:0:0:
497,196,74634,1,0,0:0:0:0:
481,153,74734,1,0,0:0:0:0:
446,126,74834,1,2,0:0:0:0:
320,120,75034,1,2,0:0:0:0:
56,112,75234,6,0,P|16:152|56:272,1,182,4|0,0:3|0:0,0:0:0:0:
144,296,75834,1,0,0:0:0:0:
440,296,76034,1,8,0:0:0:0:
296,296,76234,1,0,0:0:0:0:
440,296,76434,2,0,L|520:296,2,60.6666666666667,2|0|0,0:0|0:0|0:0,0:0:0:0:
224,296,76834,5,0,0:0:0:0:
