osu file format v14

[General]
AudioFilename: audio.mp3
AudioLeadIn: 0
PreviewTime: 24231
Countdown: 0
SampleSet: Soft
StackLeniency: 0.7
Mode: 2
LetterboxInBreaks: 0
WidescreenStoryboard: 0

[Editor]
DistanceSpacing: 1
BeatDivisor: 4
GridSize: 8
TimelineZoom: 1

[Metadata]
Title:Samurai (Spirix Remix)
TitleUnicode:Samurai (Spirix Remix)
Artist:Vanic
ArtistUnicode:Vanic
Creator:Ascendance
Version:Platter
Source:
Tags:katy tiz mr suicide sheep californian darknessofblue
BeatmapID:1257156
BeatmapSetID:594326

[Difficulty]
HPDrainRate:5
CircleSize:3.5
OverallDifficulty:8
ApproachRate:8
SliderMultiplier:1.72
SliderTickRate:2

[Events]
//Background and Video events
0,0,"50358626_p0.png",0,0
//Break Periods
//Storyboard Layer 0 (Background)
//Storyboard Layer 1 (Fail)
//Storyboard Layer 2 (Pass)
//Storyboard Layer 3 (Foreground)
//Storyboard Sound Samples

[TimingPoints]
34,400,4,2,1,40,1,0
25634,-100,4,2,1,60,0,0
43234,-100,4,2,1,70,0,0
44834,-100,4,2,1,80,0,0
49634,-100,4,2,1,50,0,0
51234,-100,4,2,1,85,0,1
62434,-100,4,2,1,85,0,0
64034,-100,4,2,1,85,0,1
69634,-100,4,2,1,65,0,1
70434,-100,4,2,1,85,0,1
75234,-100,4,2,1,65,0,0
76434,-100,4,2,1,45,0,0

[Colours]
Combo1 : 89,255,89
Combo2 : 255,155,55
Combo3 : 138,255,255
Combo4 : 202,153,255

[HitObjects]
128,344,34,6,0,P|88:256|160:200,1,172,2|0,0:0|0:0,0:0:0:0:
224,192,634,1,0,0:0:0:0:
320,192,834,1,2,0:0:0:0:
144,192,1234,1,0,0:0:0:0:
352,120,1634,6,0,L|168:120,1,172,2|0,0:0|0:0,0:0:0:0:
56,208,2234,2,0,L|48:304,1,86,0|2,0:0|0:0,0:0:0:0:
248,216,2834,2,0,L|256:128,1,86,0|0,0:0|0:0,0:0:0:0:
128,64,3234,6,0,L|312:56,1,172,2|0,0:0|0:0,0:0:0:0:
400,112,3834,1,2,0:0:0:0:
224,264,4234,2,0,L|216:176,1,86,0|2,0:0|0:0,0:0:0:0:
424,336,4834,6,0,L|224:344,1,172,2|0,0:0|0:0,0:0:0:0:
152,280,5434,1,0,0:0:0:0:
112,208,5634,1,2,0:0:0:0:
112,120,5834,1,0,0:0:0:0:
168,56,6034,1,2,0:0:0:0:
256,40,6234,1,0,0:0:0:0:
440,72,6434,5,2,0:0:0:0:
296,176,6834,2,0,L|208:168,2,86,0|0|2,0:0|0:0|0:0,0:0:0:0:
440,216,7634,1,0,0:0:0:0:
248,312,8034,6,0,L|64:320,1,172,2|0,0:0|0:0,0:0:0:0:
160,256,8634,2,0,L|56:264,1,86,0|2,0:0|0:0,0:0:0:0:
384,216,9234,2,0,L|400:112,1,86,0|0,0:0|0:0,0:0:0:0:
280,24,9634,6,0,P|232:80|280:168,1,172,2|0,0:0|0:0,0:0:0:0:
368,192,10234,1,2,0:0:0:0:
232,264,10834,2,0,L|120:264,1,86,2|0,0:0|0:0,0:0:0:0:
288,336,11234,6,0,L|472:336,1,172,2|0,0:0|0:0,0:0:0:0:
368,272,11834,2,0,L|264:272,1,86,0|2,0:0|0:0,0:0:0:0:
416,192,12234,2,0,L|320:192,2,86,0|2|0,0:0|0:0|0:0,0:0:0:0:
152,56,12834,6,0,P|104:120|160:192,1,172,2|0,0:0|0:0,0:0:0:0:
248,208,13434,1,0,0:0:0:0:
72,328,13834,2,0,L|160:320,1,86,0|0,0:0|0:0,0:0:0:0:
328,352,14434,6,0,L|360:160,1,172,2|0,0:0|0:0,0:0:0:0:
248,112,15034,1,0,0:0:0:0:
448,48,15434,2,0,L|432:136,1,86,0|0,0:0|0:0,0:0:0:0:
240,304,16034,6,0,P|200:240|272:168,1,172,2|0,0:0|0:0,0:0:0:0:
352,160,16634,1,0,0:0:0:0:
160,96,17034,2,0,L|64:96,1,86,0|0,0:0|0:0,0:0:0:0:
304,192,17634,6,0,L|128:192,1,172,2|0,0:0|0:0,0:0:0:0:
208,192,18234,1,0,0:0:0:0:
392,104,18634,2,0,L|296:104,2,86,0|0|0,0:0|0:0|0:0,0:0:0:0:
240,160,19234,6,0,L|64:160,1,172,2|0,0:0|0:0,0:0:0:0:
176,160,19834,1,0,0:0:0:0:
288,240,20034,2,0,L|384:240,2,86,2|0|0,0:0|0:0|0:0,0:0:0:0:
456,160,20834,6,0,L|264:160,2,172,2|0|2,0:0|0:0|0:0,0:0:0:0:
272,240,22034,2,0,L|376:240,1,86,0|0,0:0|0:0,0:0:0:0:
256,192,22434,12,0,24034,0:0:0:0:
88,312,24434,6,0,L|272:288,1,172,0|10,0:0|0:0,0:0:0:0:
104,224,25234,2,0,L|96:128,1,86,2|0,0:2|3:3,0:0:0:0:
384,40,25634,6,0,P|488:160|384:296,1,344,6|0,0:0|0:0,0:0:0:0:
240,328,26834,2,0,L|200:232,1,86,0|0,0:0|0:0,0:0:0:0:
408,240,27234,6,0,P|464:184|320:8,1,344,2|2,0:0|0:1,0:0:0:0:
128,104,28434,2,0,L|240:112,1,86,2|0,0:0|0:0,0:0:0:0:
336,208,28834,6,0,L|136:200,1,172,2|0,0:0|0:0,0:0:0:0:
56,240,29434,2,0,L|80:336,1,86,0|0,0:0|0:0,0:0:0:0:
224,360,29834,2,0,L|248:264,1,86,0|2,0:0|0:0,0:0:0:0:
48,136,30434,6,0,L|248:144,1,172,2|0,0:0|0:0,0:0:0:0:
328,152,31034,1,0,0:0:0:0:
192,288,31234,2,0,L|184:184,1,86,0|0,0:0|0:0,0:0:0:0:
328,152,31634,2,0,L|432:128,1,86,2|0,0:0|0:0,0:0:0:0:
224,24,32034,6,0,P|120:144|240:272,1,344,2|0,0:0|0:0,0:0:0:0:
368,344,33234,2,0,L|272:344,1,86,0|0,0:0|0:0,0:0:0:0:
408,280,33634,6,0,L|56:280,1,344,2|2,0:0|0:1,0:0:0:0:
240,248,34834,2,0,L|256:152,1,86,2|0,0:0|0:0,0:0:0:0:
128,48,35234,6,0,L|152:240,1,172,2|0,0:0|0:0,0:0:0:0:
272,256,35834,1,0,0:0:0:0:
384,192,36034,2,0,L|480:192,1,86,0|0,0:0|0:0,0:0:0:0:
360,112,36434,2,0,L|464:112,1,86,2|0,0:0|0:0,0:0:0:0:
256,40,36834,6,0,L|64:40,1,172,2|0,0:0|0:0,0:0:0:0:
200,160,37434,2,0,L|216:56,1,86,0|2,0:0|0:0,0:0:0:0:
48,280,38034,2,0,L|144:272,1,86,2|0,0:0|0:0,0:0:0:0:
448,352,38434,6,0,P|496:288|432:208,1,172,4|8,3:2|0:0,0:0:0:0:
352,168,39034,1,0,0:0:0:0:
309,168,39134,1,0,0:0:0:0:
266,168,39234,1,2,0:1:0:0:
160,272,39434,2,0,L|264:272,1,86,8|8,3:0|0:0,0:0:0:0:
64,160,40034,6,0,L|168:160,2,86,8|0|8,3:3|3:0|0:0,0:0:0:0:
216,96,40634,2,0,L|272:96,2,43,0|0|2,0:0|0:0|0:1,0:0:0:0:
72,48,41034,2,0,L|168:48,1,86,8|8,3:0|0:0,0:0:0:0:
352,160,41634,6,0,L|264:160,1,86,8|0,3:3|3:0,0:0:0:0:
232,184,41934,1,0,3:0:0:0:
192,184,42034,1,8,0:0:0:0:
328,248,42234,1,0,0:0:0:0:
224,320,42434,2,0,L|112:320,1,86,2|8,0:1|3:3,0:0:0:0:
48,240,42834,1,8,0:0:0:0:
288,216,43234,6,0,P|312:152|240:56,1,172,8|8,3:0|0:0,0:0:0:0:
136,32,43834,1,0,0:0:0:0:
93,32,43934,1,0,0:0:0:0:
50,32,44034,1,2,0:1:0:0:
200,88,44234,2,0,L|288:88,1,86,8|8,3:0|0:0,0:0:0:0:
408,88,44634,1,0,0:0:0:0:
88,352,44834,6,0,L|80:240,1,86,8|0,3:0|0:0,0:0:0:0:
120,240,45134,1,0,3:0:0:0:
160,224,45234,1,8,0:0:0:0:
328,176,45634,2,0,L|336:64,1,86,8|0,0:0|0:0,0:0:0:0:
296,64,45934,1,0,3:0:0:0:
256,40,46034,1,8,0:0:0:0:
456,112,46434,6,0,L|448:232,1,86,10|10,0:0|0:0,0:0:0:0:
304,224,46834,2,0,L|296:336,1,86,8|8,0:0|0:0,0:0:0:0:
168,144,47234,2,0,L|256:136,1,86,2|0,3:1|0:0,0:0:0:0:
432,312,47634,2,0,L|448:216,1,86,8|0,0:0|0:0,0:0:0:0:
176,48,48034,6,0,P|128:112|200:192,1,172,8|0,3:0|3:0,0:0:0:0:
296,216,48634,1,0,3:0:0:0:
176,288,48834,2,0,L|88:288,1,86,8|0,3:0|3:0,0:0:0:0:
296,216,49234,2,0,L|384:216,1,86,0|0,3:0|3:0,0:0:0:0:
64,128,49634,5,2,0:0:0:0:
192,352,50034,1,0,0:0:0:0:
115,315,50234,1,0,0:0:0:0:
73,242,50434,1,0,0:0:0:0:
79,158,50634,1,0,0:0:0:0:
133,92,50834,1,0,0:0:0:0:
215,69,51034,1,0,0:0:0:0:
480,56,51234,5,4,3:0:0:0:
384,128,51434,2,0,L|280:128,1,86,2|2,0:0|0:0,0:0:0:0:
448,200,51834,1,2,0:0:0:0:
120,200,52034,1,8,0:0:0:0:
264,296,52434,2,0,L|144:296,1,86,2|2,0:0|0:0,0:0:0:0:
368,232,52834,5,4,0:3:0:0:
464,168,53034,2,0,L|456:64,1,86,2|2,0:0|0:0,0:0:0:0:
349,46,53434,1,2,0:0:0:0:
80,40,53634,1,8,0:0:0:0:
224,160,54034,2,0,L|320:152,1,86,2|0,0:1|0:0,0:0:0:0:
192,296,54434,6,0,L|176:208,1,86,4|2,0:3|0:0,0:0:0:0:
352,64,54834,2,0,L|336:176,1,86,2|2,0:0|0:0,0:0:0:0:
72,256,55234,1,8,0:0:0:0:
216,336,55634,2,0,L|320:336,1,86,2|2,0:0|0:0,0:0:0:0:
184,248,56034,6,0,L|272:248,1,86,4|2,0:3|0:0,0:0:0:0:
408,200,56434,2,0,L|424:88,1,86,2|2,0:0|0:0,0:0:0:0:
248,32,56834,1,8,0:0:0:0:
160,136,57034,2,0,L|176:240,1,86,0|2,0:0|0:1,0:0:0:0:
288,272,57434,1,0,0:0:0:0:
128,352,57634,5,4,0:3:0:0:
256,288,57834,2,0,L|368:296,1,86,2|2,0:0|0:0,0:0:0:0:
464,312,58234,1,2,0:0:0:0:
144,192,58434,1,8,0:0:0:0:
288,112,58834,2,0,L|184:120,1,86,2|2,0:0|0:0,0:0:0:0:
96,40,59234,6,0,L|184:48,1,86,4|2,0:3|0:0,0:0:0:0:
312,160,59634,2,0,L|408:152,1,86,2|2,0:0|0:0,0:0:0:0:
96,256,60034,1,8,0:0:0:0:
248,352,60434,2,0,L|256:256,1,86,2|0,0:0|0:0,0:0:0:0:
96,208,60834,6,0,P|64:160|136:48,1,172,4|2,0:3|0:0,0:0:0:0:
208,32,61434,1,2,0:0:0:0:
384,120,61634,2,0,L|272:120,1,86,8|0,0:0|0:0,0:0:0:0:
456,216,62034,2,0,L|472:112,1,86,2|0,0:0|0:0,0:0:0:0:
264,352,62434,6,0,P|208:280|344:72,1,344,4|8,0:3|0:0,0:0:0:0:
480,48,63634,2,0,L|360:48,1,86,2|0,3:1|0:0,0:0:0:0:
64,56,64034,6,0,L|88:168,1,86,4|2,0:3|0:0,0:0:0:0:
224,240,64434,2,0,L|120:240,1,86,2|2,0:0|0:0,0:0:0:0:
440,200,64834,1,8,0:0:0:0:
296,120,65234,2,0,L|416:120,1,86,2|2,0:0|0:0,0:0:0:0:
240,192,65634,6,0,L|152:192,1,86,4|2,0:3|0:0,0:0:0:0:
288,264,66034,2,0,L|392:264,1,86,2|2,0:0|0:0,0:0:0:0:
80,344,66434,1,8,0:0:0:0:
208,280,66834,2,0,L|224:176,1,86,2|2,0:1|0:0,0:0:0:0:
88,56,67234,6,0,L|104:152,1,86,4|2,0:3|0:0,0:0:0:0:
232,216,67634,2,0,L|320:208,1,86,2|2,0:0|0:0,0:0:0:0:
40,296,68034,1,8,0:0:0:0:
192,352,68434,2,0,L|288:344,1,86,2|2,0:0|0:0,0:0:0:0:
408,272,68834,6,0,L|416:176,1,86,4|2,0:3|0:0,0:0:0:0:
264,176,69234,2,0,L|248:80,1,86,2|2,0:0|0:0,0:0:0:0:
376,56,69634,2,0,L|472:56,1,86,2|0,0:0|0:0,0:0:0:0:
328,144,70034,2,0,L|432:144,1,86,2|0,0:1|0:0,0:0:0:0:
264,192,70434,6,0,L|168:192,1,86,4|2,0:3|0:0,0:0:0:0:
344,248,70834,2,0,L|432:248,1,86,2|2,0:0|0:0,0:0:0:0:
88,304,71234,1,8,0:0:0:0:
224,352,71634,2,0,L|320:344,1,86,2|2,0:0|0:0,0:0:0:0:
192,272,72034,6,0,L|296:264,1,86,4|2,0:3|0:0,0:0:0:0:
104,184,72434,2,0,L|72:88,1,86,2|2,0:0|0:0,0:0:0:0:
400,56,72834,1,8,0:0:0:0:
256,120,73234,2,0,L|264:224,1,86,2|2,0:1|0:0,0:0:0:0:
424,312,73634,6,0,L|232:328,1,172,4|2,0:3|0:0,0:0:0:0:
144,256,74234,1,2,0:0:0:0:
440,184,74434,2,0,L|456:88,1,86,8|0,0:0|0:0,0:0:0:0:
72,48,74834,2,0,L|88:144,1,86,2|2,0:0|0:0,0:0:0:0:
232,192,75234,6,0,L|408:200,1,172,4|0,0:3|0:0,0:0:0:0:
512,208,75834,1,0,0:0:0:0:
160,320,76034,2,0,L|48:320,1,86,8|0,0:0|0:0,0:0:0:0:
240,144,76434,1,2,0:0:0:0:
432,120,76834,5,0,0:0:0:0:
