osu file format v14

[General]
AudioFilename: audio.mp3
AudioLeadIn: 0
PreviewTime: 24231
Countdown: 0
SampleSet: Soft
StackLeniency: 0.7
Mode: 2
LetterboxInBreaks: 0
WidescreenStoryboard: 0

[Editor]
DistanceSpacing: 1.4
BeatDivisor: 4
GridSize: 8
TimelineZoom: 1

[Metadata]
Title:Samurai (Spirix Remix)
TitleUnicode:Samurai (Spirix Remix)
Artist:Vanic
ArtistUnicode:Vanic
Creator:Ascendance
Version:Cup
Source:
Tags:katy tiz mr suicide sheep californian darknessofblue
BeatmapID:1257155
BeatmapSetID:594326

[Difficulty]
HPDrainRate:3
CircleSize:2.5
OverallDifficulty:6
ApproachRate:6
SliderMultiplier:1.3
SliderTickRate:2

[Events]
//Background and Video events
0,0,"50358626_p0.png",0,0
//Break Periods
//Storyboard Layer 0 (Background)
//Storyboard Layer 1 (Fail)
//Storyboard Layer 2 (Pass)
//Storyboard Layer 3 (Foreground)
//Storyboard Sound Samples

[TimingPoints]
34,400,4,2,1,40,1,0
25634,-100,4,2,1,60,0,0
43234,-100,4,2,1,70,0,0
44834,-100,4,2,1,80,0,0
49634,-100,4,2,1,50,0,0
51234,-100,4,2,1,85,0,1
62434,-100,4,2,1,85,0,0
64034,-100,4,2,1,85,0,1
69634,-100,4,2,1,65,0,1
70434,-100,4,2,1,85,0,1
75234,-100,4,2,1,65,0,0
76434,-100,4,2,1,45,0,0

[Colours]
Combo1 : 89,255,89
Combo2 : 255,155,55
Combo3 : 138,255,255
Combo4 : 202,153,255

[HitObjects]
56,320,34,6,0,P|152:296|264:328,2,195,2|0|0,0:0|0:0|0:0,0:0:0:0:
184,296,1634,2,0,L|384:296,1,195,2|0,0:0|0:0,0:0:0:0:
184,296,2834,1,0,0:0:0:0:
64,240,3234,6,0,P|32:192|80:64,1,195,2|2,0:0|0:0,0:0:0:0:
224,32,4434,1,2,0:0:0:0:
376,104,4834,2,0,L|160:104,1,195,2|0,0:0|0:0,0:0:0:0:
240,104,6034,1,2,0:0:0:0:
368,104,6434,6,0,P|416:152|376:280,1,195,2|0,0:0|0:0,0:0:0:0:
176,344,7634,1,0,0:0:0:0:
312,304,8034,2,0,L|512:304,2,195,2|0|0,0:0|0:0|0:0,0:0:0:0:
464,256,9634,6,0,P|496:200|440:80,1,195,2|2,0:0|0:0,0:0:0:0:
264,24,10834,1,2,0:0:0:0:
176,88,11234,2,0,L|192:304,1,195,2|0,0:0|0:0,0:0:0:0:
368,344,12434,1,2,0:0:0:0:
184,344,12834,5,2,0:0:0:0:
352,304,13434,2,0,P|384:248|336:136,1,195,0|0,0:0|0:0,0:0:0:0:
216,88,14434,2,0,L|16:88,2,195,2|0|0,0:0|0:0|0:0,0:0:0:0:
344,112,16034,6,0,P|400:184|336:272,1,195,2|0,0:0|0:0,0:0:0:0:
160,288,17234,1,0,0:0:0:0:
264,216,17634,2,0,L|56:216,2,195,2|0|0,0:0|0:0|0:0,0:0:0:0:
392,216,19234,6,0,P|432:160|376:48,1,195,2|0,0:0|0:0,0:0:0:0:
192,16,20434,1,0,0:0:0:0:
80,80,20834,2,0,L|104:288,1,195,2|0,0:0|0:0,0:0:0:0:
280,344,22034,1,0,0:0:0:0:
256,192,22434,12,0,24034,0:0:0:0:
168,288,24834,6,0,P|152:224|184:144,1,130,10|2,0:0|0:2,0:0:0:0:
344,88,25634,6,0,P|440:96|384:312,1,390,6|0,0:0|0:0,0:0:0:0:
216,336,27234,2,0,B|176:296|160:208|160:208|200:224|304:240|288:88|208:56,1,390,2|2,0:0|0:0,0:0:0:0:
72,56,28834,6,0,L|216:48,1,130,2|0,0:0|0:0,0:0:0:0:
304,128,29634,2,0,L|456:112,1,130,0|2,0:0|0:0,0:0:0:0:
304,152,30434,2,0,P|232:208|296:344,1,260,2|0,0:0|0:0,0:0:0:0:
424,352,31634,1,2,0:0:0:0:
256,280,32034,6,0,P|144:208|288:64,1,390,2|0,0:0|0:0,0:0:0:0:
152,40,33634,2,0,B|40:200|40:200|144:368,1,390,2|2,0:0|0:0,0:0:0:0:
264,320,35234,6,0,L|408:328,1,130,2|0,0:0|0:0,0:0:0:0:
280,264,36034,2,0,L|144:280,1,130,0|2,0:0|0:0,0:0:0:0:
280,304,36834,2,0,P|368:256|328:96,1,260,2|2,0:0|0:0,0:0:0:0:
232,64,38034,1,2,0:0:0:0:
72,200,38434,6,0,L|56:56,1,130,4|8,3:2|0:0,0:0:0:0:
184,264,39234,2,0,L|328:256,2,130,2|8|8,0:1|0:0|3:3,0:0:0:0:
80,344,40434,2,0,L|224:336,1,130,8|2,0:0|0:1,0:0:0:0:
336,328,41234,1,8,0:0:0:0:
224,264,41634,6,0,P|144:200|232:80,1,260,8|2,3:3|0:1,0:0:0:0:
344,72,42834,1,8,0:0:0:0:
232,136,43234,2,0,L|96:128,1,130,8|8,3:0|0:0,0:0:0:0:
224,168,44034,2,0,L|368:160,1,130,2|8,0:1|0:0,0:0:0:0:
232,200,44834,6,0,P|144:168|-8:240,1,260,8|8,3:0|0:0,0:0:0:0:
248,296,46434,2,0,P|312:240|240:104,1,260,10|2,0:0|3:1,0:0:0:0:
112,96,47634,1,8,0:0:0:0:
240,64,48034,6,0,L|376:72,1,130,8|0,3:0|3:0,0:0:0:0:
256,136,48834,2,0,L|224:272,1,130,8|0,3:0|3:0,0:0:0:0:
328,336,49634,1,2,0:0:0:0:
72,272,51234,6,0,P|40:216|112:96,1,195,4|2,3:0|0:0,0:0:0:0:
176,80,52034,1,8,0:0:0:0:
320,176,52434,2,0,L|360:104,1,65,2|2,0:0|0:0,0:0:0:0:
296,200,52834,6,0,L|96:176,1,195,4|2,0:3|0:0,0:0:0:0:
192,184,53634,1,8,0:0:0:0:
336,296,54034,2,0,L|360:208,1,65,2|0,0:1|0:0,0:0:0:0:
296,168,54434,6,0,P|224:176|176:304,1,195,4|2,0:3|0:0,0:0:0:0:
248,312,55234,1,8,0:0:0:0:
80,240,55634,2,0,L|72:152,1,65,2|2,0:0|0:0,0:0:0:0:
144,120,56034,2,0,L|288:104,1,130,4|2,0:3|0:0,0:0:0:0:
440,176,56834,2,0,L|512:184,2,65,8|0|2,0:0|0:0|0:1,0:0:0:0:
272,256,57634,6,0,P|224:200|296:104,1,195,4|2,0:3|0:0,0:0:0:0:
368,96,58434,1,8,0:0:0:0:
184,72,58834,2,0,L|88:72,1,65,2|2,0:0|0:0,0:0:0:0:
48,128,59234,6,0,L|264:128,1,195,4|2,0:3|0:0,0:0:0:0:
336,128,60034,1,8,0:0:0:0:
184,232,60434,2,0,L|168:144,1,65,2|0,0:0|0:0,0:0:0:0:
248,112,60834,6,0,L|392:112,1,130,4|2,0:3|0:0,0:0:0:0:
288,112,61434,1,2,0:0:0:0:
192,112,61634,2,0,L|48:112,1,130,8|2,0:0|0:0,0:0:0:0:
184,232,62434,2,0,P|264:144|168:72,1,260,4|8,0:3|0:0,0:0:0:0:
32,40,63634,2,0,L|40:128,1,65,2|0,3:1|0:0,0:0:0:0:
112,160,64034,6,0,L|320:192,1,195,4|2,0:3|0:0,0:0:0:0:
216,208,64834,1,8,0:0:0:0:
360,312,65234,2,0,L|376:224,1,65,2|2,0:0|0:0,0:0:0:0:
304,184,65634,6,0,L|96:192,1,195,4|2,0:3|0:0,0:0:0:0:
24,192,66434,1,8,0:0:0:0:
184,280,66834,2,0,L|272:264,1,65,2|2,0:1|0:0,0:0:0:0:
336,296,67234,6,0,P|384:256|312:144,1,195,4|2,0:3|0:0,0:0:0:0:
248,136,68034,1,8,0:0:0:0:
104,64,68434,2,0,L|32:64,1,65,2|2,0:0|0:0,0:0:0:0:
168,88,68834,2,0,P|208:144|160:264,1,195,4|2,0:3|0:0,0:0:0:0:
88,344,69634,2,0,L|304:336,1,195,2|0,0:0|0:0,0:0:0:0:
384,288,70434,6,0,P|416:224|368:112,1,195,4|2,0:3|0:0,0:0:0:0:
264,96,71234,1,8,0:0:0:0:
160,160,71634,2,0,L|168:248,1,65,2|2,0:0|0:0,0:0:0:0:
240,280,72034,2,0,L|440:296,1,195,4|2,0:3|0:0,0:0:0:0:
504,352,72834,1,8,0:0:0:0:
352,256,73234,2,0,L|336:176,1,65,2|2,0:1|0:0,0:0:0:0:
256,152,73634,6,0,L|112:160,1,130,4|2,0:3|0:0,0:0:0:0:
256,288,74434,1,8,0:0:0:0:
320,224,74634,1,0,0:0:0:0:
256,160,74834,1,2,0:0:0:0:
128,40,75234,6,0,P|16:104|64:224,1,260,4|8,0:3|0:0,0:0:0:0:
200,240,76434,1,2,0:0:0:0:
376,240,76834,5,0,0:0:0:0:
