osu file format v14

[General]
AudioFilename: audio.mp3
AudioLeadIn: 0
PreviewTime: -1
Countdown: 1
SampleSet: None
StackLeniency: 0.7
Mode: 3
LetterboxInBreaks: 0
SpecialStyle: 0
WidescreenStoryboard: 0

[Editor]
DistanceSpacing: 0.8
BeatDivisor: 16
GridSize: 32
TimelineZoom: 1

[Metadata]
Title:Toccata And Fugue In D Minor
TitleUnicode:Toccata And Fugue In D Minor
Artist:Vanessa Mae
ArtistUnicode:Vanessa Mae
Creator:AetherKeys
Version:4k HD
Source:Vanessa Mae
Tags:YOLO
BeatmapID:945733
BeatmapSetID:439429

[Difficulty]
HPDrainRate:5
CircleSize:4
OverallDifficulty:6
ApproachRate:5
SliderMultiplier:1.4
SliderTickRate:1

[Events]
//Background and Video events
0,0,"memories_of_gilbert_beilschmid_by_fredericayang.jpg",0,0
//Break Periods
//Storyboard Layer 0 (Background)
//Storyboard Layer 1 (Fail)
//Storyboard Layer 2 (Pass)
//Storyboard Layer 3 (Foreground)
//Storyboard Sound Samples

[TimingPoints]
1538.98824815532,436.808386721025,4,2,0,52,1,0

[HitObjects]
192,192,374,5,0,0:0:0:0:
320,192,519,1,0,0:0:0:0:
448,192,665,128,0,2995:0:0:0:0:
448,192,3286,1,0,0:0:0:0:
320,192,3395,1,0,0:0:0:0:
192,192,3504,1,0,0:0:0:0:
320,192,3650,1,0,0:0:0:0:
64,192,3723,1,0,0:0:0:0:
320,192,3832,1,0,0:0:0:0:
448,192,3941,1,0,0:0:0:0:
192,192,3941,1,0,0:0:0:0:
448,192,4305,128,0,5761:0:0:0:0:
192,192,4305,128,0,5761:0:0:0:0:
64,192,7053,1,0,0:0:0:0:
320,192,7217,1,0,0:0:0:0:
448,192,7363,1,0,0:0:0:0:
192,192,7363,128,0,9765:0:0:0:0:
64,192,7363,128,0,9765:0:0:0:0:
320,192,10493,1,0,0:0:0:0:
448,192,10493,1,0,0:0:0:0:
192,192,10784,1,0,0:0:0:0:
320,192,11094,128,0,11476:0:0:0:0:
64,192,11476,128,0,13660:0:0:0:0:
448,192,11476,128,0,13660:0:0:0:0:
320,192,15571,128,0,17154:0:0:0:0:
192,192,15571,128,0,16499:0:0:0:0:
448,192,16499,128,0,17154:0:0:0:0:
192,192,17154,1,0,0:0:0:0:
320,192,17700,128,0,18192:0:0:0:0:
192,192,17700,128,0,18192:0:0:0:0:
448,192,17700,128,0,18192:0:0:0:0:
64,192,18192,1,0,0:0:0:0:
192,192,18683,128,0,19775:0:0:0:0:
320,192,18683,128,0,19065:0:0:0:0:
64,192,18683,128,0,19775:0:0:0:0:
448,192,19065,1,0,0:0:0:0:
320,192,19775,128,0,23352:0:0:0:0:
448,192,19775,128,0,23352:0:0:0:0:
192,192,23352,1,0,0:0:0:0:
64,192,23352,1,0,0:0:0:0:
192,192,23980,1,0,0:0:0:0:
320,192,24089,1,0,0:0:0:0:
448,192,24198,1,0,0:0:0:0:
320,192,24307,1,0,0:0:0:0:
192,192,24416,1,0,0:0:0:0:
64,192,24526,1,0,0:0:0:0:
192,192,24635,128,0,24744:0:0:0:0:
320,192,24744,1,0,0:0:0:0:
192,192,24853,128,0,24962:0:0:0:0:
320,192,24962,1,0,0:0:0:0:
448,192,24962,128,0,25399:0:0:0:0:
64,192,25454,128,0,25781:0:0:0:0:
448,192,25781,1,0,0:0:0:0:
192,192,25781,1,0,0:0:0:0:
448,192,26218,1,0,0:0:0:0:
64,192,26218,1,0,0:0:0:0:
192,192,26218,1,0,0:0:0:0:
320,192,26382,1,0,0:0:0:0:
448,192,26628,128,0,28238:0:0:0:0:
320,192,26628,1,0,0:0:0:0:
192,192,26628,128,0,28238:0:0:0:0:
320,192,28238,128,0,28812:0:0:0:0:
64,192,28238,128,0,28812:0:0:0:0:
448,192,28812,1,0,0:0:0:0:
192,192,28812,1,0,0:0:0:0:
192,192,30259,1,0,0:0:0:0:
320,192,30532,1,0,0:0:0:0:
320,192,30695,1,0,0:0:0:0:
192,192,30695,1,0,0:0:0:0:
192,192,30914,1,0,0:0:0:0:
448,192,30914,1,0,0:0:0:0:
192,192,31132,1,0,0:0:0:0:
448,192,31351,1,0,0:0:0:0:
64,192,31351,1,0,0:0:0:0:
192,192,31569,1,0,0:0:0:0:
448,192,31787,1,0,0:0:0:0:
64,192,31787,1,0,0:0:0:0:
192,192,32060,1,0,0:0:0:0:
320,192,32224,1,0,0:0:0:0:
448,192,32224,1,0,0:0:0:0:
192,192,32443,1,0,0:0:0:0:
320,192,32661,1,0,0:0:0:0:
448,192,32661,1,0,0:0:0:0:
192,192,32879,1,0,0:0:0:0:
320,192,33098,1,0,0:0:0:0:
64,192,33098,1,0,0:0:0:0:
192,192,33316,1,0,0:0:0:0:
448,192,33535,1,0,0:0:0:0:
320,192,33535,1,0,0:0:0:0:
192,192,33753,1,0,0:0:0:0:
64,192,33972,1,0,0:0:0:0:
192,192,33972,1,0,0:0:0:0:
192,192,34190,1,0,0:0:0:0:
320,192,34190,1,0,0:0:0:0:
320,192,34408,1,0,0:0:0:0:
448,192,34408,1,0,0:0:0:0:
64,192,34627,1,0,0:0:0:0:
192,192,34627,1,0,0:0:0:0:
320,192,34845,1,0,0:0:0:0:
448,192,34845,1,0,0:0:0:0:
64,192,34845,1,0,0:0:0:0:
448,192,35064,1,0,0:0:0:0:
192,192,35064,1,0,0:0:0:0:
320,192,35282,1,0,0:0:0:0:
320,192,35500,1,0,0:0:0:0:
64,192,35500,1,0,0:0:0:0:
192,192,35719,1,0,0:0:0:0:
320,192,35719,1,0,0:0:0:0:
448,192,35937,1,0,0:0:0:0:
192,192,35937,1,0,0:0:0:0:
192,192,36156,1,0,0:0:0:0:
64,192,36156,1,0,0:0:0:0:
320,192,36374,1,0,0:0:0:0:
448,192,36374,1,0,0:0:0:0:
64,192,36592,1,0,0:0:0:0:
192,192,36592,1,0,0:0:0:0:
192,192,36811,1,0,0:0:0:0:
448,192,36811,1,0,0:0:0:0:
192,192,37029,1,0,0:0:0:0:
448,192,37029,1,0,0:0:0:0:
320,192,37248,1,0,0:0:0:0:
64,192,37466,1,0,0:0:0:0:
192,192,37466,1,0,0:0:0:0:
320,192,37684,1,0,0:0:0:0:
64,192,37903,1,0,0:0:0:0:
448,192,37903,1,0,0:0:0:0:
192,192,38121,1,0,0:0:0:0:
192,192,38340,1,0,0:0:0:0:
320,192,38340,1,0,0:0:0:0:
64,192,38558,1,0,0:0:0:0:
320,192,38558,1,0,0:0:0:0:
192,192,38776,1,0,0:0:0:0:
448,192,38776,1,0,0:0:0:0:
320,192,38995,1,0,0:0:0:0:
192,192,39104,1,0,0:0:0:0:
64,192,39213,1,0,0:0:0:0:
192,192,39322,1,0,0:0:0:0:
320,192,39432,1,0,0:0:0:0:
448,192,39541,1,0,0:0:0:0:
320,192,39650,1,0,0:0:0:0:
192,192,39832,1,0,0:0:0:0:
320,192,39832,1,0,0:0:0:0:
448,192,39978,1,0,0:0:0:0:
320,192,40087,1,0,0:0:0:0:
192,192,40196,1,0,0:0:0:0:
64,192,40305,1,0,0:0:0:0:
448,192,40414,1,0,0:0:0:0:
448,192,40633,1,0,0:0:0:0:
64,192,40633,1,0,0:0:0:0:
192,192,40815,1,0,0:0:0:0:
320,192,40815,1,0,0:0:0:0:
192,192,40960,1,0,0:0:0:0:
320,192,40960,1,0,0:0:0:0:
448,192,41106,128,0,42344:0:0:0:0:
64,192,41106,128,0,42344:0:0:0:0:
320,192,42344,1,0,0:0:0:0:
192,192,42344,1,0,0:0:0:0:
64,192,42926,128,0,44528:0:0:0:0:
320,192,42926,1,0,0:0:0:0:
448,192,43181,1,0,0:0:0:0:
192,192,43181,1,0,0:0:0:0:
320,192,43290,1,0,0:0:0:0:
192,192,43581,1,0,0:0:0:0:
448,192,43581,1,0,0:0:0:0:
320,192,43763,1,0,0:0:0:0:
192,192,43982,1,0,0:0:0:0:
448,192,43982,1,0,0:0:0:0:
320,192,44091,128,0,44528:0:0:0:0:
192,192,44601,128,0,45729:0:0:0:0:
64,192,44855,1,0,0:0:0:0:
448,192,44855,1,0,0:0:0:0:
320,192,45037,1,0,0:0:0:0:
448,192,45329,1,0,0:0:0:0:
64,192,45329,1,0,0:0:0:0:
320,192,45511,1,0,0:0:0:0:
320,192,45729,1,0,0:0:0:0:
448,192,45729,1,0,0:0:0:0:
320,192,45911,128,0,46384:0:0:0:0:
448,192,45911,128,0,46384:0:0:0:0:
192,192,46384,1,0,0:0:0:0:
64,192,46384,1,0,0:0:0:0:
192,192,46603,128,0,46821:0:0:0:0:
320,192,46603,128,0,46821:0:0:0:0:
64,192,46821,1,0,0:0:0:0:
320,192,47039,128,0,47258:0:0:0:0:
192,192,47039,128,0,47258:0:0:0:0:
448,192,47258,1,0,0:0:0:0:
192,192,47458,128,0,47676:0:0:0:0:
320,192,47458,128,0,47676:0:0:0:0:
448,192,47676,1,0,0:0:0:0:
64,192,47676,1,0,0:0:0:0:
448,192,47949,1,0,0:0:0:0:
320,192,48059,1,0,0:0:0:0:
192,192,48168,1,0,0:0:0:0:
448,192,48277,1,0,0:0:0:0:
320,192,48386,1,0,0:0:0:0:
192,192,48495,1,0,0:0:0:0:
64,192,48605,1,0,0:0:0:0:
448,192,48605,1,0,0:0:0:0:
320,192,48823,1,0,0:0:0:0:
192,192,48823,1,0,0:0:0:0:
448,192,49041,1,0,0:0:0:0:
64,192,49041,1,0,0:0:0:0:
320,192,49223,128,0,50607:0:0:0:0:
192,192,49223,128,0,50607:0:0:0:0:
64,192,49442,128,0,50607:0:0:0:0:
448,192,49442,128,0,50607:0:0:0:0:
448,192,51007,1,0,0:0:0:0:
320,192,51116,1,0,0:0:0:0:
192,192,51225,1,0,0:0:0:0:
64,192,51335,1,0,0:0:0:0:
192,192,51444,1,0,0:0:0:0:
448,192,51553,1,0,0:0:0:0:
320,192,51662,1,0,0:0:0:0:
192,192,51771,1,0,0:0:0:0:
64,192,51881,1,0,0:0:0:0:
192,192,51990,1,0,0:0:0:0:
192,192,52099,1,0,0:0:0:0:
320,192,52208,1,0,0:0:0:0:
448,192,52317,1,0,0:0:0:0:
320,192,52427,1,0,0:0:0:0:
192,192,52536,1,0,0:0:0:0:
64,192,52645,1,0,0:0:0:0:
448,192,52645,1,0,0:0:0:0:
320,192,52754,1,0,0:0:0:0:
192,192,52863,1,0,0:0:0:0:
448,192,52973,1,0,0:0:0:0:
192,192,53045,1,0,0:0:0:0:
448,192,53155,1,0,0:0:0:0:
64,192,53155,1,0,0:0:0:0:
320,192,53264,1,0,0:0:0:0:
192,192,53264,1,0,0:0:0:0:
448,192,53409,1,0,0:0:0:0:
64,192,53409,1,0,0:0:0:0:
448,192,53737,1,0,0:0:0:0:
320,192,53846,1,0,0:0:0:0:
192,192,53955,1,0,0:0:0:0:
64,192,54065,1,0,0:0:0:0:
192,192,54174,1,0,0:0:0:0:
320,192,54283,1,0,0:0:0:0:
448,192,54356,1,0,0:0:0:0:
320,192,54465,1,0,0:0:0:0:
64,192,54684,1,0,0:0:0:0:
448,192,54684,1,0,0:0:0:0:
192,192,54902,1,0,0:0:0:0:
320,192,54902,1,0,0:0:0:0:
192,192,55157,1,0,0:0:0:0:
320,192,55157,1,0,0:0:0:0:
64,192,55412,1,0,0:0:0:0:
448,192,55412,1,0,0:0:0:0:
320,192,55666,1,0,0:0:0:0:
192,192,55666,1,0,0:0:0:0:
448,192,55848,128,0,56649:0:0:0:0:
64,192,55848,128,0,56649:0:0:0:0:
192,192,56103,128,0,56649:0:0:0:0:
320,192,56103,128,0,56649:0:0:0:0:
448,192,56868,1,0,0:0:0:0:
320,192,56977,1,0,0:0:0:0:
192,192,57086,1,0,0:0:0:0:
448,192,57086,1,0,0:0:0:0:
64,192,57377,1,0,0:0:0:0:
192,192,57486,1,0,0:0:0:0:
320,192,57596,1,0,0:0:0:0:
64,192,57596,1,0,0:0:0:0:
448,192,57778,1,0,0:0:0:0:
192,192,57887,1,0,0:0:0:0:
320,192,57996,1,0,0:0:0:0:
448,192,58105,1,0,0:0:0:0:
192,192,58214,1,0,0:0:0:0:
320,192,58324,1,0,0:0:0:0:
192,192,58433,1,0,0:0:0:0:
448,192,58542,1,0,0:0:0:0:
64,192,58542,1,0,0:0:0:0:
192,192,58688,1,0,0:0:0:0:
320,192,58797,1,0,0:0:0:0:
448,192,58906,1,0,0:0:0:0:
320,192,59015,1,0,0:0:0:0:
192,192,59124,1,0,0:0:0:0:
64,192,59379,1,0,0:0:0:0:
448,192,59379,1,0,0:0:0:0:
192,192,59634,1,0,0:0:0:0:
320,192,59634,1,0,0:0:0:0:
320,192,59852,128,0,60098:0:0:0:0:
64,192,59852,128,0,60098:0:0:0:0:
448,192,60098,1,0,0:0:0:0:
192,192,60098,1,0,0:0:0:0:
64,192,60435,1,0,0:0:0:0:
448,192,60435,1,0,0:0:0:0:
192,192,60580,1,0,0:0:0:0:
320,192,60690,1,0,0:0:0:0:
448,192,60799,1,0,0:0:0:0:
320,192,60908,1,0,0:0:0:0:
192,192,61017,1,0,0:0:0:0:
448,192,61126,1,0,0:0:0:0:
320,192,61236,1,0,0:0:0:0:
192,192,61345,1,0,0:0:0:0:
320,192,61454,1,0,0:0:0:0:
448,192,61563,1,0,0:0:0:0:
320,192,61672,1,0,0:0:0:0:
192,192,61782,1,0,0:0:0:0:
64,192,61891,1,0,0:0:0:0:
192,192,62000,1,0,0:0:0:0:
320,192,62109,1,0,0:0:0:0:
192,192,62218,1,0,0:0:0:0:
64,192,62328,1,0,0:0:0:0:
192,192,62437,1,0,0:0:0:0:
320,192,62546,1,0,0:0:0:0:
448,192,62655,1,0,0:0:0:0:
320,192,62801,1,0,0:0:0:0:
448,192,62910,1,0,0:0:0:0:
192,192,62983,1,0,0:0:0:0:
320,192,63092,1,0,0:0:0:0:
64,192,63201,1,0,0:0:0:0:
192,192,63310,1,0,0:0:0:0:
448,192,63420,1,0,0:0:0:0:
320,192,63529,1,0,0:0:0:0:
192,192,63638,1,0,0:0:0:0:
448,192,63729,1,0,0:0:0:0:
320,192,63838,1,0,0:0:0:0:
192,192,63947,1,0,0:0:0:0:
64,192,64057,1,0,0:0:0:0:
192,192,64166,1,0,0:0:0:0:
320,192,64275,1,0,0:0:0:0:
64,192,64384,1,0,0:0:0:0:
320,192,64493,1,0,0:0:0:0:
192,192,64603,1,0,0:0:0:0:
64,192,64712,1,0,0:0:0:0:
448,192,64821,1,0,0:0:0:0:
320,192,64930,1,0,0:0:0:0:
192,192,65040,1,0,0:0:0:0:
64,192,65149,1,0,0:0:0:0:
448,192,65149,1,0,0:0:0:0:
320,192,65258,1,0,0:0:0:0:
192,192,65367,1,0,0:0:0:0:
64,192,65476,1,0,0:0:0:0:
320,192,65586,1,0,0:0:0:0:
448,192,65713,1,0,0:0:0:0:
320,192,65822,1,0,0:0:0:0:
448,192,65931,1,0,0:0:0:0:
320,192,66041,1,0,0:0:0:0:
192,192,66150,1,0,0:0:0:0:
64,192,66259,1,0,0:0:0:0:
192,192,66368,1,0,0:0:0:0:
320,192,66477,1,0,0:0:0:0:
448,192,66587,1,0,0:0:0:0:
320,192,66696,1,0,0:0:0:0:
192,192,66805,1,0,0:0:0:0:
320,192,66914,1,0,0:0:0:0:
448,192,67023,1,0,0:0:0:0:
320,192,67133,1,0,0:0:0:0:
448,192,67242,1,0,0:0:0:0:
320,192,67351,1,0,0:0:0:0:
192,192,67460,1,0,0:0:0:0:
64,192,67569,1,0,0:0:0:0:
192,192,67679,1,0,0:0:0:0:
320,192,67788,1,0,0:0:0:0:
448,192,67897,1,0,0:0:0:0:
320,192,68006,1,0,0:0:0:0:
192,192,68115,1,0,0:0:0:0:
320,192,68225,1,0,0:0:0:0:
192,192,68334,1,0,0:0:0:0:
448,192,68443,1,0,0:0:0:0:
64,192,68552,1,0,0:0:0:0:
320,192,68661,1,0,0:0:0:0:
448,192,68771,1,0,0:0:0:0:
320,192,68880,1,0,0:0:0:0:
192,192,68989,1,0,0:0:0:0:
320,192,69098,1,0,0:0:0:0:
192,192,69353,128,0,72665:0:0:0:0:
320,192,69353,128,0,72665:0:0:0:0:
64,192,69353,1,0,0:0:0:0:
448,192,69353,1,0,0:0:0:0:
64,192,72847,1,0,0:0:0:0:
448,192,72847,1,0,0:0:0:0:
192,192,73102,1,0,0:0:0:0:
320,192,73102,1,0,0:0:0:0:
320,192,73284,1,0,0:0:0:0:
64,192,73539,1,0,0:0:0:0:
192,192,73539,1,0,0:0:0:0:
192,192,73721,1,0,0:0:0:0:
448,192,73976,1,0,0:0:0:0:
320,192,73976,1,0,0:0:0:0:
320,192,74158,1,0,0:0:0:0:
64,192,74595,1,0,0:0:0:0:
448,192,74595,1,0,0:0:0:0:
320,192,74886,1,0,0:0:0:0:
192,192,74886,1,0,0:0:0:0:
192,192,75068,1,0,0:0:0:0:
320,192,75332,1,0,0:0:0:0:
448,192,75332,1,0,0:0:0:0:
320,192,75523,1,0,0:0:0:0:
64,192,75832,1,0,0:0:0:0:
192,192,75832,1,0,0:0:0:0:
320,192,75832,1,0,0:0:0:0:
192,192,75942,1,0,0:0:0:0:
320,192,75942,1,0,0:0:0:0:
448,192,75942,1,0,0:0:0:0:
448,192,76451,1,0,0:0:0:0:
320,192,76560,1,0,0:0:0:0:
192,192,76670,1,0,0:0:0:0:
448,192,76742,1,0,0:0:0:0:
320,192,76852,1,0,0:0:0:0:
192,192,76961,1,0,0:0:0:0:
192,192,77106,1,0,0:0:0:0:
320,192,77216,1,0,0:0:0:0:
448,192,77325,1,0,0:0:0:0:
192,192,77379,1,0,0:0:0:0:
320,192,77470,1,0,0:0:0:0:
448,192,77616,1,0,0:0:0:0:
64,192,77725,1,0,0:0:0:0:
192,192,77834,1,0,0:0:0:0:
320,192,77980,1,0,0:0:0:0:
448,192,78089,1,0,0:0:0:0:
448,192,78235,1,0,0:0:0:0:
320,192,78344,1,0,0:0:0:0:
192,192,78453,1,0,0:0:0:0:
64,192,78562,1,0,0:0:0:0:
64,192,78744,1,0,0:0:0:0:
448,192,78744,1,0,0:0:0:0:
192,192,79072,1,0,0:0:0:0:
64,192,79072,1,0,0:0:0:0:
448,192,79318,128,0,80328:0:0:0:0:
320,192,79318,128,0,80328:0:0:0:0:
192,192,79509,1,0,0:0:0:0:
64,192,79509,1,0,0:0:0:0:
448,192,80928,1,0,0:0:0:0:
320,192,81038,1,0,0:0:0:0:
448,192,81147,1,0,0:0:0:0:
320,192,81256,1,0,0:0:0:0:
64,192,81365,1,0,0:0:0:0:
192,192,81474,1,0,0:0:0:0:
64,192,81584,1,0,0:0:0:0:
192,192,81693,1,0,0:0:0:0:
320,192,81802,1,0,0:0:0:0:
448,192,81802,1,0,0:0:0:0:
192,192,81911,1,0,0:0:0:0:
64,192,81911,1,0,0:0:0:0:
448,192,82020,1,0,0:0:0:0:
320,192,82130,1,0,0:0:0:0:
192,192,82239,1,0,0:0:0:0:
64,192,82348,1,0,0:0:0:0:
192,192,82457,1,0,0:0:0:0:
320,192,82566,1,0,0:0:0:0:
448,192,82676,1,0,0:0:0:0:
192,192,82785,1,0,0:0:0:0:
320,192,82894,1,0,0:0:0:0:
448,192,83003,1,0,0:0:0:0:
320,192,83112,1,0,0:0:0:0:
448,192,83222,1,0,0:0:0:0:
448,192,83331,1,0,0:0:0:0:
320,192,83440,1,0,0:0:0:0:
192,192,83549,1,0,0:0:0:0:
64,192,83658,1,0,0:0:0:0:
448,192,83768,1,0,0:0:0:0:
320,192,83877,1,0,0:0:0:0:
192,192,83986,1,0,0:0:0:0:
64,192,84132,1,0,0:0:0:0:
192,192,84241,1,0,0:0:0:0:
320,192,84350,1,0,0:0:0:0:
192,192,84459,1,0,0:0:0:0:
448,192,84459,1,0,0:0:0:0:
64,192,84568,1,0,0:0:0:0:
320,192,84568,1,0,0:0:0:0:
64,192,84787,1,0,0:0:0:0:
320,192,84787,1,0,0:0:0:0:
192,192,84942,128,0,85187:0:0:0:0:
448,192,84942,128,0,85187:0:0:0:0:
64,192,85187,128,0,85406:0:0:0:0:
320,192,85187,128,0,85406:0:0:0:0:
448,192,85406,128,0,85761:0:0:0:0:
192,192,85406,128,0,85761:0:0:0:0:
320,192,85761,1,0,0:0:0:0:
64,192,85761,1,0,0:0:0:0:
64,192,85988,128,0,86680:0:0:0:0:
192,192,85988,128,0,86680:0:0:0:0:
320,192,85988,128,0,86680:0:0:0:0:
448,192,85988,128,0,86680:0:0:0:0:
448,192,87080,1,0,0:0:0:0:
320,192,87189,1,0,0:0:0:0:
192,192,87299,1,0,0:0:0:0:
64,192,87408,1,0,0:0:0:0:
192,192,87517,1,0,0:0:0:0:
448,192,87517,1,0,0:0:0:0:
64,192,87626,1,0,0:0:0:0:
192,192,87735,1,0,0:0:0:0:
320,192,87845,1,0,0:0:0:0:
448,192,87954,1,0,0:0:0:0:
320,192,88063,1,0,0:0:0:0:
64,192,88063,1,0,0:0:0:0:
448,192,88172,1,0,0:0:0:0:
320,192,88281,1,0,0:0:0:0:
192,192,88391,1,0,0:0:0:0:
64,192,88500,1,0,0:0:0:0:
64,192,88682,128,0,88973:0:0:0:0:
448,192,88682,128,0,88973:0:0:0:0:
192,192,88973,1,0,0:0:0:0:
320,192,88973,1,0,0:0:0:0:
64,192,89119,128,0,89446:0:0:0:0:
448,192,89119,128,0,89446:0:0:0:0:
192,192,89446,1,0,0:0:0:0:
320,192,89446,1,0,0:0:0:0:
64,192,89701,1,0,0:0:0:0:
448,192,89701,1,0,0:0:0:0:
192,192,89847,1,0,0:0:0:0:
320,192,89847,1,0,0:0:0:0:
64,192,90029,128,0,90538:0:0:0:0:
448,192,90029,128,0,90538:0:0:0:0:
192,192,90538,128,0,91339:0:0:0:0:
320,192,90538,128,0,91339:0:0:0:0:
64,192,91339,128,0,92686:0:0:0:0:
448,192,91994,1,0,0:0:0:0:
320,192,92176,1,0,0:0:0:0:
192,192,92249,1,0,0:0:0:0:
320,192,92358,1,0,0:0:0:0:
448,192,92467,1,0,0:0:0:0:
320,192,92577,1,0,0:0:0:0:
192,192,92686,1,0,0:0:0:0:
320,192,92795,1,0,0:0:0:0:
64,192,92904,1,0,0:0:0:0:
448,192,92904,128,0,94069:0:0:0:0:
64,192,94069,1,0,0:0:0:0:
192,192,94178,1,0,0:0:0:0:
320,192,94287,1,0,0:0:0:0:
448,192,94397,1,0,0:0:0:0:
320,192,94506,1,0,0:0:0:0:
448,192,94615,1,0,0:0:0:0:
320,192,94724,1,0,0:0:0:0:
448,192,94833,1,0,0:0:0:0:
320,192,94943,1,0,0:0:0:0:
192,192,95052,1,0,0:0:0:0:
64,192,95161,1,0,0:0:0:0:
192,192,95270,1,0,0:0:0:0:
64,192,95379,1,0,0:0:0:0:
192,192,95489,1,0,0:0:0:0:
320,192,95598,1,0,0:0:0:0:
64,192,95707,128,0,96217:0:0:0:0:
448,192,95707,128,0,96217:0:0:0:0:
192,192,96217,128,0,96690:0:0:0:0:
320,192,96217,128,0,96690:0:0:0:0:
448,192,96690,128,0,97127:0:0:0:0:
64,192,96690,128,0,97127:0:0:0:0:
192,192,97127,1,0,0:0:0:0:
320,192,97127,1,0,0:0:0:0:
448,192,97527,128,0,98437:0:0:0:0:
320,192,97527,128,0,98437:0:0:0:0:
64,192,98910,1,0,0:0:0:0:
192,192,99165,1,0,0:0:0:0:
64,192,99356,128,0,100694:0:0:0:0:
192,192,99356,128,0,100694:0:0:0:0:
320,192,100039,128,0,100257:0:0:0:0:
448,192,100257,128,0,100476:0:0:0:0:
320,192,100476,128,0,100694:0:0:0:0:
448,192,100694,128,0,100885:0:0:0:0:
320,192,100885,128,0,101103:0:0:0:0:
192,192,101103,128,0,101322:0:0:0:0:
64,192,101322,128,0,101513:0:0:0:0:
192,192,101513,128,0,101704:0:0:0:0:
320,192,101704,128,0,101950:0:0:0:0:
448,192,101950,128,0,102141:0:0:0:0:
192,192,102141,1,0,0:0:0:0:
320,192,102387,128,0,102769:0:0:0:0:
64,192,102387,128,0,102769:0:0:0:0:
448,192,102578,1,0,0:0:0:0:
192,192,102578,1,0,0:0:0:0:
448,192,102769,128,0,103670:0:0:0:0:
192,192,102769,128,0,103670:0:0:0:0:
64,192,103206,1,0,0:0:0:0:
320,192,103670,1,0,0:0:0:0:
192,192,104134,1,0,0:0:0:0:
320,192,104134,1,0,0:0:0:0:
64,192,104589,128,0,105535:0:0:0:0:
192,192,104589,128,0,105535:0:0:0:0:
320,192,104589,128,0,105535:0:0:0:0:
448,192,104589,128,0,105535:0:0:0:0:
320,192,106400,1,0,0:0:0:0:
448,192,106400,1,0,0:0:0:0:
192,192,106400,1,0,0:0:0:0:
64,192,106400,1,0,0:0:0:0:
64,192,106809,1,0,0:0:0:0:
192,192,106946,1,0,0:0:0:0:
320,192,107082,1,0,0:0:0:0:
320,192,107383,1,0,0:0:0:0:
192,192,107519,1,0,0:0:0:0:
64,192,107656,1,0,0:0:0:0:
192,192,107929,1,0,0:0:0:0:
320,192,108120,1,0,0:0:0:0:
448,192,108284,1,0,0:0:0:0:
192,192,108593,1,0,0:0:0:0:
320,192,108720,1,0,0:0:0:0:
448,192,108857,1,0,0:0:0:0:
64,192,109139,1,0,0:0:0:0:
448,192,109403,1,0,0:0:0:0:
64,192,109403,1,0,0:0:0:0:
448,192,109649,1,0,0:0:0:0:
64,192,109922,1,0,0:0:0:0:
448,192,110195,1,0,0:0:0:0:
64,192,110195,1,0,0:0:0:0:
192,192,110495,1,0,0:0:0:0:
320,192,110495,1,0,0:0:0:0:
192,192,110886,1,0,0:0:0:0:
320,192,110886,1,0,0:0:0:0:
192,192,111250,1,0,0:0:0:0:
64,192,111359,1,0,0:0:0:0:
192,192,111505,1,0,0:0:0:0:
320,192,111614,1,0,0:0:0:0:
448,192,111723,1,0,0:0:0:0:
64,192,111905,1,0,0:0:0:0:
192,192,112051,1,0,0:0:0:0:
320,192,112197,1,0,0:0:0:0:
64,192,112197,1,0,0:0:0:0:
448,192,112488,1,0,0:0:0:0:
320,192,112633,1,0,0:0:0:0:
192,192,112779,1,0,0:0:0:0:
448,192,112779,1,0,0:0:0:0:
64,192,113070,1,0,0:0:0:0:
192,192,113216,1,0,0:0:0:0:
320,192,113361,1,0,0:0:0:0:
64,192,113361,1,0,0:0:0:0:
320,192,113744,1,0,0:0:0:0:
192,192,113744,1,0,0:0:0:0:
320,192,113907,1,0,0:0:0:0:
192,192,113907,1,0,0:0:0:0:
448,192,114044,1,0,0:0:0:0:
64,192,114044,1,0,0:0:0:0:
192,192,114308,1,0,0:0:0:0:
320,192,114308,1,0,0:0:0:0:
64,192,114453,1,0,0:0:0:0:
448,192,114453,1,0,0:0:0:0:
192,192,114599,1,0,0:0:0:0:
320,192,114599,1,0,0:0:0:0:
448,192,114890,1,0,0:0:0:0:
64,192,114890,1,0,0:0:0:0:
64,192,115036,1,0,0:0:0:0:
448,192,115036,1,0,0:0:0:0:
192,192,115181,1,0,0:0:0:0:
320,192,115181,1,0,0:0:0:0:
192,192,115400,1,0,0:0:0:0:
192,192,115655,128,0,116501:0:0:0:0:
64,192,116037,1,0,0:0:0:0:
320,192,116164,1,0,0:0:0:0:
448,192,116273,1,0,0:0:0:0:
320,192,116383,1,0,0:0:0:0:
448,192,116501,128,0,117702:0:0:0:0:
320,192,116992,1,0,0:0:0:0:
192,192,117102,1,0,0:0:0:0:
64,192,117211,1,0,0:0:0:0:
192,192,117320,1,0,0:0:0:0:
64,192,117429,1,0,0:0:0:0:
192,192,117566,1,0,0:0:0:0:
320,192,117702,128,0,118958:0:0:0:0:
448,192,118084,1,0,0:0:0:0:
64,192,118194,1,0,0:0:0:0:
192,192,118330,1,0,0:0:0:0:
448,192,118467,1,0,0:0:0:0:
192,192,118576,1,0,0:0:0:0:
448,192,118712,1,0,0:0:0:0:
192,192,118822,1,0,0:0:0:0:
64,192,118958,128,0,120105:0:0:0:0:
320,192,119313,1,0,0:0:0:0:
192,192,119449,1,0,0:0:0:0:
320,192,119586,1,0,0:0:0:0:
192,192,119695,1,0,0:0:0:0:
320,192,119832,1,0,0:0:0:0:
448,192,119941,1,0,0:0:0:0:
192,192,120105,128,0,121333:0:0:0:0:
448,192,120105,128,0,121333:0:0:0:0:
64,192,120514,1,0,0:0:0:0:
320,192,120651,1,0,0:0:0:0:
64,192,120787,1,0,0:0:0:0:
320,192,120924,1,0,0:0:0:0:
64,192,121060,1,0,0:0:0:0:
320,192,121197,1,0,0:0:0:0:
64,192,121333,128,0,122534:0:0:0:0:
320,192,121333,128,0,122534:0:0:0:0:
448,192,121688,1,0,0:0:0:0:
192,192,121852,1,0,0:0:0:0:
448,192,122016,1,0,0:0:0:0:
192,192,122125,1,0,0:0:0:0:
448,192,122234,1,0,0:0:0:0:
192,192,122343,1,0,0:0:0:0:
192,192,122534,1,0,0:0:0:0:
448,192,122534,1,0,0:0:0:0:
192,192,122807,1,0,0:0:0:0:
320,192,122971,1,0,0:0:0:0:
192,192,123108,1,0,0:0:0:0:
320,192,123272,1,0,0:0:0:0:
192,192,123408,1,0,0:0:0:0:
320,192,123545,1,0,0:0:0:0:
192,192,123736,128,0,124800:0:0:0:0:
320,192,123736,128,0,124800:0:0:0:0:
448,192,124036,1,0,0:0:0:0:
64,192,124172,1,0,0:0:0:0:
448,192,124336,1,0,0:0:0:0:
64,192,124473,1,0,0:0:0:0:
448,192,124664,1,0,0:0:0:0:
64,192,124800,1,0,0:0:0:0:
64,192,124964,1,0,0:0:0:0:
448,192,124964,1,0,0:0:0:0:
192,192,125264,1,0,0:0:0:0:
320,192,125428,1,0,0:0:0:0:
192,192,125565,1,0,0:0:0:0:
320,192,125729,1,0,0:0:0:0:
192,192,125865,1,0,0:0:0:0:
320,192,126002,1,0,0:0:0:0:
64,192,126165,1,0,0:0:0:0:
192,192,126165,1,0,0:0:0:0:
320,192,126165,1,0,0:0:0:0:
448,192,126165,1,0,0:0:0:0:
64,192,126411,1,0,0:0:0:0:
192,192,126411,1,0,0:0:0:0:
320,192,126548,1,0,0:0:0:0:
448,192,126548,1,0,0:0:0:0:
192,192,126711,1,0,0:0:0:0:
320,192,126848,1,0,0:0:0:0:
192,192,126984,1,0,0:0:0:0:
320,192,127121,1,0,0:0:0:0:
64,192,127285,1,0,0:0:0:0:
192,192,127285,1,0,0:0:0:0:
320,192,127285,1,0,0:0:0:0:
448,192,127285,1,0,0:0:0:0:
320,192,127667,128,0,129769:0:0:0:0:
192,192,127803,1,0,0:0:0:0:
448,192,128022,1,0,0:0:0:0:
64,192,128022,1,0,0:0:0:0:
192,192,128404,1,0,0:0:0:0:
64,192,128541,1,0,0:0:0:0:
192,192,128677,1,0,0:0:0:0:
64,192,128786,1,0,0:0:0:0:
192,192,128950,1,0,0:0:0:0:
64,192,129114,1,0,0:0:0:0:
448,192,129278,1,0,0:0:0:0:
192,192,129387,1,0,0:0:0:0:
448,192,129578,1,0,0:0:0:0:
64,192,129769,1,0,0:0:0:0:
192,192,129769,1,0,0:0:0:0:
448,192,129769,1,0,0:0:0:0:
192,192,130069,1,0,0:0:0:0:
320,192,130069,1,0,0:0:0:0:
64,192,130342,1,0,0:0:0:0:
192,192,130342,1,0,0:0:0:0:
320,192,130342,1,0,0:0:0:0:
448,192,130342,1,0,0:0:0:0:
192,192,130643,1,0,0:0:0:0:
64,192,130643,128,0,132335:0:0:0:0:
320,192,130943,1,0,0:0:0:0:
448,192,131189,1,0,0:0:0:0:
448,192,132117,1,0,0:0:0:0:
320,192,132335,1,0,0:0:0:0:
448,192,132335,1,0,0:0:0:0:
448,192,132718,128,0,132991:0:0:0:0:
320,192,132718,128,0,132991:0:0:0:0:
64,192,132991,128,0,133373:0:0:0:0:
192,192,132991,128,0,133373:0:0:0:0:
320,192,133373,128,0,133728:0:0:0:0:
192,192,133591,1,0,0:0:0:0:
448,192,133728,128,0,133891:0:0:0:0:
320,192,133891,128,0,134110:0:0:0:0:
64,192,134110,128,0,134274:0:0:0:0:
192,192,134274,128,0,134437:0:0:0:0:
320,192,134437,128,0,134601:0:0:0:0:
448,192,134601,1,0,0:0:0:0:
320,192,134820,128,0,134983:0:0:0:0:
448,192,134820,1,0,0:0:0:0:
192,192,134983,128,0,135147:0:0:0:0:
64,192,135147,128,0,135475:0:0:0:0:
192,192,135475,128,0,135802:0:0:0:0:
320,192,135802,128,0,136103:0:0:0:0:
192,192,136103,128,0,136294:0:0:0:0:
320,192,136294,128,0,136485:0:0:0:0:
448,192,136485,128,0,136649:0:0:0:0:
320,192,136649,1,0,0:0:0:0:
448,192,136813,128,0,136976:0:0:0:0:
320,192,136813,1,0,0:0:0:0:
320,192,136976,128,0,137140:0:0:0:0:
192,192,137140,128,0,137440:0:0:0:0:
64,192,137440,128,0,137604:0:0:0:0:
192,192,137604,128,0,137768:0:0:0:0:
320,192,137768,128,0,138123:0:0:0:0:
448,192,138123,128,0,138423:0:0:0:0:
320,192,138423,128,0,138696:0:0:0:0:
192,192,138696,128,0,138860:0:0:0:0:
320,192,138860,128,0,139051:0:0:0:0:
192,192,139051,128,0,139215:0:0:0:0:
64,192,139215,1,0,0:0:0:0:
64,192,139352,1,0,0:0:0:0:
320,192,139352,1,0,0:0:0:0:
192,192,139543,1,0,0:0:0:0:
448,192,139543,1,0,0:0:0:0:
448,192,139706,128,0,139925:0:0:0:0:
320,192,139925,128,0,140061:0:0:0:0:
192,192,140061,128,0,140198:0:0:0:0:
64,192,140280,1,0,0:0:0:0:
192,192,140362,128,0,140525:0:0:0:0:
320,192,140525,128,0,140662:0:0:0:0:
448,192,140662,128,0,140826:0:0:0:0:
320,192,140826,128,0,140962:0:0:0:0:
192,192,140962,128,0,141099:0:0:0:0:
64,192,141099,128,0,141263:0:0:0:0:
192,192,141263,128,0,141426:0:0:0:0:
320,192,141426,128,0,141590:0:0:0:0:
448,192,141590,128,0,141754:0:0:0:0:
320,192,141754,1,0,0:0:0:0:
320,192,141918,1,0,0:0:0:0:
320,192,142054,128,0,142382:0:0:0:0:
448,192,142382,1,0,0:0:0:0:
320,192,142518,1,0,0:0:0:0:
448,192,142655,1,0,0:0:0:0:
320,192,142791,1,0,0:0:0:0:
448,192,142928,1,0,0:0:0:0:
320,192,143092,1,0,0:0:0:0:
192,192,143256,1,0,0:0:0:0:
64,192,143392,1,0,0:0:0:0:
192,192,143529,1,0,0:0:0:0:
320,192,143665,1,0,0:0:0:0:
448,192,143802,1,0,0:0:0:0:
320,192,143911,1,0,0:0:0:0:
448,192,144020,1,0,0:0:0:0:
320,192,144129,1,0,0:0:0:0:
192,192,144266,1,0,0:0:0:0:
192,192,144757,1,0,0:0:0:0:
320,192,144757,1,0,0:0:0:0:
64,192,144894,1,0,0:0:0:0:
448,192,144894,1,0,0:0:0:0:
192,192,145139,1,0,0:0:0:0:
320,192,145139,1,0,0:0:0:0:
64,192,145330,1,0,0:0:0:0:
448,192,145330,1,0,0:0:0:0:
320,192,145603,1,0,0:0:0:0:
192,192,145603,1,0,0:0:0:0:
448,192,145986,128,0,147978:0:0:0:0:
64,192,145986,128,0,146259:0:0:0:0:
320,192,145986,128,0,146259:0:0:0:0:
192,192,146259,128,0,146395:0:0:0:0:
64,192,146395,128,0,146532:0:0:0:0:
192,192,146532,128,0,146668:0:0:0:0:
320,192,146668,128,0,146805:0:0:0:0:
192,192,146805,128,0,146941:0:0:0:0:
320,192,146941,128,0,147078:0:0:0:0:
192,192,147078,128,0,147214:0:0:0:0:
64,192,147214,128,0,147351:0:0:0:0:
192,192,147351,128,0,147487:0:0:0:0:
320,192,147487,128,0,147624:0:0:0:0:
192,192,147624,128,0,147760:0:0:0:0:
64,192,147760,128,0,147978:0:0:0:0:
320,192,147978,1,0,0:0:0:0:
192,192,147978,1,0,0:0:0:0:
64,192,148306,1,0,0:0:0:0:
192,192,148306,1,0,0:0:0:0:
320,192,148306,1,0,0:0:0:0:
448,192,148661,1,0,0:0:0:0:
192,192,148661,1,0,0:0:0:0:
64,192,148661,1,0,0:0:0:0:
64,192,148989,1,0,0:0:0:0:
320,192,148989,1,0,0:0:0:0:
448,192,148989,1,0,0:0:0:0:
192,192,149289,1,0,0:0:0:0:
320,192,149289,1,0,0:0:0:0:
448,192,149289,1,0,0:0:0:0:
192,192,149562,1,0,0:0:0:0:
320,192,149562,1,0,0:0:0:0:
448,192,149562,1,0,0:0:0:0:
64,192,149835,1,0,0:0:0:0:
320,192,149835,1,0,0:0:0:0:
448,192,149835,1,0,0:0:0:0:
64,192,150135,1,0,0:0:0:0:
192,192,150135,1,0,0:0:0:0:
448,192,150135,1,0,0:0:0:0:
64,192,150381,1,0,0:0:0:0:
192,192,150381,1,0,0:0:0:0:
320,192,150381,1,0,0:0:0:0:
64,192,150681,128,0,151009:0:0:0:0:
448,192,150681,128,0,151009:0:0:0:0:
192,192,151009,1,0,0:0:0:0:
320,192,151009,1,0,0:0:0:0:
64,192,151637,128,0,152974:0:0:0:0:
192,192,151937,128,0,152974:0:0:0:0:
448,192,152265,128,0,152974:0:0:0:0:
320,192,152565,128,0,152974:0:0:0:0:
64,192,153166,1,0,0:0:0:0:
192,192,153166,1,0,0:0:0:0:
320,192,153166,1,0,0:0:0:0:
448,192,153166,1,0,0:0:0:0:
64,192,155705,1,0,0:0:0:0:
448,192,155705,1,0,0:0:0:0:
320,192,155814,1,0,0:0:0:0:
192,192,155896,1,0,0:0:0:0:
320,192,156005,1,0,0:0:0:0:
448,192,156087,1,0,0:0:0:0:
320,192,156169,1,0,0:0:0:0:
192,192,156251,1,0,0:0:0:0:
320,192,156332,1,0,0:0:0:0:
448,192,156414,1,0,0:0:0:0:
320,192,156496,1,0,0:0:0:0:
192,192,156578,1,0,0:0:0:0:
64,192,156660,1,0,0:0:0:0:
192,192,156742,1,0,0:0:0:0:
320,192,156824,1,0,0:0:0:0:
448,192,156906,1,0,0:0:0:0:
320,192,156988,1,0,0:0:0:0:
192,192,157070,1,0,0:0:0:0:
64,192,157151,1,0,0:0:0:0:
192,192,157233,1,0,0:0:0:0:
320,192,157315,1,0,0:0:0:0:
448,192,157397,1,0,0:0:0:0:
320,192,157479,1,0,0:0:0:0:
192,192,157561,1,0,0:0:0:0:
64,192,157643,1,0,0:0:0:0:
192,192,157752,1,0,0:0:0:0:
320,192,157834,1,0,0:0:0:0:
448,192,157916,1,0,0:0:0:0:
320,192,158025,1,0,0:0:0:0:
64,192,158107,1,0,0:0:0:0:
192,192,158189,1,0,0:0:0:0:
320,192,158271,1,0,0:0:0:0:
448,192,158353,1,0,0:0:0:0:
320,192,158462,1,0,0:0:0:0:
448,192,158571,1,0,0:0:0:0:
320,192,158653,1,0,0:0:0:0:
192,192,158735,1,0,0:0:0:0:
64,192,158817,1,0,0:0:0:0:
192,192,158926,1,0,0:0:0:0:
320,192,159008,1,0,0:0:0:0:
448,192,159090,1,0,0:0:0:0:
320,192,159172,1,0,0:0:0:0:
192,192,159254,1,0,0:0:0:0:
320,192,159336,1,0,0:0:0:0:
448,192,159417,1,0,0:0:0:0:
320,192,159499,1,0,0:0:0:0:
192,192,159581,1,0,0:0:0:0:
64,192,159663,1,0,0:0:0:0:
192,192,159745,1,0,0:0:0:0:
320,192,159827,1,0,0:0:0:0:
448,192,159909,1,0,0:0:0:0:
320,192,159991,1,0,0:0:0:0:
192,192,160073,1,0,0:0:0:0:
320,192,160155,1,0,0:0:0:0:
448,192,160236,1,0,0:0:0:0:
320,192,160318,1,0,0:0:0:0:
192,192,160400,1,0,0:0:0:0:
64,192,160482,1,0,0:0:0:0:
192,192,160564,1,0,0:0:0:0:
320,192,160646,1,0,0:0:0:0:
448,192,160728,1,0,0:0:0:0:
320,192,160810,1,0,0:0:0:0:
192,192,160892,1,0,0:0:0:0:
320,192,160974,1,0,0:0:0:0:
64,192,161083,128,0,161574:0:0:0:0:
448,192,161083,128,0,161574:0:0:0:0:
192,192,161574,128,0,164059:0:0:0:0:
320,192,161574,128,0,164059:0:0:0:0:
320,192,164495,128,0,165888:0:0:0:0:
64,192,164495,128,0,165888:0:0:0:0:
192,192,165888,128,0,169328:0:0:0:0:
448,192,165888,128,0,169328:0:0:0:0:
64,192,170256,128,0,170556:0:0:0:0:
192,192,170556,1,0,0:0:0:0:
320,192,170556,128,0,170884:0:0:0:0:
448,192,170884,1,0,0:0:0:0:
192,192,170884,128,0,171211:0:0:0:0:
320,192,171211,1,0,0:0:0:0:
64,192,171211,128,0,171539:0:0:0:0:
448,192,171539,128,0,171976:0:0:0:0:
320,192,171539,1,0,0:0:0:0:
320,192,171976,1,0,0:0:0:0:
192,192,171976,128,0,172385:0:0:0:0:
320,192,172385,1,0,0:0:0:0:
64,192,172385,128,0,172767:0:0:0:0:
192,192,172767,128,0,180766:0:0:0:0:
320,192,173122,128,0,180766:0:0:0:0:
64,192,173504,128,0,180766:0:0:0:0:
448,192,174214,128,0,180766:0:0:0:0:
64,192,181258,1,0,0:0:0:0:
192,192,181367,1,0,0:0:0:0:
320,192,181476,1,0,0:0:0:0:
448,192,181585,1,0,0:0:0:0:
320,192,181722,1,0,0:0:0:0:
192,192,181831,1,0,0:0:0:0:
64,192,181940,1,0,0:0:0:0:
192,192,182050,1,0,0:0:0:0:
320,192,182159,1,0,0:0:0:0:
448,192,182268,1,0,0:0:0:0:
320,192,182377,1,0,0:0:0:0:
192,192,182486,1,0,0:0:0:0:
64,192,182596,1,0,0:0:0:0:
192,192,182705,1,0,0:0:0:0:
320,192,182814,1,0,0:0:0:0:
192,192,182923,1,0,0:0:0:0:
320,192,183060,1,0,0:0:0:0:
448,192,183169,1,0,0:0:0:0:
320,192,183278,1,0,0:0:0:0:
192,192,183387,1,0,0:0:0:0:
320,192,183496,1,0,0:0:0:0:
192,192,183606,1,0,0:0:0:0:
64,192,183715,1,0,0:0:0:0:
320,192,183824,1,0,0:0:0:0:
448,192,183933,1,0,0:0:0:0:
320,192,184042,1,0,0:0:0:0:
448,192,184152,1,0,0:0:0:0:
192,192,184261,1,0,0:0:0:0:
64,192,184370,1,0,0:0:0:0:
192,192,184479,1,0,0:0:0:0:
64,192,184589,1,0,0:0:0:0:
320,192,184698,1,0,0:0:0:0:
192,192,184807,1,0,0:0:0:0:
320,192,184916,1,0,0:0:0:0:
192,192,185025,1,0,0:0:0:0:
64,192,185135,1,0,0:0:0:0:
448,192,185216,1,0,0:0:0:0:
320,192,185326,1,0,0:0:0:0:
192,192,185435,1,0,0:0:0:0:
64,192,185544,1,0,0:0:0:0:
448,192,185653,1,0,0:0:0:0:
320,192,185762,1,0,0:0:0:0:
192,192,185872,1,0,0:0:0:0:
64,192,185981,1,0,0:0:0:0:
64,192,186090,1,0,0:0:0:0:
192,192,186199,1,0,0:0:0:0:
320,192,186308,1,0,0:0:0:0:
448,192,186418,1,0,0:0:0:0:
320,192,186527,1,0,0:0:0:0:
192,192,186636,1,0,0:0:0:0:
320,192,186745,1,0,0:0:0:0:
192,192,186854,1,0,0:0:0:0:
320,192,186964,1,0,0:0:0:0:
448,192,187073,1,0,0:0:0:0:
64,192,187209,1,0,0:0:0:0:
192,192,187319,1,0,0:0:0:0:
320,192,187428,1,0,0:0:0:0:
448,192,187537,1,0,0:0:0:0:
320,192,187646,1,0,0:0:0:0:
448,192,187755,1,0,0:0:0:0:
192,192,188192,128,0,188356:0:0:0:0:
64,192,188356,128,0,188547:0:0:0:0:
192,192,188547,1,0,0:0:0:0:
448,192,188711,1,0,0:0:0:0:
64,192,188902,1,0,0:0:0:0:
320,192,189093,1,0,0:0:0:0:
192,192,189284,1,0,0:0:0:0:
448,192,189448,1,0,0:0:0:0:
320,192,189612,1,0,0:0:0:0:
448,192,189776,1,0,0:0:0:0:
320,192,189885,1,0,0:0:0:0:
192,192,189994,1,0,0:0:0:0:
64,192,190103,1,0,0:0:0:0:
192,192,190212,1,0,0:0:0:0:
320,192,190294,1,0,0:0:0:0:
448,192,190404,1,0,0:0:0:0:
320,192,190458,1,0,0:0:0:0:
192,192,190513,1,0,0:0:0:0:
64,192,190567,1,0,0:0:0:0:
192,192,190704,1,0,0:0:0:0:
320,192,190840,1,0,0:0:0:0:
64,192,191441,128,0,192096:0:0:0:0:
448,192,191441,128,0,192096:0:0:0:0:
192,192,192096,1,0,0:0:0:0:
320,192,192096,1,0,0:0:0:0:
192,192,192396,1,0,0:0:0:0:
64,192,192451,1,0,0:0:0:0:
192,192,192506,1,0,0:0:0:0:
320,192,192560,1,0,0:0:0:0:
448,192,192615,1,0,0:0:0:0:
320,192,192970,128,0,193270:0:0:0:0:
192,192,192970,128,0,193270:0:0:0:0:
64,192,193270,1,0,0:0:0:0:
448,192,193270,1,0,0:0:0:0:
320,192,193598,1,0,0:0:0:0:
448,192,193652,1,0,0:0:0:0:
320,192,193707,1,0,0:0:0:0:
192,192,193761,1,0,0:0:0:0:
64,192,193816,1,0,0:0:0:0:
64,192,194144,128,0,194471:0:0:0:0:
320,192,194144,128,0,194471:0:0:0:0:
192,192,194471,1,0,0:0:0:0:
448,192,194471,1,0,0:0:0:0:
64,192,194772,1,0,0:0:0:0:
192,192,194826,1,0,0:0:0:0:
320,192,194881,1,0,0:0:0:0:
448,192,194935,1,0,0:0:0:0:
320,192,194990,1,0,0:0:0:0:
448,192,195318,128,0,195673:0:0:0:0:
192,192,195318,128,0,195673:0:0:0:0:
320,192,195673,1,0,0:0:0:0:
64,192,195673,1,0,0:0:0:0:
448,192,196000,1,0,0:0:0:0:
320,192,196055,1,0,0:0:0:0:
192,192,196109,1,0,0:0:0:0:
64,192,196164,1,0,0:0:0:0:
192,192,196219,1,0,0:0:0:0:
64,192,196546,128,0,196874:0:0:0:0:
192,192,196546,128,0,196874:0:0:0:0:
320,192,196874,1,0,0:0:0:0:
448,192,196874,1,0,0:0:0:0:
320,192,197147,1,0,0:0:0:0:
192,192,197201,1,0,0:0:0:0:
64,192,197256,1,0,0:0:0:0:
192,192,197311,1,0,0:0:0:0:
320,192,197365,1,0,0:0:0:0:
320,192,197747,128,0,198075:0:0:0:0:
448,192,197747,128,0,198075:0:0:0:0:
192,192,198075,1,0,0:0:0:0:
64,192,198075,1,0,0:0:0:0:
192,192,198403,1,0,0:0:0:0:
320,192,198457,1,0,0:0:0:0:
448,192,198512,1,0,0:0:0:0:
320,192,198566,1,0,0:0:0:0:
192,192,198621,1,0,0:0:0:0:
192,192,198921,128,0,199249:0:0:0:0:
320,192,198921,128,0,199249:0:0:0:0:
64,192,199249,1,0,0:0:0:0:
448,192,199249,1,0,0:0:0:0:
320,192,199576,1,0,0:0:0:0:
192,192,199631,1,0,0:0:0:0:
320,192,199686,1,0,0:0:0:0:
192,192,199740,1,0,0:0:0:0:
64,192,199795,1,0,0:0:0:0:
64,192,200068,128,0,200450:0:0:0:0:
448,192,200068,128,0,200450:0:0:0:0:
192,192,200450,1,0,0:0:0:0:
320,192,200450,1,0,0:0:0:0:
320,192,200669,1,0,0:0:0:0:
192,192,200778,1,0,0:0:0:0:
320,192,200832,1,0,0:0:0:0:
448,192,200887,128,0,202416:0:0:0:0:
320,192,202416,1,0,0:0:0:0:
64,192,202416,128,0,204190:0:0:0:0:
192,192,204190,1,0,0:0:0:0:
320,192,204190,128,0,204982:0:0:0:0:
192,192,204982,128,0,209405:0:0:0:0:
448,192,205910,128,0,209405:0:0:0:0:
320,192,206948,128,0,209405:0:0:0:0:
64,192,208094,128,0,209405:0:0:0:0:
448,192,210142,128,0,215465:0:0:0:0:
64,192,210142,128,0,215465:0:0:0:0:
