osu file format v14

[General]
AudioFilename: audio.mp3
AudioLeadIn: 0
PreviewTime: 40570
Countdown: 0
SampleSet: Soft
StackLeniency: 0.5
Mode: 0
LetterboxInBreaks: 0
WidescreenStoryboard: 0

[Editor]
DistanceSpacing: 0.3
BeatDivisor: 4
GridSize: 4
TimelineZoom: 1.5

[Metadata]
Title:A Thousand Miles
TitleUnicode:A Thousand Miles
Artist:Vanessa Carlton
ArtistUnicode:Vanessa Carlton
Creator:transcendental
Version:Venture
Source:
Tags:
BeatmapID:946269
BeatmapSetID:439719

[Difficulty]
HPDrainRate:5
CircleSize:4
OverallDifficulty:7
ApproachRate:9
SliderMultiplier:1.4
SliderTickRate:2

[Events]
//Background and Video events
//Break Periods
2,178770,180180
2,181296,183022
2,183822,185233
//Storyboard Layer 0 (Background)
//Storyboard Layer 1 (Fail)
//Storyboard Layer 2 (Pass)
//Storyboard Layer 3 (Foreground)
//Storyboard Sound Samples

[TimingPoints]
95,309.278350515464,4,2,0,60,1,0
1178,344.827586206897,4,2,0,60,1,0
1178,-200,4,2,0,60,0,0
2212,309.278350515464,4,2,0,60,1,0
4067,315.789473684211,4,2,0,60,1,0
5014,309.278350515464,4,2,0,60,1,0
5941,337.078651685393,4,2,0,60,1,0
6278,-200,4,2,0,60,0,0
6952,-100,4,2,0,60,0,0
7626,312.5,4,2,0,60,1,0
8876,338.983050847458,4,2,0,60,1,0
10570,315.789473684211,4,2,0,100,1,0
40885,-100,4,2,0,100,0,1
56043,-200,4,2,0,100,0,1
57938,-100,4,2,0,100,0,1
60464,-66.6666666666667,4,2,0,100,0,1
66148,-100,4,2,0,100,0,0
96464,-100,4,2,0,100,0,1
111622,-200,4,2,0,100,0,1
113517,-133.333333333333,4,2,0,100,0,1
115412,-100,4,2,0,100,0,1
116043,-66.6666666666667,4,2,0,100,0,1
126780,-100,4,2,0,100,0,0
175964,-100,4,2,0,5,0,0
176043,-200,4,2,0,100,0,0
195622,-66.6666666666667,4,2,0,100,0,1
213938,-100,4,2,0,100,0,0
214885,-133.333333333333,4,2,0,100,0,0
218991,-200,4,2,0,60,0,0
220890,317.460317460317,4,2,0,60,1,0
220890,-200,4,2,0,60,0,0
224064,310.880829015544,4,2,0,60,1,0
224996,344.827586206897,4,2,0,60,1,0
224996,-200,4,2,0,60,0,0
226030,315.789473684211,4,2,0,60,1,0
227608,309.278350515464,4,2,0,60,1,0
229772,337.078651685393,4,2,0,60,1,0
230109,-200,4,2,0,60,0,0
231457,309.278350515464,4,2,0,60,1,0
232384,344.827586206897,4,2,0,60,1,0
233418,-200,4,2,0,60,0,0

[HitObjects]
198,176,95,5,0,0:0:0:0:
176,251,249,2,0,P|142:271|105:272,2,70
276,173,713,2,0,L|344:211,2,70
195,98,1178,2,0,P|156:110|124:205,1,140
161,328,2212,5,0,0:0:0:0:
161,328,2521,2,0,L|225:289,1,70
305,318,2830,2,0,L|376:355,2,70
237,210,3294,2,0,P|195:211|164:232,2,70
368,248,3758,5,0,0:0:0:0:
368,248,3913,1,0,0:0:0:0:
220,291,4067,1,0,0:0:0:0:
220,291,4224,1,0,0:0:0:0:
313,158,4382,1,0,0:0:0:0:
313,158,4540,1,0,0:0:0:0:
287,334,4698,2,0,P|251:366|208:366,1,70
87,233,5014,2,0,P|127:201|166:199,1,70
220,291,5323,6,0,L|142:270,2,70
295,99,5787,1,0,0:0:0:0:
176,130,5941,1,0,0:0:0:0:
271,203,6109,1,0,0:0:0:0:
144,197,6278,2,0,P|106:158|133:69,1,140
236,93,7289,5,0,0:0:0:0:
236,93,7626,2,0,L|167:136,1,70
102,258,7938,2,0,P|138:274|178:267,2,70
99,54,8407,2,0,L|25:25,2,70
144,197,8876,1,0,0:0:0:0:
256,192,9553,12,0,10231,0:0:0:0:
80,188,10570,5,0,0:0:0:0:
80,188,10727,2,0,L|155:168,1,70
338,197,11043,2,0,P|321:267|251:298,2,140
223,69,11833,6,0,L|252:219,1,140
424,198,12306,2,0,P|405:145|319:114,2,140
275,322,13096,6,0,L|344:185,1,140
299,52,13570,2,0,P|375:43|441:15,2,140
104,55,14359,5,0,0:0:0:0:
104,55,14517,2,0,L|131:124,1,70
152,278,14833,2,0,L|293:235,1,140
129,120,15306,5,0,0:0:0:0:
98,136,15384,1,0,0:0:0:0:
74,161,15463,1,0,0:0:0:0:
60,193,15542,1,0,0:0:0:0:
56,228,15622,2,0,L|136:202,1,70
287,151,15938,1,0,0:0:0:0:
128,349,16096,2,0,P|93:327|85:273,1,70
201,99,16412,1,0,0:0:0:0:
285,237,16570,6,0,L|206:216,1,70
133,81,16885,2,0,L|212:102,1,70
366,235,17201,2,0,P|355:285|324:306,1,70
54,86,17517,2,0,P|65:36|96:15,1,70
333,73,17833,1,0,0:0:0:0:
143,270,17991,1,0,0:0:0:0:
200,98,18148,5,0,0:0:0:0:
285,237,18306,1,0,0:0:0:0:
200,98,18464,1,0,0:0:0:0:
190,335,18622,2,0,P|145:351|101:335,2,70
348,265,19096,6,0,L|284:236,1,70
79,241,19412,2,0,L|142:269,1,70
428,271,19727,2,0,P|423:238|401:205,1,70
41,313,20043,1,0,0:0:0:0:
300,338,20201,1,0,0:0:0:0:
110,169,20359,2,0,P|63:162|23:183,1,70
126,356,20675,5,0,0:0:0:0:
126,356,20833,2,0,L|237:255,2,140
58,325,21622,1,0,0:0:0:0:
300,338,21780,6,0,P|372:337|423:280,1,140
278,140,22254,1,0,0:0:0:0:
278,140,22412,2,0,L|343:274,1,140
485,230,22885,1,0,0:0:0:0:
234,210,23043,6,0,P|203:172|225:75,1,140
417,144,23517,1,0,0:0:0:0:
417,144,23675,2,0,L|245:138,1,140
172,151,24148,1,0,0:0:0:0:
187,327,24306,6,0,P|234:277|233:209,1,140
28,185,24780,1,0,0:0:0:0:
28,185,24938,2,0,L|161:248,1,140
209,20,25412,5,0,0:0:0:0:
184,44,25490,1,0,0:0:0:0:
159,69,25569,1,0,0:0:0:0:
135,94,25648,1,0,0:0:0:0:
110,119,25727,1,0,0:0:0:0:
185,330,25885,1,0,0:0:0:0:
209,143,26043,1,0,0:0:0:0:
37,295,26201,2,0,L|121:271,1,70
268,226,26517,1,0,0:0:0:0:
110,119,26675,6,0,L|139:212,1,70
288,292,26991,2,0,L|259:199,1,70
94,39,27306,2,0,P|50:60|33:93,1,70
301,370,27622,2,0,P|345:349|362:316,1,70
278,99,27938,1,0,0:0:0:0:
183,276,28096,1,0,0:0:0:0:
436,215,28254,6,0,L|349:202,1,70
140,349,28570,1,0,0:0:0:0:
140,349,28727,2,0,P|190:362|219:349,1,70
319,160,29043,1,0,0:0:0:0:
319,160,29201,2,0,L|234:177,1,70
111,241,29517,2,0,L|196:224,1,70
400,157,29833,2,0,P|388:114|354:91,1,70
129,153,30148,1,0,0:0:0:0:
293,282,30306,1,0,0:0:0:0:
275,61,30464,2,0,L|211:135,1,70
111,241,30780,5,0,0:0:0:0:
314,200,30938,1,0,0:0:0:0:
129,153,31096,1,0,0:0:0:0:
293,282,31254,1,0,0:0:0:0:
200,37,31412,1,0,0:0:0:0:
111,241,31570,1,0,0:0:0:0:
374,250,31727,6,0,P|391:184|350:131,1,140
208,280,32201,1,0,0:0:0:0:
208,280,32359,2,0,P|233:342|315:365,2,140
208,280,33306,5,0,0:0:0:0:
374,250,33464,1,0,0:0:0:0:
297,367,33622,1,0,0:0:0:0:
256,129,33780,1,0,0:0:0:0:
449,323,33938,1,0,0:0:0:0:
208,280,34096,1,0,0:0:0:0:
348,176,34254,6,0,P|394:173|456:246,1,140
297,367,34727,1,0,0:0:0:0:
297,367,34885,2,0,L|377:246,2,140
297,367,35833,5,0,0:0:0:0:
174,178,35991,1,0,0:0:0:0:
154,336,36148,1,0,0:0:0:0:
347,128,36306,1,0,0:0:0:0:
85,255,36464,1,0,0:0:0:0:
332,295,36622,1,0,0:0:0:0:
195,99,36780,2,0,P|172:96|92:180,1,140
154,336,37412,5,0,0:0:0:0:
154,336,37570,1,0,0:0:0:0:
154,336,37727,2,0,L|277:250,1,140
289,275,38122,1,0,0:0:0:0:
321,288,38200,1,0,0:0:0:0:
356,287,38279,1,0,0:0:0:0:
387,272,38358,1,0,0:0:0:0:
256,192,38438,12,0,39622,0:0:0:0:
125,166,40727,5,0,0:0:0:0:
125,166,40885,2,0,L|279:124,1,140
257,50,41359,1,0,0:0:0:0:
46,178,41517,2,0,P|61:215|155:238,1,140
346,251,42148,5,0,0:0:0:0:
346,251,42306,2,0,L|310:348,1,70
245,338,42622,1,0,0:0:0:0:
220,78,42780,2,0,P|280:43|360:89,1,140
346,251,43412,6,0,L|282:111,1,140
342,64,43885,1,0,0:0:0:0:
167,23,44043,2,0,P|141:79|202:154,1,140
285,285,44675,5,0,0:0:0:0:
285,285,44833,2,0,L|363:240,1,70
372,177,45148,1,0,0:0:0:0:
205,299,45306,2,0,P|230:345|326:353,1,140
421,268,45780,5,0,0:0:0:0:
421,268,45938,2,0,B|339:307|346:263|258:291,1,140
205,299,46412,1,0,0:0:0:0:
451,341,46570,2,0,P|490:309|481:215,1,140
262,106,47201,5,0,0:0:0:0:
262,106,47359,2,0,L|294:192,1,70
359,208,47675,1,0,0:0:0:0:
392,20,47833,2,0,P|334:-1|257:34,1,140
262,106,48306,1,0,0:0:0:0:
260,307,48464,6,0,L|358:207,1,140
146,167,48938,1,0,0:0:0:0:
146,167,49096,2,0,L|164:237,1,70
263,106,49412,2,0,P|223:67|138:82,1,140
49,229,49885,5,0,0:0:0:0:
192,139,50043,1,0,0:0:0:0:
54,121,50201,1,0,0:0:0:0:
192,315,50359,1,0,0:0:0:0:
192,315,50517,1,0,0:0:0:0:
209,63,50675,2,0,P|174:60|144:76,1,70
216,185,50991,6,0,L|357:155,1,140
230,259,51464,1,0,0:0:0:0:
229,259,51622,2,0,P|164:243|137:181,1,140
29,353,52254,5,0,0:0:0:0:
29,353,52412,2,0,L|180:328,1,140
299,225,52885,2,0,P|267:191|173:207,1,140
229,259,53359,1,0,0:0:0:0:
393,349,53517,6,0,L|375:178,1,140
472,91,53991,1,0,0:0:0:0:
472,91,54148,2,0,L|488:180,1,70
212,244,54464,2,0,P|145:236|110:179,1,140
53,125,54938,2,0,P|115:99|174:134,1,140
274,298,55412,5,0,0:0:0:0:
244,316,55728,5,0,0:0:0:0:
214,334,56043,6,0,B|176:317|145:326|145:326|112:336|73:322,1,140
87,116,56991,6,0,P|124:179|109:250,1,140
28,198,57938,5,0,0:0:0:0:
256,192,58017,8,0,59201,0:0:0:0:
335,108,59517,5,0,0:0:0:0:
379,234,59675,1,0,0:0:0:0:
461,75,59833,2,0,L|375:52,2,70
477,153,60306,1,0,0:0:0:0:
335,108,60464,2,0,B|258:85|188:131|188:131|141:166|79:173|31:124,1,315.000012016297
111,50,61096,5,0,0:0:0:0:
246,299,61254,1,0,0:0:0:0:
22,214,61412,1,0,0:0:0:0:
295,196,61570,1,0,0:0:0:0:
68,332,61727,1,0,0:0:0:0:
189,130,61885,1,0,0:0:0:0:
246,299,62043,6,0,L|360:371,2,105.000004005432
105,147,62517,1,0,0:0:0:0:
395,169,62675,2,0,P|337:176|279:209,1,105.000004005432
161,351,62991,1,0,0:0:0:0:
414,294,63148,1,0,0:0:0:0:
323,38,63306,5,0,0:0:0:0:
323,38,63385,1,0,0:0:0:0:
323,38,63464,1,0,0:0:0:0:
323,38,63543,1,0,0:0:0:0:
323,38,63622,1,0,0:0:0:0:
245,299,63780,1,0,0:0:0:0:
460,130,63938,1,0,0:0:0:0:
187,139,64096,1,0,0:0:0:0:
414,294,64254,1,0,0:0:0:0:
323,38,64412,1,0,0:0:0:0:
148,341,64570,6,0,L|244:298,1,105.000004005432
187,139,64885,2,0,L|90:181,1,105.000004005432
315,226,65201,1,0,0:0:0:0:
362,223,65280,1,0,0:0:0:0:
405,204,65359,1,0,0:0:0:0:
439,172,65438,1,0,0:0:0:0:
460,130,65516,1,0,0:0:0:0:
268,94,65675,1,0,0:0:0:0:
244,298,65833,2,0,L|354:312,1,105.000004005432
389,33,66148,5,0,0:0:0:0:
389,33,66306,2,0,P|355:33|325:50,1,70
361,222,66622,2,0,L|431:215,1,70
236,121,66938,2,0,P|194:151|198:244,1,140
296,253,67412,6,0,L|249:180,1,70
174,59,67727,1,0,0:0:0:0:
297,91,67885,2,0,P|271:111|208:117,1,70
37,64,68201,2,0,B|106:48|106:48|189:61,1,140
329,170,68675,5,0,0:0:0:0:
172,161,68833,1,0,0:0:0:0:
297,91,68991,1,0,0:0:0:0:
330,252,69148,2,0,P|293:245|259:212,1,70
102,121,69464,2,0,L|77:287,1,140
172,161,69938,5,0,0:0:0:0:
6,259,70096,2,0,P|19:303|57:325,1,70
267,225,70412,2,0,L|193:232,1,70
81,259,70727,1,0,0:0:0:0:
263,355,70885,5,0,0:0:0:0:
292,337,70963,1,0,0:0:0:0:
326,331,71042,1,0,0:0:0:0:
361,336,71121,1,0,0:0:0:0:
392,352,71200,1,0,0:0:0:0:
319,96,71359,1,0,0:0:0:0:
486,227,71517,1,0,0:0:0:0:
258,263,71675,2,0,L|197:231,2,70
401,111,72148,6,0,P|396:61|373:33,1,70
119,215,72464,2,0,P|124:265|147:293,1,70
319,96,72780,2,0,P|285:80|225:95,1,70
86,344,73096,2,0,P|120:360|180:345,1,70
271,158,73412,1,0,0:0:0:0:
119,215,73570,1,0,0:0:0:0:
393,245,73727,6,0,L|338:177,1,70
253,81,74043,1,0,0:0:0:0:
222,226,74201,2,0,P|266:244|306:235,1,70
424,154,74517,1,0,0:0:0:0:
171,158,74675,6,0,P|150:180|138:228,1,70
439,316,74991,2,0,P|460:294|472:246,1,70
253,81,75306,2,0,L|271:173,1,70
287,242,75622,1,0,0:0:0:0:
424,154,75780,1,0,0:0:0:0:
138,217,75938,1,0,0:0:0:0:
471,256,76096,1,0,0:0:0:0:
153,299,76254,6,0,P|118:300|76:271,2,70
343,152,76727,2,0,P|374:90|452:78,2,140
329,280,77517,5,0,0:0:0:0:
424,154,77675,1,0,0:0:0:0:
219,202,77833,1,0,0:0:0:0:
410,258,77991,2,0,P|410:309|386:337,1,70
141,224,78306,2,0,P|141:173|165:145,1,70
171,86,78622,5,0,0:0:0:0:
219,202,78780,2,0,P|254:220|311:216,2,70
105,97,79254,2,0,P|144:82|194:100,1,70
330,284,79570,2,0,P|291:299|241:281,1,70
70,257,79885,5,0,0:0:0:0:
170,156,80043,2,0,P|190:120|188:78,2,70
183,303,80517,2,0,P|197:339|296:365,2,140
263,294,81306,5,0,0:0:0:0:
56,345,81464,1,0,0:0:0:0:
183,168,81622,1,0,0:0:0:0:
286,368,81780,2,0,P|240:369|207:348,1,70
44,199,82096,1,0,0:0:0:0:
56,345,82254,6,0,L|122:317,1,70
183,168,82570,2,0,L|249:196,1,70
286,368,82885,2,0,P|240:369|207:348,1,70
44,199,83201,1,0,0:0:0:0:
251,121,83359,1,0,0:0:0:0:
120,317,83517,2,0,L|121:229,1,70
143,70,83833,5,0,0:0:0:0:
247,195,83991,1,0,0:0:0:0:
63,120,84148,1,0,0:0:0:0:
251,121,84306,2,0,P|296:135|319:177,1,70
209,316,84622,5,0,0:0:0:0:
209,316,84780,2,0,L|192:248,1,70
234,53,85096,2,0,L|251:121,1,70
66,194,85412,2,0,P|32:190|6:168,1,70
149,98,85727,1,0,0:0:0:0:
207,318,85885,1,0,0:0:0:0:
324,87,86043,2,0,P|370:86|395:98,1,70
480,261,86359,5,0,0:0:0:0:
290,214,86517,1,0,0:0:0:0:
454,151,86675,1,0,0:0:0:0:
309,346,86833,1,0,0:0:0:0:
324,87,86991,1,0,0:0:0:0:
480,261,87148,1,0,0:0:0:0:
240,285,87306,6,0,P|204:227|221:161,1,140
411,138,87780,1,0,0:0:0:0:
429,207,87938,2,0,L|290:214,2,140
429,207,88885,5,0,0:0:0:0:
318,288,89043,1,0,0:0:0:0:
361,114,89201,1,0,0:0:0:0:
414,315,89359,1,0,0:0:0:0:
241,136,89517,1,0,0:0:0:0:
168,368,89675,1,0,0:0:0:0:
350,213,89833,6,0,B|316:199|281:214|281:214|239:232|199:214,1,140
216,14,90306,1,0,0:0:0:0:
299,8,90464,2,0,L|238:140,2,140
299,8,91412,5,0,0:0:0:0:
350,213,91570,1,0,0:0:0:0:
240,135,91727,1,0,0:0:0:0:
457,160,91885,1,0,0:0:0:0:
213,219,92043,1,0,0:0:0:0:
402,57,92201,1,0,0:0:0:0:
160,154,92359,2,0,P|134:191|162:285,1,140
350,213,92991,5,0,0:0:0:0:
350,213,93148,1,0,0:0:0:0:
350,213,93306,2,0,P|265:204|201:226,1,140
213,219,93938,1,0,0:0:0:0:
256,192,94017,12,0,95201,0:0:0:0:
234,180,96306,5,0,0:0:0:0:
234,180,96464,2,0,L|360:276,1,140
420,252,96938,1,0,0:0:0:0:
204,101,97096,2,0,P|174:118|165:224,1,140
442,185,97727,5,0,0:0:0:0:
442,185,97885,2,0,L|410:278,1,70
345,264,98201,1,0,0:0:0:0:
234,180,98359,2,0,P|299:159|375:200,1,140
212,353,98991,6,0,L|74:295,1,140
21,346,99464,1,0,0:0:0:0:
253,282,99622,2,0,P|292:283|348:371,1,140
451,197,100254,5,0,0:0:0:0:
451,197,100412,2,0,L|381:157,1,70
317,157,100727,1,0,0:0:0:0:
269,358,100885,2,0,P|316:334|326:249,1,140
121,241,101359,5,0,0:0:0:0:
121,241,101517,2,0,B|147:264|186:264|186:264|223:263|252:281,1,140
269,358,101991,1,0,0:0:0:0:
43,219,102148,2,0,P|76:175|172:178,1,140
419,203,102780,5,0,0:0:0:0:
419,203,102938,2,0,L|349:254,1,70
290,235,103254,1,0,0:0:0:0:
174,94,103412,2,0,P|124:98|82:193,1,140
156,168,103885,1,0,0:0:0:0:
361,148,104043,6,0,P|411:123|490:162,1,140
432,273,104517,1,0,0:0:0:0:
432,271,104675,2,0,L|414:176,1,70
298,39,104991,2,0,L|208:165,1,140
260,305,105464,5,0,0:0:0:0:
260,305,105622,2,0,L|263:204,1,70
178,82,105938,1,0,0:0:0:0:
166,288,106096,1,0,0:0:0:0:
310,124,106254,1,0,0:0:0:0:
71,215,106412,1,0,0:0:0:0:
259,384,106570,6,0,P|305:373|336:285,1,140
270,117,107043,1,0,0:0:0:0:
210,161,107201,2,0,P|269:192|330:162,1,140
260,305,107833,5,0,0:0:0:0:
260,305,107991,2,0,L|110:356,1,140
154,169,108464,2,0,P|116:109|39:115,1,140
80,175,108938,1,0,0:0:0:0:
282,88,109096,6,0,L|414:184,1,140
310,328,109570,1,0,0:0:0:0:
310,328,109727,2,0,L|288:240,1,70
243,21,110043,2,0,P|208:61|226:144,1,140
466,144,110517,2,0,P|421:99|334:126,1,140
207,280,110991,5,0,0:0:0:0:
395,170,111148,1,0,0:0:0:0:
223,140,111306,1,0,0:0:0:0:
194,160,111384,1,0,0:0:0:0:
161,170,111463,1,0,0:0:0:0:
126,170,111542,1,0,0:0:0:0:
93,159,111622,2,0,P|45:166|9:251,1,140
256,275,112570,6,0,L|222:139,1,140
80,231,113517,6,0,P|119:254|186:229,2,105.000004005432
37,50,114464,6,0,L|96:66,1,52.5000020027161
132,180,114780,2,0,L|221:100,1,105.000004005432
255,275,115254,1,0,0:0:0:0:
255,275,115412,2,0,P|296:277|325:258,2,70
80,231,115885,5,0,0:0:0:0:
274,202,116043,1,0,0:0:0:0:
106,345,116201,1,0,0:0:0:0:
146,90,116359,1,0,0:0:0:0:
320,262,116517,1,0,0:0:0:0:
80,231,116675,5,0,0:0:0:0:
307,109,116833,1,0,0:0:0:0:
209,353,116991,1,0,0:0:0:0:
72,140,117148,1,0,0:0:0:0:
320,262,117306,1,0,0:0:0:0:
32,302,117464,1,0,0:0:0:0:
142,16,117622,6,0,P|204:42|223:94,2,105.000004005432
80,231,118096,1,0,0:0:0:0:
320,262,118254,2,0,P|249:254|184:263,1,105.000004005432
32,302,118570,1,0,0:0:0:0:
209,353,118727,1,0,0:0:0:0:
170,177,118885,2,0,L|80:230,1,105.000004005432
128,357,119201,5,0,0:0:0:0:
387,215,119359,1,0,0:0:0:0:
170,177,119517,1,0,0:0:0:0:
300,359,119675,1,0,0:0:0:0:
295,81,119833,1,0,0:0:0:0:
455,268,119991,1,0,0:0:0:0:
209,353,120148,6,0,L|228:234,1,105.000004005432
369,39,120464,2,0,P|377:98|333:150,1,105.000004005432
78,196,120780,1,0,0:0:0:0:
113,165,120858,1,0,0:0:0:0:
149,134,120937,1,0,0:0:0:0:
185,103,121016,1,0,0:0:0:0:
220,72,121096,2,0,L|289:61,2,70.0000026702882
173,344,121412,2,0,L|104:355,2,70.0000026702882
350,248,121727,5,0,0:0:0:0:
127,259,121885,1,0,0:0:0:0:
302,352,122043,1,0,0:0:0:0:
149,134,122201,1,0,0:0:0:0:
31,260,122359,2,0,P|67:276|139:248,1,105.000004005432
419,203,122675,2,0,P|346:169|301:185,1,105.000004005432
173,344,122991,5,0,0:0:0:0:
350,248,123148,1,0,0:0:0:0:
298,102,123306,2,0,P|254:142|267:225,1,105.000004005432
302,352,123622,1,0,0:0:0:0:
419,203,123780,1,0,0:0:0:0:
207,268,123938,1,0,0:0:0:0:
448,347,124096,1,0,0:0:0:0:
248,184,124254,5,0,0:0:0:0:
302,352,124412,1,0,0:0:0:0:
325,172,124570,1,0,0:0:0:0:
207,268,124727,1,0,0:0:0:0:
419,203,124885,1,0,0:0:0:0:
156,197,125043,1,0,0:0:0:0:
302,352,125201,6,0,L|269:233,1,105.000004005432
133,121,125517,2,0,P|102:136|76:207,1,105.000004005432
273,250,125833,2,0,L|330:162,1,105.000004005432
450,334,126148,1,0,0:0:0:0:
177,304,126306,1,0,0:0:0:0:
440,222,126464,1,0,0:0:0:0:
302,352,126622,1,0,0:0:0:0:
230,88,126780,6,0,P|279:93|331:169,1,140
354,348,127254,1,0,0:0:0:0:
186,196,127412,2,0,L|266:158,1,70
476,256,127727,2,0,L|412:286,1,70
258,343,128043,6,0,P|187:324|107:355,1,140
55,123,128517,1,0,0:0:0:0:
20,305,128675,2,0,L|107:269,1,70
150,25,128991,2,0,L|85:51,1,70
6,186,129306,6,0,P|46:202|129:149,1,140
84,278,129780,1,0,0:0:0:0:
55,123,129938,2,0,P|90:88|125:81,1,70
230,246,130254,2,0,L|158:263,1,70
5,187,130570,5,0,0:0:0:0:
197,169,130727,1,0,0:0:0:0:
124,330,130885,2,0,P|96:310|84:278,1,70
143,16,131201,2,0,P|170:36|183:68,1,70
197,169,131517,1,0,0:0:0:0:
108,82,131675,1,0,0:0:0:0:
161,262,131833,6,0,B|198:251|228:266|228:266|261:285|298:272,1,140
315,146,132306,1,0,0:0:0:0:
315,146,132464,2,0,L|257:217,1,70
122,330,132780,2,0,P|154:342|188:332,1,70
417,279,133096,6,0,P|358:246|296:272,1,140
161,262,133570,1,0,0:0:0:0:
291,348,133727,2,0,P|326:342|354:321,1,70
315,146,134043,2,0,L|257:217,1,70
122,330,134359,6,0,P|85:279|112:201,1,140
230,271,134833,1,0,0:0:0:0:
230,271,134991,2,0,L|139:258,1,70
55,144,135306,2,0,P|99:129|141:143,1,70
198,346,135622,5,0,0:0:0:0:
103,209,135780,2,0,L|62:276,1,70
0,94,136096,1,0,0:0:0:0:
15,325,136254,2,0,P|48:344|97:335,1,70
257,208,136570,1,0,0:0:0:0:
10,214,136727,1,0,0:0:0:0:
198,346,136885,6,0,L|151:211,1,140
79,343,137359,1,0,0:0:0:0:
310,329,137517,2,0,P|349:294|357:257,1,70
264,56,137833,2,0,P|225:91|217:128,1,70
151,213,138148,6,0,L|299:260,1,140
294,125,138622,1,0,0:0:0:0:
74,227,138780,2,0,P|90:265|128:286,1,70
360,248,139096,2,0,P|343:209|305:188,1,70
152,73,139412,6,0,L|150:221,1,140
294,125,139885,1,0,0:0:0:0:
360,248,140043,2,0,L|289:283,1,70
87,243,140359,2,0,L|158:208,1,70
394,176,140675,6,0,P|431:210|425:295,1,140
482,133,141148,1,0,0:0:0:0:
294,223,141306,2,0,L|360:248,1,70
495,309,141622,1,0,0:0:0:0:
262,351,141780,1,0,0:0:0:0:
225,185,141938,6,0,P|255:153|354:166,1,140
347,353,142412,1,0,0:0:0:0:
294,223,142570,2,0,L|360:248,1,70
285,67,142885,1,0,0:0:0:0:
262,351,143043,1,0,0:0:0:0:
481,126,143201,6,0,L|338:159,1,140
31,258,143675,2,0,L|174:225,1,140
256,192,144148,5,0,0:0:0:0:
256,192,144227,12,0,146359,0:0:0:0:
256,192,146675,5,0,0:0:0:0:
280,216,146753,1,0,0:0:0:0:
305,241,146832,1,0,0:0:0:0:
329,266,146911,1,0,0:0:0:0:
354,291,146990,1,0,0:0:0:0:
362,138,147148,1,0,0:0:0:0:
251,306,147306,1,0,0:0:0:0:
453,235,147464,2,0,L|384:214,1,70
172,286,147780,2,0,P|176:338|194:367,2,70
210,123,148254,5,0,0:0:0:0:
251,306,148412,1,0,0:0:0:0:
86,206,148570,1,0,0:0:0:0:
319,218,148727,1,0,0:0:0:0:
172,286,148885,2,0,P|157:238|165:215,1,70
383,172,149201,2,0,P|398:220|391:244,1,70
126,370,149517,6,0,L|273:344,1,140
289,206,149991,1,0,0:0:0:0:
289,206,150148,2,0,L|206:259,1,70
330,384,150464,2,0,P|340:339|330:306,1,70
211,167,150780,6,0,P|165:201|165:290,1,140
37,162,151254,1,0,0:0:0:0:
37,162,151412,2,0,L|104:145,1,70
230,243,151727,2,0,L|297:226,1,70
459,277,152043,6,0,P|437:337|412:351,1,70
260,161,152359,1,0,0:0:0:0:
260,161,152517,2,0,P|310:151|346:167,1,70
381,281,152833,1,0,0:0:0:0:
261,285,152991,6,0,L|297:225,1,70
252,82,153306,2,0,P|212:91|188:131,1,70
199,333,153622,2,0,P|239:364|276:362,1,70
314,38,153938,2,0,P|274:7|237:9,1,70
166,182,154254,2,0,P|195:188|240:169,1,70
252,82,154570,6,0,L|165:72,1,70
122,236,154885,1,0,0:0:0:0:
122,236,155043,2,0,L|180:164,1,70
95,143,155359,1,0,0:0:0:0:
57,287,155517,6,0,P|90:313|126:315,1,70
228,139,155833,2,0,P|195:113|159:111,1,70
122,236,156148,2,0,L|206:219,1,70
312,143,156464,1,0,0:0:0:0:
245,301,156622,1,0,0:0:0:0:
168,109,156780,1,0,0:0:0:0:
145,384,156938,1,0,0:0:0:0:
379,295,157096,5,0,0:0:0:0:
122,236,157254,1,0,0:0:0:0:
354,215,157412,2,0,P|405:215|439:238,1,70
245,301,157727,2,0,L|231:137,1,140
122,236,158201,5,0,0:0:0:0:
122,236,158280,1,0,0:0:0:0:
122,236,158359,1,0,0:0:0:0:
330,133,158517,1,0,0:0:0:0:
189,101,158675,2,0,P|162:131|162:172,1,70
333,259,158991,2,0,L|226:155,1,140
251,301,159464,5,0,0:0:0:0:
251,301,159543,1,0,0:0:0:0:
251,301,159622,1,0,0:0:0:0:
330,133,159780,1,0,0:0:0:0:
122,236,159938,2,0,L|208:229,1,70
413,114,160254,2,0,P|380:66|294:57,1,140
188,102,160727,5,0,0:0:0:0:
188,102,160806,1,0,0:0:0:0:
188,102,160885,1,0,0:0:0:0:
251,301,161043,1,0,0:0:0:0:
346,129,161201,1,0,0:0:0:0:
122,236,161359,1,0,0:0:0:0:
334,286,161517,2,0,P|302:235|276:224,1,70
25,173,161833,5,0,0:0:0:0:
58,163,161911,1,0,0:0:0:0:
92,153,161990,1,0,0:0:0:0:
125,144,162069,1,0,0:0:0:0:
159,134,162148,1,0,0:0:0:0:
122,236,162306,1,0,0:0:0:0:
40,64,162464,1,0,0:0:0:0:
60,288,162622,2,0,P|105:316|187:287,1,140
317,79,163096,6,0,L|242:116,1,70
122,236,163412,2,0,L|197:199,1,70
400,91,163727,2,0,P|391:37|360:9,1,70
125,144,164043,1,0,0:0:0:0:
360,203,164201,1,0,0:0:0:0:
229,41,164359,2,0,P|190:71|186:111,1,70
229,264,164675,5,0,0:0:0:0:
254,109,164833,1,0,0:0:0:0:
350,302,164991,1,0,0:0:0:0:
184,205,165148,1,0,0:0:0:0:
184,205,165227,1,0,0:0:0:0:
184,205,165306,1,0,0:0:0:0:
437,265,165464,1,0,0:0:0:0:
237,341,165622,6,0,P|184:327|165:303,1,70
173,121,165938,2,0,P|226:135|245:159,1,70
350,302,166254,2,0,L|262:255,1,70
184,205,166570,1,0,0:0:0:0:
237,341,166727,1,0,0:0:0:0:
344,186,166885,1,0,0:0:0:0:
88,260,167043,1,0,0:0:0:0:
237,341,167201,5,0,0:0:0:0:
173,121,167359,1,0,0:0:0:0:
159,315,167517,1,0,0:0:0:0:
314,116,167675,1,0,0:0:0:0:
105,172,167833,1,0,0:0:0:0:
344,186,167991,1,0,0:0:0:0:
95,97,168148,2,0,P|61:104|39:135,1,70
159,315,168464,5,0,0:0:0:0:
159,315,168780,1,0,0:0:0:0:
173,121,168938,1,0,0:0:0:0:
57,234,169096,2,0,P|91:248|130:241,1,70
217,56,169412,2,0,P|183:42|144:49,1,70
105,172,169727,5,0,0:0:0:0:
365,128,169885,1,0,0:0:0:0:
173,121,170043,1,0,0:0:0:0:
330,292,170201,1,0,0:0:0:0:
376,47,170359,1,0,0:0:0:0:
254,250,170517,1,0,0:0:0:0:
433,139,170675,2,0,L|335:122,1,70
179,197,170991,5,0,0:0:0:0:
179,197,171306,1,0,0:0:0:0:
330,292,171464,1,0,0:0:0:0:
306,77,171622,2,0,L|232:110,1,70
123,255,171938,2,0,P|167:279|203:272,1,70
420,208,172254,5,0,0:0:0:0:
179,197,172412,1,0,0:0:0:0:
382,284,172570,1,0,0:0:0:0:
306,77,172727,1,0,0:0:0:0:
185,278,172885,1,0,0:0:0:0:
387,99,173043,1,0,0:0:0:0:
119,146,173201,2,0,P|103:171|104:218,1,70
420,208,173517,5,0,0:0:0:0:
420,208,173833,1,0,0:0:0:0:
179,197,173991,1,0,0:0:0:0:
382,284,174148,2,0,P|445:291|505:220,1,140
292,153,174780,1,0,0:0:0:0:
256,192,174859,12,0,175964,0:0:0:0:
225,242,176043,6,0,B|266:257|306:240|314:195|314:195|320:160|348:137|377:134|377:134|336:117|276:131|276:131|230:139|171:135|171:135|144:135|121:146|109:169,1,490
111,180,178333,1,0,0:0:0:0:
117,192,178412,1,0,0:0:0:0:
127,200,178491,1,0,0:0:0:0:
140,204,178570,1,0,0:0:0:0:
321,264,180780,5,0,0:0:0:0:
321,264,181096,1,0,0:0:0:0:
215,113,183622,5,0,0:0:0:0:
177,275,185833,5,0,0:0:0:0:
177,275,186148,2,0,L|321:322,1,140
199,197,187096,6,0,B|164:190|132:209|132:209|104:227|65:240|21:215|-6:177|-9:138|19:101,1,280
85,149,188517,5,0,0:0:0:0:
85,149,188596,1,0,0:0:0:0:
85,149,188675,2,0,P|152:122|231:128,1,140
236,293,189622,5,0,0:0:0:0:
236,293,189938,2,0,P|253:349|305:310,1,140
454,150,190885,5,0,0:0:0:0:
454,150,191201,2,0,P|478:210|432:275,1,140
262,190,192148,5,0,0:0:0:0:
262,190,192464,2,0,L|403:206,1,140
235,55,193412,5,0,0:0:0:0:
235,55,193727,2,0,P|167:70|92:36,1,140
92,214,194675,6,0,P|126:171|208:143,1,140
210,280,195622,5,0,0:0:0:0:
246,301,195938,1,0,0:0:0:0:
282,322,196254,1,0,0:0:0:0:
345,261,196570,5,0,0:0:0:0:
386,252,196885,1,0,0:0:0:0:
427,243,197201,1,0,0:0:0:0:
475,325,197517,5,0,0:0:0:0:
312,350,197675,1,0,0:0:0:0:
427,243,197833,1,0,0:0:0:0:
251,215,197991,1,0,0:0:0:0:
403,359,198148,1,0,0:0:0:0:
385,112,198306,1,0,0:0:0:0:
191,313,198464,1,0,0:0:0:0:
509,256,198622,1,0,0:0:0:0:
226,123,198780,6,0,P|174:166|168:208,1,105.000004005432
403,359,199096,1,0,0:0:0:0:
303,86,199254,1,0,0:0:0:0:
111,258,199412,2,0,P|169:280|209:268,1,105.000004005432
359,25,199727,2,0,P|301:3|261:15,1,105.000004005432
167,200,200043,5,0,0:0:0:0:
399,126,200201,2,0,L|287:79,1,105.000004005432
79,124,200517,1,0,0:0:0:0:
208,268,200675,2,0,P|244:226|240:170,1,105.000004005432
40,57,200991,2,0,P|4:99|8:155,1,105.000004005432
31,339,201306,6,0,L|138:293,1,105.000004005432
205,104,201622,1,0,0:0:0:0:
233,362,201780,1,0,0:0:0:0:
4,146,201938,2,0,L|117:142,1,105.000004005432
364,259,202254,2,0,P|347:310|290:337,1,105.000004005432
68,240,202570,5,0,0:0:0:0:
317,128,202727,1,0,0:0:0:0:
233,362,202885,2,0,L|192:232,1,105.000004005432
282,54,203201,2,0,P|337:48|389:88,1,105.000004005432
305,335,203517,1,0,0:0:0:0:
108,142,203675,1,0,0:0:0:0:
416,156,203833,6,0,L|316:127,1,105.000004005432
201,261,204148,1,0,0:0:0:0:
494,197,204306,1,0,0:0:0:0:
108,142,204464,2,0,L|122:265,1,105.000004005432
387,154,204780,2,0,P|387:103|355:63,1,105.000004005432
58,69,205096,5,0,0:0:0:0:
316,127,205254,1,0,0:0:0:0:
119,246,205412,2,0,L|108:142,1,105.000004005432
355,63,205727,2,0,P|387:103|387:154,1,105.000004005432
203,326,206043,1,0,0:0:0:0:
215,60,206201,1,0,0:0:0:0:
440,214,206359,6,0,P|377:234|337:216,1,105.000004005432
108,142,206675,2,0,L|217:137,1,105.000004005432
387,154,206991,1,0,0:0:0:0:
290,328,207148,1,0,0:0:0:0:
215,60,207306,1,0,0:0:0:0:
440,214,207464,1,0,0:0:0:0:
183,351,207622,5,0,0:0:0:0:
305,31,207780,1,0,0:0:0:0:
290,328,207938,1,0,0:0:0:0:
215,60,208096,1,0,0:0:0:0:
124,246,208254,1,0,0:0:0:0:
395,140,208412,1,0,0:0:0:0:
71,168,208570,1,0,0:0:0:0:
440,214,208727,1,0,0:0:0:0:
103,327,208885,6,0,P|55:295|43:220,1,105.000004005432
199,35,209201,2,0,L|228:159,1,105.000004005432
183,351,209517,1,0,0:0:0:0:
71,168,209675,1,0,0:0:0:0:
297,114,209833,2,0,P|287:181|235:217,1,105.000004005432
32,53,210148,5,0,0:0:0:0:
222,137,210306,2,0,L|125:213,1,105.000004005432
334,310,210622,1,0,0:0:0:0:
297,114,210780,2,0,P|257:69|199:66,1,105.000004005432
65,224,211096,2,0,P|105:269|163:272,1,105.000004005432
401,101,211412,6,0,L|275:116,1,105.000004005432
139,201,211727,1,0,0:0:0:0:
415,259,211885,1,0,0:0:0:0:
264,39,212043,2,0,P|223:80|222:138,1,105.000004005432
451,334,212359,2,0,P|492:293|493:235,1,105.000004005432
401,101,212675,5,0,0:0:0:0:
202,308,212833,2,0,L|326:297,1,105.000004005432
450,182,213148,1,0,0:0:0:0:
167,237,213306,2,0,P|125:279|130:342,1,105.000004005432
398,255,213622,5,0,0:0:0:0:
369,210,213700,1,0,0:0:0:0:
341,166,213779,1,0,0:0:0:0:
312,122,213858,1,0,0:0:0:0:
283,79,213938,2,0,B|217:102|145:78|145:78|67:53|13:99,1,280
71,369,214885,6,0,P|114:234|83:158,1,210.000008010865
320,232,215833,5,0,0:0:0:0:
256,192,215912,12,0,217727,0:0:0:0:
203,151,218359,5,0,0:0:0:0:
210,181,218675,5,0,0:0:0:0:
217,211,218991,6,0,L|363:179,1,140
139,189,219938,6,0,P|139:241|200:290,1,122.5
421,136,220727,5,0,0:0:0:0:
421,136,220806,1,0,0:0:0:0:
421,136,220890,2,0,B|397:106|360:99|322:111|322:111|283:124|227:128|181:111|181:111|135:92|78:107|46:140|30:187|35:246|71:283|119:297,1,560
268,253,223905,5,0,0:0:0:0:
268,253,224064,2,0,L|331:309,2,70
146,202,224530,2,0,L|79:239,2,70
354,224,224996,2,0,P|410:230|466:170,1,140
301,160,226030,5,0,0:0:0:0:
301,160,226345,2,0,P|274:215|279:249,1,70
389,154,226661,2,0,L|368:87,2,70
353,223,227135,2,0,L|374:290,2,70
208,176,227608,5,0,0:0:0:0:
208,176,227762,1,0,0:0:0:0:
259,306,227917,1,0,0:0:0:0:
259,306,228071,1,0,0:0:0:0:
301,160,228226,1,0,0:0:0:0:
301,160,228381,1,0,0:0:0:0:
134,203,228535,2,0,P|152:233|183:250,1,70
372,131,228845,2,0,P|353:101|323:84,1,70
191,108,229154,6,0,L|208:177,2,70
301,160,229618,1,0,0:0:0:0:
134,203,229772,1,0,0:0:0:0:
258,232,229940,1,0,0:0:0:0:
183,250,230109,2,0,P|212:294|296:300,1,140
450,241,231120,5,0,0:0:0:0:
450,241,231457,2,0,P|424:273|371:279,1,70
258,232,231766,2,0,L|230:151,2,70
382,207,232230,1,0,0:0:0:0:
293,301,232384,1,0,0:0:0:0:
316,146,232556,1,0,0:0:0:0:
397,281,232728,1,0,0:0:0:0:
248,364,233418,6,0,P|216:311|240:248,1,105
