osu file format v14

[General]
AudioFilename: audio.mp3
AudioLeadIn: 0
PreviewTime: 40570
Countdown: 0
SampleSet: None
StackLeniency: 0.7
Mode: 0
LetterboxInBreaks: 0
WidescreenStoryboard: 0

[Editor]
DistanceSpacing: 0.9
BeatDivisor: 2
GridSize: 4
TimelineZoom: 1.3

[Metadata]
Title:A Thousand Miles
TitleUnicode:A Thousand Miles
Artist:Vanessa Carlton
ArtistUnicode:Vanessa Carlton
Creator:transcendental
Version:Normal
Source:
Tags:
BeatmapID:947179
BeatmapSetID:439719

[Difficulty]
HPDrainRate:3
CircleSize:3
OverallDifficulty:3
ApproachRate:4
SliderMultiplier:0.9
SliderTickRate:2

[Events]
//Background and Video events
//Break Periods
//Storyboard Layer 0 (Background)
//Storyboard Layer 1 (Fail)
//Storyboard Layer 2 (Pass)
//Storyboard Layer 3 (Foreground)
//Storyboard Sound Samples

[TimingPoints]
95,309.278350515464,4,2,0,60,1,0
1178,344.827586206897,4,2,0,60,1,0
2212,309.278350515464,4,2,0,60,1,0
4067,315.789473684211,4,2,0,60,1,0
5014,309.278350515464,4,2,0,60,1,0
5941,337.078651685393,4,2,0,60,1,0
7626,312.5,4,2,0,60,1,0
8876,338.983050847458,4,2,0,60,1,0
10570,315.789473684211,4,2,0,100,1,0
40885,-100,4,2,0,100,0,1
66148,-100,4,2,0,100,0,0
96464,-100,4,2,0,100,0,1
126780,-100,4,2,0,100,0,0
195622,-100,4,2,0,100,0,1
213938,-100,4,2,0,100,0,0
218991,-100,4,2,0,60,0,0
220890,317.460317460317,4,2,0,60,1,0
224064,310.880829015544,4,2,0,60,1,0
224996,344.827586206897,4,2,0,60,1,0
226030,315.789473684211,4,2,0,60,1,0
227608,309.278350515464,4,2,0,60,1,0
229772,337.078651685393,4,2,0,60,1,0
231457,309.278350515464,4,2,0,60,1,0
232384,344.827586206897,4,2,0,60,1,0

[HitObjects]
46,79,250,6,0,P|181:104|329:71,1,270
442,317,2212,1,0,0:0:0:0:
282,342,2830,6,0,P|217:324|151:335,2,135
382,122,4698,1,0,0:0:0:0:
220,94,5323,6,0,P|155:112|89:101,2,135
56,284,7289,1,0,0:0:0:0:
223,272,7938,6,0,B|291:332|291:332|335:334,2,135
110,155,9553,1,0,0:0:0:0:
356,75,10570,6,0,L|460:160,1,135
493,184,11201,1,0,0:0:0:0:
442,337,11833,2,0,P|400:321|356:325,1,90
334,291,12306,2,0,B|246:283|246:283|203:302,1,135
148,362,13096,6,0,P|121:302|148:242,1,135
138,203,13727,1,0,0:0:0:0:
49,65,14359,2,0,P|115:76|175:47,1,135
213,62,14991,1,0,0:0:0:0:
284,100,15306,1,0,0:0:0:0:
363,114,15622,6,0,B|449:89|449:89|490:107,1,135
494,146,16254,2,0,P|508:189|496:232,2,90
426,189,17201,1,0,0:0:0:0:
353,225,17517,2,0,L|268:270,1,90
243,342,18148,6,0,L|103:298,1,135
100,264,18780,1,0,0:0:0:0:
29,223,19096,2,0,P|59:192|103:182,1,90
183,186,19727,2,0,P|227:176|258:144,1,90
172,8,20675,6,0,B|123:31|123:31|145:108,1,135
185,103,21306,1,0,0:0:0:0:
343,72,21938,2,0,P|404:98|466:75,1,135
505,85,22570,1,0,0:0:0:0:
469,242,23201,6,0,B|411:310|411:310|365:314,1,135
324,315,23833,1,0,0:0:0:0:
165,347,24464,2,0,P|99:331|33:342,1,135
24,303,25096,2,0,B|32:259|32:259|26:214,1,90
75,150,25727,6,0,L|26:23,2,135
148,183,26991,1,0,0:0:0:0:
220,147,27306,1,0,0:0:0:0:
296,174,27622,2,0,P|338:185|380:171,1,90
337,102,28254,6,0,L|223:28,1,135
187,48,28885,2,0,P|144:57|99:52,1,90
53,119,29517,2,0,B|70:160|70:160|58:204,2,90
212,147,30780,6,0,L|352:197,2,135
91,255,32359,1,0,0:0:0:0:
91,255,32675,2,0,L|199:229,1,90
258,220,33306,6,0,P|293:173|274:90,2,135
122,135,34885,1,0,0:0:0:0:
122,135,35201,2,0,L|222:148,1,90
292,144,35833,6,0,P|339:190|326:273,2,135
437,72,37412,1,0,0:0:0:0:
437,72,37727,2,0,L|423:173,1,90
414,241,38359,5,0,0:0:0:0:
256,192,38517,12,0,39622,0:0:0:0:
112,44,40885,6,0,P|184:56|264:28,1,135
280,56,41517,2,0,P|336:48|388:80,1,90
320,127,42148,1,0,0:0:0:0:
345,158,42306,2,0,L|361:262,1,90
390,272,42780,1,0,0:0:0:0:
471,270,43096,1,0,0:0:0:0:
437,343,43412,6,0,P|364:353|318:314,1,135
279,324,44043,2,0,L|165:353,1,90
111,332,44675,1,0,0:0:0:0:
78,308,44833,2,0,P|72:253|38:204,1,90
70,185,45306,2,0,B|61:94|61:94|84:44,1,135
118,42,45938,6,0,P|185:55|283:28,1,135
284,65,46570,2,0,B|330:62|330:62|404:73,1,90
444,108,47201,1,0,0:0:0:0:
420,141,47359,2,0,P|418:204|443:251,1,90
450,262,47833,1,0,0:0:0:0:
391,318,48148,1,0,0:0:0:0:
315,348,48464,6,0,P|257:333|168:353,1,135
147,327,49096,2,0,B|101:326|101:326|46:297,1,90
43,226,49727,1,0,0:0:0:0:
44,185,49885,2,0,L|128:124,1,90
140,99,50359,2,0,P|182:82|225:90,1,90
192,164,50991,6,0,P|178:232|203:298,1,135
238,283,51622,2,0,L|357:311,1,90
406,315,52254,1,0,0:0:0:0:
442,298,52412,2,0,P|454:245|489:214,1,90
473,180,52885,2,0,B|485:138|485:138|473:75,1,90
409,45,53517,6,0,B|324:64|324:64|276:102,1,135
258,64,54148,2,0,L|161:50,1,90
88,39,54780,1,0,0:0:0:0:
52,59,54938,2,0,B|57:105|57:105|47:173,1,90
66,185,55412,2,0,P|96:219|168:218,1,90
138,146,56043,5,0,0:0:0:0:
377,103,56991,5,0,0:0:0:0:
294,331,57938,5,0,0:0:0:0:
138,146,60306,5,0,0:0:0:0:
166,116,60464,2,0,L|273:96,1,90
311,41,61096,6,0,P|372:57|426:42,1,90
436,65,61570,2,0,B|459:107|459:107|459:164,1,90
435,182,62043,2,0,B|422:220|438:248|438:248|454:275|441:317,1,135
402,321,62675,1,0,0:0:0:0:
402,321,62991,2,0,L|254:345,1,135
237,316,63622,6,0,P|163:308|128:322,1,90
111,327,64096,2,0,B|72:304|72:304|32:254,1,90
58,230,64570,1,0,0:0:0:0:
30,154,64885,1,0,0:0:0:0:
96,107,65201,1,0,0:0:0:0:
34,54,65517,2,0,P|90:25|167:68,1,135
192,39,66148,6,0,B|281:48|281:48|337:26,1,135
362,41,66780,1,0,0:0:0:0:
483,148,67412,2,0,B|394:160|394:160|341:199,1,135
320,171,68043,2,0,P|272:160|223:179,1,90
162,211,68675,6,0,P|200:248|280:239,1,135
313,258,69306,2,0,B|354:280|354:280|381:313,1,90
455,347,69938,2,0,L|495:202,1,135
474,179,70570,2,0,B|462:151|469:123|469:123|475:93|459:57|423:44,1,135
404,38,71201,6,0,L|306:58,1,90
287,84,71675,2,0,L|189:64,1,90
165,89,72148,2,0,P|102:96|57:85,2,90
206,158,73096,1,0,0:0:0:0:
251,224,73412,1,0,0:0:0:0:
300,287,73727,6,0,P|254:304|202:287,1,90
176,308,74201,2,0,B|129:301|129:301|58:311,1,90
56,279,74675,2,0,L|11:362,2,90
53,198,75622,2,0,P|63:157|35:58,1,135
66,35,76254,6,0,B|155:22|155:22|203:37,1,135
235,50,76885,1,0,0:0:0:0:
171,199,77517,2,0,B|130:217|130:217|85:306,1,135
75,335,78148,1,0,0:0:0:0:
236,347,78780,6,0,B|327:316|327:316|391:330,1,135
405,331,79412,1,0,0:0:0:0:
477,186,80043,2,0,L|430:30,1,135
401,39,80675,1,0,0:0:0:0:
322,60,80991,1,0,0:0:0:0:
244,82,81306,6,0,P|198:55|148:47,1,90
123,36,81780,2,0,B|97:66|97:66|41:99,1,90
61,131,82254,2,0,B|63:172|46:201|46:201|30:229|17:268|37:313,1,180
110,330,83201,1,0,0:0:0:0:
184,360,83517,1,0,0:0:0:0:
176,279,83833,6,0,P|175:202|195:174,1,90
210,166,84306,2,0,B|255:162|255:162|331:130,1,90
309,106,84780,2,0,P|339:51|463:77,1,180
391,115,85727,2,0,P|390:159|422:224,1,90
395,282,86359,6,0,P|440:303|461:388,2,135
275,302,87780,1,0,0:0:0:0:
294,337,87938,2,0,L|390:366,1,90
350,203,88885,6,0,P|397:133|374:76,2,135
236,158,90306,1,0,0:0:0:0:
237,117,90464,2,0,P|275:104|319:149,1,90
209,253,91412,6,0,P|194:324|246:378,2,135
364,309,92991,1,0,0:0:0:0:
364,309,93306,2,0,L|265:301,1,90
193,292,93938,1,0,0:0:0:0:
256,192,94096,12,0,95201,0:0:0:0:
276,259,96464,6,0,P|302:326|376:355,1,135
392,335,97096,2,0,B|436:349|436:349|487:336,1,90
463,258,97727,1,0,0:0:0:0:
440,224,97885,2,0,P|437:177|470:119,1,90
481,108,98359,1,0,0:0:0:0:
445,35,98675,1,0,0:0:0:0:
363,32,98991,6,0,P|292:48|223:26,1,135
199,54,99622,2,0,L|109:58,1,90
45,108,100254,1,0,0:0:0:0:
74,135,100412,2,0,P|74:187|52:234,1,90
58,262,100885,2,0,B|119:328|119:328|177:338,1,135
203,326,101517,6,0,P|262:352|343:329,1,135
369,345,102148,2,0,L|474:286,1,90
463,221,102780,1,0,0:0:0:0:
450,182,102938,2,0,P|464:124|435:80,1,90
442,58,103412,1,0,0:0:0:0:
361,58,103727,1,0,0:0:0:0:
282,76,104043,6,0,P|318:130|383:138,1,135
391,178,104675,2,0,L|351:277,1,90
279,285,105306,1,0,0:0:0:0:
240,297,105464,2,0,P|200:287|150:289,1,90
125,257,105938,2,0,B|121:212|121:212|133:139,1,90
187,112,106570,6,0,P|143:89|57:128,1,135
30,135,107201,2,0,B|39:182|39:182|29:245,1,90
39,304,107833,1,0,0:0:0:0:
78,296,107991,2,0,P|131:300|175:329,1,90
202,326,108464,2,0,L|309:329,1,90
371,347,109096,6,0,P|347:266|282:249,1,135
283,214,109727,2,0,L|175:245,1,90
119,211,110359,1,0,0:0:0:0:
80,197,110517,2,0,L|25:106,1,90
49,82,110991,2,0,P|81:44|140:34,1,90
125,113,111622,5,0,0:0:0:0:
243,326,112570,5,0,0:0:0:0:
368,118,113517,5,0,0:0:0:0:
125,113,115885,5,0,0:0:0:0:
86,126,116043,2,0,B|78:170|78:170|48:215,1,90
6,274,116675,6,0,P|55:289|108:266,1,90
125,300,117148,2,0,P|187:297|230:317,1,90
252,296,117622,2,0,B|290:324|290:324|416:333,1,135
418,331,118254,1,0,0:0:0:0:
418,331,118570,2,0,L|432:204,1,90
463,168,119201,6,0,P|412:162|358:201,1,90
341,158,119675,2,0,L|226:138,1,90
212,134,120148,1,0,0:0:0:0:
185,210,120464,1,0,0:0:0:0:
160,287,120780,1,0,0:0:0:0:
119,356,121096,2,0,P|81:303|95:239,1,135
65,212,121727,6,0,B|77:125|77:125|124:88,1,135
152,109,122359,2,0,P|217:107|283:54,1,135
348,41,123148,1,0,0:0:0:0:
379,66,123306,2,0,L|477:69,2,90
323,124,124254,6,0,L|356:239,1,90
376,239,124727,2,0,P|345:297|291:315,1,90
287,323,125201,2,0,P|217:318|154:344,1,135
117,334,125833,2,0,B|67:259|67:259|65:162,1,180
103,98,126780,6,0,P|160:42|263:28,1,180
340,36,127727,1,0,0:0:0:0:
340,36,128043,2,0,P|383:77|479:166,1,180
433,230,128991,1,0,0:0:0:0:
433,230,129306,6,0,P|361:220|265:245,1,135
269,257,129938,2,0,B|222:249|222:249|162:258,1,90
100,271,130570,2,0,P|131:322|225:323,1,135
239,348,131201,2,0,B|285:340|285:340|348:355,1,90
399,313,131833,6,0,B|439:283|439:234|439:234|439:183|483:158,1,180
451,84,132780,1,0,0:0:0:0:
451,84,133096,2,0,P|367:84|300:30,1,135
286,73,133727,2,0,P|208:65|173:71,1,90
116,75,134359,6,0,L|65:175,1,90
32,224,134991,2,0,P|86:238|137:210,1,90
192,199,135622,2,0,B|237:211|237:211|336:198,2,135
173,277,136885,6,0,B|195:316|195:316|268:320|333:367,1,180
402,350,137833,1,0,0:0:0:0:
480,332,138148,2,0,L|457:191,1,135
477,162,138780,2,0,P|493:118|464:54,1,90
410,112,139412,6,0,P|335:117|255:95,1,135
253,71,140043,2,0,P|210:31|157:30,1,90
178,107,140675,2,0,P|125:124|39:109,2,135
226,172,141938,6,0,P|268:257|265:322,1,135
300,322,142570,2,0,P|338:370|395:373,1,90
376,297,143201,2,0,L|424:202,1,90
455,203,143675,2,0,L|452:104,1,90
449,72,144148,6,0,B|391:78|338:64|338:64|288:47|237:38|185:65|154:111|153:167|153:167|141:186|141:186|189:186|244:219|261:275|250:331|207:368,1,630
86,260,146991,6,0,P|54:210|77:122,1,135
103,127,147622,1,0,0:0:0:0:
246,201,148253,2,0,B|203:280|203:280|201:336,1,135
232,351,148885,1,0,0:0:0:0:
340,230,149517,6,0,P|341:168|282:111,1,135
255,105,150148,1,0,0:0:0:0:
156,234,150780,2,0,B|201:250|201:250|253:294,1,90
271,290,151254,2,0,P|336:320|412:286,1,135
393,221,152043,6,0,B|432:200|432:200|483:231,1,90
465,264,152517,2,0,P|464:342|415:379,1,135
393,302,153306,2,0,P|338:294|289:312,1,90
236,345,153938,1,0,0:0:0:0:
236,345,154254,1,0,0:0:0:0:
153,341,154570,6,0,L|48:278,1,90
59,257,155043,2,0,B|70:223|59:189|59:189|45:155|59:108,1,135
100,56,155833,2,0,L|210:67,1,90
270,70,156464,2,0,P|325:55|391:51,1,90
433,79,157096,6,0,B|475:160|475:160|464:222,1,135
459,242,157727,1,0,0:0:0:0:
307,300,158359,2,0,P|313:219|356:188,1,135
389,173,158991,1,0,0:0:0:0:
384,334,159622,6,0,P|310:384|248:360,1,135
231,364,160254,1,0,0:0:0:0:
134,233,160885,2,0,B|220:201|220:201|277:209,1,135
289,176,161517,2,0,P|330:112|314:64,1,90
248,104,162148,6,0,L|96:130,1,135
85,155,162780,2,0,P|43:188|32:235,1,90
112,231,163412,1,0,0:0:0:0:
148,303,163727,1,0,0:0:0:0:
228,306,164043,2,0,P|283:324|308:362,1,90
383,341,164675,6,0,B|426:334|426:334|477:343,1,90
491,306,165148,2,0,P|470:240|467:144,1,135
488,97,165938,2,0,P|472:43|412:14,1,90
405,92,166570,2,0,P|339:98|290:81,1,90
249,46,167201,6,0,L|109:82,2,135
316,92,168464,1,0,0:0:0:0:
316,92,168780,1,0,0:0:0:0:
371,151,169096,2,0,P|323:173|268:150,1,90
217,204,169727,6,0,B|173:188|173:188|68:207,2,135
263,271,170991,1,0,0:0:0:0:
263,271,171306,1,0,0:0:0:0:
198,319,171622,2,0,L|106:271,1,90
86,203,172254,6,0,P|75:128|106:58,2,135
239,151,173833,1,0,0:0:0:0:
239,151,174148,2,0,L|296:46,1,90
357,40,174780,6,0,B|404:50|446:44|446:44|433:90|445:138|445:138|454:174|443:232|418:265|374:285,1,360
256,192,176201,12,0,178570,0:0:0:0:
317,237,180780,5,0,0:0:0:0:
317,237,181096,1,0,0:0:0:0:
258,176,183622,5,0,0:0:0:0:
205,122,185833,5,0,0:0:0:0:
205,122,186148,2,0,B|168:84|101:88|65:118|39:164|44:217|75:254|75:254|78:271|78:271|131:275|165:315|165:315|201:360|259:375|308:361|354:329|361:262,1,630
387,213,188675,6,0,B|417:170|417:170|433:164|433:164|463:117|450:53|403:18|341:33,1,270
366,110,189938,6,0,B|308:153|242:134|242:134|173:114|105:140,1,270
56,204,191201,6,0,P|116:295|221:213,1,270
294,182,192464,6,0,P|381:188|429:353,1,270
354,337,193727,6,0,B|265:331|265:331|160:366,1,180
100,338,194675,2,0,B|65:309|65:309|26:156,1,180
42,98,195622,6,0,B|79:42|152:31|224:79|224:79|272:110|326:116|385:98|385:98|392:111|392:111|437:124|487:157|507:232|485:303|441:344|379:362|319:360|274:316,1,810
199,326,198780,6,0,B|112:347|112:347|62:340,2,135
214,246,200043,2,0,P|283:220|349:270,2,135
138,216,201306,6,0,P|90:193|77:102,2,135
149,135,202570,2,0,B|228:89|228:89|343:79,1,180
429,197,203833,6,0,L|486:58,2,135
370,253,205096,2,0,L|461:371,2,135
353,173,206359,6,0,L|204:193,2,135
348,92,207622,2,0,B|317:57|317:57|230:52|230:52|197:17,1,180
43,65,208885,6,0,P|61:131|34:197,1,135
60,226,209517,2,0,L|72:324,1,90
151,317,210148,1,0,0:0:0:0:
181,344,210306,2,0,B|226:342|226:342|285:351,1,90
308,335,210780,2,0,P|361:362|415:340,1,90
368,278,211412,6,0,P|374:221|448:144,1,135
427,120,212043,2,0,B|406:80|406:80|354:46,1,90
298,96,212675,2,0,P|239:103|189:88,1,90
154,37,213306,2,0,P|95:33|56:48,1,90
32,116,213938,5,0,0:0:0:0:
257,205,214885,5,0,0:0:0:0:
481,297,215833,5,0,0:0:0:0:
481,297,218991,5,0,0:0:0:0:
257,205,219939,5,0,0:0:0:0:
32,116,220886,5,0,0:0:0:0:
121,334,224064,6,0,P|201:312|390:357,1,270
416,87,226030,1,0,0:0:0:0:
257,52,226661,6,0,B|203:91|203:91|115:107,2,135
440,211,228535,1,0,0:0:0:0:
277,215,229154,6,0,P|192:246|54:131,1,270
284,42,231120,1,0,0:0:0:0:
449,77,231766,6,0,L|317:128,1,135
246,214,232728,1,0,0:0:0:0:
138,335,233418,6,0,P|221:328|336:368,1,180
