osu file format v14

[General]
AudioFilename: audio.mp3
AudioLeadIn: 0
PreviewTime: 40570
Countdown: 0
SampleSet: None
StackLeniency: 0.5
Mode: 0
LetterboxInBreaks: 0
WidescreenStoryboard: 1

[Editor]
DistanceSpacing: 0.8
BeatDivisor: 4
GridSize: 4
TimelineZoom: 1.5

[Metadata]
Title:A Thousand Miles
TitleUnicode:A Thousand Miles
Artist:Vanessa Carlton
ArtistUnicode:Vanessa Carlton
Creator:transcendental
Version:Hard
Source:
Tags:
BeatmapID:947178
BeatmapSetID:439719

[Difficulty]
HPDrainRate:5
CircleSize:3.5
OverallDifficulty:6
ApproachRate:6
SliderMultiplier:1.2
SliderTickRate:2

[Events]
//Background and Video events
//Break Periods
//Storyboard Layer 0 (Background)
//Storyboard Layer 1 (Fail)
//Storyboard Layer 2 (Pass)
//Storyboard Layer 3 (Foreground)
//Storyboard Sound Samples

[TimingPoints]
95,309.278350515464,4,2,0,60,1,0
1178,344.827586206897,4,2,0,60,1,0
2212,309.278350515464,4,2,0,60,1,0
4067,315.789473684211,4,2,0,60,1,0
5014,309.278350515464,4,2,0,60,1,0
5941,337.078651685393,4,2,0,60,1,0
7626,312.5,4,2,0,60,1,0
8876,338.983050847458,4,2,0,60,1,0
10570,315.789473684211,4,2,0,100,1,0
40885,-100,4,2,0,100,0,1
66148,-100,4,2,0,100,0,0
96464,-100,4,2,0,100,0,1
126780,-100,4,2,0,100,0,0
195622,-100,4,2,0,100,0,1
213938,-100,4,2,0,100,0,0
218991,-100,4,2,0,60,0,0
220890,317.460317460317,4,2,0,60,1,0
224064,310.880829015544,4,2,0,60,1,0
224996,344.827586206897,4,2,0,60,1,0
226030,315.789473684211,4,2,0,60,1,0
227608,309.278350515464,4,2,0,60,1,0
229772,337.078651685393,4,2,0,60,1,0
231457,309.278350515464,4,2,0,60,1,0
232384,344.827586206897,4,2,0,60,1,0

[HitObjects]
84,112,95,5,0,0:0:0:0:
84,112,249,2,0,P|172:120|217:108,1,120
245,133,713,2,0,L|399:148,1,120
407,147,1178,1,0,0:0:0:0:
407,147,2212,5,0,0:0:0:0:
481,86,2521,1,0,0:0:0:0:
481,86,2675,1,0,0:0:0:0:
481,86,2830,2,0,P|421:53|364:64,1,120
324,58,3294,2,0,L|192:33,1,120
158,39,3758,6,0,L|153:116,1,60
109,112,4067,2,0,L|117:188,1,60
74,192,4382,2,0,L|96:265,1,60
105,295,4698,1,0,0:0:0:0:
197,349,5014,5,0,0:0:0:0:
197,349,5168,1,0,0:0:0:0:
197,349,5323,2,0,P|261:337|328:352,1,120
357,326,5787,2,0,B|414:347|414:347|466:318,1,120
510,291,6278,1,0,0:0:0:0:
510,291,7289,5,0,0:0:0:0:
435,219,7626,1,0,0:0:0:0:
435,219,7782,1,0,0:0:0:0:
435,219,7938,2,0,P|461:158|453:89,1,120
416,81,8407,2,0,B|357:77|357:77|286:59,1,120
255,48,8876,1,0,0:0:0:0:
255,48,9553,5,0,0:0:0:0:
103,157,10570,6,0,B|154:177|154:177|219:184,1,120
257,154,11043,1,0,0:0:0:0:
257,154,11201,1,0,0:0:0:0:
441,83,11833,6,0,L|492:26,2,60
450,130,12306,2,0,P|395:173|347:168,1,120
276,43,13096,6,0,B|216:51|216:51|154:38,1,120
117,65,13570,1,0,0:0:0:0:
117,65,13727,1,0,0:0:0:0:
40,241,14359,6,0,L|146:177,1,120
191,179,14833,1,0,0:0:0:0:
191,179,14991,1,0,0:0:0:0:
229,266,15306,6,0,L|234:307,3,30
307,268,15622,2,0,P|366:244|428:247,1,120
455,210,16096,1,0,0:0:0:0:
455,210,16254,2,0,P|469:147|430:88,1,120
371,161,16885,6,0,L|267:85,1,120
185,51,17517,2,0,L|148:111,1,60
152,151,17833,2,0,L|83:170,1,60
47,177,18148,6,0,L|55:313,1,120
96,320,18622,1,0,0:0:0:0:
96,320,18780,2,0,P|160:312|216:328,1,120
295,277,19412,6,0,P|335:325|411:325,1,120
384,236,20043,2,0,L|424:180,1,60
447,148,20359,5,0,0:0:0:0:
447,148,20517,1,0,0:0:0:0:
447,148,20675,2,0,P|395:104|390:33,1,120
344,30,21148,1,0,0:0:0:0:
344,30,21306,1,0,0:0:0:0:
152,39,21938,6,0,L|63:149,1,120
96,176,22412,1,0,0:0:0:0:
96,176,22570,1,0,0:0:0:0:
286,196,23201,6,0,P|325:163|397:169,1,120
430,137,23675,1,0,0:0:0:0:
430,137,23833,1,0,0:0:0:0:
439,328,24464,6,0,L|350:233,1,120
311,253,24938,1,0,0:0:0:0:
311,253,25096,1,0,0:0:0:0:
280,344,25412,6,0,L|243:376,3,30
216,298,25727,2,0,L|82:242,1,120
93,210,26201,1,0,0:0:0:0:
93,210,26359,2,0,P|60:147|84:85,1,120
160,138,26991,6,0,B|217:140|217:140|294:109,1,120
297,23,27622,2,0,L|363:49,1,60
400,53,27938,2,0,L|464:36,1,60
471,84,28254,6,0,L|459:205,1,120
424,236,28727,1,0,0:0:0:0:
424,236,28885,2,0,P|448:295|412:364,1,120
348,295,29517,6,0,P|288:295|222:327,1,120
139,338,30148,2,0,L|95:282,1,60
71,253,30464,5,0,0:0:0:0:
71,253,30622,1,0,0:0:0:0:
99,181,30780,2,0,L|41:152,2,60
151,118,31254,2,0,L|225:103,2,60
92,62,31727,1,0,0:0:0:0:
232,25,32201,5,0,0:0:0:0:
232,25,32359,2,0,P|284:64|287:139,2,120
352,27,33306,6,0,L|419:23,2,60
373,106,33780,2,0,L|445:121,2,60
353,185,34254,1,0,0:0:0:0:
372,326,34727,6,0,L|442:351,2,60
341,288,35201,2,0,P|251:297|208:278,1,120
130,270,35833,6,0,L|76:215,2,60
170,199,36306,2,0,L|149:133,2,60
247,174,36780,1,0,0:0:0:0:
118,31,37412,5,0,0:0:0:0:
74,116,37727,2,0,P|77:178|130:226,1,120
165,137,38359,5,0,0:0:0:0:
256,192,38438,12,0,39622,0:0:0:0:
378,84,40727,5,0,0:0:0:0:
378,84,40885,2,0,P|399:147|457:185,1,120
428,226,41359,1,0,0:0:0:0:
428,226,41517,2,0,P|454:286|425:355,1,120
356,290,42148,5,0,0:0:0:0:
356,290,42306,2,0,B|299:309|299:309|221:305,1,120
197,330,42780,2,0,P|128:342|75:307,1,120
149,246,43412,6,0,L|111:133,1,120
68,109,43885,1,0,0:0:0:0:
68,109,44043,2,0,B|105:59|105:59|162:26,1,120
238,77,44675,5,0,0:0:0:0:
238,77,44833,2,0,P|303:78|366:33,1,120
397,56,45306,2,0,B|455:75|455:75|492:153,1,120
479,176,45780,5,0,0:0:0:0:
479,176,45938,2,0,L|358:217,1,120
334,251,46412,1,0,0:0:0:0:
334,251,46570,2,0,P|357:314|331:369,1,120
256,311,47201,5,0,0:0:0:0:
256,311,47359,2,0,P|229:234|257:186,1,120
252,155,47833,2,0,B|309:146|309:146|365:106,1,120
452,86,48464,6,0,P|408:23|349:16,1,120
321,16,48938,1,0,0:0:0:0:
321,16,49096,2,0,P|248:39|189:22,1,120
110,33,49727,5,0,0:0:0:0:
110,33,49885,2,0,B|125:91|125:91|109:153,1,120
72,179,50359,1,0,0:0:0:0:
72,179,50517,1,0,0:0:0:0:
72,179,50675,1,0,0:0:0:0:
24,262,50991,6,0,P|89:273|144:235,1,120
181,258,51464,1,0,0:0:0:0:
181,258,51622,2,0,B|237:274|237:274|283:329,1,120
371,340,52254,5,0,0:0:0:0:
371,340,52412,2,0,P|414:346|477:281,1,120
440,264,52885,2,0,B|442:209|442:209|481:145,1,120
489,58,53517,6,0,P|423:71|387:115,1,120
341,114,53991,2,0,L|266:126,1,60
255,83,54306,2,0,L|180:95,1,60
115,38,54780,5,0,0:0:0:0:
115,38,54938,2,0,P|96:108|132:163,1,120
154,177,55412,2,0,B|139:234|139:234|160:311,1,120
248,272,56043,5,0,0:0:0:0:
282,286,56991,5,0,0:0:0:0:
316,300,57938,5,0,0:0:0:0:
467,120,58885,6,0,L|390:135,1,60
360,140,59201,1,0,0:0:0:0:
296,67,59517,6,0,L|229:54,1,60
210,96,59833,2,0,L|139:120,1,60
141,194,60148,5,0,0:0:0:0:
141,194,60306,1,0,0:0:0:0:
141,194,60464,2,0,B|129:225|129:225|147:242|147:242|132:284|148:331|201:348,1,180
220,271,61096,6,0,L|290:308,2,60
259,203,61570,2,0,L|233:148,2,60
331,237,62043,6,0,P|382:238|405:224,1,60
414,193,62359,2,0,P|460:172|475:149,1,60
470,118,62675,2,0,P|503:79|507:52,1,60
431,49,62991,2,0,P|393:32|305:37,1,120
242,46,63464,5,0,0:0:0:0:
242,46,63622,2,0,L|167:27,2,60
188,113,64096,2,0,L|113:94,2,60
134,180,64570,6,0,L|149:258,1,60
192,247,64885,2,0,L|238:311,1,60
275,289,65201,2,0,L|326:309,3,30
263,214,65517,1,0,0:0:0:0:
263,214,65675,1,0,0:0:0:0:
263,214,65833,1,0,0:0:0:0:
355,237,66148,6,0,P|382:278|356:359,1,120
321,344,66622,1,0,0:0:0:0:
302,299,66780,2,0,B|245:309|245:309|169:337,1,120
92,345,67412,6,0,P|43:303|56:227,1,120
53,204,67885,1,0,0:0:0:0:
53,204,68043,2,0,L|140:115,1,120
218,66,68675,6,0,P|182:33|97:36,1,120
113,76,69148,1,0,0:0:0:0:
136,118,69306,2,0,P|176:157|246:158,1,120
310,98,69938,6,0,L|442:88,1,120
457,128,70412,1,0,0:0:0:0:
457,128,70570,1,0,0:0:0:0:
429,219,70885,2,0,L|458:266,3,30
372,277,71201,5,0,0:0:0:0:
372,277,71359,1,0,0:0:0:0:
372,277,71517,2,0,P|334:320|261:324,1,120
286,232,72148,6,0,P|247:178|187:168,1,120
191,262,72780,2,0,L|143:315,1,60
123,346,73096,2,0,L|43:327,1,60
36,264,73412,5,0,0:0:0:0:
36,264,73570,1,0,0:0:0:0:
36,264,73727,2,0,L|73:200,1,60
43,169,74043,2,0,P|33:109|82:49,1,120
129,130,74675,2,0,L|245:81,1,120
299,8,75306,6,0,L|412:79,1,120
404,120,75780,1,0,0:0:0:0:
404,120,75938,2,0,L|483:131,1,60
463,176,76254,6,0,P|488:229|452:284,1,120
412,282,76727,1,0,0:0:0:0:
412,282,76885,2,0,L|305:360,1,120
219,340,77517,6,0,P|150:362|87:344,1,120
68,321,77991,1,0,0:0:0:0:
68,321,78148,2,0,L|76:247,1,60
78,213,78464,1,0,0:0:0:0:
28,130,78780,6,0,P|85:115|149:149,1,120
184,121,79254,1,0,0:0:0:0:
184,121,79412,2,0,B|225:81|225:81|287:55,1,120
375,30,80043,6,0,L|501:84,2,120
356,74,80833,2,0,P|336:133|374:201,1,120
417,231,81306,6,0,L|499:215,2,60
379,261,81780,2,0,P|352:318|288:338,1,120
257,358,82254,2,0,L|132:337,1,120
43,343,82885,6,0,P|74:266|123:247,1,120
125,207,83359,1,0,0:0:0:0:
125,207,83517,2,0,L|75:144,1,60
108,86,83833,6,0,L|35:69,2,60
144,55,84306,1,0,0:0:0:0:
144,55,84464,2,0,P|196:28|264:31,1,120
294,117,85096,6,0,B|352:129|352:129|430:121,1,120
479,191,85727,1,0,0:0:0:0:
479,191,85885,1,0,0:0:0:0:
479,191,86043,1,0,0:0:0:0:
429,273,86359,6,0,L|448:355,2,60
357,315,86833,2,0,L|361:380,2,60
275,330,87306,1,0,0:0:0:0:
137,285,87780,5,0,0:0:0:0:
137,285,87938,2,0,P|72:303|25:358,2,120
154,190,88885,6,0,L|235:161,2,60
101,132,89359,2,0,L|34:105,2,60
154,75,89833,1,0,0:0:0:0:
286,130,90306,5,0,0:0:0:0:
286,130,90464,2,0,P|299:170|256:244,2,120
374,93,91412,6,0,L|426:32,2,60
403,164,91885,2,0,L|478:151,2,60
430,237,92359,1,0,0:0:0:0:
266,338,92991,6,0,L|199:314,1,60
162,328,93306,2,0,P|108:339|50:308,1,120
118,240,93938,5,0,0:0:0:0:
256,192,94017,12,0,95201,0:0:0:0:
332,275,96306,5,0,0:0:0:0:
332,275,96464,2,0,L|424:185,1,120
409,143,96938,1,0,0:0:0:0:
409,143,97096,2,0,P|428:91|402:27,1,120
328,87,97727,5,0,0:0:0:0:
328,87,97885,2,0,B|267:92|267:92|187:71,1,120
172,46,98359,2,0,P|105:32|55:60,1,120
122,127,98991,6,0,P|101:182|61:229,1,120
53,275,99464,1,0,0:0:0:0:
53,275,99622,2,0,P|67:332|122:368,1,120
152,277,100254,5,0,0:0:0:0:
152,277,100412,2,0,L|272:197,1,120
289,240,100885,2,0,P|350:249|408:293,1,120
431,315,101359,5,0,0:0:0:0:
431,315,101517,2,0,L|492:191,1,120
453,169,101991,1,0,0:0:0:0:
453,169,102148,2,0,B|459:107|459:107|428:30,1,120
341,42,102780,5,0,0:0:0:0:
341,42,102938,2,0,P|270:48|241:99,1,120
271,123,103412,2,0,L|326:248,1,120
404,277,104043,6,0,P|367:319|290:325,1,120
259,342,104517,1,0,0:0:0:0:
259,342,104675,2,0,P|185:329|128:348,1,120
61,288,105306,5,0,0:0:0:0:
61,288,105464,1,0,0:0:0:0:
61,288,105622,2,0,P|36:218|61:164,2,120
132,223,106570,6,0,L|246:165,1,120
281,191,107043,1,0,0:0:0:0:
281,191,107201,2,0,B|337:207|337:207|383:262,1,120
359,349,107833,5,0,0:0:0:0:
359,349,107991,2,0,P|406:349|465:290,1,120
488,264,108464,2,0,B|414:169,1,120
426,73,109096,6,0,P|360:86|324:130,1,120
278,125,109570,1,0,0:0:0:0:
278,125,109727,2,0,P|206:118|174:69,1,120
98,29,110359,5,0,0:0:0:0:
98,29,110517,2,0,P|79:99|115:154,1,120
75,181,110991,2,0,B|88:241|88:241|71:302,1,120
145,336,111622,5,0,0:0:0:0:
181,327,112570,5,0,0:0:0:0:
217,318,113518,5,0,0:0:0:0:
