osu file format v14

[General]
AudioFilename: audio.mp3
AudioLeadIn: 0
PreviewTime: 3
Countdown: 0
SampleSet: Soft
StackLeniency: 0.7
Mode: 0
LetterboxInBreaks: 0
WidescreenStoryboard: 0

[Editor]
DistanceSpacing: 0.7
BeatDivisor: 8
GridSize: 32
TimelineZoom: 1.9

[Metadata]
Title:A Thousand Miles
TitleUnicode:A Thousand Miles
Artist:Vanessa Carlton
ArtistUnicode:Vanessa Carlton
Creator:Weoweet
Version:Sebas' Insane
Source:Legally Blonde
Tags:monsieursebas garvanturr piano english pop interlude be not nobody 1000
BeatmapID:4257455
BeatmapSetID:1999312

[Difficulty]
HPDrainRate:5
CircleSize:4
OverallDifficulty:8
ApproachRate:9
SliderMultiplier:3.2
SliderTickRate:1

[Events]
//Background and Video events
0,0,"Vanessa Carlton - A Thousand Miles 3-15 screenshot.png",0,0
Video,-173,"aviavi.avi"
//Break Periods
2,61268,65520
//Storyboard Layer 0 (Background)
//Storyboard Layer 1 (Fail)
//Storyboard Layer 2 (Pass)
//Storyboard Layer 3 (Foreground)
//Storyboard Layer 4 (Overlay)
//Storyboard Sound Samples

[TimingPoints]
56,631.578947368421,4,2,0,30,1,0
213,625,4,2,0,30,1,0
1150,693.64161849711,4,2,0,30,1,0
2190,631.578947368421,4,2,0,30,1,0
2821,625,4,2,0,30,1,0
3758,571.428571428571,4,2,0,30,1,0
4043,638.297872340426,4,2,0,30,1,0
4681,618.556701030928,4,2,0,40,1,0
5299,628.272251308901,4,2,0,30,1,0
6084,722.89156626506,4,2,0,30,1,0
6264,666.666666666667,4,2,0,30,1,0
7264,650.406504065041,4,2,0,30,1,0
7914,631.578947368421,4,2,0,30,1,0
8861,689.655172413793,4,2,0,30,1,0
9550,992.555831265509,4,2,0,30,1,0
10542,631.578947368421,4,2,0,40,1,0
10542,-133.333333333333,4,2,0,40,0,0
28226,-133.333333333333,4,2,0,45,0,0
29173,-133.333333333333,4,2,0,50,0,0
30752,-133.333333333333,4,2,0,60,0,0
40857,-90.9090909090909,4,2,0,60,0,0
56015,-90.9090909090909,4,2,0,50,0,0
60436,-90.9090909090909,4,2,0,70,0,0
61068,-90.9090909090909,4,2,0,80,0,0
66120,-90.9090909090909,4,2,0,50,0,0
66278,-111.111111111111,4,2,0,50,0,0
73699,-111.111111111111,4,2,0,55,0,0
76226,-111.111111111111,4,2,0,60,0,0
93910,-111.111111111111,4,2,0,50,0,0
96436,-83.3333333333333,4,2,0,60,0,0
111594,-83.3333333333333,4,2,0,50,0,0
112542,-83.3333333333333,4,2,0,55,0,0
113489,-83.3333333333333,4,2,0,50,0,0
116015,-83.3333333333333,4,2,0,70,0,0
116647,-66.6666666666667,4,2,0,80,0,0
117199,-66.6666666666667,4,2,0,70,0,0
117278,-66.6666666666667,4,2,0,80,0,0
117752,-66.6666666666667,4,2,0,70,0,0
117910,-66.6666666666667,4,2,0,80,0,0
118463,-66.6666666666667,4,2,0,70,0,0
118542,-66.6666666666667,4,2,0,80,0,0
119726,-66.6666666666667,4,2,0,70,0,0
119805,-66.6666666666667,4,2,0,80,0,0
120278,-66.6666666666667,4,2,0,70,0,0
120436,-66.6666666666667,4,2,0,80,0,0
126752,-100,4,2,0,60,0,0
146963,-133.333333333333,4,2,0,50,0,0
148541,-133.333333333333,4,2,0,60,0,0
148699,-133.333333333333,4,2,0,50,0,0
149804,-133.333333333333,4,2,0,60,0,0
149963,-133.333333333333,4,2,0,50,0,0
153278,-133.333333333333,4,2,0,55,0,0
154699,-133.333333333333,4,2,0,60,0,0
155015,-133.333333333333,4,2,0,55,0,0
157068,-133.333333333333,4,2,0,60,0,0
162120,-133.333333333333,4,2,0,70,0,0
167173,-133.333333333333,4,2,0,60,0,0
174752,-133.333333333333,4,2,0,50,0,0
178542,631.578947368421,4,2,0,50,1,0
188647,-200,4,2,0,40,0,0
190067,-200,4,2,0,70,0,0
190541,-200,4,2,0,40,0,0
190699,-200,4,2,0,70,0,0
191173,-200,4,2,0,40,0,0
192751,-200,4,2,0,70,0,0
193384,-200,4,2,0,40,0,0
193699,-200,4,2,0,50,0,0
195594,-200,4,2,0,45,0,0
196226,-200,4,2,0,50,0,0
196857,-200,4,2,0,55,0,0
197489,-200,4,2,0,65,0,0
198752,-76.9230769230769,4,2,0,70,0,0
213910,-76.9230769230769,4,2,0,50,0,0
218331,-76.9230769230769,4,2,0,70,0,0
218963,-76.9230769230769,4,2,0,40,0,0
221489,638.297872340426,4,2,0,30,1,0
224042,631.578947368421,4,2,0,30,1,0
224989,689.655172413793,4,2,0,30,1,0
226023,631.578947368421,4,2,0,30,1,0
226654,615.384615384615,4,2,0,30,1,0
227267,-100,4,2,0,30,0,0
229115,638.297872340426,4,2,0,30,1,0
230072,689.655172413793,4,2,0,30,1,0
231106,638.297872340426,4,2,0,30,1,0
231744,625,4,2,0,30,1,0
232681,705.882352941176,4,2,0,30,1,0
233386,1000,4,2,0,30,1,0

[Colours]
Combo1 : 46,185,209
Combo2 : 112,138,243

[HitObjects]
80,45,10542,6,0,L|166:60,2,60.0000000000001,6|2|2,1:2|2:0|2:0,2:0:0:0:
228,163,11015,2,0,P|223:130|194:100,1,60.0000000000001,2|8,1:2|2:0,2:0:0:0:
136,137,11331,2,0,P|141:170|170:200,1,60.0000000000001,2|0,2:0|2:0,2:0:0:0:
109,345,11647,2,0,P|198:350|266:281,1,180,2|0,2:0|2:0,2:0:0:0:
317,233,12278,2,0,P|322:204|334:149,1,60.0000000000001,2|8,1:2|2:0,2:0:0:0:
391,249,12594,2,0,P|397:219|402:190,1,60.0000000000001,2|0,2:0|2:0,2:0:0:0:
497,155,12910,2,0,P|408:160|340:91,1,180,2|0,2:0|2:0,2:0:0:0:
393,38,13542,6,0,P|425:33|474:22,1,60.0000000000001,2|8,1:2|2:0,2:0:0:0:
274,139,13857,2,0,P|244:133|214:128,1,60.0000000000001,2|0,2:0|2:0,2:0:0:0:
191,61,14173,2,0,B|133:57|144:94|74:91,1,120,2|2,2:0|2:0,2:0:0:0:
16,44,14647,1,2,2:0:0:0:
13,122,14805,2,0,P|21:155|28:190,1,60.0000000000001,2|8,1:2|2:0,2:0:0:0:
37,375,15120,2,0,P|100:318|114:215,1,180,2|2,2:0|1:2,2:0:0:0:
181,188,15752,1,2,2:3:0:0:
255,202,15910,1,2,2:0:0:0:
298,263,16068,1,2,1:2:0:0:
329,334,16226,1,10,2:0:0:0:
394,364,16384,1,2,2:0:0:0:
469,348,16542,6,0,P|471:316|479:274,1,60.0000000000001,2|0,1:3|2:0,2:0:0:0:
400,129,16857,2,0,P|392:156|393:188,1,60.0000000000001,2|0,2:0|2:0,2:0:0:0:
282,365,17173,2,0,P|298:317|287:257,1,90.0000000000002,2|0,1:3|2:0,2:0:0:0:
273,209,17489,1,10,2:0:0:0:
273,209,17805,1,0,2:0:0:0:
391,276,17963,1,0,3:2:0:0:
197,360,18120,6,0,P|168:350|123:347,1,60.0000000000001,2|2,1:2|2:0,2:0:0:0:
93,286,18436,1,2,2:0:0:0:
133,222,18594,1,2,1:2:0:0:
90,162,18752,1,10,2:0:0:0:
19,182,18910,1,2,2:0:0:0:
81,137,19068,1,2,1:3:0:0:
87,61,19226,1,2,2:0:0:0:
19,20,19384,1,2,2:0:0:0:
93,39,19542,1,2,2:0:0:0:
168,22,19699,1,2,1:3:0:0:
95,16,19857,1,2,2:0:0:0:
254,194,20015,5,10,2:0:0:0:
268,120,20173,2,0,P|261:88|258:48,2,60.0000000000001,2|2|2,2:0|2:0|2:0,2:0:0:0:
363,368,20647,2,0,P|404:284|370:202,1,180,6|0,1:2|1:0,2:0:0:0:
386,136,21278,1,8,2:0:0:0:
111,248,21752,1,0,3:2:0:0:
156,310,21910,6,0,P|252:287|300:212,1,180,2|0,1:2|1:2,2:0:0:0:
386,136,22542,1,8,2:0:0:0:
106,42,23015,1,2,3:2:0:0:
78,110,23173,6,0,P|128:169|225:172,1,180,2|0,1:2|1:2,2:0:0:0:
386,136,23805,1,8,2:0:0:0:
187,24,24278,1,0,3:2:0:0:
171,97,24436,6,0,L|184:164,2,60.0000000000001,2|0|0,1:2|2:0|2:0,2:0:0:0:
266,22,24910,2,0,L|334:29,1,60.0000000000001,2|8,1:0|2:0,2:0:0:0:
512,202,25226,2,0,P|397:183|355:97,1,180,2|2,2:1|1:0,2:0:0:0:
292,165,25857,1,2,2:3:0:0:
261,236,26015,1,2,2:0:0:0:
278,313,26173,1,2,1:0:0:0:
344,351,26331,1,10,2:0:0:0:
419,339,26489,1,2,2:0:0:0:
473,287,26647,6,0,P|478:257|488:221,1,60.0000000000001,2|0,2:1|2:0,2:0:0:0:
460,63,26963,2,0,P|452:91|447:121,1,60.0000000000001,2|0,2:0|2:0,2:0:0:0:
272,228,27278,2,0,P|301:186|285:130,1,90.0000000000002,2|0,1:2|2:0,2:0:0:0:
273,78,27594,1,10,2:0:0:0:
273,78,27910,1,0,2:0:0:0:
127,142,28068,1,0,3:2:0:0:
243,242,28226,6,0,P|250:272|254:317,1,60.0000000000001,2|2,1:2|2:0,2:0:0:0:
210,365,28542,1,2,2:0:0:0:
136,348,28699,1,2,1:2:0:0:
61,323,28857,1,10,2:0:0:0:
117,269,29015,1,2,2:0:0:0:
60,216,29173,1,2,1:3:0:0:
0,267,29331,1,2,2:0:0:0:
42,202,29489,1,2,2:0:0:0:
21,126,29647,1,2,2:0:0:0:
158,158,29805,1,2,1:3:0:0:
70,193,29963,1,2,2:0:0:0:
286,81,30120,5,10,2:0:0:0:
221,43,30278,2,0,P|194:29|164:23,2,60.0000000000001,2|2|2,2:0|2:3|2:3,2:0:0:0:
502,183,30752,5,6,1:2:0:0:
406,201,30910,1,2,2:0:0:0:
335,144,31068,1,2,2:0:0:0:
489,140,31226,5,2,1:2:0:0:
383,237,31384,1,10,2:0:0:0:
496,337,31542,1,2,2:0:0:0:
311,298,31699,5,2,1:2:0:0:
238,124,32331,5,0,2:0:0:0:
238,124,32647,1,12,2:0:0:0:
238,124,32963,1,0,2:0:0:0:
7,211,33278,5,2,1:2:0:0:
103,229,33436,1,2,2:0:0:0:
174,172,33594,1,2,2:0:0:0:
20,168,33752,5,2,1:2:0:0:
126,265,33910,1,10,2:0:0:0:
13,365,34068,1,2,2:0:0:0:
198,326,34226,5,2,1:2:0:0:
238,124,34857,5,0,2:0:0:0:
238,124,35173,1,12,2:0:0:0:
238,124,35489,1,0,2:0:0:0:
502,183,35805,5,2,1:2:0:0:
406,201,35963,1,2,2:0:0:0:
335,144,36120,1,2,2:0:0:0:
489,140,36278,5,2,1:2:0:0:
383,237,36436,1,10,2:0:0:0:
496,337,36594,1,2,2:0:0:0:
311,298,36752,5,2,1:2:0:0:
238,124,37384,5,2,2:3:0:0:
238,124,37699,1,12,2:0:0:0:
238,124,38015,1,0,2:0:0:0:
257,371,38331,5,6,1:2:0:0:
257,371,39594,5,6,1:2:0:0:
257,371,40699,5,2,3:2:0:0:
257,371,40778,1,0,2:0:0:0:
257,371,40857,2,0,P|272:286|241:182,1,176,6|0,2:1|2:0,2:0:0:0:
447,215,41331,2,0,P|402:212|354:250,2,88,2|8|0,1:2|2:0|2:0,2:0:0:0:
178,231,41805,2,0,P|289:199|312:118,1,176,2|0,2:0|1:0,2:0:0:0:
137,31,42278,2,0,P|165:61|217:73,1,88,8|0,2:0|2:0,2:0:0:0:
283,53,42594,1,0,1:0:0:0:
178,231,42752,2,0,P|116:144|25:136,1,176,12|2,2:0|2:0,2:0:0:0:
0,188,43226,1,0,2:0:0:0:
171,245,43384,6,0,B|75:250|86:317|-2:320,1,176,2|0,1:2|2:0,2:0:0:0:
249,384,43857,2,0,P|245:337|220:300,2,88,2|8|0,1:2|2:0|2:0,2:0:0:0:
233,160,44331,6,0,P|238:255|315:255,1,176,2|0,2:0|1:0,2:0:0:0:
512,308,44805,2,0,B|500:350|449:362|449:362|422:321|444:279,1,176,8|0,2:0|1:0,2:0:0:0:
369,45,45278,2,0,P|398:129|368:222,1,176,12|0,2:0|2:0,2:0:0:0:
302,262,45752,1,2,2:2:0:0:
470,152,45910,6,0,P|388:225|389:138,1,176,2|0,1:0|2:0,2:0:0:0:
216,120,46384,2,0,P|217:97|232:126,1,88,2|8,1:2|2:0,2:0:0:0:
198,192,46699,1,0,2:0:0:0:
87,73,46857,2,0,P|192:77|238:151,1,176,2|0,2:0|1:0,2:0:0:0:
96,296,47331,2,0,B|46:250|72:183|72:183|134:208,1,176,8|0,2:0|1:0,2:0:0:0:
429,316,47805,6,0,B|335:294|360:368|256:349,1,176,12|2,2:0|2:3,2:0:0:0:
209,292,48278,1,0,0:0:0:0:
424,330,48436,6,0,P|354:275|350:185,1,176,2|0,1:2|2:0,2:0:0:0:
267,132,48910,2,0,P|312:126|344:80,1,88.000002685547,2|8,1:2|2:0,2:0:0:0:
270,50,49226,1,0,2:0:0:0:
453,206,49384,2,0,P|481:105|413:75,1,176,2|0,2:0|1:0,2:0:0:0:
227,219,49857,2,0,B|204:255|158:264|158:264|127:223|166:162,1,176,8|0,2:0|1:0,2:0:0:0:
345,331,50331,5,12,2:0:0:0:
230,138,50489,1,8,2:0:0:0:
256,319,50647,5,2,1:3:0:0:
333,184,50805,1,8,2:0:0:0:
165,353,50963,6,0,P|90:314|125:246,1,176,6|0,1:0|2:0,2:0:0:0:
61,91,51436,2,0,P|65:137|32:168,1,88,2|8,1:2|2:0,2:0:0:0:
0,232,51752,1,0,2:0:0:0:
167,127,51910,6,0,P|196:159|267:84,1,176,2|0,2:0|1:0,2:0:0:0:
199,56,52384,1,8,2:0:0:0:
391,232,52542,2,0,P|394:182|353:139,1,88,2|0,2:3|1:0,2:0:0:0:
170,271,52857,1,14,2:0:0:0:
170,271,52936,1,2,2:0:0:0:
170,271,53015,2,0,P|191:308|231:325,2,88,2|2|0,2:0|2:0|2:0,2:0:0:0:
490,290,53489,6,0,P|395:282|321:344,1,176,2|0,1:2|2:0,2:0:0:0:
447,168,53963,2,0,P|475:129|462:78,1,88,2|8,1:2|2:0,2:0:0:0:
413,41,54278,1,0,2:0:0:0:
490,290,54436,6,2,P|388:183|327:192,1,176,2|0,2:3|1:0,2:1:0:0:
230,17,54910,2,2,P|254:98|327:58,1,176,8|0,2:0|1:0,2:1:0:0:
117,97,55384,6,0,P|81:134|78:203,1,88,14|0,2:0|2:0,2:0:0:0:
297,333,55699,2,0,P|282:283|224:246,1,88,2|0,2:0|2:0,2:0:0:0:
16,372,56015,5,4,1:2:0:0:
16,372,56963,6,2,P|249:315|383:69,1,528,6|4,1:2|1:2,2:1:0:0:
256,192,58068,12,0,60278,2:0:0:0:
310,26,60436,5,10,2:1:0:0:
208,55,60594,1,8,2:3:0:0:
174,130,60752,5,4,2:3:0:0:
359,177,60910,1,8,2:0:0:0:
255,363,61068,5,6,1:0:0:0:
255,363,66120,5,6,1:0:0:0:
255,363,66278,2,0,L|267:273,1,72.0000000000001,2|0,2:0|2:0,2:0:0:0:
216,152,66594,2,0,P|202:190|204:242,1,72.0000000000001,2|8,1:2|2:0,2:0:0:0:
340,252,66910,2,0,P|354:214|352:162,1,72.0000000000001,2|0,2:0|2:0,2:0:0:0:
164,301,67226,6,0,P|92:262|89:177,1,144,2|0,2:0|2:0,2:0:0:0:
28,148,67699,1,2,2:0:0:0:
98,114,67857,2,0,P|112:78|116:41,1,72.0000000000001,2|8,1:2|2:0,2:0:0:0:
230,10,68173,2,0,P|216:46|212:83,1,72.0000000000001,2|0,2:0|2:0,2:0:0:0:
262,162,68489,2,0,P|320:196|408:172,1,144,2|0,2:0|2:0,2:0:0:0:
427,114,68963,1,2,2:0:0:0:
490,158,69120,2,0,P|492:191|476:246,1,72.0000000000001,2|8,1:2|2:0,2:0:0:0:
405,339,69436,2,0,P|403:306|419:251,1,72.0000000000001,2|0,2:0|2:0,2:0:0:0:
295,342,69752,2,0,P|302:306|301:271,1,72.0000000000001,2|0,2:0|1:0,2:0:0:0:
231,151,70068,2,0,P|223:186|224:221,1,72.0000000000001,2|0,2:0|2:0,2:0:0:0:
349,138,70384,2,0,P|356:102|355:67,1,72.0000000000001,2|8,1:2|2:0,2:0:0:0:
143,22,70699,2,0,P|135:57|136:92,2,72.0000000000001,2|0|0,3:2|2:0|2:0,2:0:0:0:
224,221,71173,5,2,1:0:0:0:
157,187,71331,1,0,2:0:0:0:
87,214,71489,1,0,2:0:0:0:
156,165,71647,5,2,1:0:0:0:
48,147,71805,1,8,2:0:0:0:
10,242,71963,1,0,2:0:0:0:
72,189,72120,5,2,1:0:0:0:
92,345,72278,1,0,2:0:0:0:
255,368,72436,1,0,2:0:0:0:
228,289,72594,5,0,3:0:0:0:
267,289,72752,1,2,1:3:0:0:
302,304,72910,1,0,2:0:0:0:
490,276,73068,5,8,2:0:0:0:
490,276,73384,1,2,2:3:0:0:
404,149,73542,1,2,2:3:0:0:
496,21,73699,6,0,P|497:56|483:107,1,72.0000000000001,2|2,1:2|2:3,2:0:0:0:
496,21,74015,1,2,2:3:0:0:
419,8,74173,1,2,1:2:0:0:
352,40,74331,1,10,2:0:0:0:
327,111,74489,1,2,2:0:0:0:
319,31,74647,1,2,1:3:0:0:
245,5,74805,1,2,2:0:0:0:
180,46,74963,1,2,2:0:0:0:
251,36,75120,1,2,2:0:0:0:
228,107,75278,1,2,1:3:0:0:
156,119,75436,1,2,2:0:0:0:
105,59,75594,5,10,2:1:0:0:
32,32,75752,1,2,2:1:0:0:
3,159,75910,1,2,2:1:0:0:
75,184,76068,1,2,2:1:0:0:
194,293,76226,6,2,P|103:286|47:182,1,216,6|0,1:0|1:0,2:1:0:0:
243,229,76857,1,8,2:0:0:0:
0,282,77489,6,2,P|66:155|149:137,1,216,2|0,1:0|1:0,2:1:0:0:
243,229,78120,1,8,2:0:0:0:
98,34,78752,6,2,P|131:128|236:121,1,216,2|0,1:2|1:0,2:1:0:0:
243,229,79384,1,8,2:0:0:0:
183,48,80015,6,2,P|246:106|226:14,1,216,2|0,1:0|1:0,2:1:0:0:
244,228,80647,6,0,P|231:263|223:320,1,72.0000000000001,8|8,2:0|2:3,2:0:0:0:
331,366,80963,2,0,P|324:330|311:297,1,72.0000000000001,0|0,2:0|2:0,2:0:0:0:
0,225,81278,6,0,B|32:213|32:213|34:208|34:208|131:169,1,144,2|0,1:0|2:0,2:0:0:0:
210,363,81752,6,0,B|228:327|228:327|229:255|229:255|262:193,1,144,2|0,1:0|2:0,2:0:0:0:
469,375,82226,6,2,B|477:336|477:336|342:171|342:171|352:126,1,288,2|2,1:0|1:3,2:1:0:0:
364,67,83015,1,0,2:0:0:0:
447,286,83173,2,0,L|426:133,1,144,10|2,2:0|2:3,2:0:0:0:
442,73,83647,1,2,2:3:0:0:
252,32,83805,5,2,1:2:0:0:
186,76,83963,1,2,2:3:0:0:
213,146,84120,1,2,2:3:0:0:
299,238,84278,5,2,1:2:0:0:
326,308,84436,1,10,2:0:0:0:
260,352,84594,1,2,2:0:0:0:
187,324,84752,5,2,1:3:0:0:
155,308,84910,1,2,2:0:0:0:
113,312,85068,1,2,2:0:0:0:
79,341,85226,1,2,2:0:0:0:
40,322,85384,1,2,1:3:0:0:
18,283,85542,1,2,2:0:0:0:
122,174,85699,5,10,2:0:0:0:
36,44,85857,2,0,L|21:135,1,72.0000000000001,10|2,2:0|2:3,2:0:0:0:
215,217,86173,5,2,2:0:0:0:
215,217,86252,1,2,2:0:0:0:
215,217,86331,2,0,P|249:212|283:177,1,72.0000000000001,6|2,1:2|2:0,2:0:0:0:
370,52,86647,1,2,2:0:0:0:
223,24,86805,1,2,1:2:0:0:
267,161,86963,1,10,2:0:0:0:
347,89,87120,1,2,2:0:0:0:
234,66,87278,1,2,1:2:0:0:
83,230,87752,5,0,2:0:0:0:
83,230,87910,1,0,2:0:0:0:
83,230,88226,1,12,2:0:0:0:
83,230,88542,1,0,2:0:0:0:
471,365,88857,6,0,P|437:360|403:325,1,72.0000000000001,2|2,1:2|2:0,2:0:0:0:
316,201,89173,1,2,2:0:0:0:
463,173,89331,1,2,1:2:0:0:
419,310,89489,1,10,2:0:0:0:
339,238,89647,1,2,2:0:0:0:
452,215,89805,1,2,1:2:0:0:
86,148,90278,5,0,2:0:0:0:
86,148,90436,1,0,2:0:0:0:
86,148,90752,1,12,2:0:0:0:
86,148,91068,1,0,2:0:0:0:
444,8,91384,6,0,P|410:13|376:48,1,72.0000000000001,2|2,1:2|2:0,2:0:0:0:
289,173,91699,1,2,2:0:0:0:
436,201,91857,1,2,1:2:0:0:
392,64,92015,1,10,2:0:0:0:
312,136,92173,1,2,2:0:0:0:
425,159,92331,1,2,1:2:0:0:
258,384,92963,5,0,2:0:0:0:
257,193,93278,1,14,2:0:0:0:
255,13,93594,1,2,2:0:0:0:
255,13,93910,1,6,1:2:0:0:
255,13,95173,1,6,1:2:0:0:
255,13,96278,5,2,2:0:0:0:
255,13,96357,1,0,2:0:0:0:
255,13,96436,2,0,P|288:99|280:228,1,192,6|0,1:0|2:0,2:0:0:0:
459,139,96910,2,0,P|420:114|355:141,2,96,2|8|0,1:2|2:0|2:0,2:0:0:0:
205,194,97384,2,0,P|361:244|366:290,1,192,2|0,2:0|1:0,2:0:0:0:
192,313,97857,6,0,B|157:360|111:357|111:357|84:306|122:248,1,192,8|0,2:0|1:0,2:0:0:0:
342,339,98331,2,0,P|443:343|427:262,1,192,12|2,2:0|2:3,2:0:0:0:
361,246,98805,1,0,1:0:0:0:
497,361,98963,6,0,P|437:209|385:183,1,192,2|0,1:2|2:0,2:0:0:0:
409,109,99436,2,0,P|457:87|475:38,1,96,2|8,1:2|2:0,2:0:0:0:
409,109,99752,1,0,2:0:0:0:
324,146,99910,2,0,P|213:100|189:37,1,192,2|0,2:0|1:0,2:0:0:0:
192,201,100384,2,0,P|170:242|126:260,1,96,8|0,2:0|2:0,2:0:0:0:
54,237,100699,1,0,1:0:0:0:
321,374,100857,6,0,P|374:320|293:301,1,192,12|2,2:0|3:0,2:0:0:0:
242,357,101331,1,2,2:0:0:0:
473,352,101489,6,0,P|388:308|278:301,1,192,2|0,1:2|2:0,2:0:0:0:
453,170,101963,2,0,P|444:218|489:260,2,96,2|8|0,1:2|2:0|2:0,2:0:0:0:
191,249,102436,6,0,P|247:158|312:204,1,192,2|0,2:0|1:0,2:0:0:0:
156,355,102910,2,0,P|94:246|102:168,1,192,8|0,2:0|1:0,2:0:0:0:
382,122,103384,6,0,P|303:186|312:129,1,192,12|2,2:0|2:3,2:0:0:0:
306,115,103857,1,0,1:0:0:0:
344,384,104015,6,0,P|364:266|414:200,1,192,2|0,2:0|2:0,2:0:0:0:
483,281,104489,2,0,P|444:309|383:298,1,96,2|8,1:2|2:0,2:0:0:0:
331,269,104805,1,0,2:0:0:0:
277,211,104963,2,0,B|271:134|204:115|204:115|179:189,1,192,2|0,2:3|1:0,2:0:0:0:
39,362,105436,2,0,P|103:268|88:174,1,192,8|0,2:0|2:0,2:0:0:0:
309,88,105910,5,8,2:0:0:0:
128,20,106068,1,8,2:3:0:0:
283,15,106226,5,4,2:3:0:0:
145,95,106384,1,8,2:0:0:0:
408,211,106542,6,0,B|306:191|353:140|226:116,1,192,6|0,1:2|2:0,2:0:0:0:
413,224,107015,2,0,P|463:225|491:175,1,96,2|8,1:2|2:0,2:0:0:0:
463,118,107331,1,0,2:0:0:0:
359,371,107489,6,0,P|297:247|232:245,1,192,2|0,2:3|1:0,2:0:0:0:
154,120,107963,1,8,2:0:0:0:
70,257,108120,2,0,P|113:278|169:272,1,96,2|0,2:0|1:0,2:0:0:0:
292,131,108436,5,8,2:0:0:0:
74,53,108594,2,0,B|24:46|-11:88|-11:88|17:142|73:146,1,192,2|0,2:0|2:0,2:0:0:0:
347,78,109068,6,0,P|337:5|273:71,1,192,2|0,1:0|2:0,2:0:0:0:
386,225,109542,2,0,P|385:182|447:147,1,96,2|12,1:0|2:0,2:0:0:0:
442,78,109857,1,0,2:0:0:0:
296,254,110015,2,2,P|403:253|463:348,1,192,2|2,2:1|1:2,2:1:0:0:
236,360,110489,1,8,2:0:0:0:
315,163,110647,2,0,P|305:236|241:170,1,192,0|12,2:0|2:0,2:2:0:0:
32,276,111120,1,0,3:0:0:0:
197,371,111278,1,2,2:0:0:0:
139,242,111436,1,8,2:0:0:0:
52,365,111594,5,6,1:2:0:0:
52,365,112542,1,6,1:2:0:0:
52,365,113489,1,6,1:2:0:0:
256,192,113647,12,8,115857,2:3:0:0:
264,59,116015,5,8,2:3:0:0:
179,187,116173,1,8,2:3:0:0:
256,216,116331,5,4,2:3:0:0:
290,317,116489,1,4,2:3:0:0:
45,349,116647,6,0,L|184:367,1,120,6|0,1:0|2:0,2:0:0:0:
45,349,116963,1,2,2:0:0:0:
261,332,117120,1,2,1:0:0:0:
261,332,117199,1,0,2:0:0:0:
261,332,117278,1,14,2:0:0:0:
272,252,117436,1,0,2:0:0:0:
343,220,117594,1,6,1:0:0:0:
306,106,117752,5,0,2:0:0:0:
416,157,117910,1,0,2:0:0:0:
432,289,118068,1,8,2:0:0:0:
386,152,118226,2,0,P|400:88|453:50,1,120,2|0,1:3|2:0,2:0:0:0:
440,54,118463,1,0,2:0:0:0:
440,54,118542,1,8,2:0:0:0:
187,69,118699,6,0,P|182:114|204:80,1,120,8|2,2:0|2:3,2:0:0:0:
234,13,119015,1,0,2:0:0:0:
19,147,119173,6,0,P|78:145|126:205,1,120,6|0,1:0|2:0,2:0:0:0:
19,147,119489,1,2,2:0:0:0:
195,287,119647,1,2,1:0:0:0:
195,287,119726,1,0,2:0:0:0:
195,287,119805,1,14,2:0:0:0:
124,338,119963,5,0,2:0:0:0:
57,306,120120,1,6,1:0:0:0:
96,239,120278,1,2,2:0:0:0:
209,364,120436,5,2,2:0:0:0:
316,303,120594,1,10,2:0:0:0:
229,195,120752,1,2,1:3:0:0:
344,282,120910,2,0,L|470:310,1,120,0|4,2:0|2:3,2:0:0:0:
498,243,121173,6,0,L|490:152,1,80.0000030517579,8|8,2:3|2:0,2:0:0:0:
407,151,121384,2,0,P|379:166|414:168,2,80.0000030517579,8|8|8,2:0|2:0|2:0,2:0:0:0:
491,35,121699,6,0,L|342:9,1,120,6|0,1:0|2:0,2:0:0:0:
195,105,122015,1,2,2:0:0:0:
222,41,122173,1,2,1:0:0:0:
320,189,122331,1,14,2:0:0:0:
251,204,122489,1,0,2:0:0:0:
337,80,122647,5,6,1:0:0:0:
409,106,122805,1,2,2:0:0:0:
450,171,122963,1,2,2:0:0:0:
457,247,123120,1,10,2:0:0:0:
439,323,123278,1,2,1:3:0:0:
374,363,123436,1,2,2:0:0:0:
297,362,123594,1,2,2:3:0:0:
126,211,123752,5,8,2:1:0:0:
126,211,123910,1,8,2:1:0:0:
126,211,124068,1,8,2:1:0:0:
256,29,124226,6,0,B|253:59|253:59|249:66|249:66|242:155,1,120,6|0,1:0|2:0,2:0:0:0:
177,303,124542,1,2,2:0:0:0:
385,75,124699,6,0,B|376:106|376:106|344:153|344:153|339:183,1,120,2|14,1:0|2:0,2:0:0:0:
177,303,125015,1,2,2:0:0:0:
409,364,125173,6,0,B|355:349|355:349|271:243|271:243|208:227,1,240,6|12,1:0|2:0,2:0:0:0:
177,303,125647,1,0,2:0:0:0:
412,257,125805,2,0,L|104:316,1,240,6|8,1:0|2:0,2:0:0:0:
57,240,126278,1,8,2:3:0:0:
160,160,126436,1,4,2:3:0:0:
164,271,126594,1,4,2:3:0:0:
1,155,126752,6,0,P|-6:80|43:-4,1,160,6|2,1:0|2:0,2:0:0:0:
31,6,127226,1,2,1:0:0:0:
156,221,127384,2,0,P|77:218|12:173,1,160,8|2,2:0|2:0,2:0:0:0:
12,173,127857,1,0,1:0:0:0:
219,334,128015,6,0,P|306:327|304:262,1,160,2|2,1:0|2:0,2:0:0:0:
309,270,128489,1,2,1:0:0:0:
65,343,128647,2,0,P|207:329|244:347,1,160,8|0,2:0|2:0,2:0:0:0:
218,333,129120,1,8,2:0:0:0:
258,123,129278,5,4,1:2:0:0:
258,123,129594,2,0,P|254:78|235:24,1,80,2|0,2:0|1:0,2:0:0:0:
397,207,129910,2,0,P|407:168|410:128,1,80,10|0,2:0|2:0,2:0:0:0:
182,224,130226,6,0,P|178:184|168:145,1,80,2|0,2:0|3:0,2:0:0:0:
332,351,130542,2,0,P|384:255|399:191,1,160,2|2,3:2|2:0,2:0:0:0:
222,337,131015,2,0,P|189:336|150:300,1,80,2|8,1:2|2:0,2:0:0:0:
128,240,131331,1,0,2:0:0:0:
332,351,131489,2,0,P|365:350|404:314,1,80,2|8,2:0|2:0,2:0:0:0:
151,140,131805,6,0,P|50:185|35:271,1,160,6|2,1:0|2:0,2:0:0:0:
33,225,132278,1,2,1:0:0:0:
283,207,132436,2,0,P|241:141|165:121,1,160,8|2,2:0|2:0,2:0:0:0:
165,120,132910,1,0,1:0:0:0:
368,161,133068,6,0,P|425:178|485:98,1,160,2|2,1:0|2:0,2:0:0:0:
485,110,133542,1,2,1:0:0:0:
240,245,133699,2,0,P|313:175|367:161,1,160,8|2,2:0|2:0,2:0:0:0:
367,160,134173,1,8,2:0:0:0:
167,15,134331,5,0,1:0:0:0:
167,15,134647,2,0,P|155:52|132:98,1,80,2|0,2:0|1:0,2:0:0:0:
288,175,134963,2,0,P|305:211|317:249,1,80,10|0,2:0|3:0,2:0:0:0:
491,38,135278,6,0,P|479:75|456:121,1,80,2|0,2:0|2:0,2:0:0:0:
325,339,135594,2,0,P|233:335|256:269,1,160,2|2,1:2|2:0,2:0:0:0:
462,235,136068,2,0,P|493:293|439:252,1,160,2|0,1:2|1:0,2:0:0:0:
293,216,136542,1,10,2:0:0:0:
243,62,136699,1,8,2:0:0:0:
251,227,136857,6,0,P|168:311|92:295,1,160,6|2,1:0|2:0,2:0:0:0:
133,311,137331,1,2,1:0:0:0:
432,267,137489,2,0,P|349:183|273:199,1,160,8|2,2:0|2:0,2:0:0:0:
314,182,137963,1,0,1:0:0:0:
152,42,138120,6,0,P|165:115|238:66,1,160,2|2,2:1|2:0,2:0:0:0:
231,98,138594,1,2,1:0:0:0:
157,294,138752,2,0,P|151:166|121:119,1,160,8|2,2:0|2:0,2:0:0:0:
137,140,139226,1,8,2:0:0:0:
387,62,139384,5,0,1:0:0:0:
387,62,139699,2,0,P|424:42|469:35,1,80,2|0,2:0|1:0,2:0:0:0:
396,198,140015,2,0,P|435:205|469:224,1,80,10|0,2:0|2:0,2:0:0:0:
238,82,140331,6,0,P|265:48|309:24,1,80,2|0,2:0|1:0,2:0:0:0:
471,225,140647,2,0,P|418:301|350:232,1,160,2|2,1:2|2:0,2:0:0:0:
228,377,141120,2,0,P|242:257|281:189,1,160,2|0,1:2|2:0,2:0:0:0:
159,40,141594,2,0,P|149:82|117:133,1,80,2|4,2:0|2:3,2:0:0:0:
40,348,141910,6,0,P|31:275|90:208,1,160,6|2,1:0|2:0,2:0:0:0:
82,211,142384,1,2,1:0:0:0:
269,29,142542,2,0,P|319:88|311:165,1,160,12|8,2:0|2:0,2:0:0:0:
39,88,143015,1,8,2:0:0:0:
192,293,143173,6,0,P|187:265|223:227,1,80,6|0,1:0|2:0,2:0:0:0:
438,167,143489,1,8,2:0:0:0:
219,229,143647,6,0,B|358:265|279:332|426:357,1,240,6|4,1:0|1:2,2:0:0:0:
256,192,144199,12,0,146805,2:0:0:0:
88,63,146963,6,0,P|95:93|94:132,2,60.0000000000002,2|2|2,1:2|2:0|2:0,2:0:0:0:
199,240,147436,2,0,P|191:209|193:171,1,60.0000000000002,2|8,1:2|2:0,2:0:0:0:
113,201,147752,2,0,P|120:231|119:270,1,60.0000000000002,2|0,2:0|2:0,2:0:0:0:
275,365,148068,2,0,P|358:312|373:232,1,180,2|0,2:0|2:0,2:0:0:0:
320,95,148699,6,0,P|354:104|385:109,1,60.0000000000002,2|8,1:2|2:0,2:0:0:0:
400,37,149015,2,0,P|365:27|335:23,1,60.0000000000002,2|0,2:0|2:0,2:0:0:0:
476,131,149331,2,0,P|364:137|308:203,1,180,2|0,2:0|2:0,2:0:0:0:
189,65,149963,6,0,P|188:95|178:136,1,60.0000000000002,2|8,1:2|2:0,2:0:0:0:
104,112,150278,2,0,P|104:81|115:41,1,60.0000000000002,2|0,2:0|2:0,2:0:0:0:
242,179,150594,2,0,P|204:212|115:211,1,120,2|2,2:0|2:0,2:0:0:0:
69,179,151068,1,2,2:0:0:0:
9,224,151226,2,0,L|18:298,1,60.0000000000002,2|8,1:2|2:0,2:0:0:0:
259,351,151542,2,0,P|164:303|73:322,1,180,2|2,2:0|1:2,2:0:0:0:
152,354,152173,1,2,2:0:0:0:
188,290,152331,1,2,2:0:0:0:
155,225,152489,1,2,1:2:0:0:
210,173,152647,1,10,2:0:0:0:
274,215,152805,1,2,3:2:0:0:
267,295,152963,1,2,1:3:0:0:
315,353,153120,1,2,2:0:0:0:
387,342,153278,1,2,2:0:0:0:
415,271,153436,1,2,3:2:0:0:
395,203,153594,1,2,1:0:0:0:
493,16,153910,1,10,2:1:0:0:
395,203,154226,1,2,2:1:0:0:
217,72,154542,6,0,L|144:57,1,60.0000000000002,2|0,1:0|2:0,2:0:0:0:
104,4,154857,1,2,2:0:0:0:
47,56,155015,1,2,1:0:0:0:
49,130,155173,1,10,2:0:0:0:
107,179,155331,1,0,3:2:0:0:
37,160,155489,1,2,1:3:0:0:
6,227,155647,1,2,2:0:0:0:
64,278,155805,1,2,2:0:0:0:
115,332,155963,1,2,2:0:0:0:
96,256,156120,1,2,1:3:0:0:
146,203,156278,1,2,2:0:0:0:
355,218,156436,5,14,2:1:0:0:
331,288,156594,2,0,P|304:288|253:305,2,60.0000000000002,2|2|2,2:1|2:1|2:1,2:0:0:0:
480,192,157068,2,2,P|404:188|310:91,1,180,2|0,1:0|1:0,2:1:0:0:
314,48,157699,1,8,2:0:0:0:
325,347,158331,6,2,P|274:290|276:155,1,180,2|0,1:0|1:0,2:1:0:0:
314,48,158963,1,8,2:0:0:0:
101,350,159594,6,2,P|104:274|201:180,1,180,2|0,1:0|1:0,2:1:0:0:
314,48,160226,1,8,2:0:0:0:
100,95,160857,6,2,P|80:161|192:167,1,180,2|0,1:0|1:0,2:1:0:0:
314,125,161489,2,0,P|299:98|275:69,1,60.0000000000002,8|0,2:0|3:0,2:0:0:0:
257,199,161805,2,0,P|272:226|296:255,1,60.0000000000002,0|0,3:0|3:0,2:0:0:0:
503,360,162120,5,6,1:0:0:0:
483,290,162278,1,0,2:0:0:0:
414,273,162436,1,0,2:0:0:0:
371,330,162594,1,0,1:0:0:0:
298,345,162752,1,12,2:0:0:0:
240,295,162910,1,0,2:0:0:0:
272,128,163068,6,0,B|384:120|339:186|474:179,1,180,6|8,1:2|2:0,2:0:0:0:
288,27,163699,2,0,P|265:44|214:19,1,60.0000000000002,2|0,1:3|2:0,2:0:0:0:
135,180,164015,2,0,P|117:125|158:77,1,120,8|2,2:0|2:3,2:0:0:0:
234,40,164489,1,2,2:3:0:0:
186,249,164647,5,10,2:0:0:0:
133,301,164805,1,2,2:3:0:0:
70,341,164963,1,2,2:3:0:0:
147,334,165120,1,2,1:2:0:0:
224,348,165278,1,10,2:0:0:0:
296,367,165436,1,10,2:0:0:0:
242,319,165594,1,2,1:3:0:0:
295,264,165752,1,2,2:0:0:0:
224,294,165910,1,2,2:0:0:0:
229,217,166068,1,2,2:0:0:0:
186,275,166226,2,0,L|111:253,1,60.0000000000002,2|2,1:3|2:0,2:0:0:0:
281,146,166542,5,8,2:0:0:0:
446,217,166699,1,8,2:0:0:0:
413,130,166857,5,10,2:3:0:0:
341,207,167015,1,0,2:0:0:0:
153,73,167173,6,0,P|176:86|247:94,1,60.0000000000002,6|2,1:2|2:0,2:0:0:0:
267,49,167489,1,2,2:0:0:0:
183,176,167647,1,2,1:2:0:0:
58,95,167805,1,10,2:0:0:0:
38,184,167963,1,2,2:0:0:0:
113,235,168120,1,2,1:2:0:0:
254,370,168436,5,0,2:0:0:0:
254,370,168752,1,0,2:0:0:0:
254,370,169068,1,12,2:0:0:0:
254,370,169384,1,0,2:0:0:0:
359,73,169699,6,0,P|336:86|265:94,1,60.0000000000002,2|2,1:2|2:0,2:0:0:0:
245,49,170015,1,2,2:0:0:0:
329,176,170173,1,2,1:2:0:0:
454,95,170331,1,10,2:0:0:0:
474,184,170489,1,2,2:0:0:0:
399,235,170647,1,2,1:2:0:0:
254,370,170963,5,0,2:0:0:0:
254,370,171278,1,0,2:0:0:0:
254,370,171594,1,12,2:0:0:0:
254,370,171910,1,0,2:0:0:0:
156,173,172226,6,2,P|179:160|250:152,1,60.0000000000002,2|2,1:2|2:0,2:0:0:0:
270,197,172542,1,2,2:0:0:0:
186,70,172699,1,2,1:2:0:0:
61,151,172857,1,10,2:0:0:0:
41,62,173015,1,2,2:0:0:0:
116,11,173173,1,2,1:2:0:0:
254,370,173805,5,2,2:0:0:0:
254,370,174120,1,14,2:0:0:0:
254,370,174436,1,2,2:0:0:0:
254,370,174752,1,6,1:2:0:0:
254,370,176015,1,6,1:2:0:0:
256,192,176173,12,2,178542,1:2:0:0:
256,198,180752,5,0,1:0:0:0:
256,198,181068,1,0,1:0:0:0:
256,198,183594,5,0,1:0:0:0:
256,198,185805,5,0,1:0:0:0:
256,198,186120,1,0,1:0:0:0:
205,28,187857,5,0,3:0:0:0:
170,50,188015,1,0,3:0:0:0:
129,47,188173,1,0,3:0:0:0:
174,138,188331,5,0,3:0:0:0:
113,29,188489,1,0,3:0:0:0:
10,89,188647,2,0,P|-10:143|-14:237,1,120,0|0,1:0|2:0,2:0:0:0:
67,384,189594,2,0,P|87:330|91:236,1,120,2|0,1:2|2:0,2:0:0:0:
121,197,190226,2,0,P|171:244|212:243,1,80,2|0,2:2|2:0,2:0:0:0:
292,294,190699,2,0,P|242:341|201:340,1,80,2|0,2:0|2:0,2:0:0:0:
253,126,191173,5,2,1:1:0:0:
253,126,191647,1,2,2:1:0:0:
253,126,192120,1,2,1:1:0:0:
327,148,192436,2,0,L|426:173,1,80,0|2,1:0|2:0,2:0:0:0:
185,148,192910,2,0,L|86:173,1,80,2|0,2:0|2:0,2:0:0:0:
36,184,193384,1,2,1:2:0:0:
257,26,193699,5,6,1:2:0:0:
257,26,194647,1,6,1:2:0:0:
257,26,195594,1,2,1:3:0:0:
249,35,195910,1,2,1:3:0:0:
257,49,196226,1,2,1:3:0:0:
245,77,196542,1,2,1:3:0:0:
266,121,196857,1,2,1:3:0:0:
218,196,197173,1,2,1:3:0:0:
272,370,197489,5,8,2:0:0:0:
385,254,197647,1,8,2:3:0:0:
261,258,197805,1,4,2:3:0:0:
397,371,197963,1,8,2:0:0:0:
507,223,198120,1,0,1:0:0:0:
507,223,198278,1,0,1:0:0:0:
354,136,198436,1,8,2:0:0:0:
397,371,198594,5,4,1:2:0:0:
397,371,198673,1,0,1:0:0:0:
397,371,198752,2,0,P|431:262|422:165,1,208,6|0,1:0|2:0,2:0:0:0:
491,7,199226,2,0,P|481:66|413:52,2,104,2|8|0,1:2|2:0|2:0,2:0:0:0:
512,230,199699,2,0,P|399:145|315:164,1,208,2|2,2:1|1:0,2:0:0:0:
119,93,200173,6,0,P|176:82|210:29,1,104,8|0,2:0|2:0,2:0:0:0:
135,13,200489,1,0,1:0:0:0:
232,249,200647,2,0,P|234:126|203:46,1,208,8|2,2:0|1:0,2:0:0:0:
31,208,201120,5,8,2:0:0:0:
31,208,201199,1,8,2:0:0:0:
31,208,201278,2,0,P|32:301|136:286,1,208,2|0,1:0|2:0,2:0:0:0:
320,291,201752,2,0,P|279:255|212:253,1,104,2|8,1:0|2:0,2:0:0:0:
159,229,202068,1,0,2:0:0:0:
395,316,202226,6,0,P|276:320|204:376,1,208,2|0,2:1|1:0,2:0:0:0:
422,236,202699,2,0,P|488:206|398:169,1,208,8|0,2:1|1:0,2:0:0:0:
470,379,203173,6,0,P|451:346|385:314,1,104,12|4,2:0|2:3,2:0:0:0:
201,246,203489,1,8,2:3:0:0:
201,246,203647,1,8,2:3:0:0:
409,156,203805,6,0,B|468:143|470:78|470:78|410:52|369:91,1,208,6|0,1:0|2:0,2:0:0:0:
215,146,204278,2,0,P|168:148|141:86,1,104,2|8,1:2|2:0,2:0:0:0:
128,32,204594,1,0,2:0:0:0:
114,216,204752,2,0,P|146:151|267:76,1,208,2|0,2:0|1:0,2:0:0:0:
39,238,205226,6,0,P|76:339|134:270,1,208,8|0,2:0|1:0,2:0:0:0:
326,364,205699,2,0,P|198:310|120:302,1,208,8|2,2:0|1:2,2:0:0:0:
59,310,206173,1,0,1:0:0:0:
345,353,206331,6,2,P|469:315|476:226,1,208,14|0,2:1|2:0,2:1:0:0:
444,46,206805,2,0,P|446:97|401:150,1,104,2|12,1:2|2:0,2:0:0:0:
444,46,207120,1,0,2:0:0:0:
299,163,207278,5,2,1:0:0:0:
356,5,207436,1,10,2:1:0:0:
228,86,207594,5,2,1:0:0:0:
415,134,207752,1,8,2:0:0:0:
330,82,207910,5,8,2:0:0:0:
330,82,208068,1,8,2:0:0:0:
174,170,208226,5,8,2:3:0:0:
272,301,208384,1,0,1:0:0:0:
288,221,208542,5,4,2:3:0:0:
184,243,208699,1,4,2:3:0:0:
449,369,208857,6,0,P|457:301|352:341,1,208,6|0,1:0|2:0,2:0:0:0:
109,338,209331,2,0,P|169:355|201:295,1,104,2|8,1:2|2:0,2:0:0:0:
184,243,209647,1,0,2:0:0:0:
327,381,209805,6,0,P|321:256|257:173,1,208,2|0,2:0|1:0,2:0:0:0:
58,116,210278,1,8,2:0:0:0:
37,225,210436,6,0,B|49:275|105:295|105:295|145:238|115:189,1,208,2|14,2:0|2:0,2:0:0:0:
361,121,210910,2,0,P|290:172|261:77,1,208,2|8,2:0|2:0,2:0:0:0:
445,205,211384,6,0,P|472:248|480:324,2,104,2|0|0,1:2|2:0|2:0,2:0:0:0:
219,375,211857,2,0,P|215:339|272:291,1,104,2|8,1:2|2:0,2:0:0:0:
336,293,212173,1,0,2:0:0:0:
97,362,212331,6,0,P|161:284|282:313,1,208,2|0,2:0|1:0,2:0:0:0:
87,135,212805,2,0,P|90:186|62:229,1,104,8|0,2:0|2:0,2:0:0:0:
69,65,213120,1,2,1:2:0:0:
378,167,213278,6,0,P|332:191|281:199,1,104,12|0,2:0|2:0,2:0:0:0:
198,139,213594,1,8,2:0:0:0:
198,139,213752,1,8,2:0:0:0:
466,28,213910,5,6,1:2:0:0:
466,28,214857,2,2,P|297:51|13:376,1,624,6|6,1:2|1:2,2:1:0:0:
254,367,218331,1,0,2:0:0:0:
254,367,218647,1,0,2:0:0:0:
245,286,218963,5,6,2:0:0:0:
275,214,219910,1,2,2:0:0:0:
240,142,220857,1,2,2:0:0:0:
256,192,224042,12,0,227269,2:0:0:0:
