osu file format v14

[General]
AudioFilename: audio.mp3
AudioLeadIn: 0
PreviewTime: 140222
Countdown: 0
SampleSet: Normal
StackLeniency: 0.7
Mode: 0
LetterboxInBreaks: 0
WidescreenStoryboard: 0

[Editor]
DistanceSpacing: 1.2
BeatDivisor: 6
GridSize: 16
TimelineZoom: 1

[Metadata]
Title:pitter-patter
TitleUnicode:pitter-patter
Artist:Vane Lily
ArtistUnicode:Vane Lily
Creator:tungstenio
Version:O_o so hard
Source:
Tags:internet vocaloid hatsune miku pitter patter cute yuri singer vane lily heart love >3<
BeatmapID:4571002
BeatmapSetID:2166603

[Difficulty]
HPDrainRate:7
CircleSize:5
OverallDifficulty:7
ApproachRate:9
SliderMultiplier:2.4
SliderTickRate:1

[Events]
//Background and Video events
0,0,"maxresdefault.jpg",0,0
//Break Periods
2,120048,124681
//Storyboard Layer 0 (Background)
//Storyboard Layer 1 (Fail)
//Storyboard Layer 2 (Pass)
//Storyboard Layer 3 (Foreground)
//Storyboard Layer 4 (Overlay)
//Storyboard Sound Samples

[TimingPoints]
663.727748691099,339.55857385399,4,1,0,100,1,0
49220,-66.6666666666667,4,1,0,100,0,0
70612,-100,4,1,0,100,0,0
108982,-66.6666666666667,4,1,0,100,0,0
119509,-1000,4,1,0,100,0,0
125281,-100,4,1,0,100,0,0
140222,-399.999999999997,4,1,0,100,0,0
141580,-66.6666666666667,4,1,0,100,0,0
145485,-285.714285714284,4,1,0,100,0,0
145994,-66.6666666666667,4,1,0,100,0,0
157879,-153.846153846153,4,1,0,100,0,0
158558,-153.846153846153,4,1,0,5,0,0
158728,-153.846153846153,4,1,0,100,0,0

[Colours]
Combo1 : 51,51,255
Combo2 : 227,227,0
Combo3 : 170,255,255
Combo4 : 219,17,189

[HitObjects]
176,103,663,21,0,0:0:0:0:
283,142,833,1,0,0:0:0:0:
427,112,1003,2,0,P|448:172|410:214,1,120
415,211,1342,1,0,0:0:0:0:
275,278,1682,1,0,0:0:0:0:
89,180,2106,6,0,B|53:216|-63:302|135:235|164:181|164:180|194:268|113:305,1,300
116,303,2701,1,0,0:0:0:0:
280,240,2870,2,0,P|330:275|313:329,1,120
404,290,3380,1,0,0:0:0:0:
426,177,3549,2,0,B|398:122|340:107|340:107|270:86|209:112,1,240
216,108,4059,1,0,0:0:0:0:
136,100,4229,2,0,P|61:56|-18:61,2,120
48,162,4738,1,0,0:0:0:0:
136,173,4908,2,0,P|118:235|62:257,2,120
136,173,5417,1,0,0:0:0:0:
243,216,5587,2,0,B|306:174|306:174|352:205,1,120
377,139,6096,5,0,0:0:0:0:
469,190,6266,2,0,P|443:254|378:270,1,120
316,336,6606,1,0,0:0:0:0:
316,336,6775,2,0,P|263:302|216:339,1,120
104,341,7115,2,0,B|59:281|59:281|72:255|32:107,1,240
35,119,7624,1,0,0:0:0:0:
179,143,7794,2,0,P|210:83|261:98,1,120
252,90,8134,1,0,0:0:0:0:
345,82,8303,2,0,B|428:49|428:49|494:33,1,120
464,159,8643,2,0,B|393:181|393:181|342:207,2,120
464,159,9152,1,0,0:0:0:0:
469,262,9322,2,0,L|374:365,1,120
387,350,9662,1,0,0:0:0:0:
256,277,9831,1,0,0:0:0:0:
152,126,11190,5,0,0:0:0:0:
289,112,11359,2,0,B|311:207|311:207|250:237,1,120
290,216,11699,1,0,0:0:0:0:
134,271,11869,2,0,B|192:319|193:323|193:323|140:331,2,120
134,271,12378,2,0,B|76:241|73:239|73:239|139:207,1,120
118,216,12718,1,0,0:0:0:0:
230,173,12887,2,0,P|186:114|137:119,1,120
166,186,13227,2,0,P|91:168|80:111,1,120
77,134,13566,1,0,0:0:0:0:
156,73,13736,2,0,P|82:42|0:59,2,120
304,87,14246,5,0,0:0:0:0:
418,161,14415,2,0,P|439:236|407:270,2,120
276,204,14925,1,0,0:0:0:0:
131,279,15094,2,0,P|121:205|69:213,1,120
89,201,15434,1,0,0:0:0:0:
89,201,15604,1,0,0:0:0:0:
94,207,15774,1,0,0:0:0:0:
45,280,15943,2,0,B|30:344|30:344|101:355,1,120
210,326,16283,1,0,0:0:0:0:
320,326,16453,2,0,B|290:247|290:247|306:197,1,120
300,213,16792,5,0,0:0:0:0:
402,126,16962,1,0,0:0:0:0:
304,80,17132,1,0,0:0:0:0:
185,167,17302,2,0,B|162:101|162:101|106:72,1,120
117,77,17641,1,0,0:0:0:0:
76,168,17811,2,0,B|18:129|18:129|16:66,2,120
200,242,18320,1,0,0:0:0:0:
301,184,18490,1,0,0:0:0:0:
406,154,18660,2,0,B|469:104|469:104|485:38,1,120
478,65,18999,1,0,0:0:0:0:
361,49,19169,2,0,B|288:81|288:81|231:76,1,120
130,109,19509,2,0,B|122:194|122:194|160:224,1,120
279,274,19848,2,0,B|362:304|362:304|374:341,2,120
279,274,20358,1,0,0:0:0:0:
396,226,20527,1,0,0:0:0:0:
464,335,20697,1,0,0:0:0:0:
119,165,22055,5,0,0:0:0:0:
222,235,22225,2,0,B|225:175|251:147|251:147|241:122,1,120
266,94,22480,1,0,0:0:0:0:
331,77,22565,1,0,0:0:0:0:
405,94,22650,1,0,0:0:0:0:
452,149,22735,1,0,0:0:0:0:
438,215,22819,1,0,0:0:0:0:
396,287,22904,2,0,L|346:337,1,60
310,272,23074,2,0,B|339:192|339:192|274:212,1,120
305,202,23414,1,0,0:0:0:0:
236,129,23583,6,0,B|199:79|199:79|129:86,1,120
75,140,23923,1,0,0:0:0:0:
46,202,24008,1,0,0:0:0:0:
59,264,24093,1,0,0:0:0:0:
106,308,24178,1,0,0:0:0:0:
164,329,24263,1,0,0:0:0:0:
226,320,24347,2,0,B|249:280|249:280|231:260,3,60
226,209,24772,1,0,0:0:0:0:
272,112,24942,5,0,0:0:0:0:
272,112,25027,1,0,0:0:0:0:
272,112,25111,1,0,0:0:0:0:
130,120,25281,1,0,0:0:0:0:
130,120,25366,1,0,0:0:0:0:
130,120,25451,1,0,0:0:0:0:
65,207,25621,2,0,B|38:288|38:288|42:334,1,120
118,341,25960,2,0,B|113:274|113:274|185:267,1,120
165,268,26215,1,0,0:0:0:0:
165,268,26300,1,0,0:0:0:0:
171,275,26385,2,0,L|233:237,1,60
360,186,26639,1,0,0:0:0:0:
384,200,26724,1,0,0:0:0:0:
414,217,26809,1,0,0:0:0:0:
440,235,26894,1,0,0:0:0:0:
464,255,26979,1,0,0:0:0:0:
480,152,27149,2,0,B|437:96|437:96|460:42,1,120
360,40,27488,6,0,B|323:100|323:100|243:132,2,120
425,87,27913,1,0,0:0:0:0:
460,152,27998,1,0,0:0:0:0:
451,224,28083,1,0,0:0:0:0:
395,275,28167,1,0,0:0:0:0:
317,286,28252,1,0,0:0:0:0:
289,223,28337,1,0,0:0:0:0:
343,177,28422,1,0,0:0:0:0:
389,226,28507,1,0,0:0:0:0:
348,291,28592,1,0,0:0:0:0:
268,338,28677,2,0,B|208:315|208:315|125:313,1,120
152,313,28931,5,0,0:0:0:0:
97,326,29016,1,0,0:0:0:0:
43,293,29101,1,0,0:0:0:0:
48,235,29186,1,0,0:0:0:0:
67,179,29271,1,0,0:0:0:0:
105,136,29356,1,0,0:0:0:0:
153,106,29441,1,0,0:0:0:0:
208,102,29526,1,0,0:0:0:0:
270,106,29611,1,0,0:0:0:0:
330,117,29695,1,0,0:0:0:0:
368,162,29780,1,0,0:0:0:0:
345,223,29865,2,0,B|279:196|279:196|229:216,2,120
420,302,30375,5,0,0:0:0:0:
476,205,30544,2,0,B|453:125|453:125|469:56,1,120
461,89,30799,1,0,0:0:0:0:
461,89,30884,1,0,0:0:0:0:
378,72,31054,2,0,B|308:47|287:56|287:56|238:50,1,120
185,121,31393,2,0,B|142:66|142:66|95:105,1,120
117,175,31733,2,0,B|159:226|159:226|216:186,1,120
372,213,32072,2,0,B|389:282|389:282|381:283,3,60
307,334,32412,2,0,B|254:275|254:275|255:276,4,60
153,296,32921,5,0,0:0:0:0:
117,261,33006,1,0,0:0:0:0:
103,217,33091,1,0,0:0:0:0:
117,174,33176,1,0,0:0:0:0:
144,143,33261,1,0,0:0:0:0:
340,240,33431,5,0,0:0:0:0:
331,205,33516,1,0,0:0:0:0:
325,171,33600,1,0,0:0:0:0:
286,161,33685,1,0,0:0:0:0:
249,145,33770,2,0,B|235:109|235:109|208:151|208:151|229:197,1,120
32,62,34110,5,0,0:0:0:0:
67,61,34195,1,0,0:0:0:0:
102,59,34280,1,0,0:0:0:0:
137,56,34364,1,0,0:0:0:0:
178,49,34449,1,0,0:0:0:0:
208,61,34534,2,0,L|277:66,1,60
464,63,34789,5,0,0:0:0:0:
415,63,34874,1,0,0:0:0:0:
359,64,34959,1,0,0:0:0:0:
316,65,35044,1,0,0:0:0:0:
311,100,35128,2,0,B|386:171|386:171|402:198,1,120
250,315,35468,5,0,0:0:0:0:
286,306,35553,1,0,0:0:0:0:
320,298,35638,1,0,0:0:0:0:
356,290,35723,1,0,0:0:0:0:
393,275,35808,2,0,B|356:222|356:222|290:232,1,120
64,320,36147,5,0,0:0:0:0:
58,280,36232,1,0,0:0:0:0:
96,258,36317,1,0,0:0:0:0:
125,236,36402,1,0,0:0:0:0:
154,210,36487,2,0,B|111:148|111:148|62:162,1,120
266,202,36826,5,0,0:0:0:0:
250,161,36911,1,0,0:0:0:0:
234,122,36996,1,0,0:0:0:0:
265,97,37081,1,0,0:0:0:0:
304,77,37166,2,0,B|386:71|386:71|383:137,1,120
390,150,37420,1,0,0:0:0:0:
389,196,37505,1,0,0:0:0:0:
378,245,37590,1,0,0:0:0:0:
348,283,37675,1,0,0:0:0:0:
314,312,37760,1,0,0:0:0:0:
270,324,37845,1,0,0:0:0:0:
223,321,37930,1,0,0:0:0:0:
184,311,38015,1,0,0:0:0:0:
143,295,38100,1,0,0:0:0:0:
110,264,38184,1,0,0:0:0:0:
91,221,38269,1,0,0:0:0:0:
94,171,38354,6,0,B|170:174|170:174|216:125,1,120
292,141,38694,2,0,B|363:117|363:117|410:171,1,120
394,248,39033,2,0,B|302:270|302:270|271:232,1,120
183,297,39373,2,0,B|112:313|112:313|76:259,1,120
51,210,39712,2,0,B|39:139|39:139|79:75,1,120
203,80,40052,2,0,B|270:112|270:112|340:63,1,120
406,85,40392,2,0,B|434:170|434:170|493:198,1,120
374,310,40731,2,0,B|321:266|321:266|253:281,1,120
260,180,41071,2,0,B|304:134|304:134|242:98,1,120
163,95,41410,2,0,B|113:146|113:146|66:78,1,120
55,44,41750,2,0,B|29:97|29:97|46:178,1,120
70,267,42089,2,0,B|36:351|36:351|107:343,1,120
169,344,42429,2,0,B|197:276|197:276|254:290,1,120
289,350,42768,2,0,B|353:346|353:346|375:288,1,120
432,180,43108,2,0,B|332:168|332:168|345:110,1,120
241,126,43448,2,0,B|176:111|176:111|143:66,1,120
66,194,43787,2,0,B|161:240|161:240|200:206,1,120
256,192,44127,12,0,47862,0:0:0:0:
199,238,49220,5,0,0:0:0:0:
158,331,49390,2,0,B|69:274|69:274|87:187,1,180.000006866455
286,250,49729,1,0,0:0:0:0:
306,339,49899,2,0,B|405:335|405:335|435:231,1,180.000006866455
195,208,50239,1,0,0:0:0:0:
174,302,50409,2,0,B|85:260|85:260|80:153,1,180.000006866455
308,210,50748,1,0,0:0:0:0:
314,293,50918,2,0,B|416:260|416:260|447:165,1,180.000006866455
332,70,51257,5,0,0:0:0:0:
214,168,51427,2,0,B|114:152|114:152|113:252,1,180.000006866455
124,340,51767,2,0,B|260:340|260:340|285:267,2,180.000006866455
109,234,52276,1,0,0:0:0:0:
299,197,52446,2,0,B|332:88|332:88|421:95,1,180.000006866455
397,93,52785,1,0,0:0:0:0:
457,250,52955,2,0,B|329:269|329:269|304:157,1,180.000006866455
211,126,53295,2,0,B|102:132|102:132|181:64,1,180.000006866455
155,85,53634,1,0,0:0:0:0:
287,68,53804,2,0,B|330:163|330:163|263:235,1,180.000006866455
202,295,54313,5,0,0:0:0:0:
422,183,54483,2,0,B|386:142|386:142|396:95|396:95|303:86,1,180.000006866455
116,135,54823,2,0,B|140:242|140:242|214:241,1,180.000006866455
210,241,55162,1,0,0:0:0:0:
368,321,55332,2,0,B|260:343|260:343|162:335,2,180.000006866455
297,71,55841,2,0,B|184:48|184:48|131:127,1,180.000006866455
301,166,56181,2,0,B|266:222|266:222|149:189,1,180.000006866455
40,241,56521,2,0,B|103:324|103:324|210:325,1,180.000006866455
377,240,56860,1,0,0:0:0:0:
429,58,57030,2,0,B|278:63|278:63|264:142,1,180.000006866455
280,245,57370,6,0,B|168:237|168:237|132:162,2,180.000006866455
370,157,57879,1,0,0:0:0:0:
267,72,58049,2,0,B|160:86|160:86|163:167,1,180.000006866455
393,303,58388,2,0,B|240:327|240:327|222:263,1,180.000006866455
101,131,58728,2,0,B|102:232|102:232|193:227,2,180.000006866455
230,103,59237,1,0,0:0:0:0:
263,119,59322,1,0,0:0:0:0:
282,139,59407,1,0,0:0:0:0:
405,141,59577,1,0,0:0:0:0:
419,176,59662,1,0,0:0:0:0:
411,211,59746,1,0,0:0:0:0:
387,312,59916,5,0,0:0:0:0:
103,314,60086,1,0,0:0:0:0:
249,69,60256,1,0,0:0:0:0:
376,322,60426,1,0,0:0:0:0:
92,300,60596,1,0,0:0:0:0:
259,68,60766,1,0,0:0:0:0:
361,334,60935,1,0,0:0:0:0:
82,282,61105,1,0,0:0:0:0:
272,69,61275,1,0,0:0:0:0:
321,212,61444,5,0,0:0:0:0:
105,129,61614,2,0,B|136:242|139:240|163:232|163:232|218:209,1,180.000006866455
206,213,61954,1,0,0:0:0:0:
362,277,62123,1,0,0:0:0:0:
461,190,62293,2,0,B|402:108|402:108|310:130,2,180.000006866455
461,190,62802,1,0,0:0:0:0:
456,325,62972,2,0,B|349:370|334:365|334:365|249:345,1,180.000006866455
157,245,63312,1,0,0:0:0:0:
99,103,63482,2,0,B|42:193|42:193|48:280,1,180.000006866455
47,266,63821,1,0,0:0:0:0:
237,337,63991,2,0,B|272:236|272:236|348:214,1,180.000006866455
456,141,64330,2,0,B|349:120|349:120|257:166,1,180.000006866455
285,151,64670,1,0,0:0:0:0:
146,168,64840,1,0,0:0:0:0:
79,270,65010,5,0,0:0:0:0:
120,283,65094,1,0,0:0:0:0:
91,308,65179,1,0,0:0:0:0:
254,304,65349,1,0,0:0:0:0:
280,275,65434,1,0,0:0:0:0:
244,265,65519,1,0,0:0:0:0:
406,203,65689,2,0,B|336:128|336:128|309:104|248:120,1,180.000006866455
138,165,66028,1,0,0:0:0:0:
266,75,66198,1,0,0:0:0:0:
471,110,66368,2,0,B|469:225|469:225|448:234|448:251|436:265|413:270,1,180.000006866455
298,341,66707,2,0,B|236:332|236:332|218:311|218:311|156:339|156:339|131:324,1,180.000006866455
54,208,67047,1,0,0:0:0:0:
88,69,67217,6,0,B|188:79|188:79|199:108|258:66,1,180.000006866455
256,67,67471,1,0,0:0:0:0:
256,67,67556,1,0,0:0:0:0:
416,110,67726,1,0,0:0:0:0:
416,110,67811,1,0,0:0:0:0:
416,110,67896,1,0,0:0:0:0:
441,263,68066,2,0,B|389:309|361:302|361:302|304:257|281:296,1,180.000006866455
136,274,68405,1,0,0:0:0:0:
39,215,68575,6,0,B|107:145|107:145|111:138|200:152,1,180.000006866455
218,127,68830,1,0,0:0:0:0:
250,106,68915,1,0,0:0:0:0:
382,107,69084,1,0,0:0:0:0:
358,141,69169,1,0,0:0:0:0:
333,170,69254,1,0,0:0:0:0:
316,321,69424,2,0,B|267:237|267:237|273:139,1,180.000006866455
216,339,69763,2,0,B|168:250|168:250|169:151,1,180.000006866455
168,171,70103,1,0,0:0:0:0:
156,142,70188,1,0,0:0:0:0:
123,130,70273,1,0,0:0:0:0:
256,88,70443,1,0,0:0:0:0:
276,121,70527,1,0,0:0:0:0:
295,150,70612,5,0,0:0:0:0:
123,278,70952,5,0,0:0:0:0:
312,302,71122,2,0,B|277:242|277:242|273:236|340:227,1,120
416,145,71461,1,0,0:0:0:0:
303,85,71631,1,0,0:0:0:0:
258,194,71801,2,0,B|207:125|207:125|197:140|183:108,1,120
113,189,72140,2,0,B|149:243|149:243|164:237|179:265|189:283,2,120
113,189,72650,1,0,0:0:0:0:
39,41,72819,1,0,0:0:0:0:
234,76,72989,2,0,B|300:173|300:173|338:30|352:206,1,240
417,291,73499,2,0,B|459:217|483:153|449:136|449:136|424:54,1,240
302,181,74008,5,0,0:0:0:0:
176,168,74178,1,0,0:0:0:0:
128,85,74347,2,0,P|79:148|96:225,1,120
78,185,74687,1,0,0:0:0:0:
96,328,74857,2,0,B|171:319|171:319|194:295|231:317,1,120
400,326,75196,2,0,B|421:247|421:247|412:201,2,120
288,278,75706,2,0,B|299:188|299:188|305:136|305:136|233:165|233:165|279:189,1,240
250,173,76215,1,0,0:0:0:0:
123,102,76385,1,0,0:0:0:0:
59,202,76555,6,0,P|105:252|105:312,1,120
204,334,76894,2,0,P|232:265|294:241,1,120
269,244,77234,1,0,0:0:0:0:
272,248,77403,1,0,0:0:0:0:
444,242,77573,2,0,P|485:168|474:117,1,120
396,112,77913,1,0,0:0:0:0:
283,78,78083,2,0,B|229:73|208:82|208:82|146:62|146:62|102:92|102:92|148:119,2,240
341,180,78931,2,0,B|273:200|247:242|246:242|201:233|201:233|196:227,1,120
205,247,79186,1,0,0:0:0:0:
154,229,79271,2,0,L|108:182,2,60
116,322,79611,2,0,B|202:328|202:328|229:321|275:328,1,120
420,338,79950,2,0,B|319:330|319:330|273:319,1,120
262,272,80290,6,0,L|388:233,1,120
169,329,81818,6,0,B|231:326|227:308|200:290|167:273|191:250,1,120
187,253,82157,1,0,0:0:0:0:
264,237,82242,1,0,0:0:0:0:
334,203,82327,1,0,0:0:0:0:
399,149,82412,1,0,0:0:0:0:
360,60,82497,1,0,0:0:0:0:
271,45,82582,1,0,0:0:0:0:
198,81,82667,1,0,0:0:0:0:
124,112,82752,1,0,0:0:0:0:
114,137,82836,2,0,B|68:197|58:192|26:142,1,120
21,65,83176,6,0,B|99:52|99:52|118:45|160:33,1,120
204,158,83516,1,0,0:0:0:0:
266,180,83600,1,0,0:0:0:0:
333,199,83685,1,0,0:0:0:0:
395,221,83770,1,0,0:0:0:0:
457,239,83855,1,0,0:0:0:0:
405,297,83940,1,0,0:0:0:0:
345,339,84025,1,0,0:0:0:0:
287,291,84110,1,0,0:0:0:0:
228,237,84195,2,0,B|215:199|185:177|145:135,2,120
228,237,84619,5,0,0:0:0:0:
228,237,84704,1,0,0:0:0:0:
228,237,84789,1,0,0:0:0:0:
236,244,84874,1,0,0:0:0:0:
347,121,85044,1,0,0:0:0:0:
324,110,85128,1,0,0:0:0:0:
288,97,85213,2,0,B|207:90|207:90|160:70,1,120
93,104,85468,1,0,0:0:0:0:
71,169,85553,2,0,P|64:236|98:290,2,120
138,170,85977,1,0,0:0:0:0:
208,174,86062,1,0,0:0:0:0:
347,219,86232,2,0,P|375:162|352:104,2,120
347,219,86656,1,0,0:0:0:0:
347,219,86741,1,0,0:0:0:0:
371,310,86911,2,0,P|301:307|276:261,1,120
277,269,87251,37,0,0:0:0:0:
229,318,87336,1,0,0:0:0:0:
165,339,87420,1,0,0:0:0:0:
103,313,87505,1,0,0:0:0:0:
68,258,87590,1,0,0:0:0:0:
76,194,87675,1,0,0:0:0:0:
118,142,87760,1,0,0:0:0:0:
179,109,87845,1,0,0:0:0:0:
246,112,87930,1,0,0:0:0:0:
315,124,88015,1,0,0:0:0:0:
380,165,88100,1,0,0:0:0:0:
414,231,88184,1,0,0:0:0:0:
394,301,88269,1,0,0:0:0:0:
266,343,88439,2,0,B|226:276|226:276|225:221,1,120
225,234,88694,5,0,0:0:0:0:
217,186,88779,1,0,0:0:0:0:
184,146,88864,1,0,0:0:0:0:
138,126,88948,1,0,0:0:0:0:
89,128,89033,1,0,0:0:0:0:
49,160,89118,1,0,0:0:0:0:
31,203,89203,1,0,0:0:0:0:
37,252,89288,1,0,0:0:0:0:
67,292,89373,1,0,0:0:0:0:
112,319,89458,2,0,B|183:310|183:310|241:329,3,120
250,272,90137,5,0,0:0:0:0:
314,226,90222,1,0,0:0:0:0:
346,165,90307,2,0,P|342:112|274:120,1,120
253,139,90561,1,0,0:0:0:0:
225,106,90646,2,0,P|163:79|138:129,1,120
145,182,90986,2,0,P|188:243|227:270,1,120
256,281,91240,1,0,0:0:0:0:
298,295,91325,1,0,0:0:0:0:
411,275,91495,2,0,B|455:260|455:260|471:232|488:214|489:214|494:150,1,120
397,102,91835,2,0,B|389:148|389:148|355:157|355:157|311:143,1,120
237,72,92174,2,0,B|189:83|189:83|170:103|170:103|188:168,1,120
257,253,92514,2,0,B|197:275|197:275|178:265|178:265|156:223,1,120
268,82,92853,6,0,B|245:127|245:127|185:87,1,120
179,87,93108,1,0,0:0:0:0:
170,88,93193,1,0,0:0:0:0:
161,89,93278,1,0,0:0:0:0:
152,91,93363,1,0,0:0:0:0:
143,92,93448,1,0,0:0:0:0:
135,94,93532,2,0,B|79:135|79:135|98:188,1,120
404,130,93872,5,0,0:0:0:0:
418,170,93957,1,0,0:0:0:0:
429,195,94042,1,0,0:0:0:0:
442,222,94127,1,0,0:0:0:0:
454,251,94212,2,0,B|465:314|465:314|398:321,1,120
98,285,94551,5,0,0:0:0:0:
117,267,94636,1,0,0:0:0:0:
133,248,94721,1,0,0:0:0:0:
149,228,94806,1,0,0:0:0:0:
164,209,94891,2,0,B|200:152|200:152|129:132,1,120
384,111,95230,5,0,0:0:0:0:
395,151,95315,1,0,0:0:0:0:
389,191,95400,1,0,0:0:0:0:
370,226,95485,1,0,0:0:0:0:
343,254,95570,2,0,B|303:285|303:285|299:277|297:274|283:205,1,120
248,33,95909,5,0,0:0:0:0:
214,40,95994,1,0,0:0:0:0:
180,52,96079,1,0,0:0:0:0:
149,64,96164,1,0,0:0:0:0:
119,79,96249,2,0,B|52:114|52:114|72:49,1,120
44,230,96589,5,0,0:0:0:0:
88,220,96673,1,0,0:0:0:0:
128,194,96758,1,0,0:0:0:0:
164,165,96843,1,0,0:0:0:0:
199,133,96928,1,0,0:0:0:0:
238,108,97013,1,0,0:0:0:0:
284,96,97098,1,0,0:0:0:0:
331,96,97183,1,0,0:0:0:0:
374,110,97268,1,0,0:0:0:0:
408,140,97353,1,0,0:0:0:0:
430,179,97437,1,0,0:0:0:0:
433,219,97522,1,0,0:0:0:0:
416,253,97607,1,0,0:0:0:0:
379,275,97692,1,0,0:0:0:0:
334,273,97777,1,0,0:0:0:0:
293,258,97862,1,0,0:0:0:0:
261,227,97947,1,0,0:0:0:0:
231,193,98032,1,0,0:0:0:0:
210,154,98117,1,0,0:0:0:0:
89,318,98286,6,0,B|149:274|149:274|114:234,1,120
87,152,98626,2,0,B|122:75|122:75|175:84,1,120
265,104,98965,2,0,B|319:147|319:147|361:96,1,120
384,347,99305,2,0,B|429:318|429:318|445:317|445:317|448:266,1,120
222,312,99645,2,0,B|217:242|217:242|180:178,1,120
114,73,99984,2,0,B|192:54|192:54|234:97,1,120
437,207,100324,2,0,B|399:276|399:276|383:198,1,120
92,246,100663,2,0,B|65:176|65:176|125:181,1,120
242,323,101003,2,0,B|303:309|303:309|310:243,1,120
328,112,101342,2,0,B|397:93|397:93|443:45,1,120
478,223,101682,2,0,B|419:250|419:250|347:242,1,120
139,95,102021,2,0,B|169:180|169:180|220:136,1,120
48,63,102361,2,0,B|64:168|64:168|53:188,1,120
190,328,102701,2,0,B|242:272|242:272|301:304,1,120
410,254,103040,2,0,B|439:182|439:182|393:158,1,120
352,62,103380,1,0,0:0:0:0:
256,192,103549,12,0,107624,0:0:0:0:
469,56,108982,6,0,B|503:138|503:138|459:176|459:176|508:186,1,180.000006866455
390,296,109322,1,0,0:0:0:0:
179,318,109492,1,0,0:0:0:0:
83,272,109662,2,0,B|151:231|151:231|145:220|145:220|189:177|189:177|165:146,1,180.000006866455
49,56,110001,2,0,B|156:54|156:54|183:66|183:66|208:54|208:54|255:85,1,180.000006866455
221,62,110341,1,0,0:0:0:0:
261,339,110510,2,0,B|261:229|261:229|275:234|275:234|288:199|288:199|240:185,2,180.000006866455
261,339,111020,1,0,0:0:0:0:
394,206,111190,1,0,0:0:0:0:
472,67,111359,2,0,B|462:14|462:14|434:32|434:32|322:34,1,180.000006866455
210,196,111699,2,0,B|128:175|128:175|137:157|137:157|72:108,1,180.000006866455
76,111,112038,1,0,0:0:0:0:
88,324,112208,2,0,B|199:296|199:296|264:231,1,180.000006866455
327,345,112548,2,0,B|427:303|427:303|458:226,1,180.000006866455
290,230,112887,2,0,B|377:166|377:166|388:88,1,180.000006866455
387,94,113227,1,0,0:0:0:0:
222,76,113397,1,0,0:0:0:0:
79,95,113566,2,0,B|159:167|159:167|62:206,1,180.000006866455
96,296,113906,2,0,B|205:314|205:314|266:233,1,180.000006866455
144,205,114246,6,0,B|185:152|185:152|210:118|210:118|300:136,1,180.000006866455
390,77,114585,1,0,0:0:0:0:
431,277,114755,2,0,B|336:224|336:224|318:193|318:193|319:121,1,180.000006866455
247,66,115094,2,0,B|130:37|130:37|71:84,1,180.000006866455
36,34,115434,1,0,0:0:0:0:
63,215,115604,2,0,B|161:175|161:175|177:265,2,180.000006866455
29,296,116113,2,0,B|130:330|130:330|224:315,1,180.000006866455
202,318,116453,1,0,0:0:0:0:
420,252,116622,2,0,B|357:178|358:179|358:179|443:97,1,180.000006866455
117,178,116962,1,0,0:0:0:0:
232,73,117132,2,0,B|294:159|294:159|238:247,1,180.000006866455
195,147,117471,2,0,B|136:221|136:221|188:308,1,180.000006866455
179,294,117811,1,0,0:0:0:0:
358,326,117981,2,0,B|459:293|460:296|464:271|464:271|469:174,1,180.000006866455
466,216,118320,1,0,0:0:0:0:
484,33,118490,2,0,B|406:76|406:76|301:47,1,180.000006866455
180,81,118830,1,0,0:0:0:0:
176,285,118999,2,0,B|99:221|99:221|199:171,1,180.000006866455
170,185,119339,1,0,0:0:0:0:
322,132,119509,2,0,P|335:136|345:146,1,24
237,289,125281,6,0,P|197:236|222:184,1,120
341,176,125536,1,0,0:0:0:0:
279,88,125621,1,0,0:0:0:0:
221,182,125706,1,0,0:0:0:0:
131,291,125791,6,0,P|89:248|106:184,1,120
98,193,126045,1,0,0:0:0:0:
98,193,126130,1,0,0:0:0:0:
98,193,126215,1,0,0:0:0:0:
37,101,126300,2,0,P|99:66|148:91,1,120
195,154,126639,6,0,P|268:186|319:159,1,120
302,173,126894,1,0,0:0:0:0:
332,179,126979,1,0,0:0:0:0:
362,180,127064,1,0,0:0:0:0:
395,181,127149,6,0,P|458:233|458:269,1,120
293,313,127403,1,0,0:0:0:0:
235,295,127488,1,0,0:0:0:0:
198,260,127573,1,0,0:0:0:0:
174,215,127658,1,0,0:0:0:0:
160,168,127743,1,0,0:0:0:0:
158,118,127828,1,0,0:0:0:0:
160,69,127913,1,0,0:0:0:0:
171,31,127998,6,0,B|249:50|249:50|207:94,1,120
182,114,128252,1,0,0:0:0:0:
132,153,128337,1,0,0:0:0:0:
82,191,128422,1,0,0:0:0:0:
35,233,128507,6,0,B|28:311|28:311|90:294,1,120
68,299,128762,1,0,0:0:0:0:
68,299,128847,1,0,0:0:0:0:
68,299,128931,1,0,0:0:0:0:
68,299,129016,2,0,P|151:325|175:310,1,120
262,321,129356,6,0,B|317:269|317:269|398:279,1,120
425,243,129611,1,0,0:0:0:0:
390,152,129695,1,0,0:0:0:0:
336,239,129780,1,0,0:0:0:0:
425,243,129865,2,0,B|466:175|466:175|454:100,2,120
425,243,130290,1,0,0:0:0:0:
401,307,130375,5,0,0:0:0:0:
318,321,130459,1,0,0:0:0:0:
224,286,130544,1,0,0:0:0:0:
139,222,130629,1,0,0:0:0:0:
91,131,130714,1,0,0:0:0:0:
264,129,130884,6,0,P|333:79|375:93,1,120
361,84,131223,1,0,0:0:0:0:
268,273,131393,2,0,P|336:296|391:271,1,120
379,280,131733,1,0,0:0:0:0:
173,349,131903,2,0,B|130:297|130:297|144:229,1,120
140,245,132242,1,0,0:0:0:0:
239,79,132412,2,0,L|110:47,1,120
122,50,132752,1,0,0:0:0:0:
37,268,132921,2,0,B|115:232|115:232|137:168,1,120
126,199,133261,1,0,0:0:0:0:
384,322,133431,2,0,P|437:285|432:222,1,120
438,234,133770,1,0,0:0:0:0:
363,63,133940,2,0,B|272:66|272:66|268:140,1,120
270,94,134280,1,0,0:0:0:0:
224,333,134449,6,0,B|144:299|144:299|188:248,1,120
165,273,134789,1,0,0:0:0:0:
45,353,134959,2,0,B|27:269|27:269|34:207,1,120
30,235,135298,1,0,0:0:0:0:
296,151,135468,2,0,B|219:147|219:147|196:97,1,120
201,108,135808,1,0,0:0:0:0:
465,252,135977,2,0,B|402:305|402:305|337:298,1,120
364,300,136317,1,0,0:0:0:0:
222,329,136487,2,0,B|164:269|164:269|189:226,2,120
442,246,136996,2,0,B|484:202|484:202|433:166,1,120
436,168,137336,1,0,0:0:0:0:
360,111,137505,2,0,B|267:76|267:76|237:104,1,120
219,112,137845,5,0,0:0:0:0:
189,152,137930,1,0,0:0:0:0:
151,182,138015,1,0,0:0:0:0:
121,217,138100,1,0,0:0:0:0:
90,236,138184,1,0,0:0:0:0:
55,238,138269,1,0,0:0:0:0:
42,218,138354,1,0,0:0:0:0:
33,193,138439,1,0,0:0:0:0:
42,162,138524,1,0,0:0:0:0:
60,137,138609,1,0,0:0:0:0:
82,118,138694,1,0,0:0:0:0:
104,101,138779,1,0,0:0:0:0:
126,93,138864,1,0,0:0:0:0:
157,89,138948,1,0,0:0:0:0:
177,90,139033,1,0,0:0:0:0:
198,92,139118,1,0,0:0:0:0:
229,96,139203,1,0,0:0:0:0:
259,98,139288,1,0,0:0:0:0:
275,104,139373,1,0,0:0:0:0:
296,113,139458,1,0,0:0:0:0:
336,155,139543,5,0,0:0:0:0:
336,155,139599,1,0,0:0:0:0:
336,155,139656,1,0,0:0:0:0:
336,155,139712,1,0,0:0:0:0:
336,155,139769,1,0,0:0:0:0:
336,155,139826,1,0,0:0:0:0:
336,155,139882,1,0,0:0:0:0:
336,155,139939,1,0,0:0:0:0:
336,155,139995,1,0,0:0:0:0:
336,155,140052,1,0,0:0:0:0:
336,155,140109,1,0,0:0:0:0:
336,155,140165,1,0,0:0:0:0:
336,155,140222,2,0,P|351:165|357:210,1,60
256,192,140731,12,0,141580,0:0:0:0:
397,275,141750,6,0,B|444:188|444:188|378:117,1,180.000006866455
337,209,142089,1,0,0:0:0:0:
107,64,142259,2,0,B|52:141|52:141|56:186|56:186|99:215,1,180.000006866455
169,253,142599,1,0,0:0:0:0:
260,132,142768,2,0,B|341:84|341:84|360:61|360:61|390:125,1,180.000006866455
448,62,143108,1,0,0:0:0:0:
263,341,143278,2,0,B|257:258|257:258|304:242|304:242|235:246,1,180.000006866455
165,295,143617,1,0,0:0:0:0:
46,51,143787,6,0,B|127:60|127:60|108:99|108:99|172:103,1,180.000006866455
445,69,144127,2,0,B|446:118|446:118|405:113|405:113|428:165|428:166|474:181,1,180.000006866455
473,285,144466,1,0,0:0:0:0:
276,130,144636,1,0,0:0:0:0:
227,309,144806,2,0,B|158:283|158:283|121:328|121:328|84:285,1,180.000006866455
99,165,145145,2,0,B|178:197|178:197|215:165|215:165|248:216,1,180.000006866455
377,127,145485,2,0,L|413:161,1,41.9999987182618
407,155,145825,1,0,0:0:0:0:
407,155,145994,1,0,0:0:0:0:
407,155,146164,1,0,0:0:0:0:
379,329,146334,2,0,B|249:269|249:269|245:202,2,180.000006866455
110,94,146843,1,0,0:0:0:0:
96,198,147013,2,0,P|179:169|215:66,1,180.000006866455
216,89,147353,5,0,0:0:0:0:
443,106,147522,2,0,P|449:213|394:242,1,180.000006866455
395,241,147862,2,0,P|314:221|283:118,1,180.000006866455
155,232,148201,2,0,P|242:134|291:142,1,180.000006866455
278,137,148541,1,0,0:0:0:0:
338,318,148711,2,0,B|245:346|245:346|226:264,1,180.000006866455
226,265,149050,1,0,0:0:0:0:
229,270,149220,1,0,0:0:0:0:
80,75,149390,2,0,P|58:144|117:99,1,180.000006866455
346,132,149729,2,0,P|404:96|432:185,2,180.000006866455
228,115,150239,2,0,B|171:88|171:88|182:216,1,180.000006866455
85,307,150578,1,0,0:0:0:0:
340,309,150748,2,0,B|352:225|352:225|376:201|376:201|304:175,2,180.000006866455
231,299,151257,2,0,P|181:240|232:153,1,180.000006866455
222,157,151597,1,0,0:0:0:0:
373,33,151767,2,0,B|285:48|233:34|172:45,2,180.000006866455
156,301,152446,5,0,0:0:0:0:
326,305,152616,2,0,P|383:242|412:306,1,180.000006866455
413,300,152955,2,0,P|476:229|430:159,1,180.000006866455
255,144,153295,1,0,0:0:0:0:
223,303,153465,2,0,B|137:275|137:275|149:147,1,180.000006866455
57,74,153804,1,0,0:0:0:0:
53,322,153974,2,0,B|114:200|114:200|162:248,1,180.000006866455
217,335,154313,1,0,0:0:0:0:
366,239,154483,1,0,0:0:0:0:
421,82,154653,2,0,P|340:97|250:40,2,180.000006866455
463,236,155162,1,0,0:0:0:0:
332,348,155332,2,0,P|261:301|241:208,1,180.000006866455
240,212,155672,1,0,0:0:0:0:
168,330,155841,2,0,P|103:278|77:178,1,180.000006866455
76,187,156181,1,0,0:0:0:0:
320,125,156351,2,0,B|247:81|192:68|192:68|153:101,1,180.000006866455
125,156,156690,2,0,B|188:204|259:217|259:217|293:189,1,180.000006866455
283,197,157030,1,0,0:0:0:0:
457,220,157200,2,0,B|433:301|407:302|407:302|309:303|282:275,1,180.000006866455
219,325,157539,2,0,B|166:284|160:221|160:221|212:125|213:126,1,180.000006866455
344,141,157879,6,0,P|315:115|200:119,1,155.999992858887
258,191,158388,2,0,P|219:200|161:189,1,77.9999964294435
96,136,158728,2,0,P|138:120|192:117,1,77.9999964294435
138,55,159067,2,0,P|89:59|19:144,2,155.999992858887
163,244,160086,2,0,P|210:238|251:216,2,77.9999964294435
188,160,160595,2,0,P|231:142|339:170,1,155.999992858887
300,327,161105,2,0,P|342:317|432:227,1,155.999992858887
456,145,161614,2,0,P|408:141|370:165,1,77.9999964294435
202,121,162293,2,0,P|235:97|352:103,1,155.999992858887
306,162,162859,2,0,P|274:185|111:160,1,207.999990478516
256,192,163482,12,0,168405,0:0:0:0:
