osu file format v14

[General]
AudioFilename: audio.ogg
AudioLeadIn: 0
PreviewTime: 53167
Countdown: 0
SampleSet: Soft
StackLeniency: 0.7
Mode: 0
LetterboxInBreaks: 0
WidescreenStoryboard: 1

[Editor]
Bookmarks: 7022,22557,27595,29885,35381,37213,44541,69731
DistanceSpacing: 1
BeatDivisor: 3
GridSize: 32
TimelineZoom: 1

[Metadata]
Title:Zeitaku na Saji (TV Size)
TitleUnicode:贅沢な匙 (TV Size)
Artist:Van de Shop
ArtistUnicode:Van de Shop
Creator:CrystilonZ
Version:Normal
Source:とんでもスキルで異世界放浪メシ
Tags:Tondemo Skill de Isekai Hourou Meshi Campfire Cooking in Another World with My Absurd Japanese Anime Opening Op Pop Swing 栗山夕璃 Kuriyama Yuri 蜂屋ななし Hachiya nanashi Luxury Spoon J-Pop JPop
BeatmapID:3976947
BeatmapSetID:1925530

[Difficulty]
HPDrainRate:4
CircleSize:3.5
OverallDifficulty:4
ApproachRate:6
SliderMultiplier:0.85
SliderTickRate:1

[Events]
//Background and Video events
0,0,"tondemoskill.jpg",0,0
Video,-100,"tondemo.mp4"
//Break Periods
//Storyboard Layer 0 (Background)
//Storyboard Layer 1 (Fail)
//Storyboard Layer 2 (Pass)
//Storyboard Layer 3 (Foreground)
//Storyboard Layer 4 (Overlay)
//Storyboard Sound Samples

[TimingPoints]
496,229.007633587786,4,2,1,55,1,0
496,-100,4,2,1,55,0,0
6908,-100,4,2,14,55,0,0
6984,-100,4,2,14,5,0,0
7366,-100,4,2,14,55,0,0
7442,-100,4,2,14,5,0,0
7824,-100,4,2,1,55,0,0
14618,-100,4,2,11,55,0,0
14694,-100,4,2,1,55,0,0
14847,-100,4,2,13,55,0,0
14923,-100,4,2,12,55,0,0
15152,-100,4,2,1,55,0,0
21259,-100,4,2,12,55,0,0
21335,-100,4,2,13,55,0,0
21564,-100,4,2,1,55,0,0
22251,-100,4,2,14,55,0,0
22480,-100,4,2,1,55,0,0
43778,-100,4,2,12,55,0,0
44007,-100,4,2,13,55,0,0
44236,-100,4,2,14,55,0,0
44465,-100,4,2,1,55,0,0
44847,-100,4,2,1,5,0,0
44923,-100,4,2,1,55,0,0
45305,-100,4,2,1,5,0,0
45381,-100,4,2,1,55,0,0
45763,-100,4,2,1,5,0,0
45839,-100,4,2,1,55,0,0
46297,-100,4,2,1,5,0,0
46755,-100,4,2,1,55,0,0
49045,218.181818181818,4,2,1,55,1,0
49408,-100,4,2,11,55,0,0
49481,-100,4,2,1,55,0,0
49626,250,4,2,1,55,1,0
49626,-100,4,2,12,55,0,0
49709,226.415094339623,4,2,12,55,1,0
49709,-100,4,2,13,55,0,0
49859,307.692307692308,4,2,13,55,1,0
49859,-100,4,2,14,55,0,0
49961,226.415094339623,4,2,1,55,1,0
49961,-100,4,2,1,55,0,0
50300,230.769230769231,4,2,1,55,1,0
50877,237.154150197628,4,2,1,55,1,0
51232,215.05376344086,4,2,1,55,1,0
51339,227.272727272727,4,2,1,55,1,0
51490,-100,4,2,11,55,0,0
51566,-100,4,2,12,55,0,0
51793,229.007633587786,4,2,1,55,1,0
51793,-100,4,2,1,55,0,0
53625,-86.9565217391304,4,2,1,60,0,1
66220,-86.9565217391304,4,2,11,60,0,1
66449,-86.9565217391304,4,2,1,60,0,0
66831,-86.9565217391304,4,2,1,5,0,0
66907,-86.9565217391304,4,2,1,60,0,0
67289,-86.9565217391304,4,2,1,5,0,0
67365,-86.9565217391304,4,2,1,60,0,0
68281,-86.9565217391304,4,2,1,60,0,1
82938,-86.9565217391304,4,2,1,60,0,0

[Colours]
Combo1 : 153,118,245
Combo2 : 117,200,244
Combo3 : 171,242,91
Combo4 : 245,193,71
Combo5 : 249,98,169

[HitObjects]
76,15,6908,5,8,3:0:0:0:
238,65,7366,1,8,3:0:0:0:
400,115,7824,6,0,P|418:160|403:214,1,85,6|8,3:2|1:2,0:0:0:0:
477,249,8282,2,0,P|454:291|403:314,1,85,2|8,3:2|2:0,0:0:0:0:
344,342,8740,2,0,L|246:333,2,85,2|8|0,3:2|1:2|3:0,0:0:0:0:
410,289,9427,1,8,2:0:0:0:
360,219,9656,6,0,P|352:174|375:125,1,85,2|8,3:2|1:2,0:0:0:0:
323,63,10114,2,0,P|288:92|234:97,1,85,2|8,3:2|2:0,0:0:0:0:
207,174,10572,2,0,P|249:189|280:233,1,85,2|8,3:2|1:2,0:0:0:0:
297,300,11030,1,0,3:0:0:0:
297,300,11259,1,8,2:0:0:0:
239,362,11488,6,0,P|168:339|62:341,1,170,2|0,3:0|3:0,0:0:0:0:
4,289,12175,1,8,2:0:0:0:
3,288,12404,2,0,P|76:245|159:226,1,170,2|0,3:0|3:0,0:0:0:0:
229,273,13091,1,8,2:0:0:0:
312,259,13320,6,0,P|302:205|283:176,1,85,2|8,3:0|2:0,0:0:0:0:
329,106,13778,2,0,P|279:83|244:82,1,85,2|8,3:0|2:0,0:0:0:0:
205,8,14236,2,0,P|157:35|136:63,1,85,2|8,3:0|2:0,0:0:0:0:
53,54,14694,2,0,P|48:108|59:142,1,85,2|8,3:0|2:3,0:0:0:0:
113,200,15152,5,4,3:2:0:0:
463,292,16297,6,0,P|386:287|221:369,1,255,2|4,3:0|3:1,0:0:0:0:
357,39,18129,6,0,P|277:56|89:30,1,255,2|4,3:0|3:1,0:0:0:0:
370,247,19961,6,0,P|275:276|137:365,1,255,2|4,3:0|3:1,0:0:0:0:
227,90,21564,6,0,P|160:81|82:37,1,141.666666666667,10|10,2:0|2:0,0:0:0:0:
43,149,22251,1,8,2:3:0:0:
43,149,22480,6,0,P|130:153|210:205,2,170,4|2|0,3:1|3:2|3:0,0:0:0:0:
52,233,23625,2,0,P|140:256|183:344,1,170,2|0,1:2|1:0,0:0:0:0:
258,351,24312,6,0,P|260:279|308:174,2,170,2|0|0,3:2|3:0|3:0,0:0:0:0:
342,341,25457,2,0,P|362:251|429:188,1,170,2|0,1:2|1:0,0:0:0:0:
405,111,26144,6,0,P|360:111|304:86,1,85,2|0,3:2|1:0,0:0:0:0:
280,24,26602,2,0,P|237:23|197:36,1,85,2|0,3:0|1:0,0:0:0:0:
124,80,27060,2,0,L|110:177,1,85,2|0,3:0|1:0,0:0:0:0:
50,222,27518,2,0,L|62:306,1,85,2|0,3:0|1:0,0:0:0:0:
137,345,27976,6,0,P|186:342|223:325,1,85,2|0,3:0|1:0,0:0:0:0:
299,352,28434,2,0,P|328:312|338:273,1,85,2|0,3:0|1:0,0:0:0:0:
420,258,28892,2,0,P|428:187|402:106,1,141.666666666667,2|10,3:0|2:0,0:0:0:0:
449,44,29503,1,10,2:0:0:0:
337,23,29808,6,0,L|159:13,1,170,4|0,3:2|3:0,0:0:0:0:
82,11,30495,1,10,2:0:0:0:
15,65,30725,2,0,P|11:108|36:167,1,85,2|8,3:0|2:0,0:0:0:0:
85,206,31183,1,2,3:0:0:0:
39,369,31641,6,0,P|113:363|205:311,1,170,0|2,3:0|3:0,0:0:0:0:
256,258,32328,1,8,2:0:0:0:
267,173,32557,2,0,L|255:86,1,85,2|8,3:0|2:0,0:0:0:0:
298,15,33015,1,2,2:0:0:0:
406,136,33473,6,0,P|386:198|392:232,1,85,0|8,3:0|2:0,0:0:0:0:
431,289,33931,1,2,3:0:0:0:
431,289,34160,1,10,2:0:0:0:
360,336,34389,2,0,P|311:326|267:330,1,85,0|10,3:0|2:0,0:0:0:0:
217,266,34847,2,0,P|171:285|137:314,1,85,2|10,3:0|2:0,0:0:0:0:
96,378,35305,6,0,P|84:286|42:219,1,170,6|2,3:1|3:0,0:0:0:0:
108,64,36221,2,0,P|115:115|176:191,1,141.666666666667,4|2,3:2|3:1,0:0:0:0:
353,255,37137,5,0,3:2:0:0:
353,255,37366,2,0,L|259:274,2,85,10|2|10,2:0|3:0|2:0,0:0:0:0:
396,181,38053,2,0,L|312:164,1,85,2|8,3:0|2:0,0:0:0:0:
248,108,38511,2,0,L|164:125,1,85,0|10,3:0|2:0,0:0:0:0:
75,269,39198,6,0,P|41:232|-7:212,2,85,10|0|10,2:0|3:0|2:0,0:0:0:0:
57,352,39885,2,0,P|131:288|217:277,1,170,2|0,3:0|3:0,0:0:0:0:
270,322,40572,1,10,2:0:0:0:
438,298,41030,6,0,L|424:388,2,85,10|2|8,2:0|3:0|2:0,0:0:0:0:
496,239,41717,2,0,P|480:200|483:156,1,85,2|10,3:0|2:0,0:0:0:0:
400,133,42175,2,0,P|412:92|443:61,1,85,2|8,3:0|2:0,0:0:0:0:
509,10,42633,6,0,L|334:25,1,170,2|0,3:0|3:0,0:0:0:0:
268,71,43320,1,0,3:0:0:0:
210,7,43549,5,8,2:0:0:0:
210,7,43778,1,8,2:3:0:0:
139,53,44007,1,8,2:3:0:0:
139,53,44236,1,8,2:3:0:0:
71,0,44465,5,4,3:1:0:0:
121,162,44923,1,4,3:1:0:0:
234,287,45381,1,4,3:1:0:0:
389,352,45839,1,4,3:2:0:0:
464,92,46755,6,0,L|478:6,2,85,0|0|0,2:0|2:0|2:0,0:0:0:0:
393,140,47442,2,0,L|362:58,2,85,0|0|0,2:0|2:0|2:0,0:0:0:0:
447,205,48129,6,0,P|353:203|193:269,1,255,4|8,3:1|2:0,0:0:0:0:
145,321,49045,2,0,P|119:263|130:224,1,85,2|0,2:0|3:0,0:0:0:0:
177,178,49481,1,10,2:0:0:0:
177,178,49709,1,10,2:3:0:0:
117,117,49961,6,0,P|54:138|5:194,1,127.5,4|4,3:1|3:1,0:0:0:0:
113,360,50877,2,0,P|104:298|134:228,1,127.5,4|4,3:2|3:1,0:0:0:0:
345,219,51793,2,0,P|277:263|227:360,1,170,4|4,3:1|3:1,0:0:0:0:
398,372,52709,5,4,3:1:0:0:
398,372,52938,1,4,3:1:0:0:
459,313,53167,2,0,L|454:223,1,85,2|2,3:0|3:0,0:0:0:0:
424,134,53625,6,0,P|385:124|327:146,1,97.75,4|8,3:2|2:0,0:0:0:0:
255,202,54083,2,0,P|214:211|158:189,1,97.75,0|8,3:0|2:0,0:0:0:0:
121,104,54541,1,2,3:0:0:0:
121,104,54770,1,8,2:0:0:0:
35,151,54999,2,0,L|44:254,1,97.75,2|8,3:0|2:0,0:0:0:0:
133,286,55457,6,0,L|162:192,2,97.75,2|8|0,3:0|2:0|3:0,0:0:0:0:
52,341,56144,1,8,2:0:0:0:
140,381,56373,2,0,P|207:376|254:356,1,97.75,2|8,3:0|2:0,0:0:0:0:
322,320,56831,1,2,3:0:0:0:
322,320,57060,1,10,2:0:0:0:
398,258,57289,6,0,L|373:148,1,97.75,2|8,3:0|2:0,0:0:0:0:
452,101,57747,2,0,L|431:1,1,97.75,2|8,3:0|2:0,0:0:0:0:
334,3,58205,1,2,3:0:0:0:
334,3,58434,2,0,P|279:15|243:43,1,97.75,10|0,2:0|3:0,0:0:0:0:
165,94,58892,1,8,2:0:0:0:
165,94,59121,6,0,P|130:49|121:0,2,97.75,2|8|2,3:0|2:0|3:0,0:0:0:0:
255,130,59808,1,8,2:0:0:0:
179,191,60037,2,0,P|175:230|201:286,1,97.75,2|8,3:0|2:0,0:0:0:0:
133,355,60495,2,0,P|166:375|229:375,1,97.75,2|8,2:0|2:0,0:0:0:0:
310,321,60953,6,0,L|342:224,1,97.75,2|8,3:0|2:0,0:0:0:0:
411,160,61411,2,0,L|489:242,1,97.75,2|8,3:0|2:0,0:0:0:0:
499,326,61869,2,0,L|403:345,1,97.75,2|8,3:0|2:0,0:0:0:0:
310,321,62327,1,2,3:0:0:0:
310,321,62556,1,8,2:0:0:0:
217,288,62785,6,0,P|212:336|241:387,2,97.75,2|10|2,3:0|2:0|3:0,0:0:0:0:
289,221,63472,1,10,2:0:0:0:
196,188,63701,2,0,P|151:207|121:254,2,97.75,2|10|2,3:0|2:0|3:0,0:0:0:0:
293,196,64388,1,10,2:0:0:0:
345,113,64617,6,0,L|320:3,1,97.75,2|8,3:0|2:0,0:0:0:0:
418,0,65075,2,0,L|525:29,1,97.75,2|8,3:0|2:0,0:0:0:0:
487,120,65533,2,0,L|404:195,1,97.75,2|10,3:0|2:0,0:0:0:0:
330,235,65991,1,2,3:0:0:0:
330,235,66220,1,8,2:3:0:0:
246,184,66449,6,0,P|226:116|262:-1,2,195.5,4|4|4,3:1|3:1|3:2,0:0:0:0:
404,297,67823,1,2,3:2:0:0:
404,297,68052,1,2,3:2:0:0:
322,351,68281,6,0,L|116:336,1,195.5,4|8,3:2|0:0,0:0:0:0:
40,291,68968,1,2,1:2:0:0:
124,241,69197,2,0,L|227:250,1,97.75,2|0,3:0|1:2,0:0:0:0:
300,192,69655,2,0,L|213:141,1,97.75,10|0,2:0|1:2,0:0:0:0:
132,91,70113,6,0,P|220:100|330:41,1,195.500003728867,2|8,3:0|2:0,0:0:0:0:
398,5,70800,1,0,1:2:0:0:
482,54,71029,2,0,P|498:104|483:173,1,97.75,2|0,3:0|1:0,0:0:0:0:
418,211,71487,1,10,2:0:0:0:
418,211,71716,1,0,1:2:0:0:
338,268,71945,6,0,L|235:276,1,97.75,2|0,3:0|1:2,0:0:0:0:
155,323,72403,2,0,P|143:272|161:219,1,97.75,10|0,2:0|1:2,0:0:0:0:
227,163,72861,2,0,L|424:147,1,195.500003728867,2|8,3:0|2:0,0:0:0:0:
501,204,73548,1,10,1:3:0:0:
444,283,73777,6,0,P|456:327|465:379,2,97.7500018644333,2|0|8,3:0|1:0|0:0,0:0:0:0:
362,228,74464,1,2,1:2:0:0:
270,263,74693,2,0,P|273:216|288:160,1,97.7500018644333,2|0,3:0|1:2,0:0:0:0:
369,113,75151,1,10,2:0:0:0:
369,113,75380,1,0,1:2:0:0:
437,42,75609,6,0,P|347:69|232:48,1,195.5,6|8,3:1|0:0,0:0:0:0:
158,15,76296,1,2,1:0:0:0:
113,101,76525,2,0,P|105:154|122:205,1,97.75,2|0,3:2|1:0,0:0:0:0:
199,248,76983,1,10,2:0:0:0:
199,248,77212,1,0,1:0:0:0:
136,322,77441,6,0,P|221:290|333:309,1,195.5,2|8,3:1|0:0,0:0:0:0:
418,325,78128,1,2,1:0:0:0:
480,250,78357,2,0,P|470:210|481:138,1,97.75,2|0,3:0|1:0,0:0:0:0:
500,60,78815,1,10,2:0:0:0:
500,60,79044,1,2,1:0:0:0:
412,17,79273,6,0,P|370:26|320:55,1,97.75,4|0,3:2|1:0,0:0:0:0:
238,3,79731,2,0,P|212:36|186:90,1,97.75,10|0,2:0|1:0,0:0:0:0:
92,110,80189,2,0,P|93:152|113:207,1,97.75,2|0,3:0|1:0,0:0:0:0:
57,285,80647,2,0,P|85:316|137:346,1,97.75,8|2,2:0|1:0,0:0:0:0:
230,338,81105,5,6,3:2:0:0:
230,338,81334,1,0,1:0:0:0:
294,264,81563,1,8,2:0:0:0:
294,264,81792,1,0,1:0:0:0:
381,307,82022,1,0,3:0:0:0:
381,307,82251,1,0,1:0:0:0:
442,230,82480,2,0,L|448:119,1,97.75,8|0,2:0|3:1,0:0:0:0:
256,192,82938,12,4,84770,3:2:0:0:
