osu file format v14

[General]
AudioFilename: audio.ogg
AudioLeadIn: 0
PreviewTime: 53167
Countdown: 0
SampleSet: Soft
StackLeniency: 0.7
Mode: 0
LetterboxInBreaks: 0
WidescreenStoryboard: 1

[Editor]
Bookmarks: 7022,22557,28511,29885,33320,35381,37213,44541,53014,61945,74541
DistanceSpacing: 1
BeatDivisor: 3
GridSize: 32
TimelineZoom: 1

[Metadata]
Title:Zeitaku na Saji (TV Size)
TitleUnicode:贅沢な匙 (TV Size)
Artist:Van de Shop
ArtistUnicode:Van de Shop
Creator:CrystilonZ
Version:Hard
Source:とんでもスキルで異世界放浪メシ
Tags:Tondemo Skill de Isekai Hourou Meshi Campfire Cooking in Another World with My Absurd Japanese Anime Opening Op Pop Swing 栗山夕璃 Kuriyama Yuri 蜂屋ななし Hachiya nanashi Luxury Spoon J-Pop JPop
BeatmapID:3976946
BeatmapSetID:1925530

[Difficulty]
HPDrainRate:5
CircleSize:3.8
OverallDifficulty:6
ApproachRate:8
SliderMultiplier:1.15
SliderTickRate:1

[Events]
//Background and Video events
0,0,"tondemoskill.jpg",0,0
Video,-100,"tondemo.mp4"
//Break Periods
//Storyboard Layer 0 (Background)
//Storyboard Layer 1 (Fail)
//Storyboard Layer 2 (Pass)
//Storyboard Layer 3 (Foreground)
//Storyboard Layer 4 (Overlay)
//Storyboard Sound Samples

[TimingPoints]
496,229.007633587786,4,2,1,55,1,0
496,-100,4,2,1,55,0,0
6908,-100,4,2,14,55,0,0
6984,-100,4,2,14,5,0,0
7366,-100,4,2,14,55,0,0
7442,-100,4,2,14,5,0,0
7824,-100,4,2,1,55,0,0
14618,-100,4,2,11,55,0,0
14694,-100,4,2,1,55,0,0
14847,-100,4,2,13,55,0,0
14923,-100,4,2,12,55,0,0
15152,-100,4,2,1,55,0,0
16297,-117.647058823529,4,2,1,55,0,0
16908,-117.647058823529,4,2,1,5,0,0
16984,-117.647058823529,4,2,1,55,0,0
18740,-117.647058823529,4,2,1,5,0,0
18816,-117.647058823529,4,2,1,55,0,0
20572,-117.647058823529,4,2,1,5,0,0
20648,-117.647058823529,4,2,1,55,0,0
21259,-117.647058823529,4,2,12,55,0,0
21335,-117.647058823529,4,2,13,55,0,0
21564,-117.647058823529,4,2,1,55,0,0
22251,-117.647058823529,4,2,14,55,0,0
22480,-117.647058823529,4,2,1,55,0,0
29808,-100,4,2,1,55,0,0
43778,-100,4,2,12,55,0,0
44007,-100,4,2,13,55,0,0
44236,-100,4,2,14,55,0,0
44465,-100,4,2,1,55,0,0
44847,-100,4,2,1,5,0,0
44923,-100,4,2,1,55,0,0
45305,-100,4,2,1,5,0,0
45381,-100,4,2,1,55,0,0
45763,-100,4,2,1,5,0,0
45839,-100,4,2,1,55,0,0
46297,-100,4,2,1,5,0,0
46755,-100,4,2,1,55,0,0
49045,218.181818181818,4,2,1,55,1,0
49408,-100,4,2,11,55,0,0
49481,-100,4,2,1,55,0,0
49626,250,4,2,1,55,1,0
49626,-100,4,2,12,55,0,0
49709,226.415094339623,4,2,12,55,1,0
49709,-100,4,2,13,55,0,0
49859,307.692307692308,4,2,13,55,1,0
49859,-100,4,2,14,55,0,0
49961,226.415094339623,4,2,1,55,1,0
49961,-100,4,2,1,55,0,0
50300,230.769230769231,4,2,1,55,1,0
50877,237.154150197628,4,2,1,55,1,0
51232,215.05376344086,4,2,1,55,1,0
51339,227.272727272727,4,2,1,55,1,0
51490,-100,4,2,11,55,0,0
51566,-100,4,2,12,55,0,0
51793,229.007633587786,4,2,1,55,1,0
51793,-100,4,2,1,55,0,0
52174,-100,4,2,1,5,0,0
52251,-100,4,2,1,55,0,0
52632,-100,4,2,1,5,0,0
52709,-100,4,2,1,55,0,0
53625,-90.9090909090909,4,2,1,60,0,1
66220,-90.9090909090909,4,2,11,60,0,1
66449,-90.9090909090909,4,2,1,60,0,0
66831,-90.9090909090909,4,2,1,5,0,0
66907,-90.9090909090909,4,2,1,60,0,0
67289,-90.9090909090909,4,2,1,5,0,0
67365,-90.9090909090909,4,2,1,60,0,0
68281,-90.9090909090909,4,2,1,60,0,1
82938,-90.9090909090909,4,2,1,60,0,0

[Colours]
Combo1 : 153,118,245
Combo2 : 117,200,244
Combo3 : 171,242,91
Combo4 : 245,193,71
Combo5 : 249,98,169

[HitObjects]
138,335,6908,5,8,3:0:0:0:
300,301,7366,1,8,3:0:0:0:
462,267,7824,6,0,P|480:212|465:165,1,76.6666666666667,6|8,3:2|2:3,0:0:0:0:
464,158,8053,1,8,1:2:0:0:
365,98,8282,2,0,P|356:159|395:226,1,115,2|8,3:2|2:0,0:0:0:0:
368,321,8740,2,0,P|311:292|250:297,1,115,2|8,3:2|1:2,0:0:0:0:
192,326,9121,1,2,2:0:0:0:
192,326,9198,2,0,L|169:219,1,76.6666666666667,0|8,3:0|2:3,0:0:0:0:
168,213,9427,1,8,2:0:0:0:
73,147,9656,6,0,L|48:259,1,115,2|8,3:2|1:2,0:0:0:0:
4,365,10114,2,0,P|57:352|98:357,1,76.6666666666667,2|8,3:2|2:3,0:0:0:0:
116,362,10343,1,8,2:0:0:0:
205,290,10572,2,0,P|176:249|167:154,2,115,2|8|0,3:2|1:2|3:0,0:0:0:0:
270,334,11183,1,10,2:3:0:0:
270,334,11259,1,8,2:0:0:0:
350,252,11488,6,0,L|375:134,1,115,2|8,3:0|1:2,0:0:0:0:
299,48,11946,2,0,L|205:75,1,76.6666666666667,0|8,3:0|2:3,0:0:0:0:
188,80,12175,1,8,2:0:0:0:
106,160,12404,2,0,P|164:168|208:221,1,115,2|8,3:0|1:2,0:0:0:0:
242,314,12862,2,0,P|289:348|334:346,1,76.6666666666667,0|8,3:0|2:3,0:0:0:0:
344,352,13091,1,8,2:0:0:0:
447,297,13320,6,0,L|435:156,1,115,2|8,3:0|2:0,0:0:0:0:
328,219,13778,2,0,L|321:142,1,76.6666666666667,2|8,3:0|2:3,0:0:0:0:
318,104,14007,1,8,2:0:0:0:
209,141,14236,2,0,L|202:64,1,76.6666666666667,2|0,3:0|2:0,0:0:0:0:
199,26,14465,1,8,2:0:0:0:
126,0,14618,5,8,2:3:0:0:
126,0,14694,1,2,3:0:0:0:
53,27,14847,1,8,2:3:0:0:
53,27,14923,2,0,P|19:70|17:122,1,76.6666666666667,8|0,2:3|0:0,0:0:0:0:
15,128,15152,1,4,3:2:0:0:
15,128,16297,6,0,P|126:177|285:164,1,260.666666666668,2|0,3:0|2:0,0:0:0:0:
293,160,16984,1,4,3:1:0:0:
118,276,18129,6,0,P|239:273|377:194,1,260.666666666668,2|0,3:0|2:0,0:0:0:0:
383,187,18816,1,4,3:1:0:0:
275,368,19961,6,0,P|383:314|476:184,1,260.666666666668,2|0,3:0|2:0,0:0:0:0:
477,176,20648,1,4,3:1:0:0:
197,16,21564,6,0,P|216:66|201:126,1,97.7500000000003,10|0,2:0|2:0,0:0:0:0:
278,141,21946,2,0,P|245:188|159:210,1,130.333333333334,10|8,2:0|2:3,0:0:0:0:
81,194,22480,6,0,L|29:-2,2,195.500000000001,4|2|0,3:1|3:2|3:0,0:0:0:0:
81,291,23625,2,0,L|-1:239,2,97.7500000000003,2|0|0,1:2|3:2|1:0,0:0:0:0:
125,377,24312,6,0,P|168:335|212:322,1,97.7500000000003,2|0,3:2|1:2,0:0:0:0:
230,229,24770,2,0,P|289:234|328:260,1,97.7500000000003,0|0,3:0|1:2,0:0:0:0:
376,334,25228,1,0,3:0:0:0:
459,284,25457,2,0,P|404:227|423:92,1,195.500000000001,2|0,1:2|1:0,0:0:0:0:
465,38,26144,5,2,3:2:0:0:
372,7,26373,1,0,1:0:0:0:
301,74,26602,5,2,3:0:0:0:
399,80,26831,1,0,1:0:0:0:
326,146,27060,5,2,3:0:0:0:
230,165,27289,1,0,1:0:0:0:
202,259,27518,5,2,3:0:0:0:
290,215,27747,1,0,1:0:0:0:
269,310,27976,6,0,P|233:337|174:337,1,97.7500000000003,2|0,3:0|1:0,0:0:0:0:
91,377,28434,2,0,P|55:349|40:292,1,97.7500000000003,2|0,3:0|1:0,0:0:0:0:
38,202,28892,6,0,L|70:86,1,97.7500000000003,2|8,3:0|2:0,0:0:0:0:
102,37,29274,2,0,P|117:52|126:65,1,32.5833333333334,10|0,2:0|3:0,0:0:0:0:
186,110,29503,2,0,P|192:87|197:76,1,32.5833333333334,10|8,2:0|2:0,0:0:0:0:
242,15,29732,1,8,2:3:0:0:
242,15,29808,6,0,P|303:28|349:83,1,115,4|8,3:2|2:0,0:0:0:0:
402,168,30266,2,0,L|415:79,1,76.6666666666667,0|2,3:0|2:0,0:0:0:0:
420,54,30495,1,10,2:0:0:0:
486,148,30725,2,0,L|502:261,1,115,2|8,3:0|2:0,0:0:0:0:
420,342,31183,2,0,L|345:261,1,76.6666666666667,2|10,3:0|2:3,0:0:0:0:
339,259,31412,1,8,2:0:0:0:
234,210,31641,6,0,P|239:265|194:333,1,115,0|8,3:0|2:0,0:0:0:0:
145,352,32022,1,2,2:0:0:0:
145,352,32099,2,0,P|102:315|18:310,1,115,2|8,3:0|2:0,0:0:0:0:
3,197,32557,2,0,P|81:196|126:162,1,115,2|8,3:0|2:0,0:0:0:0:
163,122,32938,1,0,3:0:0:0:
163,122,33015,2,0,L|176:34,1,76.6666666666667,2|0,2:0|3:0,0:0:0:0:
207,26,33244,2,0,L|253:96,1,76.6666666666667,8|0,2:0|2:0,0:0:0:0:
270,122,33473,1,0,3:0:0:0:
323,176,33625,6,0,P|368:133|385:72,1,115,2|2,2:0|2:0,0:0:0:0:
404,50,33931,2,0,P|417:110|471:160,1,115,2|10,3:0|2:0,0:0:0:0:
483,170,34236,2,0,P|410:212|358:317,1,191.666666666667,2|10,2:0|2:0,0:0:0:0:
262,366,34847,2,0,P|231:315|233:267,1,76.6666666666667,2|8,3:0|2:3,0:0:0:0:
238,261,35076,1,10,2:0:0:0:
147,332,35305,6,0,P|92:306|15:309,1,115,6|8,3:1|2:0,0:0:0:0:
9,192,35763,2,0,P|65:197|120:180,1,115,2|8,3:0|2:0,0:0:0:0:
148,292,36221,6,0,P|98:284|28:310,1,115,4|10,3:2|2:0,0:0:0:0:
2,235,36602,2,0,P|61:171|107:160,1,115,2|0,3:1|3:0,0:0:0:0:
120,179,36908,1,8,2:0:0:0:
227,220,37137,6,0,L|238:297,1,76.6666666666667,0|0,3:2|2:0,0:0:0:0:
251,332,37366,2,0,L|344:239,2,115,10|2|10,2:0|3:0|2:0,0:0:0:0:
144,375,38053,2,0,L|128:270,1,76.6666666666667,2|0,3:0|2:0,0:0:0:0:
102,275,38282,2,0,L|83:150,1,115,8|0,2:0|3:0,0:0:0:0:
106,48,38740,2,0,L|207:38,1,76.6666666666667,10|8,2:0|2:3,0:0:0:0:
220,38,38969,5,0,3:0:0:0:
284,132,39198,2,0,P|242:136|205:124,1,76.6666666666667,10|2,2:0|2:0,0:0:0:0:
171,133,39427,2,0,P|188:185|173:268,1,115,0|10,3:0|2:0,0:0:0:0:
205,357,39885,2,0,P|241:312|291:286,1,115,2|8,3:0|2:0,0:0:0:0:
325,217,40266,2,0,P|345:230|359:244,1,38.3333333333333,2|0,2:0|3:0,0:0:0:0:
403,306,40495,1,8,2:3:0:0:
403,306,40572,2,0,P|415:246|416:187,1,115,10|0,2:0|3:0,0:0:0:0:
348,99,41030,5,10,2:0:0:0:
235,130,41259,2,0,P|222:188|223:246,1,115,2|8,3:0|2:0,0:0:0:0:
242,356,41717,2,0,L|114:339,1,115,2|10,3:0|2:0,0:0:0:0:
36,271,42175,2,0,L|119:259,1,76.6666666666667,2|2,3:0|2:0,0:0:0:0:
150,255,42404,1,8,2:0:0:0:
210,207,42557,1,8,2:3:0:0:
210,207,42633,6,0,P|228:141|212:91,2,115,2|8|0,3:0|2:0|3:0,0:0:0:0:
253,276,43244,1,8,2:0:0:0:
253,276,43320,2,0,P|303:260|335:225,1,76.6666666666667,0|8,3:0|2:3,0:0:0:0:
344,213,43549,1,8,2:0:0:0:
409,172,43702,1,8,2:0:0:0:
409,172,43778,2,0,P|433:218|430:266,1,76.6666666666667,8|8,2:3|2:3,0:0:0:0:
419,277,44007,5,8,2:3:0:0:
317,331,44236,1,8,2:3:0:0:
211,379,44465,6,0,P|175:331|191:203,1,191.666666666667,4|0,3:1|2:0,0:0:0:0:
220,184,44923,2,0,P|165:259|73:277,1,191.666666666667,4|0,3:1|2:0,0:0:0:0:
39,296,45381,2,0,P|39:225|130:122,1,191.666666666667,4|0,3:1|2:0,0:0:0:0:
147,129,45839,2,0,P|43:87|100:29,1,230,4|0,3:2|2:0,0:0:0:0:
480,115,46755,5,0,2:0:0:0:
480,115,46984,1,0,2:0:0:0:
480,115,47213,1,0,2:0:0:0:
374,71,47442,5,0,2:0:0:0:
374,71,47671,1,0,2:0:0:0:
374,71,47900,1,0,2:0:0:0:
268,33,48129,6,0,P|256:73|295:144,1,115,4|0,3:1|3:0,0:0:0:0:
315,160,48434,2,0,P|345:207|309:317,1,153.333333333333,8|0,2:0|2:0,0:0:0:0:
306,330,48816,2,0,L|166:341,1,115,8|2,2:0|2:0,0:0:0:0:
120,309,49190,5,8,2:0:0:0:
120,309,49263,2,0,P|138:281|187:260,1,76.6666666666667,0|8,3:0|2:3,0:0:0:0:
215,260,49481,1,10,2:0:0:0:
190,187,49626,1,8,2:3:0:0:
190,187,49709,2,0,P|155:184|101:148,1,76.6666666666667,10|8,2:3|2:3,0:0:0:0:
126,128,49961,6,0,P|175:85|250:78,1,115,4|0,3:1|1:0,0:0:0:0:
273,98,50300,2,0,P|213:110|120:33,1,172.5,4|8,3:1|2:0,0:0:0:0:
22,130,50877,6,0,L|28:261,1,115,4|8,3:2|2:3,0:0:0:0:
36,302,51232,2,0,L|108:204,1,138,4|8,3:1|2:3,0:0:0:0:
117,152,51566,1,10,2:3:0:0:
228,83,51793,6,0,P|273:76|390:165,1,191.666666666667,4|0,3:1|0:0,0:0:0:0:
414,181,52251,2,0,P|371:95|282:56,1,191.666666666667,4|8,3:1|2:0,0:0:0:0:
248,55,52709,5,4,3:1:0:0:
162,131,52938,1,4,3:1:0:0:
76,207,53167,2,0,L|51:322,1,115,2|2,3:0|3:0,0:0:0:0:
178,294,53625,6,0,P|245:286|308:323,1,126.5,4|8,3:2|2:0,0:0:0:0:
370,361,54006,1,2,2:0:0:0:
370,361,54083,2,0,P|392:314|382:233,1,126.5,0|8,3:0|2:0,0:0:0:0:
302,145,54541,2,0,P|349:119|400:118,1,84.3333333333333,2|0,3:0|2:0,0:0:0:0:
416,96,54770,2,0,P|358:89|279:51,1,126.5,8|2,2:0|3:0,0:0:0:0:
176,19,55228,1,8,2:0:0:0:
67,85,55457,6,0,L|46:231,1,126.5,2|8,3:0|2:0,0:0:0:0:
97,285,55838,1,2,2:0:0:0:
97,285,55915,1,0,3:0:0:0:
177,253,56067,1,2,2:0:0:0:
177,253,56144,2,0,L|169:162,1,84.3333333333333,8|0,2:0|2:0,0:0:0:0:
187,130,56373,2,0,L|281:249,1,126.5,2|8,3:0|2:0,0:0:0:0:
351,321,56831,2,0,P|368:278|359:226,1,84.3333333333333,2|0,3:0|2:0,0:0:0:0:
398,215,57060,2,0,P|383:171|343:137,1,84.3333333333333,10|0,2:0|2:0,0:0:0:0:
338,106,57289,6,0,P|393:125|488:102,2,126.5,2|8|2,3:0|2:0|3:0,0:0:0:0:
247,17,57976,1,8,2:0:0:0:
131,68,58205,2,0,L|114:169,1,84.3333333333333,2|0,3:0|2:0,0:0:0:0:
78,170,58434,2,0,L|102:300,1,126.5,10|0,2:0|3:0,0:0:0:0:
210,356,58892,1,8,2:0:0:0:
333,327,59121,6,0,P|358:276|345:225,1,84.3333333333333,2|0,3:0|2:0,0:0:0:0:
386,220,59350,2,0,P|372:164|329:134,1,84.3333333333333,8|0,2:0|2:0,0:0:0:0:
315,127,59579,2,0,L|187:113,1,126.5,2|8,3:0|2:0,0:0:0:0:
95,28,60037,2,0,L|223:14,1,126.5,2|8,3:0|2:0,0:0:0:0:
304,45,60418,1,2,3:0:0:0:
304,45,60495,2,0,L|387:37,1,84.3333333333333,2|0,2:0|3:0,0:0:0:0:
431,37,60724,1,8,2:0:0:0:
461,160,60953,6,0,P|415:133|323:140,1,126.5,2|8,3:0|2:0,0:0:0:0:
286,245,61411,2,0,P|332:218|372:135,1,126.5,2|8,3:0|2:0,0:0:0:0:
300,51,61869,2,0,P|299:104|351:180,1,126.5,2|8,3:0|2:0,0:0:0:0:
431,248,62327,1,2,3:0:0:0:
368,358,62556,1,8,2:0:0:0:
454,265,62785,5,2,3:0:0:0:
351,338,63014,1,10,2:0:0:0:
225,327,63243,1,2,3:0:0:0:
135,238,63472,1,10,2:0:0:0:
124,112,63701,5,2,3:0:0:0:
168,230,63930,1,10,2:0:0:0:
286,272,64159,1,2,3:0:0:0:
394,208,64388,1,10,2:0:0:0:
415,84,64617,6,0,P|405:143|356:191,1,126.5,2|8,3:0|2:0,0:0:0:0:
252,256,65075,2,0,P|205:217|188:151,1,126.5,2|8,3:0|2:0,0:0:0:0:
184,28,65533,2,0,P|240:7|306:25,1,126.5,2|10,3:0|2:0,0:0:0:0:
415,84,65991,2,0,L|408:37,3,42.1666666666667,2|8|8|8,3:0|2:0|2:0|2:3,0:0:0:0:
310,122,66449,6,0,P|292:181|383:319,1,210.833333333333,4|0,3:1|2:0,0:0:0:0:
355,349,66907,2,0,P|312:303|147:313,1,210.833333333333,4|0,3:1|2:0,0:0:0:0:
135,274,67365,2,0,P|195:260|269:112,1,210.833333333333,4|8,3:2|2:0,0:0:0:0:
279,99,67823,5,2,3:2:0:0:
156,67,68052,1,2,3:2:0:0:
33,35,68281,6,0,P|13:84|41:156,1,126.5,4|2,3:2|1:2,0:0:0:0:
62,183,68586,2,0,P|98:242|32:374,1,210.833333333333,2|2,2:0|1:2,0:0:0:0:
172,334,69197,2,0,P|213:310|269:308,1,84.3333333333333,2|8,3:0|2:3,0:0:0:0:
290,314,69426,1,0,1:2:0:0:
405,365,69655,1,10,2:0:0:0:
456,250,69884,1,0,1:2:0:0:
341,199,70113,6,0,P|321:144|342:66,1,126.5,2|0,3:0|1:2,0:0:0:0:
389,15,70495,2,0,P|325:49|213:42,1,168.666666666667,2|0,2:0|1:2,0:0:0:0:
114,100,71029,2,0,P|186:120|246:284,1,253,2|10,3:0|2:0,0:0:0:0:
165,367,71716,1,0,1:2:0:0:
251,352,71869,1,8,2:3:0:0:
251,352,71945,6,0,L|346:360,1,84.3333333333333,2|0,3:0|2:0,0:0:0:0:
373,378,72174,2,0,L|457:370,1,84.3333333333333,0|0,1:2|2:0,0:0:0:0:
486,339,72403,2,0,P|459:294|478:215,1,126.5,10|0,2:0|1:2,0:0:0:0:
506,104,72861,1,2,3:0:0:0:
435,151,73014,2,0,P|381:163|305:122,1,126.5,10|0,2:3|2:0,0:0:0:0:
289,104,73319,1,8,2:0:0:0:
213,2,73548,2,0,P|219:45|200:91,1,84.3333333333333,10|10,1:3|2:3,0:0:0:0:
173,111,73777,6,0,P|147:166|167:252,1,126.5,2|2,3:0|1:2,0:0:0:0:
145,270,74083,2,0,P|104:233|51:223,1,84.3333333333333,2|8,2:0|2:0,0:0:0:0:
28,294,74388,1,8,2:3:0:0:
28,294,74464,2,0,P|69:331|122:341,1,84.3333333333333,2|8,1:2|2:3,0:0:0:0:
129,366,74693,2,0,P|186:362|245:306,1,126.5,2|0,3:0|1:2,0:0:0:0:
293,255,75075,1,8,2:3:0:0:
293,255,75151,2,0,L|276:127,1,126.5,10|0,2:0|1:2,0:0:0:0:
204,85,75533,1,0,2:0:0:0:
204,85,75609,6,0,L|186:222,1,126.5,6|0,3:1|1:0,0:0:0:0:
137,278,75991,2,0,P|86:202|80:146,1,126.5,2|0,2:3|2:0,0:0:0:0:
69,128,76296,1,2,1:0:0:0:
17,248,76525,2,0,P|73:274|136:277,1,126.5,2|0,3:2|1:0,0:0:0:0:
244,211,76983,1,10,2:0:0:0:
307,320,77212,1,0,1:0:0:0:
415,255,77441,6,0,P|445:184|429:112,1,126.5,2|2,3:1|1:0,0:0:0:0:
472,110,77747,2,0,P|441:187|310:228,1,210.833333333333,2|2,2:3|1:0,0:0:0:0:
211,181,78357,2,0,L|183:53,1,126.5,2|0,3:0|1:0,0:0:0:0:
108,19,78739,5,8,2:3:0:0:
108,19,78815,2,0,L|84:121,1,84.3333359069825,10|8,0:0|0:3,0:0:0:0:
103,140,79044,1,2,1:0:0:0:
19,151,79197,1,8,2:3:0:0:
19,151,79273,6,0,L|46:274,1,126.5,4|0,3:2|1:0,0:0:0:0:
164,319,79731,2,0,L|191:195,1,126.5,10|0,2:0|1:0,0:0:0:0:
254,88,80189,1,2,3:0:0:0:
317,143,80342,2,0,P|342:181|323:280,1,126.5,2|2,2:0|2:0,0:0:0:0:
314,294,80647,1,8,2:0:0:0:
400,315,80800,1,8,2:3:0:0:
400,315,80876,2,0,P|446:273|459:212,1,126.5,2|6,1:0|3:2,0:0:0:0:
445,128,81258,6,0,L|314:72,1,126.5,2|2,2:0|2:0,0:0:0:0:
290,61,81563,1,8,2:0:0:0:
224,114,81716,2,0,L|93:58,1,126.5,2|8,2:0|2:3,0:0:0:0:
65,65,82022,6,0,P|46:100|51:161,1,84.3333333333333,0|8,3:0|2:0,0:0:0:0:
48,186,82251,1,0,1:0:0:0:
86,266,82403,1,8,2:3:0:0:
86,266,82480,1,8,2:0:0:0:
164,310,82632,1,8,2:0:0:0:
164,310,82709,2,0,L|310:303,1,126.500003860474,0|2,3:1|0:0,0:0:0:0:
256,192,83014,12,4,84769,3:2:0:0:
