osu file format v14

[General]
AudioFilename: audio.ogg
AudioLeadIn: 0
PreviewTime: 53167
Countdown: 0
SampleSet: Soft
StackLeniency: 0.4
Mode: 0
LetterboxInBreaks: 0
WidescreenStoryboard: 0

[Editor]
Bookmarks: 7005,22570,29898,35395,37227,44555
DistanceSpacing: 1.5
BeatDivisor: 3
GridSize: 32
TimelineZoom: 1

[Metadata]
Title:Zeitaku na Saji (TV Size)
TitleUnicode:贅沢な匙 (TV Size)
Artist:Van de Shop
ArtistUnicode:Van de Shop
Creator:CrystilonZ
Version:Expert
Source:とんでもスキルで異世界放浪メシ
Tags:Tondemo Skill de Isekai Hourou Meshi Campfire Cooking in Another World with My Absurd Japanese Anime Opening Op Pop Swing 栗山夕璃 Kuriyama Yuri 蜂屋ななし Hachiya nanashi Luxury Spoon J-Pop JPop
BeatmapID:3975872
BeatmapSetID:1925530

[Difficulty]
HPDrainRate:6
CircleSize:4
OverallDifficulty:8.5
ApproachRate:9.6
SliderMultiplier:1.6
SliderTickRate:1

[Events]
//Background and Video events
0,0,"tondemoskill.jpg",0,0
Video,-100,"tondemo.mp4"
//Break Periods
//Storyboard Layer 0 (Background)
//Storyboard Layer 1 (Fail)
//Storyboard Layer 2 (Pass)
//Storyboard Layer 3 (Foreground)
//Storyboard Layer 4 (Overlay)
//Storyboard Sound Samples

[TimingPoints]
496,229.007633587786,4,2,1,55,1,0
6908,-100,4,2,14,55,0,0
6984,-100,4,2,14,5,0,0
7366,-100,4,2,14,55,0,0
7442,-100,4,2,14,5,0,0
7824,-83.3333333333333,4,2,1,55,0,0
13320,-125,4,2,1,55,0,0
13778,-66.6666666666667,4,2,1,55,0,0
14236,-55.5555555555556,4,2,1,55,0,0
14618,-55.5555555555556,4,2,11,55,0,0
14694,-66.6666666666667,4,2,1,55,0,0
14846,-66.6666666666667,4,2,13,55,0,0
14923,-83.3333333333333,4,2,12,55,0,0
15152,-57.1428571428571,4,2,1,55,0,0
15381,-57.1428571428571,4,2,1,5,0,0
16297,-133.333333333333,4,2,1,55,0,0
16908,-133.333333333333,4,2,1,5,0,0
16984,-57.1428571428571,4,2,1,55,0,0
17213,-57.1428571428571,4,2,1,5,0,0
18129,-133.333333333333,4,2,1,55,0,0
18740,-133.333333333333,4,2,1,5,0,0
18816,-57.1428571428571,4,2,1,55,0,0
19045,-57.1428571428571,4,2,1,5,0,0
19961,-133.333333333333,4,2,1,55,0,0
20572,-133.333333333333,4,2,1,5,0,0
20648,-57.1428571428571,4,2,1,55,0,0
20877,-57.1428571428571,4,2,1,5,0,0
21259,-57.1428571428571,4,2,12,55,0,0
21335,-57.1428571428571,4,2,13,55,0,0
21564,-57.1428571428571,4,2,1,55,0,0
21946,-76.3358778625954,4,2,1,55,0,0
22251,-76.3358778625954,4,2,14,55,0,0
22480,-133.333333333333,4,2,1,55,0,0
23625,-80,4,2,1,55,0,0
23854,-133.333333333333,4,2,1,55,0,0
24312,-80,4,2,1,55,0,0
25457,-100,4,2,1,55,0,0
26144,-200,4,2,1,55,0,0
26602,-133.333333333333,4,2,1,55,0,0
27060,-100,4,2,1,55,0,0
27518,-80,4,2,1,55,0,0
27976,-66.6666666666667,4,2,1,55,0,0
29808,-100,4,2,1,55,0,0
35305,-66.6666666666667,4,2,1,55,0,0
36602,-57.1428571428571,4,2,1,55,0,0
37137,-100,4,2,1,55,0,0
43778,-100,4,2,12,55,0,0
44007,-100,4,2,13,55,0,0
44236,-100,4,2,14,55,0,0
44465,-400,4,2,1,55,0,0
44846,-400,4,2,1,5,0,0
44923,-200,4,2,1,55,0,0
45304,-200,4,2,1,5,0,0
45381,-133.333333333333,4,2,1,55,0,0
45762,-133.333333333333,4,2,1,5,0,0
45839,-100,4,2,1,55,0,0
46297,-100,4,2,1,5,0,0
46755,-100,4,2,1,55,0,0
49045,218.181818181818,4,2,1,55,1,0
49408,-100,4,2,11,55,0,0
49481,-100,4,2,1,55,0,0
49626,250,4,2,12,55,1,0
49626,-100,4,2,12,55,0,0
49709,226.415094339623,4,2,13,55,1,0
49709,-100,4,2,13,55,0,0
49859,307.692307692308,4,2,14,55,1,0
49859,-100,4,2,14,55,0,0
49961,226.415094339623,4,2,1,55,1,0
49961,-100,4,1,1,55,0,0
50300,230.769230769231,4,1,1,55,1,0
50877,237.154150197628,4,2,1,55,1,0
50877,-80,4,2,1,55,0,0
51232,215.05376344086,4,2,1,55,1,0
51232,-80,4,2,1,55,0,0
51339,227.272727272727,4,2,1,55,1,0
51488,-80,4,2,11,55,0,0
51564,-80,4,2,12,55,0,0
51793,229.007633587786,4,2,1,55,1,0
51793,-66.6666666666667,4,2,1,55,0,0
52022,-66.6666666666667,4,2,1,5,0,0
52251,-66.6666666666667,4,2,1,55,0,0
52480,-66.6666666666667,4,2,1,5,0,0
52633,-66.6666666666667,4,2,1,55,0,0
52709,-50,4,2,1,55,0,0
52862,-50,4,2,1,5,0,0
52938,-50,4,2,1,55,0,0
53091,-50,4,2,1,5,0,0
53167,-133.333333333333,4,2,1,55,0,0
53625,-83.3333333333333,4,2,1,60,0,1
54083,-71.4285714285714,4,2,1,60,0,1
54312,-62.5,4,2,1,60,0,1
54541,-55.5555555555556,4,2,1,60,0,1
54770,-62.5,4,2,1,60,0,1
54999,-71.4285714285714,4,2,1,60,0,1
55228,-83.3333333333333,4,2,1,60,0,1
55457,-100,4,2,1,60,0,1
56144,-76.9230769230769,4,2,1,60,0,1
56373,-50,4,2,1,60,0,1
56831,-100,4,2,1,60,0,1
57060,-71.4285714285714,4,2,1,60,0,1
57289,-55.5555555555556,4,2,1,60,0,1
57518,-66.6666666666667,4,2,1,60,0,1
57747,-83.3333333333333,4,2,1,60,0,1
57976,-111.111111111111,4,2,1,60,0,1
58205,-66.6666666666667,4,2,1,60,0,1
58434,-55.5555555555556,4,2,1,60,0,1
58892,-125,4,2,1,60,0,1
59121,-100,4,2,1,60,0,1
59350,-83.3333333333333,4,2,1,60,0,1
59579,-71.4285714285714,4,2,1,60,0,1
59808,-62.5,4,2,1,60,0,1
60037,-55.5555555555556,4,2,1,60,0,1
60954,-100,4,2,1,60,0,1
61412,-66.6666666666667,4,2,1,60,0,1
61870,-50,4,2,1,60,0,1
62328,-100,4,2,1,60,0,1
62557,-125,4,2,1,60,0,1
62786,-100,4,2,1,60,0,1
63015,-83.3333333333333,4,2,1,60,0,1
63244,-71.4285714285714,4,2,1,60,0,1
63473,-62.5,4,2,1,60,0,1
63702,-55.5555555555556,4,2,1,60,0,1
63931,-62.5,4,2,1,60,0,1
64160,-71.4285714285714,4,2,1,60,0,1
64389,-83.3333333333333,4,2,1,60,0,1
64618,-100,4,2,1,60,0,1
65076,-66.6666666666667,4,2,1,60,0,1
65534,-50,4,2,1,60,0,1
66221,-50,4,2,11,60,0,1
66449,-66.6666666666667,4,2,1,60,0,0
66831,-66.6666666666667,4,2,1,5,0,0
66908,-50,4,2,1,60,0,0
67289,-50,4,2,1,5,0,0
67366,-40,4,2,1,60,0,0
67824,-133.333333333333,4,2,1,60,0,0
68281,-83.3333333333333,4,2,1,60,0,1
69427,-166.666666666667,4,2,1,60,0,1
70114,-83.3333333333333,4,2,1,60,0,1
71030,-66.6666666666667,4,2,1,60,0,1
71488,-55.5555555555556,4,2,1,60,0,1
71946,-66.6666666666667,4,2,1,60,0,1
72404,-83.3333333333333,4,2,1,60,0,1
75152,-166.666666666667,4,2,1,60,0,1
75610,-83.3333333333333,4,2,1,60,0,1
76526,-62.5,4,2,1,60,0,1
76984,-125,4,2,1,60,0,1
77442,-71.4285714285714,4,2,1,60,0,1
78358,-50,4,2,1,60,0,1
79274,-83.3333333333333,4,2,1,60,0,1
82938,-83.3333333333333,4,2,1,60,0,0

[Colours]
Combo1 : 153,118,245
Combo2 : 117,200,244
Combo3 : 171,242,91
Combo4 : 245,193,71
Combo5 : 249,98,169

[HitObjects]
9,86,6908,6,0,L|22:28,1,53.3333333333333,8|0,3:0|2:0,2:0:0:0:
22,101,7366,2,0,L|35:43,1,53.3333333333333,8|0,3:0|2:0,2:0:0:0:
35,116,7824,6,0,P|99:120|165:64,1,128,6|8,3:2|2:3,2:0:0:0:
175,60,8053,1,8,1:2:0:0:
269,246,8282,2,0,P|288:186|271:125,1,128,2|8,3:2|2:3,2:0:0:0:
251,99,8511,1,8,2:0:0:0:
482,180,8740,5,2,3:2:0:0:
391,266,8892,1,2,2:0:0:0:
428,275,8969,1,8,1:2:0:0:
380,134,9121,1,2,2:0:0:0:
363,166,9198,2,0,P|446:192|484:180,1,128,0|8,3:0|2:3,2:0:0:0:
481,149,9427,1,8,2:0:0:0:
375,381,9656,6,0,P|325:320|181:320,1,192,2|8,3:2|1:2,2:0:0:0:
272,50,10114,2,0,P|244:123|285:203,1,128,2|8,3:2|2:3,2:0:0:0:
277,200,10343,1,8,2:0:0:0:
54,300,10572,2,0,P|133:250|156:159,1,192,2|8,3:2|1:2,2:0:0:0:
139,130,10877,6,0,P|100:183|126:253,1,128,2|0,2:0|3:0,2:0:0:0:
307,196,11183,1,10,2:3:0:0:
256,168,11259,1,8,2:0:0:0:
244,368,11412,5,8,2:3:0:0:
277,355,11488,1,2,3:0:0:0:
396,269,11717,1,8,1:2:0:0:
438,83,11946,1,0,3:0:0:0:
290,29,12099,5,8,2:3:0:0:
326,23,12175,1,8,2:0:0:0:
329,229,12404,1,2,3:0:0:0:
202,346,12633,1,8,1:2:0:0:
72,330,12862,1,0,3:0:0:0:
43,205,13015,5,8,2:3:0:0:
33,240,13091,1,8,2:0:0:0:
72,330,13320,6,0,L|36:172,1,128,2|8,3:0|2:0,2:0:0:0:
167,284,13778,6,0,L|195:121,1,160,2|8,3:0|2:3,2:0:0:0:
200,91,14007,1,8,2:0:0:0:
344,238,14236,6,0,L|314:48,1,192,2|0,3:0|2:0,3:0:0:0:
308,0,14465,1,8,2:0:0:0:
453,7,14618,5,8,2:3:0:0:
479,87,14694,2,0,L|445:268,1,160,2|8,3:0|2:3,2:0:0:0:
344,238,14923,2,0,L|324:111,1,128,8|0,2:3|2:0,2:0:0:0:
291,39,15152,6,0,L|337:323,1,280,4|0,3:2|2:0,2:0:0:0:
265,368,16297,2,0,B|266:347|241:300|191:291|170:327|141:386|125:355|64:343|69:292|79:277|54:260|12:256|-3:286,1,320.000000000001,2|0,3:0|2:0,2:0:0:0:
22,355,16984,6,0,P|95:249|42:112,1,280,4|0,3:1|2:0,2:0:0:0:
67,45,18129,2,0,B|100:46|100:46|115:45|130:25|164:26|181:46|193:48|193:48|233:48|233:48|248:58|269:66|292:63|312:50|312:50|388:52,1,320.000000000001,2|0,3:0|2:0,2:0:0:0:
441,8,18816,6,0,B|463:32|464:65|448:92|448:92|380:174|380:174|358:198|351:227|374:257,1,280,4|0,3:1|2:0,2:0:0:0:
426,326,19961,2,0,B|447:339|475:333|498:311|485:280|442:278|407:319|407:319|372:364|301:371|225:336,1,320.000000000001,2|0,3:0|2:0,2:0:0:0:
160,316,20648,6,0,L|109:37,1,280,4|0,3:1|2:0,2:0:0:0:
109,40,21259,1,8,2:3:0:0:
136,26,21335,1,8,2:3:0:0:
160,316,21564,6,0,L|109:37,1,280,10|0,2:0|2:0,2:0:0:0:
185,301,21946,6,0,L|135:23,1,279.466666666667,10|8,2:0|2:3,2:0:0:0:
309,116,22480,6,0,L|284:233,1,120,4|2,3:1|1:2,2:0:0:0:
390,262,22862,1,0,2:0:0:0:
380,232,22938,1,2,3:2:0:0:
305,327,23091,2,0,L|355:334,1,40.0000000000001,0|0,2:0|1:0,2:0:0:0:
478,234,23320,1,0,2:0:0:0:
473,202,23396,6,0,P|471:157|491:108,1,80.0000000000002,0|0,3:0|2:0,2:0:0:0:
505,105,23625,2,0,P|481:161|412:189,1,133.333333333333,2|0,1:2|2:0,2:0:0:0:
313,140,23854,6,0,P|347:108|397:95,1,80.0000000000002,0|0,3:2|2:0,2:0:0:0:
411,105,24083,2,0,P|366:90|330:53,1,80.0000000000002,0|0,1:0|2:0,2:0:0:0:
306,179,24312,6,0,P|347:127|409:105,1,133.333333333333,2|0,3:2|2:0,2:0:0:0:
417,188,24541,5,0,1:2:0:0:
308,320,24770,1,0,3:0:0:0:
133,317,24999,1,0,1:2:0:0:
14,187,25228,1,0,3:0:0:0:
27,47,25457,6,0,P|88:67|125:129,1,106.666666666667,2|0,0:0|1:0,0:0:0:0:
145,109,25686,2,0,P|160:162|68:361,1,266.666666666667,0|0,3:0|0:0,0:0:0:0:
68,365,26144,6,0,L|130:375,1,53.3333333333333,2|0,3:2|2:0,2:0:0:0:
138,359,26373,2,0,L|85:350,1,53.3333333333333,0|0,1:0|2:0,2:0:0:0:
53,280,26602,6,0,P|92:271|150:284,1,80.0000000000002,2|0,3:0|2:0,2:0:0:0:
152,288,26831,2,0,P|115:279|81:252,1,80.0000000000002,0|0,1:0|2:0,2:0:0:0:
107,156,27060,6,0,P|167:180|199:221,1,106.666666666667,2|0,3:0|2:0,2:0:0:0:
204,236,27289,2,0,P|174:198|164:140,1,106.666666666667,0|0,1:0|2:0,2:0:0:0:
253,49,27518,6,0,P|292:105|281:183,1,133.333333333333,2|0,3:0|2:0,2:0:0:0:
269,193,27747,2,0,P|280:125|343:77,1,133.333333333333,0|0,1:0|2:0,2:0:0:0:
455,24,27976,6,0,P|486:119|433:247,1,240,2|0,3:0|1:0,2:0:0:0:
126,177,28434,2,0,P|192:102|330:84,1,240,2|0,3:0|1:0,2:0:0:0:
424,384,28892,6,0,P|326:363|258:283,1,160,2|8,3:0|2:3,2:0:0:0:
243,252,29121,1,8,2:0:0:0:
103,209,29274,1,10,2:0:0:0:
126,177,29350,1,0,3:0:0:0:
26,58,29503,1,8,2:0:0:0:
101,21,29579,2,0,P|176:15|280:53,1,160,8|8,2:0|2:3,2:0:0:0:
295,139,29808,6,0,L|285:260,1,106.666666666667,4|2,3:2|2:0,2:0:0:0:
377,275,30037,2,0,L|368:168,1,106.666666666667,8|2,2:0|2:0,2:0:0:0:
360,93,30266,1,0,3:0:0:0:
492,106,30419,1,2,2:0:0:0:
486,142,30495,1,10,2:0:0:0:
324,15,30725,6,0,P|348:8|429:40,1,106.666666666667,2|8,3:0|2:3,2:0:0:0:
360,93,30954,2,0,P|336:100|255:68,1,106.666666666667,8|0,2:0|2:0,2:0:0:0:
178,31,31183,2,0,L|189:152,1,106.666666666667,2|10,3:0|2:3,2:0:0:0:
116,182,31412,2,0,L|127:303,1,106.666666666667,8|0,2:0|2:0,2:0:0:0:
54,333,31641,1,0,3:0:0:0:
224,317,31793,6,0,P|217:283|202:261,1,53.3333333333333,2|8,2:0|2:0,2:0:0:0:
81,168,32022,1,2,2:0:0:0:
116,182,32099,1,2,3:0:0:0:
206,46,32251,1,0,2:0:0:0:
170,57,32328,1,8,2:0:0:0:
309,260,32557,6,0,P|331:204|294:105,1,160,2|8,3:0|2:0,2:0:0:0:
483,31,32938,1,0,3:0:0:0:
450,32,33015,2,0,P|413:94|425:146,1,106.666666666667,2|0,2:0|3:0,2:0:0:0:
367,198,33244,2,0,P|407:257|459:268,1,106.666666666667,8|0,2:0|2:0,2:0:0:0:
512,230,33473,1,0,3:0:0:0:
407,360,33625,6,0,P|376:366|353:362,1,53.3333333333333,2|8,2:0|2:0,2:0:0:0:
222,255,33854,1,2,2:0:0:0:
253,246,33931,2,0,P|273:295|244:364,1,106.666666666667,2|0,3:0|2:0,2:0:0:0:
168,319,34160,1,10,2:0:0:0:
146,295,34236,2,0,P|134:243|175:180,1,106.666666666667,2|0,2:0|3:0,2:0:0:0:
408,114,34618,6,0,L|292:100,1,106.666666666667,10|0,2:0|2:3,2:0:0:0:
215,99,34847,2,0,L|260:206,1,106.666666666667,2|8,3:0|2:3,2:0:0:0:
299,274,35076,2,0,L|369:180,1,106.666666666667,10|0,2:0|2:0,2:0:0:0:
502,151,35305,6,0,L|358:343,1,240,6|8,3:1|2:0,2:0:0:0:
199,0,35763,2,0,L|437:28,1,240,2|8,3:0|2:0,2:0:0:0:
220,338,36221,6,0,L|128:124,1,160,4|8,3:2|2:3,2:0:0:0:
123,108,36450,1,10,2:0:0:0:
71,384,36602,6,0,L|123:108,1,280,2|0,3:1|3:0,2:0:0:0:
87,26,36908,1,8,2:0:0:0:
397,34,37137,5,0,3:0:0:0:
453,197,37289,1,2,0:0:0:0:
458,236,37366,2,0,P|421:276|360:287,1,106.666666666667,10|0,2:0|2:0,2:0:0:0:
346,364,37595,2,0,P|291:362|243:322,1,106.666666666667,2|8,3:0|2:3,2:0:0:0:
207,258,37824,2,0,L|192:134,1,106.666666666667,10|0,2:0|2:0,2:0:0:0:
131,94,38053,6,0,L|87:206,1,106.666666666667,2|0,3:0|2:0,2:0:0:0:
5,187,38282,1,8,2:0:0:0:
109,312,38434,1,2,2:0:0:0:
116,280,38511,1,0,3:0:0:0:
270,328,38663,1,8,2:3:0:0:
283,358,38740,2,0,P|347:365|399:333,1,106.666666666667,10|8,2:0|2:3,2:0:0:0:
423,272,38969,1,0,3:0:0:0:
269,202,39121,5,8,2:3:0:0:
271,235,39198,1,10,2:0:0:0:
408,136,39350,1,2,2:0:0:0:
379,121,39427,2,0,P|328:113|266:133,1,106.666666666667,0|0,3:0|2:0,2:0:0:0:
190,96,39656,2,0,P|222:57|232:-2,1,106.666666666667,10|0,2:0|2:0,2:0:0:0:
117,35,39885,6,0,P|97:96|168:197,1,160,2|8,3:0|2:0,2:0:0:0:
280,324,40266,1,2,2:0:0:0:
313,316,40343,2,0,P|277:274|214:261,1,106.666666666667,0|8,3:0|2:3,2:0:0:0:
144,269,40572,2,0,P|191:247|215:135,1,160,10|0,2:0|3:0,2:0:0:0:
357,34,40954,5,8,2:3:0:0:
339,63,41030,2,0,P|331:123|385:175,1,106.666666666667,10|0,2:0|2:0,2:0:0:0:
428,209,41259,2,0,P|463:262|446:321,1,106.666666666667,2|8,3:0|2:3,2:0:0:0:
404,366,41488,1,8,2:0:0:0:
246,291,41641,5,0,2:0:0:0:
272,270,41717,2,0,L|379:277,1,106.666666666667,2|0,3:0|2:0,2:0:0:0:
428,209,41946,2,0,L|329:165,1,106.666666666667,10|0,2:0|2:0,2:0:0:0:
254,127,42175,1,2,3:0:0:0:
109,178,42328,1,2,2:0:0:0:
116,209,42404,1,8,2:0:0:0:
43,329,42557,5,8,2:3:0:0:
75,349,42633,2,0,P|122:286|106:193,1,160,2|8,3:0|2:0,2:0:0:0:
23,43,43015,5,2,2:0:0:0:
16,74,43091,1,0,3:0:0:0:
173,136,43244,1,8,2:0:0:0:
187,164,43320,1,0,3:0:0:0:
315,155,43473,1,8,2:3:0:0:
342,172,43549,1,8,2:0:0:0:
424,113,43702,1,8,2:0:0:0:
456,114,43778,1,8,2:3:0:0:
471,27,43931,1,8,2:3:0:0:
502,17,44007,5,8,2:3:0:0:
488,115,44236,1,8,2:3:0:0:
473,217,44465,6,0,L|460:287,1,66.6666666666667,4|0,3:1|2:0,2:0:0:0:
461,283,44923,6,0,L|386:154,1,133.333333333333,4|0,3:1|2:0,2:0:0:0:
394,168,45381,6,0,L|305:377,1,200.000000000001,4|0,3:1|2:0,2:0:0:0:
316,351,45839,6,0,L|120:54,1,320,4|0,3:2|2:0,2:0:0:0:
139,83,46755,5,0,2:0:0:0:
82,170,46984,1,0,2:0:0:0:
94,253,47213,1,0,2:0:0:0:
136,298,47442,1,0,2:0:0:0:
153,332,47671,1,0,2:0:0:0:
151,361,47900,1,0,2:0:0:0:
139,380,48129,6,0,P|82:328|94:252,1,160,4|0,3:1|3:0,2:0:0:0:
167,220,48434,2,0,P|204:141|131:35,1,213.333333333333,8|0,2:2|0:0,2:0:0:0:
69,20,48816,2,0,L|253:2,1,160,8|2,2:0|2:0,2:0:0:0:
442,37,49190,5,8,2:0:0:0:
449,67,49263,1,0,3:0:0:0:
324,149,49408,5,8,2:3:0:0:
311,120,49481,1,10,2:0:0:0:
199,218,49626,5,8,2:3:0:0:
215,243,49709,1,10,2:3:0:0:
141,384,49859,5,8,2:3:0:0:
122,362,49961,2,0,P|90:307|130:210,1,160,4|0,3:1|1:0,2:0:0:0:
188,67,50300,2,0,P|177:129|91:194,1,160,4|8,3:1|2:3,2:0:0:0:
95,166,50588,1,8,2:0:0:0:
95,166,50646,1,8,2:0:0:0:
279,20,50877,6,0,P|322:74|320:226,1,200,4|0,3:2|1:0,2:0:0:0:
227,362,51232,2,0,P|243:312|305:273,1,100,4|8,3:1|0:0,0:0:0:0:
367,352,51414,1,8,0:0:0:0:
348,366,51490,2,0,L|308:358,2,33.3333333333333,8|8|8,0:3|0:3|0:3,0:0:0:0:
489,57,51793,6,0,B|401:139|401:139|287:103,1,240,4|0,3:1|2:0,2:0:0:0:
287,103,52251,2,0,B|173:67|173:67|85:149,1,240,4|0,3:1|2:0,2:0:0:0:
84,149,52633,5,8,2:0:0:0:
140,216,52709,2,0,P|241:195|287:103,1,213.333333333333,4|0,3:1|2:0,2:0:0:0:
307,15,52938,2,0,P|407:-8|487:55,1,213.333333333333,4|0,3:1|2:0,2:0:0:0:
491,136,53167,6,0,L|508:54,1,80.0000000000002,2|8,3:0|2:0,2:0:0:0:
397,79,53396,2,0,L|413:157,1,80.0000000000002,2|8,3:0|2:3,2:0:0:0:
497,290,53625,6,0,P|431:235|330:255,1,192,4|8,3:2|2:0,2:0:0:0:
180,362,54007,1,2,2:0:0:0:
98,316,54083,2,0,L|114:151,1,149.333333333333,0|0,3:0|2:0,2:0:0:0:
189,119,54312,2,0,L|229:294,1,170.666666666667,8|0,2:0|2:0,2:0:0:0:
332,252,54541,2,0,L|389:41,1,192,2|0,3:0|2:0,2:0:0:0:
472,18,54770,6,0,P|493:101|454:192,1,170.666666666667,8|0,2:0|2:0,2:0:0:0:
474,258,54999,2,0,P|389:273|315:238,1,149.333333333333,2|0,3:0|2:0,2:0:0:0:
261,281,55228,2,0,P|217:207|222:134,1,128,8|0,2:0|2:0,2:0:0:0:
162,103,55457,6,0,P|131:151|131:215,1,106.666666666667,2|0,3:0|2:0,2:0:0:0:
143,276,55686,1,8,2:0:0:0:
256,315,55839,1,2,2:0:0:0:
262,281,55915,1,0,3:0:0:0:
432,284,56068,1,2,2:0:0:0:
385,209,56144,2,0,P|362:140|379:74,1,138.666666666667,8|0,2:0|2:0,2:0:0:0:
492,21,56373,6,0,P|450:169|303:213,1,320,2|8,3:0|2:0,2:0:0:0:
5,342,56831,6,0,P|59:319|117:332,1,106.666666666667,2|0,3:0|2:0,2:0:0:0:
185,359,57060,2,0,P|105:326|70:248,1,149.333333333333,10|0,2:0|2:0,2:0:0:0:
92,144,57289,2,0,P|178:175|228:279,1,192,2|0,3:0|2:0,2:0:0:0:
307,339,57518,6,0,L|325:173,1,160,8|0,2:0|2:0,2:0:0:0:
415,140,57747,2,0,L|399:288,1,128,2|0,3:0|2:0,2:0:0:0:
502,211,57976,2,0,L|511:115,1,96.0000000000001,8|0,2:0|2:0,2:0:0:0:
466,40,58205,6,0,P|387:41|325:89,1,160.000006103516,2|0,3:0|2:0,2:0:0:0:
205,85,58434,2,0,P|327:14|466:40,1,287.999991210938,10|0,2:0|3:0,2:0:0:0:
384,384,58892,6,0,L|361:286,1,85.3333333333333,8|0,2:0|2:0,2:0:0:0:
361,211,59121,2,0,L|341:339,1,106.666666666667,2|0,3:0|2:0,2:0:0:0:
256,362,59350,2,0,L|276:232,1,128,8|0,2:0|2:0,2:0:0:0:
318,123,59579,2,0,L|248:255,1,149.333333333333,2|0,3:0|2:0,2:0:0:0:
127,296,59808,2,0,L|223:112,1,170.666666666667,8|0,2:0|2:0,2:0:0:0:
96,47,60037,6,0,B|53:84|60:145|99:173|99:173|142:200|159:250|126:296,1,288,2|8,3:0|2:0,2:0:0:0:
196,47,60419,1,2,3:0:0:0:
206,145,60495,2,0,P|137:224|49:249,1,192,2|0,2:0|3:0,2:0:0:0:
0,196,60725,1,8,2:0:0:0:
237,378,60954,6,0,P|296:381|352:361,1,106.666666666667,2|0,3:0|2:0,2:0:0:0:
413,323,61183,2,0,P|453:279|473:223,1,106.666666666667,8|0,2:0|2:0,2:0:0:0:
405,153,61412,6,0,P|332:209|249:226,1,160,2|0,3:0|2:0,2:0:0:0:
152,220,61641,2,0,P|64:192|2:134,1,160,8|0,2:0|2:0,2:0:0:0:
51,3,61870,6,0,P|189:76|347:62,1,320,2|8,3:0|2:0,2:0:0:0:
479,361,62328,6,0,L|362:341,1,106.666666666667,2|0,3:0|2:0,2:0:0:0:
342,272,62557,2,0,L|459:252,1,85.3333333333333,8|0,2:0|2:0,2:0:0:0:
510,206,62786,6,0,P|512:141|464:85,1,106.666666666667,2|0,3:0|2:0,2:0:0:0:
411,56,63015,2,0,P|371:117|384:187,1,128,10|0,2:0|2:0,2:0:0:0:
342,272,63244,2,0,P|282:219|198:201,1,149.333333333333,2|0,3:0|2:0,2:0:0:0:
99,187,63473,2,0,P|115:276|191:330,1,170.666666666667,10|0,2:0|2:0,2:0:0:0:
1,373,63702,6,0,P|17:279|75:203,1,192,2|0,3:0|2:0,2:0:0:0:
63,94,63931,2,0,P|151:86|251:137,1,170.666666666667,10|0,2:0|2:0,2:0:0:0:
297,50,64160,2,0,P|358:100|384:181,1,149.333333333333,2|0,3:0|2:0,2:0:0:0:
466,185,64389,2,0,P|465:256|415:319,1,128,10|0,2:0|2:0,2:0:0:0:
342,363,64618,6,0,P|308:315|306:255,1,106.666666666667,2|0,3:0|2:0,2:0:0:0:
300,186,64847,2,0,P|295:244|258:291,1,106.666666666667,8|0,2:0|2:0,2:0:0:0:
147,357,65076,6,0,P|136:299|191:212,1,160,2|0,3:0|2:0,2:0:0:0:
238,122,65305,2,0,P|208:173|110:204,1,160,8|0,2:0|2:0,2:0:0:0:
6,67,65534,6,0,P|88:6|183:42,1,213.333333333333,2|0,3:0|2:0,2:0:0:0:
238,122,65763,2,0,P|316:187|416:163,1,213.333333333333,10|0,2:0|2:0,2:0:0:0:
470,81,65992,1,2,3:0:0:0:
456,105,66068,1,8,2:0:0:0:
450,150,66144,1,8,2:0:0:0:
477,200,66221,1,8,2:3:0:0:
104,35,66449,6,0,B|181:3|245:23|281:75|281:75|319:144|385:174|460:147,1,400,4|0,3:1|2:0,2:0:0:0:
458,126,66908,6,0,B|410:47|332:60|277:89|266:185|266:185|250:284|186:321|112:308|94:260|85:236,1,533.333333333333,4|0,3:1|2:0,2:0:0:0:
79,228,67366,6,0,B|56:133|145:67|246:92|271:166|259:234|259:234|246:316|289:374|366:392|448:367|441:257,1,666.666666666667,4|8,3:2|2:0,2:0:0:0:
443,254,67824,6,0,L|433:161,1,80.0000000000002,2|8,3:2|2:0,2:0:0:0:
355,134,68053,2,0,L|346:213,1,80.0000000000002,2|8,3:2|2:3,2:0:0:0:
281,328,68281,6,0,P|180:349|66:308,1,192,4|2,3:2|1:2,2:0:0:0:
309,344,68587,2,0,P|178:337|79:207,1,256,2|0,2:0|2:0,2:0:0:0:
179,132,68969,2,0,P|182:194|222:243,1,128,2|0,1:2|2:0,2:0:0:0:
278,155,69198,2,0,P|322:84|419:69,1,128,2|8,3:0|2:3,2:0:0:0:
446,47,69427,6,0,P|446:83|431:118,1,63.9999999999999,0|0,1:2|2:0,2:0:0:0:
421,137,69656,2,0,P|452:119|489:114,1,63.9999999999999,10|0,2:0|2:0,2:0:0:0:
512,113,69885,2,0,P|480:95|458:64,1,63.9999999999999,0|0,1:2|2:0,2:0:0:0:
387,245,70114,6,0,P|448:232|496:193,1,127.99999609375,2|8,3:0|2:3,2:0:0:0:
421,137,70343,1,0,1:2:0:0:
403,334,70495,2,0,P|365:246|286:194,1,191.999994140625,10|0,2:3|2:0,2:0:0:0:
196,280,70801,2,0,P|263:288|306:330,1,127.99999609375,0|0,1:2|2:0,2:0:0:0:
497,191,71030,6,0,P|393:243|288:195,1,240.000009155274,2|0,3:0|1:0,2:0:0:0:
14,1,71488,6,0,L|32:199,1,192,10|0,2:0|2:0,2:0:0:0:
38,223,71717,2,0,L|148:66,1,192,0|8,1:2|2:3,2:0:0:0:
282,50,71946,6,0,L|186:188,1,160,2|0,3:0|2:0,2:0:0:0:
175,211,72175,2,0,L|329:169,1,160,0|0,1:2|2:0,2:0:0:0:
382,245,72404,6,0,L|258:279,1,128,10|0,2:0|2:0,2:0:0:0:
234,303,72633,2,0,L|377:367,1,128,0|0,1:2|2:0,2:0:0:0:
430,315,72862,5,2,3:0:0:0:
197,296,73015,2,0,L|381:244,1,192,10|0,2:3|2:0,2:0:0:0:
447,180,73320,1,8,2:0:0:0:
444,152,73396,1,8,2:3:0:0:
441,124,73473,1,8,2:3:0:0:
438,96,73549,1,10,1:3:0:0:
278,28,73702,5,10,2:3:0:0:
262,50,73778,2,0,P|240:125|310:235,1,192,2|2,3:0|1:2,2:0:0:0:
318,112,74083,2,0,P|260:129|220:194,1,128,2|8,2:0|2:0,2:0:0:0:
223,275,74312,1,8,2:3:0:0:
226,303,74389,1,8,2:3:0:0:
229,331,74465,2,0,L|370:358,1,128,2|8,1:2|2:3,2:0:0:0:
418,297,74694,2,0,L|180:339,1,192,2|0,3:0|1:2,2:0:0:0:
43,259,75076,5,8,2:3:0:0:
66,242,75152,2,0,L|138:257,1,63.9999999999999,10|0,2:0|2:0,2:0:0:0:
151,238,75381,2,0,L|89:225,1,63.9999999999999,0|0,1:2|2:0,2:0:0:0:
2,131,75610,6,0,P|58:91|144:98,1,128,6|8,3:1|2:3,2:0:0:0:
193,137,75839,1,0,1:0:0:0:
27,15,75992,2,0,P|151:17|210:56,1,192,2|0,2:3|2:0,2:0:0:0:
288,136,76297,2,0,P|347:145|417:111,1,128,2|0,1:0|2:0,2:0:0:0:
272,159,76526,6,0,P|392:159|466:24,1,256,2|0,3:2|1:0,2:0:0:0:
487,284,76984,6,0,P|443:279|402:299,1,85.3333333333333,10|0,2:0|2:0,2:0:0:0:
389,271,77213,2,0,P|356:301|345:345,1,85.3333333333333,0|0,1:0|2:0,2:0:0:0:
222,361,77442,6,0,P|225:286|105:197,1,224,2|2,3:1|1:0,2:0:0:0:
196,380,77747,2,0,P|173:269|300:121,1,298.666666666667,2|0,2:3|2:0,2:0:0:0:
268,30,78129,2,0,P|344:52|379:120,1,149.333328776042,2|8,1:0|2:3,2:0:0:0:
494,0,78358,6,0,P|377:54|184:7,1,320,2|0,3:0|1:0,2:0:0:0:
25,56,78740,5,8,2:3:0:0:
45,137,78816,1,10,2:0:0:0:
185,238,78969,5,8,2:3:0:0:
203,195,79045,1,2,1:0:0:0:
322,366,79197,5,8,2:3:0:0:
290,356,79274,2,0,P|296:292|352:244,1,128,4|0,3:2|2:0,2:0:0:0:
442,188,79503,2,0,P|389:224|316:212,1,128,0|0,1:0|2:0,2:0:0:0:
203,195,79732,6,0,L|177:63,1,128,10|0,2:0|2:0,2:0:0:0:
303,0,79961,2,0,L|263:121,1,128,0|0,1:0|2:0,2:0:0:0:
197,39,80190,5,2,3:0:0:0:
405,93,80343,1,2,2:0:0:0:
415,125,80418,2,0,L|327:217,1,128,0|2,1:0|2:0,2:0:0:0:
266,142,80647,1,8,2:0:0:0:
476,239,80800,5,2,2:0:0:0:
472,312,80876,2,0,L|353:359,1,128,0|8,1:0|2:3,2:0:0:0:
322,237,81105,1,6,3:2:0:0:
108,313,81259,6,0,L|122:385,1,64,2|0,2:0|1:0,2:0:0:0:
269,127,81487,2,0,L|237:182,1,64,2|8,2:0|2:0,2:0:0:0:
471,97,81717,2,0,L|402:123,1,64,2|0,2:0|1:0,2:0:0:0:
433,369,81946,5,8,2:3:0:0:
343,340,82022,1,0,3:0:0:0:
141,266,82175,5,8,2:0:0:0:
209,245,82251,1,0,1:0:0:0:
368,185,82404,5,8,2:3:0:0:
325,148,82480,1,8,2:0:0:0:
228,81,82633,5,8,2:0:0:0:
255,62,82709,1,8,3:0:0:0:
348,22,82938,5,2,2:0:0:0:
256,192,83015,12,4,84770,3:2:0:0:
