osu file format v14

[General]
AudioFilename: audio.mp3
AudioLeadIn: 0
PreviewTime: 156
Countdown: 0
SampleSet: Soft
StackLeniency: 0.6
Mode: 0
LetterboxInBreaks: 0
WidescreenStoryboard: 1

[Editor]
DistanceSpacing: 1
BeatDivisor: 4
GridSize: 8
TimelineZoom: 2.1

[Metadata]
Title:Diane Young
TitleUnicode:Diane Young
Artist:Vampire Weekend
ArtistUnicode:Vampire Weekend
Creator:Fsjallink
Version:zglock's Expert
Source:
Tags:renumi zglock english indie pop rock modern vampires of the city rostam batmanglij ezra koenig chris baio chris tomson ariel rechtshaid
BeatmapID:3709851
BeatmapSetID:1780856

[Difficulty]
HPDrainRate:5.5
CircleSize:3.7
OverallDifficulty:8.3
ApproachRate:9
SliderMultiplier:2
SliderTickRate:1

[Events]
//Background and Video events
0,0,"78a95ckkuyt61 (2).jpg",0,0
//Break Periods
2,97776,102330
2,119130,129604
2,154965,156829
//Storyboard Layer 0 (Background)
//Storyboard Layer 1 (Fail)
//Storyboard Layer 2 (Pass)
//Storyboard Layer 3 (Foreground)
//Storyboard Layer 4 (Overlay)
//Storyboard Sound Samples

[TimingPoints]
156,333.333333333333,4,2,0,50,1,0
323,333.333333333333,4,2,0,50,1,0
323,-333.333333333333,4,2,0,50,0,0
656,-200,4,2,0,50,0,0
2989,-333.333333333333,4,2,0,50,0,0
3322,-200,4,2,0,50,0,0
5656,-333.333333333333,4,2,0,50,0,0
5989,-200,4,2,0,50,0,0
8322,-333.333333333333,4,2,0,50,0,0
8656,-200,4,2,0,50,0,0
10989,-333.333333333333,4,2,0,50,0,0
11322,-200,4,2,0,50,0,0
12322,-333.333333333333,4,2,0,50,0,0
12989,-333.333333333333,4,2,0,50,0,0
13322,-166.666666666667,4,2,0,50,0,0
13656,-200,4,2,0,50,0,0
16322,-333.333333333333,4,2,0,50,0,0
16656,-333.333333333333,4,2,0,40,0,0
20989,-100,4,2,0,60,0,0
37656,-90.9090909090909,4,2,0,60,0,0
41656,-80,4,2,0,60,0,0
42989,352.941176470588,4,2,0,40,1,0
43518,-125,4,2,0,40,0,0
44047,-166.666666666667,4,2,0,40,0,0
44577,-250,4,2,0,40,0,0
46341,-166.666666666667,4,2,0,40,0,0
46871,-125,4,2,0,40,0,0
47400,-100,4,2,0,40,0,0
49165,-133.333333333333,4,2,0,40,0,0
49694,-200,4,2,0,40,0,0
50224,-400,4,2,0,40,0,0
51988,-285.714285714286,4,2,0,40,0,0
52518,-222.222222222222,4,2,0,40,0,0
53047,-181.818181818182,4,2,0,40,0,0
54283,-142.857142857143,4,2,0,40,0,0
54812,-166.666666666667,4,2,0,40,0,0
55341,-200,4,2,0,40,0,0
55871,-250,4,2,0,40,0,0
57636,-200,4,2,0,40,0,0
58165,-166.666666666667,4,2,0,40,0,0
58694,-142.857142857143,4,2,0,40,0,0
60459,-166.666666666667,4,2,0,40,0,0
60988,-166.666666666667,4,2,0,40,0,0
61518,-200,4,2,0,40,0,0
62047,-250,4,2,0,40,0,0
63126,352.941176470588,4,2,0,40,1,0
65047,352.941176470588,4,2,0,60,1,0
65047,-250,4,2,0,60,0,0
65577,333.333333333333,4,2,0,60,1,0
82910,-83.3333333333333,4,2,0,60,0,0
83243,-74.0740740740741,4,2,0,60,0,0
83576,-66.6666666666667,4,2,0,60,0,0
83910,-60.6060606060606,4,2,0,60,0,0
84243,-90.9090909090909,4,2,0,60,0,0
85576,-86.9565217391304,4,2,0,60,0,0
85910,-83.3333333333333,4,2,0,60,0,0
88243,-83.3333333333333,4,2,0,60,0,0
88576,-74.0740740740741,4,2,0,60,0,0
88909,-66.6666666666667,4,2,0,60,0,0
89243,-60.6060606060606,4,2,0,60,0,0
89576,-90.9090909090909,4,2,0,60,0,0
91576,-90.9090909090909,4,2,0,65,0,0
92243,-80,4,2,0,70,0,1
97576,-100,4,2,0,60,0,0
102930,333.333333333333,4,2,0,50,1,0
102930,-200,4,2,0,50,0,0
103263,-133.333333333333,4,2,0,50,0,0
105596,-200,4,2,0,50,0,0
105930,-133.333333333333,4,2,0,50,0,0
108263,-200,4,2,0,50,0,0
108596,-133.333333333333,4,2,0,50,0,0
110929,-100,4,2,0,50,0,0
111429,-117.647058823529,4,2,0,50,0,0
111929,-142.857142857143,4,2,0,50,0,0
112429,-181.818181818182,4,2,0,50,0,0
113596,-90.9090909090909,4,2,0,60,0,0
117596,-80,4,2,0,60,0,0
118930,352.319436288902,4,2,0,60,1,0
130204,-200,4,2,0,40,0,0
130732,-222.222222222222,4,2,0,40,0,0
131261,-250,4,2,0,40,0,0
131789,-285.714285714286,4,2,0,40,0,0
135841,365.853658536585,4,2,0,60,1,0
135841,-222.222222222222,4,2,0,60,0,0
136389,-250,4,2,0,60,0,0
136938,-285.714285714286,4,2,0,60,0,0
137487,-333.333333333333,4,2,0,60,0,0
138767,333.333333333333,4,2,0,60,1,0
141452,332.871012482663,4,2,0,70,1,0
141452,-83.3333333333333,4,2,0,70,0,1
154766,-100,4,2,0,60,0,0
157429,336.605890603086,4,2,0,60,1,0

[Colours]
Combo1 : 17,254,176
Combo2 : 173,255,95
Combo3 : 255,88,100
Combo4 : 255,94,55

[HitObjects]
69,277,323,6,0,B|66:302|66:302|56:317|56:317|52:343,1,59.9999981689454,2|8,1:0|0:0,0:0:0:0:
263,168,989,1,2,1:2:0:0:
263,168,1156,1,0,1:0:0:0:
161,130,1322,2,0,P|137:119|116:103,1,50,8|0,0:0|0:0,0:0:0:0:
303,71,1656,1,2,1:2:0:0:
263,168,1822,2,0,P|247:222|247:277,1,100,2|2,0:1|0:0,0:0:0:0:
328,327,2322,1,0,1:0:0:0:
448,266,2489,1,0,1:0:0:0:
328,327,2656,2,0,P|358:337|376:346,1,50,8|2,0:0|0:0,0:0:0:0:
69,277,2989,6,0,B|66:302|66:302|56:317|56:317|52:343,1,59.9999981689454,2|8,1:0|0:0,0:0:0:0:
162,233,3489,1,0,1:0:0:0:
78,175,3656,2,0,P|70:115|70:73,1,100,2|10,1:2|0:0,0:0:0:0:
74,71,4322,1,2,1:2:0:0:
220,149,4489,2,0,L|278:154,1,50,2|8,1:0|0:0,0:0:0:0:
340,79,4822,1,2,0:0:0:0:
271,0,4989,1,0,1:0:0:0:
188,240,5322,1,8,0:0:0:0:
443,107,5656,6,0,B|446:82|446:82|456:67|456:67|460:41,1,59.9999981689454,2|8,1:0|0:0,0:0:0:0:
512,293,6322,1,2,1:2:0:0:
512,293,6489,1,0,1:0:0:0:
430,353,6656,2,0,P|395:341|389:319,1,50,8|0,0:0|0:0,0:0:0:0:
443,211,6989,1,2,1:2:0:0:
253,277,7156,2,0,P|301:266|344:240,1,100,2|2,0:1|0:0,0:0:0:0:
366,140,7656,1,0,1:0:0:0:
203,100,7822,1,0,1:0:0:0:
366,140,7989,2,0,P|325:139|304:148,1,50,8|0,0:0|0:0,0:0:0:0:
69,277,8322,6,0,B|66:302|66:302|56:317|56:317|52:343,1,59.9999981689454,2|10,1:0|0:0,0:0:0:0:
15,189,8822,1,2,1:2:0:0:
119,187,8989,2,0,L|171:206,1,50,0|0,1:0|0:0,0:0:0:0:
281,272,9322,2,0,L|232:281,1,50,8|2,0:0|0:0,0:0:0:0:
163,356,9656,1,0,1:0:0:0:
385,282,9822,2,0,P|383:247|374:225,1,50,2|8,1:0|0:0,0:0:0:0:
373,228,10322,1,0,1:0:0:0:
124,182,10656,1,8,0:0:0:0:
284,31,10989,6,0,B|287:56|287:56|297:71|297:71|301:97,1,59.9999981689454,2|8,1:0|0:0,0:0:0:0:
199,254,11656,1,0,1:0:0:0:
199,254,11822,1,0,1:0:0:0:
124,182,11989,2,0,P|93:166|72:163,1,50,8|0,0:0|0:0,0:0:0:0:
284,31,12322,6,0,B|287:56|287:56|297:71|297:71|301:97,1,59.9999981689454,2|8,1:0|0:0,0:0:0:0:
308,205,12822,1,2,0:1:0:0:
284,31,12989,5,2,1:0:0:0:
390,137,13156,1,0,1:0:0:0:
284,31,13322,2,0,B|287:56|287:56|297:71|297:71|301:97,1,59.9999981689454,8|0,0:0|0:0,0:0:0:0:
408,240,13656,6,0,P|463:254|496:215,1,100,2|8,1:0|0:0,0:0:0:0:
334,310,14156,1,2,1:1:0:0:
334,310,14322,2,0,P|287:311|237:336,1,100,2|10,1:0|0:1,0:0:0:0:
234,338,14989,1,2,1:0:0:0:
17,216,15156,1,2,1:0:0:0:
114,188,15322,1,8,0:0:0:0:
141,286,15489,1,0,0:0:0:0:
44,312,15656,5,2,3:1:0:0:
53,283,15739,1,0,3:0:0:0:
60,254,15822,1,0,3:0:0:0:
64,224,15906,1,0,3:0:0:0:
66,194,15989,1,2,3:1:0:0:
64,164,16072,1,0,3:0:0:0:
59,135,16156,1,0,3:0:0:0:
52,106,16239,1,0,3:0:0:0:
41,78,16322,6,0,P|64:33|137:23,1,119.999996337891,2|0,1:0|1:0,0:0:0:0:
184,89,17656,2,0,P|211:115|238:119,1,59.9999981689454,2|8,1:0|0:0,0:0:0:0:
302,65,18322,2,0,P|329:39|356:35,1,59.9999981689454,2|8,1:0|0:0,0:0:0:0:
415,93,18989,6,0,L|427:212,1,119.999996337891,2|0,1:0|1:0,0:0:0:0:
427,212,20322,1,0,1:0:0:0:
348,291,20489,2,0,L|353:261,1,29.9999990844727,2|8,1:0|0:0,0:0:0:0:
510,349,20989,5,0,3:0:0:0:
476,332,21072,1,0,3:0:0:0:
440,322,21155,1,0,3:0:0:0:
403,317,21238,1,0,3:0:0:0:
365,319,21322,1,0,3:0:0:0:
329,327,21405,1,0,3:0:0:0:
294,340,21488,1,0,3:0:0:0:
262,359,21572,1,0,3:0:0:0:
233,384,21656,6,0,P|168:352|146:326,1,100,6|0,1:1|0:0,0:0:0:0:
91,152,21989,1,8,0:0:0:0:
30,306,22156,2,0,P|119:242|206:199,1,200,2|0,0:0|1:2,0:0:0:0:
300,218,22656,1,8,0:0:0:0:
382,35,22822,1,2,0:3:0:0:
300,218,22989,6,0,P|286:152|266:101,1,100,2|0,1:2|0:0,0:0:0:0:
128,33,23322,1,8,0:0:0:0:
245,8,23489,1,2,1:2:0:0:
273,177,23656,2,0,P|259:243|239:294,1,100,0|2,1:2|1:2,0:0:0:0:
142,324,23989,1,8,0:0:0:0:
28,287,24156,1,2,0:1:0:0:
237,384,24322,5,0,1:2:0:0:
207,368,24405,1,0,3:0:0:0:
176,357,24488,1,0,3:0:0:0:
143,353,24571,1,0,3:0:0:0:
109,355,24655,1,8,3:2:0:0:
77,362,24738,1,0,3:0:0:0:
46,376,24822,6,0,P|18:383|-8:388,1,50,2|0,1:2|3:0,0:0:0:0:
36,183,24989,1,0,1:2:0:0:
64,158,25072,1,0,3:0:0:0:
100,155,25155,1,0,1:2:0:0:
132,173,25238,1,0,3:0:0:0:
148,206,25322,1,8,3:2:0:0:
164,239,25406,1,0,3:0:0:0:
197,257,25489,1,2,3:2:0:0:
233,253,25572,1,0,3:0:0:0:
262,229,25656,6,0,L|273:172,1,50,0|0,1:2|3:0,0:0:0:0:
314,4,25822,1,2,1:2:0:0:
281,26,25905,1,0,3:0:0:0:
272,65,25988,1,8,3:2:0:0:
289,99,26071,1,0,3:0:0:0:
323,117,26155,1,2,3:2:0:0:
361,107,26238,1,0,3:0:0:0:
385,75,26322,5,0,1:2:0:0:
418,54,26405,1,0,3:0:0:0:
458,56,26488,1,0,1:2:0:0:
489,80,26571,1,0,3:0:0:0:
502,117,26655,5,10,3:2:0:0:
499,162,26739,1,0,3:0:0:0:
495,206,26822,1,0,3:0:0:0:
491,251,26906,1,0,3:0:0:0:
488,295,26989,5,6,1:1:0:0:
247,309,27156,2,0,P|289:335|336:349,1,100,2|8,0:0|0:0,0:0:0:0:
434,378,27489,1,2,0:3:0:0:
302,221,27656,1,2,1:2:0:0:
155,269,27822,1,0,1:2:0:0:
302,221,27989,2,0,P|319:152|322:102,1,100,8|2,0:0|0:3,0:0:0:0:
141,1,28322,6,0,P|191:87|209:185,1,200,2|8,1:2|0:0,0:0:0:0:
56,277,28822,1,2,0:0:0:0:
3,121,28989,1,0,1:0:0:0:
85,180,29156,1,0,1:0:0:0:
20,370,29322,2,0,P|78:373|127:348,1,100,8|2,0:0|0:0,0:0:0:0:
302,221,29656,6,0,P|281:285|268:335,1,100,2|2,1:2|0:3,0:0:0:0:
207,384,29989,1,8,0:0:0:0:
374,303,30156,1,2,1:2:0:0:
199,232,30322,2,0,P|185:183|169:136,1,100,0|0,1:0|1:0,0:0:0:0:
389,73,30656,2,0,P|335:122|262:120,1,150,8|0,0:0|0:0,0:0:0:0:
249,97,30989,5,0,1:0:0:0:
479,33,31156,1,2,1:2:0:0:
432,174,31322,1,8,0:0:0:0:
159,9,31656,5,0,1:0:0:0:
389,73,31823,1,0,1:0:0:0:
249,97,31989,1,8,0:0:0:0:
307,15,32156,1,2,0:3:0:0:
146,112,32322,6,0,P|122:171|115:316,1,200,2|8,1:1|0:0,0:0:0:0:
218,350,32822,1,2,0:1:0:0:
17,331,32989,2,0,P|66:323|112:305,1,100,0|0,1:0|1:0,0:0:0:0:
233,158,33322,1,10,0:0:0:0:
238,163,33656,6,0,P|291:209|422:204,1,200,2|8,1:1|0:0,0:0:0:0:
470,127,34156,1,2,0:1:0:0:
380,324,34322,1,0,1:0:0:0:
512,384,34489,1,0,1:0:0:0:
380,324,34656,1,8,3:2:0:0:
343,315,34739,1,0,3:0:0:0:
306,320,34822,1,0,3:0:0:0:
274,339,34906,1,0,3:0:0:0:
251,369,34989,6,0,P|184:350|168:323,1,100,2|0,1:0|0:0,0:0:0:0:
132,176,35322,1,8,0:0:0:0:
107,384,35489,2,0,P|124:326|143:286,1,100,2|0,1:0|1:0,0:0:0:0:
245,152,35822,1,0,1:0:0:0:
45,129,35989,6,0,P|98:167|138:176,1,100,10|2,0:1|0:3,0:0:0:0:
267,39,36322,1,0,1:0:0:0:
47,10,36489,2,0,P|47:60|57:113,1,100,2|8,1:0|0:0,0:0:0:0:
240,157,36822,1,0,1:0:0:0:
62,240,36989,6,0,P|26:278|27:335,1,100,2|0,1:0|1:0,0:0:0:0:
123,371,37322,2,0,P|159:333|158:276,1,100,10|0,0:1|1:0,0:0:0:0:
158,277,37572,1,0,3:0:0:0:
154,267,37656,6,0,P|276:280|335:297,1,165.000005035401,6|0,1:1|0:0,0:0:0:0:
342,280,37989,1,8,0:0:0:0:
478,330,38156,1,2,0:1:0:0:
369,183,38322,1,0,1:0:0:0:
512,158,38489,1,0,1:0:0:0:
487,16,38656,1,8,0:0:0:0:
345,41,38822,1,2,0:3:0:0:
272,209,38989,6,0,P|238:207|212:196,3,55.0000016784668,0|0|0|0,1:0|0:0|1:0|0:0,0:0:0:0:
211,102,39322,2,0,P|195:72|192:43,3,55.0000016784668,8|0|0|0,0:0|0:0|1:0|0:0,0:0:0:0:
130,158,39656,2,0,P|104:160|73:168,1,55.0000016784668,0|0,1:0|3:0,0:0:0:0:
19,247,39822,2,0,P|8:270|-1:301,1,55.0000016784668,0|0,1:0|3:0,0:0:0:0:
78,359,39989,1,8,3:2:0:0:
115,326,40072,1,0,3:0:0:0:
161,310,40155,1,2,3:3:0:0:
210,310,40239,1,0,3:0:0:0:
256,328,40322,6,0,P|347:365|449:340,1,165.000005035401,6|0,1:0|0:0,0:0:0:0:
423,332,40656,1,8,0:0:0:0:
384,133,40822,1,2,1:0:0:0:
384,133,40906,1,0,3:0:0:0:
384,133,40989,2,0,P|361:183|352:237,1,110.000003356934,0|0,1:0|0:0,0:0:0:0:
502,365,41322,1,8,0:0:0:0:
507,360,41656,6,0,B|552:234|438:252|489:111,1,250,6|8,1:0|0:2,0:0:0:0:
363,22,42156,1,0,1:1:0:0:
363,22,42239,1,0,3:0:0:0:
363,22,42322,2,0,P|332:26|305:41,1,62.5,2|0,1:0|3:0,0:0:0:0:
168,81,42489,2,0,P|196:97|227:101,1,62.5,2|0,1:1|3:0,0:0:0:0:
369,123,42656,2,0,P|344:141|328:168,1,62.5,2|0,1:0|3:0,0:0:0:0:
230,271,42823,2,0,P|261:270|289:258,1,62.5,2|0,1:1|3:0,0:0:0:0:
383,317,42989,6,0,P|313:243|214:294,1,200,2|8,0:0|0:0,0:0:0:0:
135,341,43518,2,0,P|54:340|-9:292,1,160,2|0,0:0|0:0,0:0:0:0:
40,206,44047,2,0,P|51:133|50:66,1,119.999996337891,10|0,0:0|0:0,0:0:0:0:
121,39,44577,2,0,L|206:31,1,80,2|0,0:0|0:0,0:0:0:0:
200,31,45106,1,2,0:0:0:0:
232,267,45459,1,10,0:0:0:0:
379,96,45812,6,0,P|345:74|306:78,1,80,2|8,1:0|0:0,0:0:0:0:
270,153,46341,2,0,P|318:185|377:180,1,119.999996337891,2|0,1:2|0:0,0:0:0:0:
497,195,46871,2,0,P|467:230|425:336,1,160,10|0,0:0|1:0,0:0:0:0:
315,370,47400,2,0,L|211:361,1,100,2|8,1:2|0:0,0:0:0:0:
113,305,47753,1,0,0:0:0:0:
213,244,47930,1,2,1:2:0:0:
96,0,48283,1,10,0:0:0:0:
213,244,48636,6,0,P|226:173|266:47,1,200,2|8,0:1|0:0,0:0:0:0:
154,88,49165,2,0,P|112:116|12:108,1,150.000005722046,2|0,0:0|0:0,0:0:0:0:
5,202,49694,2,0,P|47:241|48:289,1,100,10|0,0:0|0:0,0:0:0:0:
92,356,50224,2,0,P|123:352|137:328,1,50,2|0,0:0|0:0,0:0:0:0:
134,339,50753,2,0,B|130:329|130:329|136:321|136:321|133:312|133:312|138:304|138:304|135:295|135:295|141:287|141:287|138:278|138:278|143:270|143:270|140:261|140:261,1,75,2|0,0:0|0:0,0:0:0:0:
195,204,51459,6,0,P|221:192|246:199,1,50,2|8,1:1|0:0,0:0:0:0:
302,265,51988,2,0,P|327:282|372:289,1,69.9999978637696,2|0,1:2|0:0,0:0:0:0:
454,242,52518,2,0,P|456:205|467:150,1,89.9999972534181,10|0,0:0|1:0,0:0:0:0:
401,67,53047,2,0,L|282:53,1,110.000003356934,2|0,1:2|0:0,0:0:0:0:
214,128,53577,1,2,1:2:0:0:
286,355,53930,1,10,0:0:0:0:
112,299,54283,6,0,P|175:269|243:252,1,139.999995727539,2|8,0:1|0:0,0:0:0:0:
113,177,54812,2,0,P|45:159|-17:129,1,119.999996337891,2|0,0:0|0:0,0:0:0:0:
41,46,55341,2,0,P|90:59|136:79,1,100,10|0,0:0|0:0,0:0:0:0:
202,145,55871,2,0,P|245:134|286:115,1,80,2|0,0:0|0:0,0:0:0:0:
320,47,56400,1,2,0:0:0:0:
512,119,56753,1,10,0:0:0:0:
357,190,57106,6,0,P|345:153|366:119,1,80,2|8,0:1|0:0,0:0:0:0:
438,166,57636,2,0,P|472:209|465:266,1,100,2|0,1:2|0:0,0:0:0:0:
401,313,58165,2,0,P|358:293|272:275,1,119.999996337891,10|0,0:0|1:0,0:0:0:0:
219,202,58694,2,0,L|205:121,1,69.9999978637696,2|8,1:2|0:0,0:0:0:0:
259,48,59047,1,2,0:0:0:0:
341,105,59224,1,2,1:2:0:0:
122,82,59577,1,10,0:0:0:0:
341,105,59930,6,0,P|414:82|487:77,1,139.999995727539,2|8,0:1|0:0,0:0:0:0:
512,187,60459,2,0,P|521:244|491:295,1,119.999996337891,2|0,0:0|0:0,0:0:0:0:
396,265,60988,2,0,P|346:263|309:332,1,119.999996337891,10|0,0:0|0:0,0:0:0:0:
231,351,61518,2,0,P|205:357|175:300,1,100,2|0,0:0|0:0,0:0:0:0:
174,302,62047,1,2,0:0:0:0:
227,81,62400,1,10,0:0:0:0:
448,134,62753,5,2,0:1:0:0:
286,197,63126,1,8,0:0:0:0:
278,180,63302,1,0,1:0:0:0:
285,162,63478,1,0,1:0:0:0:
453,139,63831,1,8,0:0:0:0:
256,62,64184,1,0,1:0:0:0:
237,65,64361,1,0,1:0:0:0:
227,81,64537,1,8,0:0:0:0:
458,144,64890,1,0,1:0:0:0:
322,252,65047,5,0,3:0:0:0:
328,210,65135,1,0,3:0:0:0:
337,169,65224,1,0,3:0:0:0:
348,129,65312,1,0,3:0:0:0:
362,89,65400,1,0,3:0:0:0:
378,50,65488,1,0,3:0:0:0:
396,12,65577,6,0,P|331:42|246:63,1,150,6|0,1:0|0:0,0:0:0:0:
233,50,65910,1,8,0:0:0:0:
0,0,66077,1,2,0:1:0:0:
154,111,66243,1,0,1:2:0:0:
2,151,66410,1,0,1:2:0:0:
154,111,66577,2,0,P|145:171|142:219,1,100,8|2,0:0|0:3,0:0:0:0:
0,357,66910,6,0,P|41:298|111:308,1,150,2|0,1:2|0:0,0:0:0:0:
135,299,67243,2,0,P|169:339|213:336,1,100,8|0,0:0|0:0,0:0:0:0:
355,202,67577,1,2,1:2:0:0:
276,120,67743,1,0,1:2:0:0:
301,286,67910,2,0,P|310:328|320:402,1,100,8|0,0:0|0:0,0:0:0:0:
462,237,68243,5,0,1:2:0:0:
467,200,68326,1,0,3:0:0:0:
460,163,68409,1,0,3:0:0:0:
442,131,68492,1,0,3:0:0:0:
414,106,68576,1,8,3:2:0:0:
380,91,68659,1,0,3:0:0:0:
342,89,68742,1,0,1:2:0:0:
306,99,68826,1,0,3:0:0:0:
275,120,68910,5,0,1:2:0:0:
236,140,68993,1,0,3:0:0:0:
192,140,69076,1,0,3:0:0:0:
152,120,69159,1,0,3:0:0:0:
127,83,69243,2,0,L|135:21,3,50,8|0|0|0,3:2|3:0|3:0|3:0,0:0:0:0:
45,162,69577,6,0,P|32:188|26:215,1,50,2|0,1:2|3:0,0:0:0:0:
100,275,69743,2,0,P|116:299|136:317,1,50,0|0,1:2|3:0,0:0:0:0:
228,290,69910,1,8,3:2:0:0:
262,275,69993,1,0,3:0:0:0:
299,276,70076,1,0,1:2:0:0:
333,291,70159,1,0,3:0:0:0:
359,318,70243,5,2,1:2:0:0:
401,305,70326,1,0,3:0:0:0:
427,269,70409,1,0,1:2:0:0:
426,225,70492,1,0,3:0:0:0:
398,190,70576,1,8,3:2:0:0:
370,155,70660,1,0,3:0:0:0:
369,111,70743,1,0,3:0:0:0:
395,75,70826,1,0,3:0:0:0:
438,63,70910,6,0,P|364:45|256:36,1,150,6|0,1:1|0:0,0:0:0:0:
266,44,71243,2,0,P|228:86|246:145,1,100,8|0,0:0|0:0,0:0:0:0:
299,276,71577,1,0,1:2:0:0:
398,190,71743,1,0,1:2:0:0:
212,225,71910,2,0,P|149:214|113:201,1,100,8|2,0:0|0:1,0:0:0:0:
23,382,72243,5,0,1:2:0:0:
108,307,72410,2,0,P|176:275|314:280,1,200,2|2,0:0|0:0,0:0:0:0:
462,329,72910,1,0,1:2:0:0:
356,373,73076,1,0,1:2:0:0:
403,227,73243,2,0,P|395:158|385:117,1,100,8|2,0:0|0:0,0:0:0:0:
239,21,73576,5,0,1:2:0:0:
260,144,73743,1,0,0:0:0:0:
383,123,73910,1,8,0:0:0:0:
362,0,74076,1,0,1:2:0:0:
255,149,74243,2,0,P|190:170|154:171,1,100,0|0,1:2|0:0,0:0:0:0:
339,227,74576,1,8,0:0:0:0:
153,166,74743,2,0,P|88:145|52:144,1,100,2|0,1:2|1:2,0:0:0:0:
238,307,75076,6,0,L|245:258,1,50,2|0,1:1|0:0,0:0:0:0:
83,243,75243,2,0,L|75:292,1,50,8|0,0:0|0:0,0:0:0:0:
238,307,75410,1,2,0:1:0:0:
117,381,75576,1,0,1:2:0:0:
333,341,75743,1,0,1:0:0:0:
69,297,75910,2,0,P|60:256|57:181,1,100,8|0,3:2|3:0,0:0:0:0:
95,59,76243,6,0,P|59:101|17:101,1,100,2|0,1:1|0:0,0:0:0:0:
12,0,76576,1,8,0:0:0:0:
182,108,76743,2,0,P|243:92|384:91,1,200,2|0,0:1|1:2,0:0:0:0:
461,154,77243,1,10,0:0:0:0:
512,0,77410,1,0,0:0:0:0:
461,154,77576,6,0,L|473:311,1,150,2|0,1:1|0:0,0:0:0:0:
459,324,77910,2,0,P|411:329|386:290,1,100,8|2,0:0|1:1,0:0:0:0:
374,109,78243,1,0,1:2:0:0:
466,149,78410,1,0,1:2:0:0:
285,199,78576,1,8,3:2:0:0:
261,228,78659,1,0,3:0:0:0:
247,262,78742,1,0,3:0:0:0:
245,300,78825,1,0,3:0:0:0:
253,336,78910,6,0,P|284:281|280:240,1,100,2|0,1:1|0:0,0:0:0:0:
223,132,79243,1,8,0:0:0:0:
376,265,79410,2,0,P|325:226|288:211,1,100,2|0,0:1|1:2,0:0:0:0:
133,183,79743,1,0,1:2:0:0:
307,76,79910,6,0,P|375:57|416:53,1,100,10|0,0:1|0:0,0:0:0:0:
502,158,80243,1,0,1:2:0:0:
379,9,80410,2,0,P|430:37|447:80,1,100,2|8,1:1|0:0,0:0:0:0:
461,248,80743,1,0,1:2:0:0:
275,170,80910,6,0,P|222:186|197:228,1,100,2|0,1:1|1:2,0:0:0:0:
251,306,81243,2,0,P|304:290|329:248,1,100,10|0,0:1|0:0,0:0:0:0:
155,314,81576,5,0,3:0:0:0:
155,314,81660,1,0,3:0:0:0:
155,314,81743,1,0,3:0:0:0:
155,314,81826,1,0,3:0:0:0:
155,314,81910,1,0,3:0:0:0:
155,314,81993,1,0,3:0:0:0:
155,314,82076,1,0,3:0:0:0:
155,314,82160,1,0,3:0:0:0:
155,314,82243,1,0,3:0:0:0:
155,314,82326,1,0,3:0:0:0:
155,314,82410,1,0,3:0:0:0:
155,314,82493,1,0,3:0:0:0:
155,314,82576,1,0,3:0:0:0:
155,314,82660,1,0,3:0:0:0:
155,314,82743,1,0,3:0:0:0:
155,314,82826,1,0,3:0:0:0:
155,314,82910,6,0,L|227:307,3,59.9999981689454,0|0|0|0,3:0|3:0|3:0|3:0,0:0:0:0:
273,229,83243,6,0,L|264:142,3,67.5000002574921,0|0|0|0,3:0|3:0|3:0|3:0,0:0:0:0:
187,103,83576,6,0,L|106:111,3,75.0000028610231,0|0|0|0,3:0|3:0|3:0|3:0,0:0:0:0:
53,189,83910,6,0,L|61:271,3,82.5000007867813,0|0|0|0,3:0|3:0|3:0|3:0,0:0:0:0:
155,314,84243,6,0,P|223:317|323:355,1,165.000005035401,6|0,1:0|0:0,0:0:0:0:
330,371,84576,1,8,0:0:0:0:
512,290,84743,1,2,1:0:0:0:
327,246,84910,1,0,1:0:0:0:
435,364,85076,1,0,1:0:0:0:
327,246,85243,2,0,P|317:171|320:131,1,110.000003356934,8|0,0:0|0:0,0:0:0:0:
488,21,85576,6,0,P|449:62|394:72,1,115.000002193451,2|0,1:0|0:0,0:0:0:0:
163,4,85910,2,0,P|222:13|265:54,1,119.999996337891,10|0,0:1|1:0,0:0:0:0:
170,228,86243,2,0,P|192:208|220:196,1,59.9999981689454,2|0,1:1|3:0,0:0:0:0:
327,246,86410,2,0,P|355:255|378:273,1,59.9999981689454,0|0,1:0|3:0,0:0:0:0:
232,354,86576,2,0,L|242:295,3,59.9999981689454,8|0|0|0,3:2|3:0|3:0|3:0,0:0:0:0:
360,214,86910,5,0,3:0:0:0:
360,214,86993,1,0,3:0:0:0:
360,214,87076,1,0,3:0:0:0:
360,214,87160,1,0,3:0:0:0:
360,214,87243,1,0,3:0:0:0:
360,214,87326,1,0,3:0:0:0:
360,214,87410,1,0,3:0:0:0:
360,214,87493,1,0,3:0:0:0:
360,214,87576,1,0,3:0:0:0:
360,214,87660,1,0,3:0:0:0:
360,214,87743,1,0,3:0:0:0:
360,214,87826,1,0,3:0:0:0:
360,214,87910,1,0,3:0:0:0:
360,214,87993,1,0,3:0:0:0:
360,214,88076,1,0,3:0:0:0:
360,214,88160,1,0,3:0:0:0:
360,214,88243,6,0,P|391:213|436:197,3,59.9999981689454,0|0|0|0,3:0|3:0|3:0|3:0,0:0:0:0:
472,124,88576,6,0,P|471:92|455:47,3,67.5000002574921,0|0|0|0,3:0|3:0|3:0|3:0,0:0:0:0:
378,5,88910,6,0,P|340:5|305:16,3,75.0000028610231,0|0|0|0,3:0|3:0|3:0|3:0,0:0:0:0:
251,99,89243,6,0,P|251:140|264:179,3,82.5000007867813,0|0|0|0,3:0|3:0|3:0|3:0,0:0:0:0:
174,38,89576,6,0,P|121:17|47:13,1,110.000003356934,6|0,1:0|0:0,0:0:0:0:
0,101,89910,1,8,0:2:0:0:
166,203,90076,1,2,1:1:0:0:
8,337,90243,1,0,1:0:0:0:
64,184,90410,1,0,0:0:0:0:
224,289,90576,2,0,P|278:277|332:272,1,110.000003356934,8|2,0:2|0:3,0:0:0:0:
366,47,90910,5,0,1:0:0:0:
351,70,90993,1,0,3:0:0:0:
350,97,91076,1,0,1:0:0:0:
361,122,91159,1,0,3:0:0:0:
383,138,91243,1,8,3:2:0:0:
409,144,91326,1,0,3:0:0:0:
436,138,91409,1,0,3:0:0:0:
455,119,91493,1,0,3:0:0:0:
465,94,91576,5,2,1:1:0:0:
420,112,91659,1,0,3:0:0:0:
395,154,91742,1,0,1:0:0:0:
401,203,91825,1,0,3:0:0:0:
435,237,91909,1,8,3:2:0:0:
469,272,91993,1,0,3:0:0:0:
474,321,92076,1,0,3:0:0:0:
449,362,92159,1,0,3:0:0:0:
405,381,92242,5,6,1:1:0:0:
224,289,92410,1,2,0:3:0:0:
256,194,92576,1,8,0:2:0:0:
322,269,92743,1,2,0:0:0:0:
70,291,92910,5,2,1:1:0:0:
251,199,93076,1,2,1:3:0:0:
219,104,93242,1,8,0:2:0:0:
153,180,93410,1,2,0:0:0:0:
405,201,93576,5,2,1:1:0:0:
224,109,93743,1,2,0:3:0:0:
256,14,93909,1,8,0:2:0:0:
323,90,94077,1,2,0:3:0:0:
81,97,94243,5,2,1:1:0:0:
79,87,94326,1,0,3:0:0:0:
78,78,94409,1,2,1:3:0:0:
77,69,94492,1,0,3:0:0:0:
76,59,94576,1,8,3:2:0:0:
75,50,94659,1,0,3:0:0:0:
74,41,94742,1,2,3:2:0:0:
73,31,94826,1,0,3:0:0:0:
72,22,94910,5,2,1:1:0:0:
1,167,95076,1,2,0:3:0:0:
146,237,95243,1,8,0:2:0:0:
217,92,95410,1,2,1:2:0:0:
6,79,95576,5,2,1:1:0:0:
59,232,95743,1,2,0:3:0:0:
159,26,95910,1,8,0:2:0:0:
1,74,96076,1,2,0:2:0:0:
212,179,96243,6,0,P|327:202|464:242,1,250,2|8,1:1|0:2,0:0:0:0:
255,288,96743,2,0,P|225:298|195:296,1,62.5,2|0,0:3|0:0,0:0:0:0:
115,115,96910,2,0,P|133:89|161:75,1,62.5,2|0,1:1|0:0,0:0:0:0:
328,172,97076,2,0,P|329:203|317:231,1,62.5,2|0,1:1|0:0,0:0:0:0:
119,253,97243,2,0,P|101:228|95:198,1,62.5,10|0,0:1|0:0,0:0:0:0:
244,65,97409,2,0,P|274:75|297:96,1,62.5,2|0,1:1|0:0,0:0:0:0:
212,179,97576,5,2,1:1:0:0:
443,107,102930,6,0,B|447:69|447:69|462:47|462:47|468:8,1,100,2|8,1:1|0:0,0:0:0:0:
230,160,103596,1,0,1:2:0:0:
230,160,103763,1,0,1:2:0:0:
319,197,103930,2,0,P|339:234|348:269,1,75.0000028610231,8|2,0:0|0:0,0:0:0:0:
218,336,104263,2,0,P|236:303|247:268,1,75.0000028610231,0|2,1:2|0:0,0:0:0:0:
353,366,104596,1,8,0:0:0:0:
358,371,104930,1,0,1:2:0:0:
213,341,105096,1,0,1:2:0:0:
324,192,105263,2,0,P|321:148|315:110,1,75.0000028610231,8|0,0:0|0:0,0:0:0:0:
69,277,105596,6,0,B|64:314|64:314|49:336|49:336|43:375,1,100,2|8,1:1|0:0,0:0:0:0:
145,212,106096,1,2,1:2:0:0:
17,192,106263,2,0,P|6:126|6:43,1,150.000005722046,0|8,1:2|0:0,0:0:0:0:
10,38,106930,1,0,1:2:0:0:
181,120,107096,2,0,L|261:131,1,75.0000028610231,0|8,1:2|0:0,0:0:0:0:
329,65,107430,1,2,1:2:0:0:
249,6,107596,1,0,1:2:0:0:
83,109,107763,1,0,1:2:0:0:
150,217,107930,2,0,L|230:228,1,75.0000028610231,8|0,0:0|0:0,0:0:0:0:
284,31,108263,6,0,B|288:66|288:66|302:88|302:88|308:125,1,100,2|8,1:1|0:0,0:0:0:0:
150,217,108930,1,0,1:2:0:0:
150,217,109096,1,0,1:2:0:0:
83,137,109263,2,0,P|45:117|7:110,1,75.0000028610231,8|0,0:0|0:0,0:0:0:0:
153,7,109596,2,0,P|164:43|165:81,1,75.0000028610231,2|0,1:1|0:0,0:0:0:0:
66,215,109930,2,0,P|66:177|77:141,1,75.0000028610231,8|2,0:0|0:1,0:0:0:0:
169,86,110263,1,0,1:2:0:0:
243,154,110429,1,0,1:2:0:0:
61,220,110596,2,0,L|-24:230,1,75.0000028610231,8|0,0:0|0:0,0:0:0:0:
182,267,110929,6,0,P|278:292|368:335,1,200,2|8,1:1|0:0,0:0:0:0:
492,193,111429,2,0,P|410:178|344:228,1,170.000003242493,2|0,1:1|0:0,0:0:0:0:
446,371,111929,2,0,P|505:344|490:281,1,139.999995727539,10|0,0:1|1:2,0:0:0:0:
362,212,112429,2,0,P|378:250|344:228,1,110.000003356934,2|0,1:1|0:0,0:0:0:0:
302,154,112929,1,2,1:1:0:0:
512,54,113263,1,10,0:1:0:0:
302,154,113596,6,0,P|223:123|141:109,1,165.000005035401,6|0,1:1|0:0,0:0:0:0:
119,120,113929,1,8,0:0:0:0:
56,277,114096,1,2,0:1:0:0:
163,210,114263,1,0,1:0:0:0:
226,367,114430,1,0,1:0:0:0:
383,304,114596,1,8,0:0:0:0:
320,147,114763,1,2,0:3:0:0:
158,215,114929,6,0,P|146:276|142:337,1,110.000003356934,0|0,1:0|1:0,0:0:0:0:
320,375,115263,1,8,0:0:0:0:
257,283,115429,1,0,1:0:0:0:
406,204,115596,1,0,1:0:0:0:
420,165,115679,1,0,3:0:0:0:
419,124,115762,1,0,1:0:0:0:
403,87,115845,1,0,3:0:0:0:
373,59,115929,2,0,L|316:49,1,55.0000016784668,8|0,3:2|3:0,0:0:0:0:
229,121,116096,2,0,L|171:131,1,55.0000016784668,0|0,3:3|3:0,0:0:0:0:
84,63,116263,6,0,P|137:110|134:206,1,165.000005035401,6|0,1:0|0:0,0:0:0:0:
113,213,116596,1,8,0:0:0:0:
21,358,116763,1,2,1:0:0:0:
21,358,116846,1,0,0:0:0:0:
21,358,116929,2,0,P|58:320|112:313,1,110.000003356934,0|0,1:0|0:0,0:0:0:0:
277,379,117263,1,8,0:0:0:0:
283,374,117596,6,0,P|314:269|285:131,1,250,6|8,1:0|0:2,0:0:0:0:
108,39,118096,1,0,1:1:0:0:
108,39,118179,1,0,3:0:0:0:
108,39,118263,2,0,P|123:69|132:109,1,62.5,2|0,1:0|3:0,0:0:0:0:
193,173,118429,2,0,P|175:199|153:221,1,62.5,2|0,1:1|3:0,0:0:0:0:
19,263,118596,2,0,P|47:278|77:286,1,62.5,2|0,1:0|3:0,0:0:0:0:
154,349,118762,2,0,P|180:331|202:309,1,62.5,2|0,1:1|3:0,0:0:0:0:
296,274,118930,5,2,0:0:0:0:
282,73,130204,6,0,P|312:55|387:44,1,100,2|0,0:0|0:0,0:0:0:0:
395,141,130732,2,0,P|358:166|314:169,1,89.9999972534181,2|0,0:0|0:0,0:0:0:0:
197,210,131261,2,0,P|197:171|227:146,1,80,2|0,0:0|0:0,0:0:0:0:
274,250,131789,2,0,P|265:277|221:289,1,69.9999978637696,2|0,0:0|0:0,0:0:0:0:
228,291,132318,1,2,0:0:0:0:
149,95,132670,1,2,0:0:0:0:
59,274,133022,6,0,P|91:281|118:261,1,69.9999978637696,2|0,0:0|0:0,0:0:0:0:
72,189,133551,2,0,L|24:182,1,34.9999989318848,2|2,0:0|0:0,0:0:0:0:
198,17,134079,1,2,0:0:0:0:
370,143,134608,1,2,0:0:0:0:
224,256,134960,1,0,0:0:0:0:
181,180,135136,1,2,0:0:0:0:
224,256,135489,2,0,L|228:297,1,34.9999989318848,2|0,0:0|0:0,0:0:0:0:
309,351,135841,6,0,P|350:338|406:332,1,89.9999972534181,2|0,0:0|0:0,0:0:0:0:
472,281,136389,2,0,P|483:255|464:200,1,80,2|0,0:0|0:0,0:0:0:0:
447,123,136938,2,0,P|414:131|396:161,1,69.9999978637696,2|0,0:0|0:0,0:0:0:0:
363,233,137487,2,0,P|335:221|323:195,1,59.9999981689454,2|0,0:0|0:0,0:0:0:0:
323,195,138036,1,2,0:0:0:0:
478,42,138401,1,2,0:0:0:0:
473,37,138767,5,2,0:0:0:0:
193,137,140767,5,2,0:0:0:0:
193,137,141017,6,2,B|209:134|222:123|222:123|242:139|242:139|319:122|304:183|376:168,1,200,2|0,0:1|0:1,0:1:0:0:
394,153,141452,5,6,1:0:0:0:
358,367,141618,2,0,P|250:342|257:232,1,239.999992675781,2|0,0:0|1:0,0:0:0:0:
475,211,142117,1,0,1:0:0:0:
384,252,142284,1,0,1:0:0:0:
270,36,142450,1,8,0:0:0:0:
399,148,142617,1,2,0:0:0:0:
188,142,142783,6,0,P|135:178|115:232,1,119.999996337891,2|0,1:0|0:0,0:0:0:0:
206,296,143116,2,0,P|255:264|278:209,1,119.999996337891,8|2,0:0|1:0,0:0:0:0:
23,155,143449,2,0,P|71:213|83:340,1,179.999994506836,0|0,1:0|0:0,0:0:0:0:
4,346,143782,1,8,3:2:0:0:
0,298,143865,1,0,3:0:0:0:
18,255,143948,1,0,3:0:0:0:
56,227,144031,1,0,3:0:0:0:
103,223,144114,6,0,P|195:243|339:258,1,179.999994506836,2|0,1:0|0:0,0:0:0:0:
306,238,144447,1,8,0:0:0:0:
148,133,144614,1,2,1:0:0:0:
267,346,144780,1,0,1:0:0:0:
85,376,144947,1,0,1:0:0:0:
267,346,145113,2,0,P|196:327|135:319,1,119.999996337891,8|0,0:0|0:0,0:0:0:0:
311,233,145446,5,2,1:0:0:0:
435,370,145612,2,0,P|502:326|482:174,1,239.999992675781,0|2,1:0|0:1,0:0:0:0:
263,8,146112,1,0,1:0:0:0:
247,52,146195,1,0,3:0:0:0:
260,97,146278,1,0,3:0:0:0:
297,127,146361,1,0,3:0:0:0:
344,129,146444,1,8,3:2:0:0:
384,103,146528,1,0,3:0:0:0:
431,104,146611,1,0,3:0:0:0:
469,132,146694,1,0,3:0:0:0:
484,176,146777,5,6,1:0:0:0:
311,233,146944,2,0,P|251:215|190:207,1,119.999996337891,2|8,0:0|0:0,0:0:0:0:
348,326,147277,1,0,1:0:0:0:
146,366,147443,2,0,P|111:304|175:226,1,179.999994506836,2|0,1:2|0:0,0:0:0:0:
194,206,147776,2,0,P|206:148|208:88,1,119.999996337891,8|0,0:0|0:0,0:0:0:0:
11,24,148109,6,0,P|42:71|98:60,1,119.999996337891,2|0,1:0|0:0,0:0:0:0:
280,0,148442,1,8,0:0:0:0:
103,65,148608,2,0,P|78:138|73:183,1,119.999996337891,2|0,0:1|1:0,0:0:0:0:
203,304,148941,1,0,1:0:0:0:
346,201,149108,1,10,3:2:0:0:
387,177,149191,1,0,3:0:0:0:
434,176,149274,1,0,3:0:0:0:
476,199,149357,1,0,3:0:0:0:
502,239,149440,6,0,P|440:263|352:350,1,179.999994506836,2|0,1:0|0:0,0:0:0:0:
347,374,149773,1,8,0:0:0:0:
247,213,149940,2,0,P|235:155|212:100,1,119.999996337891,2|0,1:0|1:0,0:0:0:0:
408,10,150273,1,0,1:0:0:0:
346,201,150439,1,10,0:0:0:0:
207,95,150605,1,0,0:0:0:0:
479,63,150772,5,2,1:2:0:0:
505,99,150855,1,0,3:0:0:0:
512,147,150938,1,0,1:0:0:0:
494,191,151021,1,2,3:2:0:0:
455,219,151104,1,8,3:2:0:0:
417,249,151188,1,0,3:0:0:0:
399,292,151271,1,2,3:2:0:0:
405,340,151354,1,0,3:0:0:0:
431,381,151438,5,0,1:0:0:0:
467,351,151521,1,0,3:0:0:0:
485,306,151604,1,0,3:0:0:0:
481,259,151687,1,0,3:0:0:0:
455,219,151770,1,8,3:2:0:0:
413,197,151854,1,0,3:0:0:0:
366,196,151937,1,2,3:2:0:0:
324,218,152020,1,0,3:0:0:0:
296,257,152103,6,0,P|220:273|151:189,1,179.999994506836,6|0,1:0|0:0,0:0:0:0:
156,168,152436,2,0,P|203:140|239:182,1,119.999996337891,8|2,0:0|0:1,0:0:0:0:
100,330,152769,1,0,1:0:0:0:
2,271,152936,1,0,1:0:0:0:
151,162,153102,2,0,P|155:89|163:37,1,119.999996337891,8|0,0:0|1:0,0:0:0:0:
330,2,153435,6,0,P|314:57|258:69,1,119.999996337891,2|0,1:0|0:0,0:0:0:0:
66,9,153768,1,8,0:0:0:0:
253,73,153934,2,0,P|261:133|263:192,1,119.999996337891,2|0,1:1|1:0,0:0:0:0:
206,378,154267,1,0,1:0:0:0:
466,353,154433,1,8,3:2:0:0:
437,308,154516,1,0,0:0:0:0:
391,281,154599,1,0,1:0:0:0:
337,279,154682,1,0,0:0:0:0:
290,301,154765,5,2,3:1:0:0:
190,84,157429,6,0,L|182:10,3,50,6|0|0|0,3:1|3:0|3:0|3:0,0:0:0:0:
321,299,158102,1,2,0:3:0:0:
451,85,158607,1,4,0:3:0:0:
451,85,158776,1,4,0:3:0:0:
321,299,159448,1,2,0:3:0:0:
