osu file format v14

[General]
AudioFilename: audio.mp3
AudioLeadIn: 0
PreviewTime: 156
Countdown: 0
SampleSet: Soft
StackLeniency: 0.6
Mode: 0
LetterboxInBreaks: 0
WidescreenStoryboard: 1

[Editor]
Bookmarks: 10322,82576,143282
DistanceSpacing: 1
BeatDivisor: 4
GridSize: 16
TimelineZoom: 1.1

[Metadata]
Title:Diane Young
TitleUnicode:Diane Young
Artist:Vampire Weekend
ArtistUnicode:Vampire Weekend
Creator:Fsjallink
Version:Normal
Source:
Tags:renumi zglock english indie pop rock modern vampires of the city rostam batmanglij ezra koenig chris baio chris tomson ariel rechtshaid
BeatmapID:3710297
BeatmapSetID:1780856

[Difficulty]
HPDrainRate:4
CircleSize:3
OverallDifficulty:4
ApproachRate:5.5
SliderMultiplier:1
SliderTickRate:1

[Events]
//Background and Video events
0,0,"78a95ckkuyt61 (2).jpg",0,0
//Break Periods
2,16522,19864
2,97776,101805
2,119129,137642
2,154966,156304
//Storyboard Layer 0 (Background)
//Storyboard Layer 1 (Fail)
//Storyboard Layer 2 (Pass)
//Storyboard Layer 3 (Foreground)
//Storyboard Layer 4 (Overlay)
//Storyboard Sound Samples

[TimingPoints]
156,333.333333333333,4,2,0,50,1,0
323,333.333333333333,4,2,0,50,1,0
323,-111.111111111111,4,2,0,50,0,0
16656,-100,4,2,0,40,0,0
20989,-100,4,2,0,60,0,0
21656,-100,4,2,0,60,0,0
32322,-100,4,2,0,60,0,0
42989,352.941176470588,4,2,0,40,1,0
42989,-111.111111111111,4,2,0,40,0,0
63126,352.941176470588,4,2,0,40,1,0
65047,352.941176470588,4,2,0,60,1,0
65047,-100,4,2,0,60,0,0
65577,333.333333333333,4,2,0,60,1,0
65577,-100,4,2,0,60,0,0
81576,-100,4,2,0,60,0,0
84243,-100,4,2,0,60,0,0
91576,-100,4,2,0,65,0,0
92243,-100,4,2,0,70,0,1
97576,-100,4,2,0,60,0,0
102930,333.333333333333,4,2,0,50,1,0
102930,-100,4,2,0,50,0,0
113596,-100,4,2,0,60,0,0
118930,352.319436288902,4,2,0,60,1,0
130204,-111.111111111111,4,2,0,40,0,0
135841,365.853658536585,4,2,0,60,1,0
138767,333.333333333333,4,2,0,60,1,0
141452,332.871012482663,4,2,0,70,1,0
141452,-90.9090909090909,4,2,0,70,0,1
154766,-90.9090909090909,4,2,0,60,0,0
157429,336.605890603086,4,2,0,60,1,0
157429,-71.4285714285714,4,2,0,60,0,0

[Colours]
Combo1 : 17,254,176
Combo2 : 173,255,95
Combo3 : 255,88,100
Combo4 : 255,94,55

[HitObjects]
70,124,323,6,0,P|102:115|174:109,1,89.9999972534181,2|8,1:0|0:0,0:0:0:0:
246,127,989,2,0,L|291:122,2,44.999998626709,2|0|8,1:2|1:0|0:0,0:0:0:0:
193,200,1656,2,0,P|194:265|200:298,1,89.9999972534181,2|8,1:2|0:0,0:0:0:0:
276,332,2322,2,0,P|272:364|270:379,2,44.999998626709,0|0|8,1:0|1:0|0:0,0:0:0:0:
339,267,2989,6,0,P|378:258|441:264,1,89.9999972534181,2|8,1:0|0:0,0:0:0:0:
470,273,3489,1,0,1:0:0:0:
470,273,3656,1,2,1:2:0:0:
498,187,3989,1,10,0:0:0:0:
450,110,4322,2,0,P|418:85|360:92,1,89.9999972534181,2|8,1:2|0:0,0:0:0:0:
293,133,4989,1,0,1:0:0:0:
224,74,5322,1,8,0:0:0:0:
137,98,5656,6,0,P|147:144|139:204,1,89.9999972534181,2|8,1:0|0:0,0:0:0:0:
71,240,6322,2,0,P|32:263|21:271,2,44.999998626709,2|0|8,1:2|1:0|0:0,0:0:0:0:
150,282,6989,2,0,P|196:319|239:309,1,89.9999972534181,2|8,1:2|0:0,0:0:0:0:
313,306,7656,2,0,P|342:323|351:330,2,44.999998626709,0|0|8,1:0|1:0|0:0,0:0:0:0:
270,226,8322,6,0,P|281:187|286:117,1,89.9999972534181,2|10,1:0|0:0,0:0:0:0:
289,92,8822,1,2,1:2:0:0:
289,92,8989,1,0,1:0:0:0:
211,45,9322,1,8,0:0:0:0:
125,72,9656,6,0,P|68:106|58:215,2,179.999994506836,0|0|2,1:0|1:0|1:0,0:0:0:0:
190,133,11322,1,8,0:0:0:0:
268,89,11656,2,0,P|313:75|325:71,2,44.999998626709,0|0|8,1:0|1:0|0:0,0:0:0:0:
280,178,12322,2,0,P|281:231|300:278,1,89.9999972534181,2|8,1:0|0:0,0:0:0:0:
382,278,12989,2,0,P|381:331|362:378,1,89.9999972534181,2|8,1:0|0:0,0:0:0:0:
279,377,13656,6,0,P|229:360|179:360,1,89.9999972534181,2|8,1:0|0:0,0:0:0:0:
168,320,14156,2,0,P|130:314|70:329,1,89.9999972534181,2|0,1:1|0:0,0:0:0:0:
48,291,14656,2,0,P|27:246|31:192,1,89.9999972534181,10|2,0:1|1:0,0:0:0:0:
67,186,15156,2,0,P|66:149|81:96,1,89.9999972534181,2|0,1:0|0:0,0:0:0:0:
121,81,15656,5,2,3:1:0:0:
199,125,15989,1,2,3:1:0:0:
265,64,16322,1,2,1:0:0:0:
147,117,20989,6,0,P|187:111|214:108,1,50,0|0,3:0|3:0,0:0:0:0:
243,128,21322,2,0,P|267:131|292:135,1,50,0|0,3:0|3:0,0:0:0:0:
341,108,21656,6,0,P|395:105|451:178,1,150,6|2,1:1|0:0,0:0:0:0:
431,220,22322,1,0,1:2:0:0:
342,266,22656,2,0,P|341:321|342:336,1,50,8|2,0:0|0:3,0:0:0:0:
309,354,22989,2,0,P|275:336|196:333,1,100,2|8,1:2|0:0,0:0:0:0:
164,336,23489,1,2,1:2:0:0:
83,276,23822,1,2,1:2:0:0:
150,201,24156,6,0,P|160:167|166:98,1,100,2|0,0:1|3:0,0:0:0:0:
163,52,24656,1,8,3:2:0:0:
163,52,24822,2,0,P|205:62|318:52,1,150,2|8,1:2|3:2,0:0:0:0:
358,38,25489,1,2,3:2:0:0:
455,60,25822,1,2,1:2:0:0:
424,155,26156,2,0,P|422:188|428:270,1,100,2|0,3:2|1:2,0:0:0:0:
407,301,26656,1,10,3:2:0:0:
313,337,26989,6,0,P|277:348|254:354,2,50,6|2|8,1:1|0:0|0:0,0:0:0:0:
328,237,27656,2,0,P|314:204|236:184,1,100,2|8,1:2|0:0,0:0:0:0:
207,178,28156,1,2,0:3:0:0:
207,178,28322,2,0,P|195:247|199:295,1,100,2|8,1:2|0:0,0:0:0:0:
200,326,28822,1,2,0:0:0:0:
68,253,29322,6,0,P|72:208|68:189,1,50,8|2,0:0|0:0,0:0:0:0:
42,162,29656,2,0,P|36:128|84:70,1,100,2|8,1:2|0:0,0:0:0:0:
116,56,30156,1,2,1:2:0:0:
207,94,30489,2,0,P|233:93|266:92,1,50,0|8,1:0|0:0,0:0:0:0:
307,90,30822,5,2,0:0:0:0:
268,182,31156,1,2,1:2:0:0:
361,217,31489,2,0,P|457:217|478:214,1,100,2|0,0:0|1:0,0:0:0:0:
510,214,31989,1,8,0:0:0:0:
493,105,32322,6,0,P|489:61|425:27,1,100,2|8,1:1|0:0,0:0:0:0:
400,46,32822,2,0,P|366:43|281:36,1,100,2|0,0:1|1:0,0:0:0:0:
250,36,33322,1,10,0:0:0:0:
160,81,33656,1,2,1:1:0:0:
198,178,33989,1,8,0:0:0:0:
198,178,34156,2,0,P|205:207|191:292,1,100,2|0,0:1|1:0,0:0:0:0:
170,318,34656,2,0,P|125:307|64:308,1,100,8|2,3:2|1:0,0:0:0:0:
76,211,35322,5,8,0:0:0:0:
76,211,35489,2,0,P|54:170|47:99,1,100,2|0,1:0|1:0,0:0:0:0:
51,67,35989,1,10,0:1:0:0:
143,104,36322,1,0,1:0:0:0:
143,104,36489,2,0,P|196:86|245:85,1,100,2|0,1:0|1:0,0:0:0:0:
288,93,36989,2,0,P|286:136|281:216,2,100,2|10|6,1:0|0:1|1:1,0:0:0:0:
375,43,37989,5,8,0:0:0:0:
463,110,38322,1,0,1:0:0:0:
463,110,38489,1,0,1:0:0:0:
463,110,38656,2,0,P|464:170|430:213,1,100,8|0,0:0|1:0,0:0:0:0:
448,302,39322,2,0,P|415:310|344:343,1,100,8|0,0:0|1:0,0:0:0:0:
308,355,39822,1,0,1:0:0:0:
308,355,39989,1,8,3:2:0:0:
292,256,40322,6,0,P|256:242|191:252,1,100,6|8,1:0|0:0,0:0:0:0:
149,266,40822,1,2,1:0:0:0:
223,135,41322,1,8,0:0:0:0:
152,63,41656,2,0,P|115:61|41:90,1,100,6|8,1:0|0:2,0:0:0:0:
13,107,42156,1,0,1:1:0:0:
13,107,42322,2,0,P|15:161|17:176,1,50,2|2,1:0|1:1,0:0:0:0:
60,178,42656,2,0,P|58:232|56:247,2,50,2|2|2,1:0|1:1|0:0,0:0:0:0:
149,154,43341,5,8,0:0:0:0:
149,154,43518,2,0,P|198:148|257:150,1,89.9999972534181,2|0,0:0|0:0,0:0:0:0:
272,177,44047,2,0,P|324:173|373:173,1,89.9999972534181,10|0,0:0|0:0,0:0:0:0:
398,198,44577,2,0,P|438:201|471:296,1,134.999995880127,2|2,0:0|0:0,0:0:0:0:
418,345,45459,1,10,0:0:0:0:
352,283,45812,6,0,P|308:284|262:291,1,89.9999972534181,2|8,1:0|0:0,0:0:0:0:
231,258,46341,2,0,P|182:263|128:274,1,89.9999972534181,2|0,1:2|0:0,0:0:0:0:
110,238,46871,2,0,P|61:243|7:254,1,89.9999972534181,10|0,0:0|1:0,0:0:0:0:
3,208,47400,2,0,P|6:167|94:118,1,134.999995880127,2|2,1:2|1:2,0:0:0:0:
154,164,48283,1,10,0:0:0:0:
240,139,48636,6,0,P|251:103|261:50,1,89.9999972534181,2|8,0:1|0:0,0:0:0:0:
267,6,49165,1,2,0:0:0:0:
359,27,49518,1,0,0:0:0:0:
359,27,49694,2,0,P|347:72|341:131,1,89.9999972534181,10|0,0:0|0:0,0:0:0:0:
353,158,50224,2,0,P|401:155|468:225,1,134.999995880127,2|2,0:0|0:0,0:0:0:0:
423,289,51106,1,2,0:0:0:0:
344,332,51459,6,0,P|309:322|253:320,1,89.9999972534181,2|8,1:1|0:0,0:0:0:0:
229,356,51988,2,0,P|167:349|133:351,1,89.9999972534181,2|0,1:2|0:0,0:0:0:0:
106,319,52518,1,10,0:0:0:0:
151,241,52871,1,0,1:0:0:0:
151,241,53047,2,0,P|166:197|151:108,1,134.999995880127,2|2,1:2|1:2,0:0:0:0:
89,46,53930,1,10,0:0:0:0:
19,102,54283,6,0,P|17:132|17:200,1,89.9999972534181,2|8,0:1|0:0,0:0:0:0:
53,218,54812,2,0,P|51:264|50:317,1,89.9999972534181,2|0,0:0|0:0,0:0:0:0:
76,344,55341,1,10,0:0:0:0:
202,295,55871,2,0,P|255:278|345:310,1,134.999995880127,2|2,0:0|0:0,0:0:0:0:
411,336,56753,1,10,0:0:0:0:
486,286,57106,6,0,P|493:234|494:190,1,89.9999972534181,2|8,0:1|0:0,0:0:0:0:
475,155,57636,1,2,1:2:0:0:
362,80,58165,1,10,0:0:0:0:
256,164,58694,1,2,1:2:0:0:
194,106,59047,1,0,0:0:0:0:
194,106,59224,1,2,1:2:0:0:
114,147,59577,1,10,0:0:0:0:
144,231,59930,6,0,P|145:281|153:335,1,89.9999972534181,2|8,0:1|0:0,0:0:0:0:
183,350,60459,2,0,P|230:327|282:326,1,89.9999972534181,2|0,0:0|0:0,0:0:0:0:
291,285,60988,2,0,P|332:279|389:295,1,89.9999972534181,10|0,0:0|0:0,0:0:0:0:
410,257,61518,2,0,P|446:246|468:147,1,134.999995880127,2|2,0:0|0:0,0:0:0:0:
417,91,62400,1,10,0:0:0:0:
338,134,62753,1,2,0:1:0:0:
307,123,65047,6,0,L|243:115,2,50,8|8|8,3:2|3:2|3:2,0:0:0:0:
365,117,65577,2,0,P|416:106|463:149,1,100,6|8,1:0|0:0,0:0:0:0:
488,235,66243,1,0,1:2:0:0:
488,235,66410,1,0,1:2:0:0:
488,235,66577,2,0,P|481:280|475:341,1,100,8|2,0:0|1:2,0:0:0:0:
379,361,67243,1,8,0:0:0:0:
336,270,67577,2,0,P|310:261|227:290,1,100,2|8,1:2|0:0,0:0:0:0:
160,336,68243,6,0,P|131:322|53:316,1,100,0|8,1:2|3:2,0:0:0:0:
14,310,68743,1,0,1:2:0:0:
14,310,68910,2,0,P|39:258|41:199,1,100,0|8,1:2|3:2,0:0:0:0:
75,121,69577,1,2,1:2:0:0:
154,181,69910,1,8,3:2:0:0:
229,116,70243,1,2,1:2:0:0:
305,181,70577,1,8,3:2:0:0:
384,120,70910,6,0,P|418:116|502:246,1,200,6|0,1:1|1:2,0:0:0:0:
450,315,71910,1,8,0:0:0:0:
450,315,72077,1,2,0:1:0:0:
450,315,72243,2,0,P|416:308|378:304,1,50,0|2,1:2|0:0,0:0:0:0:
311,352,72743,2,0,P|279:336|266:227,1,150,2|8,0:0|0:0,0:0:0:0:
281,186,73410,1,2,0:0:0:0:
281,186,73576,6,0,P|230:190|170:191,1,100,0|8,1:2|0:0,0:0:0:0:
84,218,74243,2,0,P|55:175|52:109,1,100,0|8,1:2|0:0,0:0:0:0:
54,78,74743,1,2,1:2:0:0:
150,50,75076,2,0,L|212:57,1,50,2|8,1:1|0:0,0:0:0:0:
241,83,75410,2,0,L|290:77,1,50,2|0,0:1|1:2,0:0:0:0:
368,14,75910,1,8,3:2:0:0:
452,67,76243,6,0,P|470:109|469:167,1,100,2|8,1:1|0:0,0:0:0:0:
422,177,76743,2,0,P|416:227|436:289,1,100,2|0,0:1|1:2,0:0:0:0:
458,314,77243,1,10,0:0:0:0:
375,370,77576,1,2,1:1:0:0:
299,304,77910,1,8,0:0:0:0:
299,304,78076,2,0,P|256:296|196:314,1,100,2|0,1:1|1:2,0:0:0:0:
154,325,78576,2,0,P|158:277|158:218,1,100,8|2,3:2|1:1,0:0:0:0:
76,167,79243,5,8,0:0:0:0:
76,167,79410,2,0,P|31:175|11:241,1,100,2|0,0:1|1:2,0:0:0:0:
13,269,79910,1,10,0:1:0:0:
101,314,80243,1,0,1:2:0:0:
101,314,80410,2,0,P|136:303|204:303,1,100,2|0,1:1|1:2,0:0:0:0:
248,307,80910,2,0,P|249:256|252:188,2,100,2|10|0,1:1|0:1|3:0,0:0:0:0:
256,192,81743,12,6,84243,1:0:0:0:
391,222,84910,6,0,L|395:167,1,50,0|0,1:0|1:0,0:0:0:0:
447,144,85243,2,0,P|452:103|400:49,1,100,8|2,0:0|1:0,0:0:0:0:
323,85,85910,1,10,0:1:0:0:
247,19,86243,2,0,L|187:22,1,50,2|0,1:1|1:0,0:0:0:0:
175,66,86576,2,0,L|125:68,1,50,8|0,3:2|3:0,0:0:0:0:
78,87,86910,1,0,3:0:0:0:
256,192,87076,12,6,89576,1:0:0:0:
98,91,90243,6,0,L|101:147,1,50,0|0,1:0|0:0,0:0:0:0:
135,176,90576,2,0,P|191:172|244:208,1,100,8|0,0:2|1:0,0:0:0:0:
261,286,91243,1,8,3:2:0:0:
261,286,91410,1,0,3:0:0:0:
261,286,91576,2,0,P|333:278|381:273,1,100,2|8,1:1|3:2,0:0:0:0:
460,273,92243,6,0,P|465:319|468:336,2,50,6|2|8,1:1|0:3|0:2,0:0:0:0:
417,182,92910,1,2,1:1:0:0:
414,157,93076,1,2,1:3:0:0:
417,132,93243,1,8,0:2:0:0:
322,99,93576,2,0,P|319:58|319:34,2,50,2|0|8,1:1|0:0|0:0,0:0:0:0:
251,170,94243,1,2,1:1:0:0:
158,133,94576,2,0,P|107:127|52:167,1,100,8|2,0:2|1:1,0:0:0:0:
55,246,95243,5,8,0:2:0:0:
62,269,95410,1,2,1:2:0:0:
61,293,95576,1,2,1:1:0:0:
155,327,95910,2,0,P|154:368|156:389,2,50,8|2|2,0:2|0:2|1:1,0:0:0:0:
249,285,96576,1,8,0:2:0:0:
249,285,96743,1,2,0:3:0:0:
249,285,96910,2,0,L|310:295,1,50,2|2,1:1|1:1,0:0:0:0:
329,331,97243,2,0,L|390:341,2,50,10|2|2,0:1|1:1|1:1,0:0:0:0:
331,349,102930,6,0,P|327:294|336:234,1,100,2|8,1:1|0:0,0:0:0:0:
380,234,103430,2,0,P|383:190|398:124,1,100,2|0,0:0|1:2,0:0:0:0:
435,106,103930,1,8,0:0:0:0:
355,45,104263,2,0,P|269:25|246:36,1,100,0|8,1:2|0:0,0:0:0:0:
213,38,104763,1,2,0:0:0:0:
213,38,104930,2,0,P|216:86|212:147,1,100,0|8,1:2|0:0,0:0:0:0:
137,202,105596,6,0,P|90:192|20:185,1,100,2|8,1:1|0:0,0:0:0:0:
10,144,106096,2,0,P|9:90|48:40,1,100,2|0,1:2|0:0,0:0:0:0:
126,85,106763,1,2,0:0:0:0:
205,24,107096,2,0,L|265:32,1,50,0|8,1:2|0:0,0:0:0:0:
297,56,107430,2,0,P|345:47|447:85,1,150,2|8,1:2|0:0,0:0:0:0:
415,175,108263,6,0,P|411:217|409:281,1,100,2|8,1:1|0:0,0:0:0:0:
387,320,108763,2,0,P|359:302|281:293,1,100,2|0,0:1|1:2,0:0:0:0:
244,300,109263,1,8,0:0:0:0:
153,343,109596,1,2,1:1:0:0:
65,293,109930,1,8,0:0:0:0:
65,293,110096,2,0,P|68:252|67:181,1,100,2|0,0:1|1:2,0:0:0:0:
52,145,110596,1,8,0:0:0:0:
128,81,110929,6,0,P|196:64|239:87,1,100,2|8,1:1|0:0,0:0:0:0:
264,100,111429,1,2,1:1:0:0:
209,184,111763,1,0,0:0:0:0:
209,184,111929,2,0,P|208:219|216:283,1,100,10|0,0:1|1:2,0:0:0:0:
257,310,112429,2,0,P|287:293|405:300,1,150,2|2,1:1|1:1,0:0:0:0:
479,236,113263,1,10,0:1:0:0:
411,162,113596,6,0,P|418:116|414:46,1,100,6|8,1:1|0:0,0:0:0:0:
320,91,114263,1,0,1:0:0:0:
320,91,114429,1,0,1:0:0:0:
320,91,114596,2,0,P|280:76|211:64,1,100,8|0,0:0|1:0,0:0:0:0:
130,100,115263,2,0,P|116:143|117:210,1,100,8|0,0:0|1:0,0:0:0:0:
121,247,115763,1,0,1:0:0:0:
121,247,115929,1,8,3:2:0:0:
217,220,116263,6,0,P|250:213|322:216,1,100,6|8,1:0|0:0,0:0:0:0:
365,221,116763,1,2,1:0:0:0:
311,361,117263,1,8,0:0:0:0:
221,317,117596,2,0,P|186:308|105:317,1,100,6|8,1:0|0:2,0:0:0:0:
73,319,118096,1,0,1:1:0:0:
73,319,118263,2,0,L|76:260,1,50,2|2,1:0|1:1,0:0:0:0:
39,233,118596,2,0,L|36:174,2,50,2|2|2,1:0|1:1|0:0,0:0:0:0:
256,192,138767,12,2,140767,0:0:0:0:
135,182,141452,5,6,1:0:0:0:
135,182,141618,2,0,P|178:168|259:169,1,110.000003356934,2|0,0:0|1:0,0:0:0:0:
297,170,142117,1,0,1:0:0:0:
391,226,142450,1,8,0:0:0:0:
380,335,142783,2,0,P|292:338|254:329,1,110.000003356934,2|8,1:0|0:0,0:0:0:0:
218,318,143282,2,0,P|185:312|152:320,1,55.0000016784668,2|0,1:0|1:0,0:0:0:0:
65,268,143782,5,8,3:2:0:0:
84,216,143948,1,0,3:0:0:0:
65,164,144114,2,0,P|57:128|66:57,1,110.000003356934,2|8,1:0|0:0,0:0:0:0:
119,39,144614,2,0,P|166:57|249:54,1,110.000003356934,2|0,1:0|1:0,0:0:0:0:
280,56,145113,1,8,0:0:0:0:
387,23,145446,5,2,1:0:0:0:
387,23,145612,2,0,P|406:74|410:87,1,55.0000016784668,0|8,1:0|0:0,0:0:0:0:
420,127,145945,2,0,P|385:134|325:240,1,165.000005035401,2|8,0:1|3:2,0:0:0:0:
334,347,146777,1,6,1:0:0:0:
283,324,146944,2,0,P|233:308|162:309,1,110.000003356934,2|0,0:0|1:0,0:0:0:0:
127,332,147443,2,0,P|94:333|37:268,2,110.000003356934,2|8|2,1:2|0:0|1:0,0:0:0:0:
188,240,148442,1,8,0:0:0:0:
158,194,148608,2,0,P|150:158|146:81,1,110.000003356934,2|0,0:1|1:0,0:0:0:0:
108,43,149108,2,0,P|66:48|25:118,1,110.000003356934,10|2,3:2|1:0,0:0:0:0:
31,208,149773,5,8,0:0:0:0:
31,208,149940,2,0,P|30:243|56:331,1,110.000003356934,2|0,1:0|1:0,0:0:0:0:
102,322,150439,2,0,P|166:316|225:314,1,110.000003356934,10|2,0:0|1:2,0:0:0:0:
310,265,151105,1,8,3:2:0:0:
403,323,151438,1,0,1:0:0:0:
486,251,151771,2,0,P|490:202|491:179,1,55.0000016784668,8|2,3:2|3:2,0:0:0:0:
445,165,152103,6,0,P|458:139|416:58,1,110.000003356934,6|8,1:0|0:0,0:0:0:0:
377,71,152603,2,0,P|341:47|261:49,1,110.000003356934,2|0,0:1|1:0,0:0:0:0:
223,59,153102,1,8,0:0:0:0:
274,156,153435,2,0,P|281:230|256:280,1,110.000003356934,2|8,1:0|0:0,0:0:0:0:
219,287,153934,2,0,P|180:278|104:267,1,110.000003356934,2|0,1:1|1:0,0:0:0:0:
55,267,154433,1,8,3:2:0:0:
47,212,154600,1,0,1:0:0:0:
41,157,154766,1,2,3:1:0:0:
256,288,157429,5,6,3:1:0:0:
256,96,158102,1,2,0:3:0:0:
256,288,158607,1,4,0:3:0:0:
256,288,158775,1,4,0:3:0:0:
256,192,159448,5,2,0:3:0:0:
